  0
SECTION
  2
HEADER
  9
$ACADVER
  1
AC1014
  9
$ACADMAINTVER
 70
     9
  9
$DWGCODEPAGE
  3
ANSI_1252
  9
$INSBASE
 10
12.23650713109161
 20
1.785932950722739
 30
0.0
  9
$EXTMIN
 10
4.385413594256688
 20
-4.145179841984856
 30
0.0
  9
$EXTMAX
 10
23.96260066792653
 20
3.910932950722739
 30
0.0
  9
$LIMMIN
 10
0.0
 20
0.0
  9
$LIMMAX
 10
36.0
 20
36.0
  9
$ORTHOMODE
 70
     1
  9
$REGENMODE
 70
     1
  9
$FILLMODE
 70
     1
  9
$QTEXTMODE
 70
     0
  9
$MIRRTEXT
 70
     1
  9
$DRAGMODE
 70
     0
  9
$LTSCALE
 40
1.0
  9
$OSMODE
 70
    37
  9
$ATTMODE
 70
     1
  9
$TEXTSIZE
 40
0.2
  9
$TRACEWID
 40
0.05
  9
$TEXTSTYLE
  7
STANDARD
  9
$CLAYER
  8
ADP1DETAIL
  9
$CELTYPE
  6
BYLAYER
  9
$CECOLOR
 62
   256
  9
$CELTSCALE
 40
1.0
  9
$DELOBJ
 70
     1
  9
$DISPSILH
 70
     0
  9
$DIMSCALE
 40
1.0
  9
$DIMASZ
 40
0.125
  9
$DIMEXO
 40
0.0625
  9
$DIMDLI
 40
0.38
  9
$DIMRND
 40
0.0
  9
$DIMDLE
 40
0.0
  9
$DIMEXE
 40
0.18
  9
$DIMTP
 40
0.0
  9
$DIMTM
 40
0.0
  9
$DIMTXT
 40
0.125
  9
$DIMCEN
 40
0.1875
  9
$DIMTSZ
 40
0.125
  9
$DIMTOL
 70
     0
  9
$DIMLIM
 70
     0
  9
$DIMTIH
 70
     0
  9
$DIMTOH
 70
     0
  9
$DIMSE1
 70
     0
  9
$DIMSE2
 70
     0
  9
$DIMTAD
 70
     0
  9
$DIMZIN
 70
     3
  9
$DIMBLK
  1

  9
$DIMASO
 70
     1
  9
$DIMSHO
 70
     1
  9
$DIMPOST
  1

  9
$DIMAPOST
  1

  9
$DIMALT
 70
     0
  9
$DIMALTD
 70
     1
  9
$DIMALTF
 40
25.4
  9
$DIMLFAC
 40
1.0
  9
$DIMTOFL
 70
     0
  9
$DIMTVP
 40
0.0
  9
$DIMTIX
 70
     0
  9
$DIMSOXD
 70
     0
  9
$DIMSAH
 70
     0
  9
$DIMBLK1
  1

  9
$DIMBLK2
  1

  9
$DIMSTYLE
  2
STANDARD
  9
$DIMCLRD
 70
     0
  9
$DIMCLRE
 70
     0
  9
$DIMCLRT
 70
     0
  9
$DIMTFAC
 40
1.0
  9
$DIMGAP
 40
0.125
  9
$DIMJUST
 70
     0
  9
$DIMSD1
 70
     0
  9
$DIMSD2
 70
     0
  9
$DIMTOLJ
 70
     1
  9
$DIMTZIN
 70
     0
  9
$DIMALTZ
 70
     0
  9
$DIMALTTZ
 70
     0
  9
$DIMFIT
 70
     3
  9
$DIMUPT
 70
     0
  9
$DIMUNIT
 70
     2
  9
$DIMDEC
 70
     4
  9
$DIMTDEC
 70
     4
  9
$DIMALTU
 70
     2
  9
$DIMALTTD
 70
     2
  9
$DIMTXSTY
  7
STANDARD
  9
$DIMAUNIT
 70
     0
  9
$LUNITS
 70
     5
  9
$LUPREC
 70
     4
  9
$SKETCHINC
 40
0.1
  9
$FILLETRAD
 40
0.0
  9
$AUNITS
 70
     0
  9
$AUPREC
 70
     0
  9
$MENU
  1
acad
  9
$ELEVATION
 40
0.0
  9
$PELEVATION
 40
0.0
  9
$THICKNESS
 40
0.0
  9
$LIMCHECK
 70
     0
  9
$BLIPMODE
 70
     0
  9
$CHAMFERA
 40
0.0
  9
$CHAMFERB
 40
0.0
  9
$CHAMFERC
 40
0.0
  9
$CHAMFERD
 40
0.0
  9
$SKPOLY
 70
     0
  9
$TDCREATE
 40
2450333.697381551
  9
$TDUPDATE
 40
2452297.091601377
  9
$TDINDWG
 40
0.0242332523
  9
$TDUSRTIMER
 40
0.0242332523
  9
$USRTIMER
 70
     1
  9
$ANGBASE
 50
0.0
  9
$ANGDIR
 70
     0
  9
$PDMODE
 70
     0
  9
$PDSIZE
 40
0.0
  9
$PLINEWID
 40
0.0
  9
$COORDS
 70
     2
  9
$SPLFRAME
 70
     0
  9
$SPLINETYPE
 70
     6
  9
$SPLINESEGS
 70
     8
  9
$ATTDIA
 70
     0
  9
$ATTREQ
 70
     1
  9
$HANDLING
 70
 22529
  9
$HANDSEED
  5
229
  9
$SURFTAB1
 70
     6
  9
$SURFTAB2
 70
     6
  9
$SURFTYPE
 70
     6
  9
$SURFU
 70
     6
  9
$SURFV
 70
     6
  9
$UCSNAME
  2

  9
$UCSORG
 10
0.0
 20
0.0
 30
0.0
  9
$UCSXDIR
 10
1.0
 20
0.0
 30
0.0
  9
$UCSYDIR
 10
0.0
 20
1.0
 30
0.0
  9
$PUCSNAME
  2

  9
$PUCSORG
 10
0.0
 20
0.0
 30
0.0
  9
$PUCSXDIR
 10
1.0
 20
0.0
 30
0.0
  9
$PUCSYDIR
 10
0.0
 20
1.0
 30
0.0
  9
$USERI1
 70
     0
  9
$USERI2
 70
     0
  9
$USERI3
 70
     0
  9
$USERI4
 70
     0
  9
$USERI5
 70
     0
  9
$USERR1
 40
0.0
  9
$USERR2
 40
0.0
  9
$USERR3
 40
0.0
  9
$USERR4
 40
0.0
  9
$USERR5
 40
0.0
  9
$WORLDVIEW
 70
     1
  9
$SHADEDGE
 70
     3
  9
$SHADEDIF
 70
    70
  9
$TILEMODE
 70
     1
  9
$MAXACTVP
 70
    15
  9
$PINSBASE
 10
0.0
 20
0.0
 30
0.0
  9
$PLIMCHECK
 70
     0
  9
$PEXTMIN
 10
1.000000000000000E+20
 20
1.000000000000000E+20
 30
1.000000000000000E+20
  9
$PEXTMAX
 10
-1.000000000000000E+20
 20
-1.000000000000000E+20
 30
-1.000000000000000E+20
  9
$PLIMMIN
 10
0.0
 20
0.0
  9
$PLIMMAX
 10
12.0
 20
9.0
  9
$UNITMODE
 70
     0
  9
$VISRETAIN
 70
     0
  9
$PLINEGEN
 70
     0
  9
$PSLTSCALE
 70
     1
  9
$TREEDEPTH
 70
  3020
  9
$PICKSTYLE
 70
     1
  9
$CMLSTYLE
  2
STANDARD
  9
$CMLJUST
 70
     0
  9
$CMLSCALE
 40
1.0
  9
$PROXYGRAPHICS
 70
     1
  9
$MEASUREMENT
 70
     0
  0
ENDSEC
  0
SECTION
  2
CLASSES
  0
CLASS
  1
ACDBDICTIONARYWDFLT
  2
AcDbDictionaryWithDefault
  3
AutoCAD 2000
 90
        0
280
     0
281
     0
  0
CLASS
  1
ACDBPLACEHOLDER
  2
AcDbPlaceHolder
  3
AutoCAD 2000
 90
        0
280
     0
281
     0
  0
CLASS
  1
LAYOUT
  2
AcDbLayout
  3
AutoCAD 2000
 90
        0
280
     0
281
     0
  0
CLASS
  1
DICTIONARYVAR
  2
AcDbDictionaryVar
  3
AutoCAD 2000
 90
        0
280
     0
281
     0
  0
CLASS
  1
LONG_TRANSACTION
  2
AcDbLongTransaction
  3
AutoCAD 2000
 90
        0
280
     0
281
     0
  0
CLASS
  1
LWPOLYLINE
  2
AcDbPolyline
  3
AutoCAD 2000
 90
        0
280
     0
281
     1
  0
CLASS
  1
HATCH
  2
AcDbHatch
  3
AutoCAD 2000
 90
        0
280
     0
281
     1
  0
CLASS
  1
XRECORD
  2
AcDbXrecord
  3
AutoCAD 2000
 90
        0
280
     0
281
     0
  0
CLASS
  1
LONG_TRANSACTION
  2
AcDbLongTransaction
  3
AutoCAD 2000
 90
        0
280
     0
281
     0
  0
CLASS
  1
LWPOLYLINE
  2
AcDbPolyline
  3
AutoCAD 2000
 90
        0
280
     0
281
     1
  0
CLASS
  1
HATCH
  2
AcDbHatch
  3
AutoCAD 2000
 90
        0
280
     0
281
     1
  0
CLASS
  1
XRECORD
  2
AcDbXrecord
  3
AutoCAD 2000
 90
        0
280
     0
281
     0
  0
CLASS
  1
LONG_TRANSACTION
  2
AcDbLongTransaction
  3
AutoCAD 2000
 90
        0
280
     0
281
     0
  0
CLASS
  1
LWPOLYLINE
  2
AcDbPolyline
  3
AutoCAD 2000
 90
        0
280
     0
281
     1
  0
CLASS
  1
HATCH
  2
AcDbHatch
  3
AutoCAD 2000
 90
        0
280
     0
281
     1
  0
CLASS
  1
XRECORD
  2
AcDbXrecord
  3
AutoCAD 2000
 90
        0
280
     0
281
     0
  0
CLASS
  1
LONG_TRANSACTION
  2
AcDbLongTransaction
  3
AutoCAD 2000
 90
        0
280
     0
281
     0
  0
CLASS
  1
LWPOLYLINE
  2
AcDbPolyline
  3
AutoCAD 2000
 90
        0
280
     0
281
     1
  0
CLASS
  1
HATCH
  2
AcDbHatch
  3
AutoCAD 2000
 90
        0
280
     0
281
     1
  0
CLASS
  1
XRECORD
  2
AcDbXrecord
  3
AutoCAD 2000
 90
        0
280
     0
281
     0
  0
CLASS
  1
LONG_TRANSACTION
  2
AcDbLongTransaction
  3
AutoCAD 2000
 90
        0
280
     0
281
     0
  0
CLASS
  1
LWPOLYLINE
  2
AcDbPolyline
  3
AutoCAD 2000
 90
        0
280
     0
281
     1
  0
CLASS
  1
HATCH
  2
AcDbHatch
  3
AutoCAD 2000
 90
        0
280
     0
281
     1
  0
CLASS
  1
XRECORD
  2
AcDbXrecord
  3
AutoCAD 2000
 90
        0
280
     0
281
     0
  0
ENDSEC
  0
SECTION
  2
TABLES
  0
TABLE
  2
VPORT
  5
8
330
0
100
AcDbSymbolTable
 70
     2
  0
VPORT
  5
206
330
8
100
AcDbSymbolTableRecord
100
AcDbViewportTableRecord
  2
*ACTIVE
 70
     0
 10
0.0
 20
0.0
 11
1.0
 21
1.0
 12
14.18981200708411
 22
-0.1171315777068242
 13
0.0
 23
0.0
 14
0.5740882589684922
 24
0.5740882589684922
 15
0.5
 25
0.5
 16
0.0
 26
0.0
 36
1.0
 17
0.0
 27
0.0
 37
0.0
 40
12.54575361678661
 41
1.570528967254408
 42
50.0
 43
0.0
 44
0.0
 50
0.0
 51
0.0
 71
     0
 72
   100
 73
     1
 74
     0
 75
     0
 76
     0
 77
     0
 78
     0
  0
ENDTAB
  0
TABLE
  2
LTYPE
  5
5
330
0
100
AcDbSymbolTable
 70
     2
  0
LTYPE
  5
12
330
5
100
AcDbSymbolTableRecord
100
AcDbLinetypeTableRecord
  2
BYBLOCK
 70
     0
  3

 72
    65
 73
     0
 40
0.0
  0
LTYPE
  5
13
330
5
100
AcDbSymbolTableRecord
100
AcDbLinetypeTableRecord
  2
BYLAYER
 70
     0
  3

 72
    65
 73
     0
 40
0.0
  0
LTYPE
  5
14
330
5
100
AcDbSymbolTableRecord
100
AcDbLinetypeTableRecord
  2
CONTINUOUS
 70
     0
  3
Solid line
 72
    65
 73
     0
 40
0.0
  0
LTYPE
  5
5D
330
5
100
AcDbSymbolTableRecord
100
AcDbLinetypeTableRecord
  2
HIDDEN2
 70
     0
  3
_ _ _ _ _ _ _ _ _ _ _ _ _ _ _ _ _ _ _ _ _ _ _ _
 72
    65
 73
     2
 40
0.1875
 49
0.125
 74
     0
 49
-0.0625
 74
     0
  0
ENDTAB
  0
TABLE
  2
LAYER
  5
2
330
0
100
AcDbSymbolTable
 70
     5
  0
LAYER
  5
F
330
2
100
AcDbSymbolTableRecord
100
AcDbLayerTableRecord
  2
0
 70
     0
 62
     7
  6
CONTINUOUS
  0
LAYER
  5
5E
330
2
100
AcDbSymbolTableRecord
100
AcDbLayerTableRecord
  2
ADP2DETAIL
 70
     0
 62
     5
  6
CONTINUOUS
  0
LAYER
  5
5F
330
2
100
AcDbSymbolTableRecord
100
AcDbLayerTableRecord
  2
ADPDIM
 70
     0
 62
     3
  6
CONTINUOUS
  0
LAYER
  5
61
330
2
100
AcDbSymbolTableRecord
100
AcDbLayerTableRecord
  2
ADP1DETAIL
 70
     0
 62
     7
  6
CONTINUOUS
  0
LAYER
  5
63
330
2
100
AcDbSymbolTableRecord
100
AcDbLayerTableRecord
  2
DEFPOINTS
 70
     0
 62
     7
  6
CONTINUOUS
  0
ENDTAB
  0
TABLE
  2
STYLE
  5
3
330
0
100
AcDbSymbolTable
 70
     2
  0
STYLE
  5
10
330
3
100
AcDbSymbolTableRecord
100
AcDbTextStyleTableRecord
  2
STANDARD
 70
     0
 40
0.0
 41
1.0
 50
0.0
 71
     0
 42
0.2
  3
txt
  4

  0
STYLE
  5
C2
330
3
100
AcDbSymbolTableRecord
100
AcDbTextStyleTableRecord
  2
ARIAL_WIDE
 70
     0
 40
0.0
 41
1.25
 50
0.0
 71
     0
 42
0.2
  3
ARIAL.TTF
  4

1001
ACAD
1000
Arial
1071
       34
  0
ENDTAB
  0
TABLE
  2
VIEW
  5
6
330
0
100
AcDbSymbolTable
 70
     0
  0
ENDTAB
  0
TABLE
  2
UCS
  5
7
330
0
100
AcDbSymbolTable
 70
     0
  0
ENDTAB
  0
TABLE
  2
APPID
  5
9
330
0
100
AcDbSymbolTable
 70
     1
  0
APPID
  5
11
330
9
100
AcDbSymbolTableRecord
100
AcDbRegAppTableRecord
  2
ACAD
 70
     0
  0
ENDTAB
  0
TABLE
  2
DIMSTYLE
  5
A
330
0
100
AcDbSymbolTable
 70
     1
  0
DIMSTYLE
105
B6
330
A
100
AcDbSymbolTableRecord
100
AcDbDimStyleTableRecord
  2
STANDARD
 70
     0
  3

  4

  5

  6

  7

 40
1.0
 41
0.18
 42
0.0625
 43
0.38
 44
0.18
 45
0.0
 46
0.0
 47
0.0
 48
0.0
140
0.18
141
0.09
142
0.0
143
25.4
144
1.0
145
0.0
146
1.0
147
0.09
 71
     0
 72
     0
 73
     1
 74
     1
 75
     0
 76
     0
 77
     0
 78
     0
170
     0
171
     2
172
     0
173
     0
174
     0
175
     0
176
     0
177
     0
178
     0
270
     2
271
     4
272
     4
273
     2
274
     2
340
10
275
     0
280
     0
281
     0
282
     0
283
     1
284
     0
285
     0
286
     0
287
     3
288
     0
  0
ENDTAB
  0
TABLE
  2
BLOCK_RECORD
  5
1
330
0
100
AcDbSymbolTable
 70
     2
  0
BLOCK_RECORD
  5
18
102
{ACAD_XDICTIONARY
360
117
102
}
330
1
100
AcDbSymbolTableRecord
100
AcDbBlockTableRecord
  2
*MODEL_SPACE
  0
BLOCK_RECORD
  5
15
102
{ACAD_XDICTIONARY
360
115
102
}
330
1
100
AcDbSymbolTableRecord
100
AcDbBlockTableRecord
  2
*PAPER_SPACE
  0
BLOCK_RECORD
  5
48
330
1
100
AcDbSymbolTableRecord
100
AcDbBlockTableRecord
  2
*D0
  0
BLOCK_RECORD
  5
49
330
1
100
AcDbSymbolTableRecord
100
AcDbBlockTableRecord
  2
*D1
  0
ENDTAB
  0
ENDSEC
  0
SECTION
  2
BLOCKS
  0
BLOCK
  5
66
330
18
100
AcDbEntity
  8
0
100
AcDbBlockBegin
  2
*MODEL_SPACE
 70
     0
 10
0.0
 20
0.0
 30
0.0
  3
*MODEL_SPACE
  1

  0
ENDBLK
  5
67
330
18
100
AcDbEntity
  8
0
100
AcDbBlockEnd
  0
BLOCK
  5
64
330
15
100
AcDbEntity
 67
     1
  8
0
100
AcDbBlockBegin
  2
*PAPER_SPACE
 70
     0
 10
0.0
 20
0.0
 30
0.0
  3
*PAPER_SPACE
  1

  0
ENDBLK
  5
65
330
15
100
AcDbEntity
 67
     1
  8
0
100
AcDbBlockEnd
  0
BLOCK
  5
69
330
48
100
AcDbEntity
  8
0
100
AcDbBlockBegin
  2
*D0
 70
     1
 10
0.0
 20
0.0
 30
0.0
  3
*D0
  1

  0
LINE
  5
6A
330
48
100
AcDbEntity
  8
0
  6
BYBLOCK
 62
     0
100
AcDbLine
 10
12.23650713109161
 20
1.723432950722739
 30
0.0
 11
12.23650713109161
 21
1.307406772756068
 31
0.0
  0
LINE
  5
6B
330
48
100
AcDbEntity
  8
0
  6
BYBLOCK
 62
     0
100
AcDbLine
 10
16.11150713109161
 20
1.723432950722739
 30
0.0
 11
16.11150713109161
 21
1.307406772756068
 31
0.0
  0
LINE
  5
6C
330
48
100
AcDbEntity
  8
0
  6
BYBLOCK
 62
     0
100
AcDbLine
 10
12.23650713109161
 20
1.487406772756068
 30
0.0
 11
13.75734046442494
 21
1.487406772756068
 31
0.0
  0
LINE
  5
6D
330
48
100
AcDbEntity
  8
0
  6
BYBLOCK
 62
     0
100
AcDbLine
 10
16.11150713109161
 20
1.487406772756068
 30
0.0
 11
14.59067379775827
 21
1.487406772756068
 31
0.0
  0
LINE
  5
6E
330
48
100
AcDbEntity
  8
0
  6
BYBLOCK
 62
     0
100
AcDbLine
 10
12.11150713109161
 20
1.362406772756068
 30
0.0
 11
12.36150713109161
 21
1.612406772756068
 31
0.0
  0
LINE
  5
6F
330
48
100
AcDbEntity
  8
0
  6
BYBLOCK
 62
     0
100
AcDbLine
 10
15.98650713109161
 20
1.362406772756068
 30
0.0
 11
16.23650713109161
 21
1.612406772756068
 31
0.0
  0
TEXT
  5
70
330
48
100
AcDbEntity
  8
0
  6
BYBLOCK
 62
     0
100
AcDbText
 10
13.88234046442494
 20
1.424906772756068
 30
0.0
 40
0.125
  1
3 7/8
 72
     1
 11
14.17400713109161
 21
1.487406772756068
 31
0.0
100
AcDbText
 73
     2
  0
POINT
  5
71
330
48
100
AcDbEntity
  8
DEFPOINTS
  6
BYBLOCK
 62
     0
100
AcDbPoint
 10
12.23650713109161
 20
1.785932950722739
 30
0.0
  0
POINT
  5
72
330
48
100
AcDbEntity
  8
DEFPOINTS
  6
BYBLOCK
 62
     0
100
AcDbPoint
 10
16.11150713109161
 20
1.785932950722739
 30
0.0
  0
POINT
  5
73
330
48
100
AcDbEntity
  8
DEFPOINTS
  6
BYBLOCK
 62
     0
100
AcDbPoint
 10
16.11150713109161
 20
1.487406772756068
 30
0.0
  0
ENDBLK
  5
74
330
48
100
AcDbEntity
  8
0
100
AcDbBlockEnd
  0
BLOCK
  5
75
330
49
100
AcDbEntity
  8
0
100
AcDbBlockBegin
  2
*D1
 70
     1
 10
0.0
 20
0.0
 30
0.0
  3
*D1
  1

  0
LINE
  5
76
330
49
100
AcDbEntity
  8
0
  6
BYBLOCK
 62
     0
100
AcDbLine
 10
12.17400713109161
 20
1.785932950722739
 30
0.0
 11
11.69839241246923
 21
1.785932950722739
 31
0.0
  0
LINE
  5
77
330
49
100
AcDbEntity
  8
0
  6
BYBLOCK
 62
     0
100
AcDbLine
 10
14.11150713109161
 20
3.785932950722739
 30
0.0
 11
11.69839241246923
 21
3.785932950722739
 31
0.0
  0
LINE
  5
78
330
49
100
AcDbEntity
  8
0
  6
BYBLOCK
 62
     0
100
AcDbLine
 10
11.87839241246923
 20
1.785932950722739
 30
0.0
 11
11.87839241246923
 21
2.619266284056072
 31
0.0
  0
LINE
  5
79
330
49
100
AcDbEntity
  8
0
  6
BYBLOCK
 62
     0
100
AcDbLine
 10
11.87839241246923
 20
3.785932950722739
 30
0.0
 11
11.87839241246923
 21
2.952599617389405
 31
0.0
  0
LINE
  5
7A
330
49
100
AcDbEntity
  8
0
  6
BYBLOCK
 62
     0
100
AcDbLine
 10
12.00339241246923
 20
1.660932950722739
 30
0.0
 11
11.75339241246923
 21
1.910932950722738
 31
0.0
  0
LINE
  5
7B
330
49
100
AcDbEntity
  8
0
  6
BYBLOCK
 62
     0
100
AcDbLine
 10
12.00339241246923
 20
3.660932950722739
 30
0.0
 11
11.75339241246923
 21
3.910932950722739
 31
0.0
  0
TEXT
  5
7C
330
49
100
AcDbEntity
  8
0
  6
BYBLOCK
 62
     0
100
AcDbText
 10
11.94089241246923
 20
2.744266284056072
 30
0.0
 40
0.125
  1
2
 50
90.0
 72
     1
 11
11.87839241246923
 21
2.785932950722739
 31
0.0
100
AcDbText
 73
     2
  0
POINT
  5
7D
330
49
100
AcDbEntity
  8
DEFPOINTS
  6
BYBLOCK
 62
     0
100
AcDbPoint
 10
12.23650713109161
 20
1.785932950722739
 30
0.0
  0
POINT
  5
7E
330
49
100
AcDbEntity
  8
DEFPOINTS
  6
BYBLOCK
 62
     0
100
AcDbPoint
 10
14.17400713109161
 20
3.785932950722739
 30
0.0
  0
POINT
  5
7F
330
49
100
AcDbEntity
  8
DEFPOINTS
  6
BYBLOCK
 62
     0
100
AcDbPoint
 10
11.87839241246923
 20
3.785932950722739
 30
0.0
  0
ENDBLK
  5
80
330
49
100
AcDbEntity
  8
0
100
AcDbBlockEnd
  0
ENDSEC
  0
SECTION
  2
ENTITIES
  0
DIMENSION
  5
81
330
18
100
AcDbEntity
  8
ADPDIM
100
AcDbDimension
  2
*D1
 10
11.87839241246923
 20
3.785932950722739
 30
0.0
 11
11.87839241246923
 21
2.785932950722739
 31
0.0
100
AcDbAlignedDimension
 13
12.23650713109161
 23
1.785932950722739
 33
0.0
 14
14.17400713109161
 24
3.785932950722739
 34
0.0
 50
90.0
100
AcDbRotatedDimension
  0
LINE
  5
82
330
18
100
AcDbEntity
  8
ADP2DETAIL
  6
HIDDEN2
100
AcDbLine
 10
14.17400713109161
 20
3.593778395269882
 30
0.0
 11
12.49650713109161
 21
2.723351679128881
 31
0.0
  0
LINE
  5
83
330
18
100
AcDbEntity
  8
ADP2DETAIL
  6
HIDDEN2
100
AcDbLine
 10
14.17400713109161
 20
3.593778395269882
 30
0.0
 11
15.85150713109161
 21
2.723351679128881
 31
0.0
  0
LINE
  5
84
330
18
100
AcDbEntity
  8
ADP1DETAIL
100
AcDbLine
 10
16.02150713109161
 20
2.825932950722738
 30
0.0
 11
14.17400713109161
 21
3.785932950722739
 31
0.0
  0
LINE
  5
85
330
18
100
AcDbEntity
  8
ADP1DETAIL
100
AcDbLine
 10
14.17400713109161
 20
3.785932950722739
 30
0.0
 11
12.32650713109161
 21
2.825932950722738
 31
0.0
  0
ARC
  5
86
330
18
100
AcDbEntity
  8
ADP2DETAIL
  6
HIDDEN2
100
AcDbCircle
 10
12.57650713109161
 20
-2.849507596937123
 30
0.0
 40
0.1799999999999997
100
AcDbArc
 50
179.9999999999999
 51
270.0
  0
ARC
  5
87
330
18
100
AcDbEntity
  8
ADP1DETAIL
100
AcDbCircle
 10
12.44650713109161
 20
-2.979507596937123
 30
0.0
 40
0.1199999999999992
100
AcDbArc
 50
179.9999999999998
 51
270.0
  0
ARC
  5
88
330
18
100
AcDbEntity
  8
ADP1DETAIL
100
AcDbCircle
 10
12.43650713109161
 20
-2.989507596937123
 30
0.0
 40
0.1999999999999993
100
AcDbArc
 50
179.9999999999998
 51
270.0
  0
LINE
  5
89
330
18
100
AcDbEntity
  8
ADP1DETAIL
100
AcDbLine
 10
12.36165431734922
 20
0.5603452168052622
 30
0.0
 11
15.986359944834
 21
-3.064360410679509
 31
0.0
  0
LINE
  5
8A
330
18
100
AcDbEntity
  8
ADP1DETAIL
100
AcDbLine
 10
15.90150713109161
 20
0.5954924030628759
 30
0.0
 11
12.36165431734922
 21
-3.064360410679508
 31
0.0
  0
ARC
  5
8B
330
18
100
AcDbEntity
  8
ADP1DETAIL
100
AcDbCircle
 10
12.44650713109161
 20
0.4754924030628768
 30
0.0
 40
0.1199999999999997
100
AcDbArc
 50
90.0
 51
180.0000000000001
  0
ARC
  5
8C
330
18
100
AcDbEntity
  8
ADP2DETAIL
  6
HIDDEN2
100
AcDbCircle
 10
12.57650713109161
 20
0.3454924030628769
 30
0.0
 40
0.1799999999999998
100
AcDbArc
 50
90.0
 51
179.9999999999999
  0
ARC
  5
8D
330
18
100
AcDbEntity
  8
ADP1DETAIL
100
AcDbCircle
 10
12.43650713109161
 20
0.4854924030628767
 30
0.0
 40
0.1999999999999997
100
AcDbArc
 50
90.0
 51
180.0000000000001
  0
LINE
  5
8E
330
18
100
AcDbEntity
  8
ADP1DETAIL
100
AcDbLine
 10
12.23650713109161
 20
2.735932950722738
 30
0.0
 11
16.11150713109161
 21
2.735932950722738
 31
0.0
  0
LINE
  5
8F
330
18
100
AcDbEntity
  8
ADP1DETAIL
100
AcDbLine
 10
16.11150713109161
 20
1.785932950722739
 30
0.0
 11
12.23650713109161
 21
1.785932950722739
 31
0.0
  0
LINE
  5
90
330
18
100
AcDbEntity
  8
ADP1DETAIL
100
AcDbLine
 10
12.32650713109161
 20
2.825932950722738
 30
0.0
 11
16.02150713109161
 21
2.825932950722738
 31
0.0
  0
DIMENSION
  5
91
330
18
100
AcDbEntity
  8
ADPDIM
100
AcDbDimension
  2
*D0
 10
16.11150713109161
 20
1.487406772756068
 30
0.0
 11
14.17400713109161
 21
1.487406772756068
 31
0.0
100
AcDbAlignedDimension
 13
12.23650713109161
 23
1.785932950722739
 33
0.0
 14
16.11150713109161
 24
1.785932950722739
 34
0.0
100
AcDbRotatedDimension
  0
LINE
  5
92
330
18
100
AcDbEntity
  8
ADP1DETAIL
100
AcDbLine
 10
12.23650713109161
 20
0.4854924030628763
 30
0.0
 11
12.23650713109161
 21
-2.989507596937123
 31
0.0
  0
LINE
  5
93
330
18
100
AcDbEntity
  8
ADP1DETAIL
100
AcDbLine
 10
12.32650713109161
 20
0.4754924030628765
 30
0.0
 11
12.32650713109161
 21
-2.979507596937123
 31
0.0
  0
LINE
  5
94
330
18
100
AcDbEntity
  8
ADP1DETAIL
100
AcDbLine
 10
12.23650713109161
 20
1.785932950722739
 30
0.0
 11
12.23650713109161
 21
2.735932950722738
 31
0.0
  0
LINE
  5
95
330
18
100
AcDbEntity
  8
ADP1DETAIL
100
AcDbLine
 10
12.32650713109161
 20
2.735932950722738
 30
0.0
 11
12.32650713109161
 21
2.825932950722738
 31
0.0
  0
LINE
  5
96
330
18
100
AcDbEntity
  8
ADP2DETAIL
  6
HIDDEN2
100
AcDbLine
 10
12.57650713109161
 20
-3.029507596937123
 30
0.0
 11
15.77150713109161
 21
-3.029507596937123
 31
0.0
  0
LINE
  5
97
330
18
100
AcDbEntity
  8
ADP1DETAIL
100
AcDbLine
 10
12.44650713109161
 20
-3.099507596937123
 30
0.0
 11
15.90150713109161
 21
-3.099507596937123
 31
0.0
  0
LINE
  5
98
330
18
100
AcDbEntity
  8
ADP1DETAIL
100
AcDbLine
 10
12.43650713109161
 20
-3.189507596937123
 30
0.0
 11
15.91150713109161
 21
-3.189507596937123
 31
0.0
  0
LINE
  5
99
330
18
100
AcDbEntity
  8
ADP2DETAIL
  6
HIDDEN2
100
AcDbLine
 10
12.68150713109161
 20
-2.869507596937123
 30
0.0
 11
15.66650713109161
 21
-2.869507596937123
 31
0.0
  0
LINE
  5
9A
330
18
100
AcDbEntity
  8
ADP2DETAIL
  6
HIDDEN2
100
AcDbLine
 10
15.66650713109161
 20
0.365492403062877
 30
0.0
 11
12.68150713109161
 21
0.3654924030628766
 31
0.0
  0
LINE
  5
9B
330
18
100
AcDbEntity
  8
ADP1DETAIL
100
AcDbLine
 10
15.91150713109161
 20
0.6854924030628764
 30
0.0
 11
12.43650713109161
 21
0.6854924030628764
 31
0.0
  0
LINE
  5
9C
330
18
100
AcDbEntity
  8
ADP1DETAIL
100
AcDbLine
 10
15.90150713109161
 20
0.5954924030628761
 30
0.0
 11
12.44650713109161
 21
0.5954924030628766
 31
0.0
  0
LINE
  5
9D
330
18
100
AcDbEntity
  8
ADP2DETAIL
  6
HIDDEN2
100
AcDbLine
 10
15.77150713109161
 20
0.5254924030628772
 30
0.0
 11
12.57650713109161
 21
0.5254924030628767
 31
0.0
  0
LINE
  5
9E
330
18
100
AcDbEntity
  8
ADP2DETAIL
  6
HIDDEN2
100
AcDbLine
 10
12.39650713109161
 20
0.345492403062877
 30
0.0
 11
12.39650713109161
 21
-2.849507596937123
 31
0.0
  0
LINE
  5
9F
330
18
100
AcDbEntity
  8
ADP2DETAIL
  6
HIDDEN2
100
AcDbLine
 10
12.55650713109161
 20
0.2404924030628766
 30
0.0
 11
12.55650713109161
 21
-2.744507596937123
 31
0.0
  0
ARC
  5
A0
330
18
100
AcDbEntity
  8
ADP2DETAIL
  6
HIDDEN2
100
AcDbCircle
 10
12.68150713109161
 20
-2.744507596937123
 30
0.0
 40
0.125
100
AcDbArc
 50
180.0
 51
270.0
  0
ARC
  5
A1
330
18
100
AcDbEntity
  8
ADP2DETAIL
  6
HIDDEN2
100
AcDbCircle
 10
12.68150713109161
 20
0.2404924030628765
 30
0.0
 40
0.125
100
AcDbArc
 50
90.0
 51
179.9999999999999
  0
LINE
  5
A2
330
18
100
AcDbEntity
  8
ADP2DETAIL
  6
HIDDEN2
100
AcDbLine
 10
12.40650713109161
 20
1.785932950722739
 30
0.0
 11
12.40650713109161
 21
2.565932950722738
 31
0.0
  0
LINE
  5
A3
330
18
100
AcDbEntity
  8
ADP2DETAIL
  6
HIDDEN2
100
AcDbLine
 10
12.40650713109161
 20
2.565932950722738
 30
0.0
 11
12.49650713109161
 21
2.565932950722738
 31
0.0
  0
LINE
  5
A4
330
18
100
AcDbEntity
  8
ADP2DETAIL
  6
HIDDEN2
100
AcDbLine
 10
12.49650713109161
 20
2.565932950722738
 30
0.0
 11
12.49650713109161
 21
2.723351679128881
 31
0.0
  0
LINE
  5
A5
330
18
100
AcDbEntity
  8
ADP2DETAIL
  6
HIDDEN2
100
AcDbLine
 10
15.79150713109161
 20
-2.744507596937123
 30
0.0
 11
15.79150713109161
 21
0.240492403062877
 31
0.0
  0
LINE
  5
A6
330
18
100
AcDbEntity
  8
ADP2DETAIL
  6
HIDDEN2
100
AcDbLine
 10
15.95150713109161
 20
-2.849507596937123
 30
0.0
 11
15.95150713109161
 21
0.345492403062877
 31
0.0
  0
LINE
  5
A7
330
18
100
AcDbEntity
  8
ADP1DETAIL
100
AcDbLine
 10
16.02150713109161
 20
-2.979507596937123
 30
0.0
 11
16.02150713109161
 21
0.4754924030628765
 31
0.0
  0
LINE
  5
A8
330
18
100
AcDbEntity
  8
ADP1DETAIL
100
AcDbLine
 10
16.11150713109161
 20
-2.989507596937123
 30
0.0
 11
16.11150713109161
 21
0.4854924030628763
 31
0.0
  0
ARC
  5
A9
330
18
100
AcDbEntity
  8
ADP2DETAIL
  6
HIDDEN2
100
AcDbCircle
 10
15.77150713109161
 20
-2.849507596937123
 30
0.0
 40
0.1799999999999997
100
AcDbArc
 50
270.0
 51
0.0
  0
ARC
  5
AA
330
18
100
AcDbEntity
  8
ADP2DETAIL
  6
HIDDEN2
100
AcDbCircle
 10
15.66650713109161
 20
-2.744507596937123
 30
0.0
 40
0.125
100
AcDbArc
 50
270.0
 51
0.0
  0
ARC
  5
AB
330
18
100
AcDbEntity
  8
ADP1DETAIL
100
AcDbCircle
 10
15.90150713109161
 20
-2.979507596937123
 30
0.0
 40
0.1199999999999997
100
AcDbArc
 50
270.0
 51
0.000000000000212
  0
ARC
  5
AC
330
18
100
AcDbEntity
  8
ADP1DETAIL
100
AcDbCircle
 10
15.91150713109161
 20
-2.989507596937123
 30
0.0
 40
0.1999999999999997
100
AcDbArc
 50
270.0
 51
0.0000000000001272
  0
ARC
  5
AD
330
18
100
AcDbEntity
  8
ADP2DETAIL
  6
HIDDEN2
100
AcDbCircle
 10
15.77150713109161
 20
0.3454924030628772
 30
0.0
 40
0.1799999999999997
100
AcDbArc
 50
359.9999999999999
 51
90.0
  0
ARC
  5
AE
330
18
100
AcDbEntity
  8
ADP2DETAIL
  6
HIDDEN2
100
AcDbCircle
 10
15.66650713109161
 20
0.240492403062877
 30
0.0
 40
0.125
100
AcDbArc
 50
0.0
 51
90.0
  0
ARC
  5
AF
330
18
100
AcDbEntity
  8
ADP1DETAIL
100
AcDbCircle
 10
15.91150713109161
 20
0.4854924030628768
 30
0.0
 40
0.1999999999999993
100
AcDbArc
 50
359.9999999999998
 51
90.0
  0
ARC
  5
B0
330
18
100
AcDbEntity
  8
ADP1DETAIL
100
AcDbCircle
 10
15.90150713109161
 20
0.4754924030628767
 30
0.0
 40
0.1199999999999992
100
AcDbArc
 50
359.9999999999998
 51
90.0
  0
LINE
  5
B1
330
18
100
AcDbEntity
  8
ADP2DETAIL
  6
HIDDEN2
100
AcDbLine
 10
15.94150713109161
 20
2.565932950722738
 30
0.0
 11
15.85150713109161
 21
2.565932950722738
 31
0.0
  0
LINE
  5
B2
330
18
100
AcDbEntity
  8
ADP2DETAIL
  6
HIDDEN2
100
AcDbLine
 10
15.85150713109161
 20
2.565932950722738
 30
0.0
 11
15.85150713109161
 21
2.723351679128881
 31
0.0
  0
LINE
  5
B3
330
18
100
AcDbEntity
  8
ADP1DETAIL
100
AcDbLine
 10
16.11150713109161
 20
2.735932950722738
 30
0.0
 11
16.11150713109161
 21
1.785932950722739
 31
0.0
  0
LINE
  5
B4
330
18
100
AcDbEntity
  8
ADP2DETAIL
  6
HIDDEN2
100
AcDbLine
 10
15.94150713109161
 20
1.785932950722739
 30
0.0
 11
15.94150713109161
 21
2.565932950722738
 31
0.0
  0
LINE
  5
B5
330
18
100
AcDbEntity
  8
ADP1DETAIL
100
AcDbLine
 10
16.02150713109161
 20
2.825932950722738
 30
0.0
 11
16.02150713109161
 21
2.735932950722738
 31
0.0
  0
TEXT
  5
C3
330
18
100
AcDbEntity
  8
ADPDIM
100
AcDbText
 10
4.385413594256688
 20
-4.089671656445974
 30
0.0
 40
0.1875
  1
J U L I U S  B L U M  &  C O . ,  I N C .      ( 8 0 0 )  5 2 6 - 6 2 9 3        W W W . J U L I U S B L U M . C O M        P A R T  N o .  5 6 3 5
 41
1.25
  7
ARIAL_WIDE
 72
     1
 11
14.17400713109161
 21
-3.902171656445974
 31
0.0
100
AcDbText
 73
     3
  0
ENDSEC
  0
SECTION
  2
OBJECTS
  0
DICTIONARY
  5
C
330
0
100
AcDbDictionary
  3
ACAD_GROUP
350
D
  3
ACAD_LAYOUT
350
BC
  3
ACAD_MLINESTYLE
350
E
  3
ACAD_PLOTSETTINGS
350
BD
  3
ACAD_PLOTSTYLENAME
350
BA
  3
ACDBHEADERROUNDTRIPXREC
350
207
  3
ACDBVARIABLEDICTIONARY
350
11D
  0
DICTIONARY
  5
117
330
18
100
AcDbDictionary
280
     1
  3
ACAD_LAYOUTSELFREF
360
228
  0
DICTIONARY
  5
115
330
15
100
AcDbDictionary
280
     1
  3
ACAD_LAYOUTSELFREF
360
227
  0
DICTIONARY
  5
D
102
{ACAD_REACTORS
330
C
102
}
330
C
100
AcDbDictionary
  0
DICTIONARY
  5
BC
102
{ACAD_REACTORS
330
C
102
}
330
C
100
AcDbDictionary
  0
DICTIONARY
  5
E
102
{ACAD_REACTORS
330
C
102
}
330
C
100
AcDbDictionary
  3
STANDARD
350
1B
  0
DICTIONARY
  5
BD
102
{ACAD_REACTORS
330
C
102
}
330
C
100
AcDbDictionary
  0
ACDBDICTIONARYWDFLT
  5
BA
102
{ACAD_REACTORS
330
C
102
}
330
C
100
AcDbDictionary
281
     1
  3
Normal
350
BB
100
AcDbDictionaryWithDefault
340
BB
  0
DICTIONARY
  5
207
102
{ACAD_REACTORS
330
C
102
}
330
C
100
AcDbDictionary
  3
CEPSNTYPE
350
211
  3
FINGERPRINTGUID
350
212
  3
HYPERLINKBASE
350
20A
  3
INSUNITS
350
210
  3
LAYOUTDICT
350
20C
  3
LWETCUNION
350
20F
  3
PLOTSETDICT
350
20D
  3
PLOTSTYLNAMDICT
350
20E
  3
PSVPSCALE
350
214
  3
PUCSBASE
350
217
  3
PUCSORGBACK
350
21D
  3
PUCSORGBOTTOM
350
219
  3
PUCSORGFRONT
350
21C
  3
PUCSORGLEFT
350
21A
  3
PUCSORGRIGHT
350
21B
  3
PUCSORGTOP
350
218
  3
PUCSORTHOREF
350
215
  3
PUCSORTHOVIEW
350
216
  3
STYLESHEET
350
20B
  3
TSTACKALIGN
350
208
  3
TSTACKSIZE
350
209
  3
UCSBASE
350
220
  3
UCSORGBACK
350
226
  3
UCSORGBOTTOM
350
222
  3
UCSORGFRONT
350
225
  3
UCSORGLEFT
350
223
  3
UCSORGRIGHT
350
224
  3
UCSORGTOP
350
221
  3
UCSORTHOREF
350
21E
  3
UCSORTHOVIEW
350
21F
  3
VERSIONGUID
350
213
  0
DICTIONARY
  5
11D
102
{ACAD_REACTORS
330
C
102
}
330
C
100
AcDbDictionary
  3
DIMASSOC
350
11E
  0
XRECORD
  5
228
102
{ACAD_REACTORS
330
117
102
}
330
117
100
AcDbXrecord
340
18
  0
XRECORD
  5
227
102
{ACAD_REACTORS
330
115
102
}
330
115
100
AcDbXrecord
340
15
  0
MLINESTYLE
  5
1B
102
{ACAD_REACTORS
330
E
102
}
330
E
100
AcDbMlineStyle
  2
STANDARD
 70
     0
  3

 62
     0
 51
90.0
 52
90.0
 71
     2
 49
0.5
 62
   256
  6
BYLAYER
 49
-0.5
 62
   256
  6
BYLAYER
  0
ACDBPLACEHOLDER
  5
BB
102
{ACAD_REACTORS
330
BA
102
}
330
BA
100
AcDbPlaceHolder
280
     0
  0
XRECORD
  5
211
102
{ACAD_REACTORS
330
207
102
}
330
207
100
AcDbXrecord
 90
        0
  0
XRECORD
  5
212
102
{ACAD_REACTORS
330
207
102
}
330
207
100
AcDbXrecord
  1
{3A6B7731-BF8D-42D2-B3DA-EBEFC292F2D6}
  0
XRECORD
  5
20A
102
{ACAD_REACTORS
330
207
102
}
330
207
100
AcDbXrecord
  1

  0
XRECORD
  5
210
102
{ACAD_REACTORS
330
207
102
}
330
207
100
AcDbXrecord
 90
        0
  0
XRECORD
  5
20C
102
{ACAD_REACTORS
330
207
102
}
330
207
100
AcDbXrecord
340
BC
  0
XRECORD
  5
20F
102
{ACAD_REACTORS
330
207
102
}
330
207
100
AcDbXrecord
 90
    14877
  0
XRECORD
  5
20D
102
{ACAD_REACTORS
330
207
102
}
330
207
100
AcDbXrecord
340
BD
  0
XRECORD
  5
20E
102
{ACAD_REACTORS
330
207
102
}
330
207
100
AcDbXrecord
340
BA
  0
XRECORD
  5
214
102
{ACAD_REACTORS
330
207
102
}
330
207
100
AcDbXrecord
 40
0.0
  0
XRECORD
  5
217
102
{ACAD_REACTORS
330
207
102
}
330
207
100
AcDbXrecord
340
0
  0
XRECORD
  5
21D
102
{ACAD_REACTORS
330
207
102
}
330
207
100
AcDbXrecord
 10
0.0
 20
0.0
 30
0.0
  0
XRECORD
  5
219
102
{ACAD_REACTORS
330
207
102
}
330
207
100
AcDbXrecord
 10
0.0
 20
0.0
 30
0.0
  0
XRECORD
  5
21C
102
{ACAD_REACTORS
330
207
102
}
330
207
100
AcDbXrecord
 10
0.0
 20
0.0
 30
0.0
  0
XRECORD
  5
21A
102
{ACAD_REACTORS
330
207
102
}
330
207
100
AcDbXrecord
 10
0.0
 20
0.0
 30
0.0
  0
XRECORD
  5
21B
102
{ACAD_REACTORS
330
207
102
}
330
207
100
AcDbXrecord
 10
0.0
 20
0.0
 30
0.0
  0
XRECORD
  5
218
102
{ACAD_REACTORS
330
207
102
}
330
207
100
AcDbXrecord
 10
0.0
 20
0.0
 30
0.0
  0
XRECORD
  5
215
102
{ACAD_REACTORS
330
207
102
}
330
207
100
AcDbXrecord
340
0
  0
XRECORD
  5
216
102
{ACAD_REACTORS
330
207
102
}
330
207
100
AcDbXrecord
 70
     0
  0
XRECORD
  5
20B
102
{ACAD_REACTORS
330
207
102
}
330
207
100
AcDbXrecord
  1

  0
XRECORD
  5
208
102
{ACAD_REACTORS
330
207
102
}
330
207
100
AcDbXrecord
 90
        1
  0
XRECORD
  5
209
102
{ACAD_REACTORS
330
207
102
}
330
207
100
AcDbXrecord
 90
       70
  0
XRECORD
  5
220
102
{ACAD_REACTORS
330
207
102
}
330
207
100
AcDbXrecord
340
0
  0
XRECORD
  5
226
102
{ACAD_REACTORS
330
207
102
}
330
207
100
AcDbXrecord
 10
0.0
 20
0.0
 30
0.0
  0
XRECORD
  5
222
102
{ACAD_REACTORS
330
207
102
}
330
207
100
AcDbXrecord
 10
0.0
 20
0.0
 30
0.0
  0
XRECORD
  5
225
102
{ACAD_REACTORS
330
207
102
}
330
207
100
AcDbXrecord
 10
0.0
 20
0.0
 30
0.0
  0
XRECORD
  5
223
102
{ACAD_REACTORS
330
207
102
}
330
207
100
AcDbXrecord
 10
0.0
 20
0.0
 30
0.0
  0
XRECORD
  5
224
102
{ACAD_REACTORS
330
207
102
}
330
207
100
AcDbXrecord
 10
0.0
 20
0.0
 30
0.0
  0
XRECORD
  5
221
102
{ACAD_REACTORS
330
207
102
}
330
207
100
AcDbXrecord
 10
0.0
 20
0.0
 30
0.0
  0
XRECORD
  5
21E
102
{ACAD_REACTORS
330
207
102
}
330
207
100
AcDbXrecord
340
0
  0
XRECORD
  5
21F
102
{ACAD_REACTORS
330
207
102
}
330
207
100
AcDbXrecord
 70
     0
  0
XRECORD
  5
213
102
{ACAD_REACTORS
330
207
102
}
330
207
100
AcDbXrecord
  1
{3DCDF4C8-DCFC-4B5F-B813-413F1240E097}
  0
DICTIONARYVAR
  5
11E
102
{ACAD_REACTORS
330
11D
102
}
330
11D
100
DictionaryVariables
280
     0
  1
1
  0
ENDSEC
  0
EOF
