  0
SECTION
  2
HEADER
  9
$ACADVER
  1
AC1014
  9
$ACADMAINTVER
 70
     9
  9
$DWGCODEPAGE
  3
ANSI_1252
  9
$INSBASE
 10
44.75257046974956
 20
-27.70868775511334
 30
0.0
  9
$EXTMIN
 10
23.78573891762082
 20
-28.84407580965686
 30
0.0
  9
$EXTMAX
 10
62.39398414272315
 20
-12.04266429361065
 30
0.0
  9
$LIMMIN
 10
0.0
 20
0.0
  9
$LIMMAX
 10
36.0
 20
36.0
  9
$ORTHOMODE
 70
     1
  9
$REGENMODE
 70
     1
  9
$FILLMODE
 70
     1
  9
$QTEXTMODE
 70
     0
  9
$MIRRTEXT
 70
     1
  9
$DRAGMODE
 70
     0
  9
$LTSCALE
 40
1.0
  9
$OSMODE
 70
    37
  9
$ATTMODE
 70
     1
  9
$TEXTSIZE
 40
0.2
  9
$TRACEWID
 40
0.05
  9
$TEXTSTYLE
  7
STANDARD
  9
$CLAYER
  8
ADPDIM
  9
$CELTYPE
  6
BYLAYER
  9
$CECOLOR
 62
   256
  9
$CELTSCALE
 40
1.0
  9
$DELOBJ
 70
     1
  9
$DISPSILH
 70
     0
  9
$DIMSCALE
 40
1.0
  9
$DIMASZ
 40
0.125
  9
$DIMEXO
 40
0.0625
  9
$DIMDLI
 40
0.38
  9
$DIMRND
 40
0.0
  9
$DIMDLE
 40
0.0
  9
$DIMEXE
 40
0.18
  9
$DIMTP
 40
0.0
  9
$DIMTM
 40
0.0
  9
$DIMTXT
 40
0.125
  9
$DIMCEN
 40
0.1875
  9
$DIMTSZ
 40
0.125
  9
$DIMTOL
 70
     0
  9
$DIMLIM
 70
     0
  9
$DIMTIH
 70
     0
  9
$DIMTOH
 70
     0
  9
$DIMSE1
 70
     0
  9
$DIMSE2
 70
     0
  9
$DIMTAD
 70
     0
  9
$DIMZIN
 70
     3
  9
$DIMBLK
  1

  9
$DIMASO
 70
     1
  9
$DIMSHO
 70
     1
  9
$DIMPOST
  1

  9
$DIMAPOST
  1

  9
$DIMALT
 70
     0
  9
$DIMALTD
 70
     1
  9
$DIMALTF
 40
25.4
  9
$DIMLFAC
 40
1.0
  9
$DIMTOFL
 70
     0
  9
$DIMTVP
 40
0.0
  9
$DIMTIX
 70
     0
  9
$DIMSOXD
 70
     0
  9
$DIMSAH
 70
     0
  9
$DIMBLK1
  1

  9
$DIMBLK2
  1

  9
$DIMSTYLE
  2
STANDARD
  9
$DIMCLRD
 70
     0
  9
$DIMCLRE
 70
     0
  9
$DIMCLRT
 70
     0
  9
$DIMTFAC
 40
1.0
  9
$DIMGAP
 40
0.125
  9
$DIMJUST
 70
     0
  9
$DIMSD1
 70
     0
  9
$DIMSD2
 70
     0
  9
$DIMTOLJ
 70
     1
  9
$DIMTZIN
 70
     0
  9
$DIMALTZ
 70
     0
  9
$DIMALTTZ
 70
     0
  9
$DIMFIT
 70
     3
  9
$DIMUPT
 70
     0
  9
$DIMUNIT
 70
     2
  9
$DIMDEC
 70
     4
  9
$DIMTDEC
 70
     4
  9
$DIMALTU
 70
     2
  9
$DIMALTTD
 70
     2
  9
$DIMTXSTY
  7
STANDARD
  9
$DIMAUNIT
 70
     0
  9
$LUNITS
 70
     5
  9
$LUPREC
 70
     4
  9
$SKETCHINC
 40
0.1
  9
$FILLETRAD
 40
0.062
  9
$AUNITS
 70
     0
  9
$AUPREC
 70
     0
  9
$MENU
  1
acad
  9
$ELEVATION
 40
0.0
  9
$PELEVATION
 40
0.0
  9
$THICKNESS
 40
0.0
  9
$LIMCHECK
 70
     0
  9
$BLIPMODE
 70
     0
  9
$CHAMFERA
 40
0.0
  9
$CHAMFERB
 40
0.0
  9
$CHAMFERC
 40
0.0
  9
$CHAMFERD
 40
0.0
  9
$SKPOLY
 70
     0
  9
$TDCREATE
 40
2450408.678183449
  9
$TDUPDATE
 40
2452297.072885740
  9
$TDINDWG
 40
0.0165549421
  9
$TDUSRTIMER
 40
0.0165549421
  9
$USRTIMER
 70
     1
  9
$ANGBASE
 50
0.0
  9
$ANGDIR
 70
     0
  9
$PDMODE
 70
     0
  9
$PDSIZE
 40
0.0
  9
$PLINEWID
 40
0.0
  9
$COORDS
 70
     2
  9
$SPLFRAME
 70
     0
  9
$SPLINETYPE
 70
     6
  9
$SPLINESEGS
 70
     8
  9
$ATTDIA
 70
     0
  9
$ATTREQ
 70
     1
  9
$HANDLING
 70
 22529
  9
$HANDSEED
  5
2FB
  9
$SURFTAB1
 70
     6
  9
$SURFTAB2
 70
     6
  9
$SURFTYPE
 70
     6
  9
$SURFU
 70
     6
  9
$SURFV
 70
     6
  9
$UCSNAME
  2

  9
$UCSORG
 10
0.0
 20
0.0
 30
0.0
  9
$UCSXDIR
 10
1.0
 20
0.0
 30
0.0
  9
$UCSYDIR
 10
0.0
 20
1.0
 30
0.0
  9
$PUCSNAME
  2

  9
$PUCSORG
 10
0.0
 20
0.0
 30
0.0
  9
$PUCSXDIR
 10
1.0
 20
0.0
 30
0.0
  9
$PUCSYDIR
 10
0.0
 20
1.0
 30
0.0
  9
$USERI1
 70
     0
  9
$USERI2
 70
     0
  9
$USERI3
 70
     0
  9
$USERI4
 70
     0
  9
$USERI5
 70
     0
  9
$USERR1
 40
0.0
  9
$USERR2
 40
0.0
  9
$USERR3
 40
0.0
  9
$USERR4
 40
0.0
  9
$USERR5
 40
0.0
  9
$WORLDVIEW
 70
     1
  9
$SHADEDGE
 70
     3
  9
$SHADEDIF
 70
    70
  9
$TILEMODE
 70
     1
  9
$MAXACTVP
 70
    15
  9
$PINSBASE
 10
0.0
 20
0.0
 30
0.0
  9
$PLIMCHECK
 70
     0
  9
$PEXTMIN
 10
1.000000000000000E+20
 20
1.000000000000000E+20
 30
1.000000000000000E+20
  9
$PEXTMAX
 10
-1.000000000000000E+20
 20
-1.000000000000000E+20
 30
-1.000000000000000E+20
  9
$PLIMMIN
 10
0.0
 20
0.0
  9
$PLIMMAX
 10
12.0
 20
9.0
  9
$UNITMODE
 70
     0
  9
$VISRETAIN
 70
     0
  9
$PLINEGEN
 70
     0
  9
$PSLTSCALE
 70
     1
  9
$TREEDEPTH
 70
  3020
  9
$PICKSTYLE
 70
     1
  9
$CMLSTYLE
  2
STANDARD
  9
$CMLJUST
 70
     0
  9
$CMLSCALE
 40
1.0
  9
$PROXYGRAPHICS
 70
     1
  9
$MEASUREMENT
 70
     0
  0
ENDSEC
  0
SECTION
  2
CLASSES
  0
CLASS
  1
ACDBDICTIONARYWDFLT
  2
AcDbDictionaryWithDefault
  3
AutoCAD 2000
 90
        0
280
     0
281
     0
  0
CLASS
  1
ACDBPLACEHOLDER
  2
AcDbPlaceHolder
  3
AutoCAD 2000
 90
        0
280
     0
281
     0
  0
CLASS
  1
LAYOUT
  2
AcDbLayout
  3
AutoCAD 2000
 90
        0
280
     0
281
     0
  0
CLASS
  1
DICTIONARYVAR
  2
AcDbDictionaryVar
  3
AutoCAD 2000
 90
        0
280
     0
281
     0
  0
CLASS
  1
LONG_TRANSACTION
  2
AcDbLongTransaction
  3
AutoCAD 2000
 90
        0
280
     0
281
     0
  0
CLASS
  1
LWPOLYLINE
  2
AcDbPolyline
  3
AutoCAD 2000
 90
        0
280
     0
281
     1
  0
CLASS
  1
HATCH
  2
AcDbHatch
  3
AutoCAD 2000
 90
        0
280
     0
281
     1
  0
CLASS
  1
XRECORD
  2
AcDbXrecord
  3
AutoCAD 2000
 90
        0
280
     0
281
     0
  0
CLASS
  1
LONG_TRANSACTION
  2
AcDbLongTransaction
  3
AutoCAD 2000
 90
        0
280
     0
281
     0
  0
CLASS
  1
LWPOLYLINE
  2
AcDbPolyline
  3
AutoCAD 2000
 90
        0
280
     0
281
     1
  0
CLASS
  1
HATCH
  2
AcDbHatch
  3
AutoCAD 2000
 90
        0
280
     0
281
     1
  0
CLASS
  1
XRECORD
  2
AcDbXrecord
  3
AutoCAD 2000
 90
        0
280
     0
281
     0
  0
CLASS
  1
LONG_TRANSACTION
  2
AcDbLongTransaction
  3
AutoCAD 2000
 90
        0
280
     0
281
     0
  0
CLASS
  1
LWPOLYLINE
  2
AcDbPolyline
  3
AutoCAD 2000
 90
        0
280
     0
281
     1
  0
CLASS
  1
HATCH
  2
AcDbHatch
  3
AutoCAD 2000
 90
        0
280
     0
281
     1
  0
CLASS
  1
XRECORD
  2
AcDbXrecord
  3
AutoCAD 2000
 90
        0
280
     0
281
     0
  0
CLASS
  1
LONG_TRANSACTION
  2
AcDbLongTransaction
  3
AutoCAD 2000
 90
        0
280
     0
281
     0
  0
CLASS
  1
LWPOLYLINE
  2
AcDbPolyline
  3
AutoCAD 2000
 90
        0
280
     0
281
     1
  0
CLASS
  1
HATCH
  2
AcDbHatch
  3
AutoCAD 2000
 90
        0
280
     0
281
     1
  0
CLASS
  1
XRECORD
  2
AcDbXrecord
  3
AutoCAD 2000
 90
        0
280
     0
281
     0
  0
CLASS
  1
LONG_TRANSACTION
  2
AcDbLongTransaction
  3
AutoCAD 2000
 90
        0
280
     0
281
     0
  0
CLASS
  1
LWPOLYLINE
  2
AcDbPolyline
  3
AutoCAD 2000
 90
        0
280
     0
281
     1
  0
CLASS
  1
HATCH
  2
AcDbHatch
  3
AutoCAD 2000
 90
        0
280
     0
281
     1
  0
CLASS
  1
XRECORD
  2
AcDbXrecord
  3
AutoCAD 2000
 90
        0
280
     0
281
     0
  0
CLASS
  1
LONG_TRANSACTION
  2
AcDbLongTransaction
  3
AutoCAD 2000
 90
        0
280
     0
281
     0
  0
CLASS
  1
LWPOLYLINE
  2
AcDbPolyline
  3
AutoCAD 2000
 90
        0
280
     0
281
     1
  0
CLASS
  1
HATCH
  2
AcDbHatch
  3
AutoCAD 2000
 90
        0
280
     0
281
     1
  0
CLASS
  1
XRECORD
  2
AcDbXrecord
  3
AutoCAD 2000
 90
        0
280
     0
281
     0
  0
ENDSEC
  0
SECTION
  2
TABLES
  0
TABLE
  2
VPORT
  5
8
330
0
100
AcDbSymbolTable
 70
     2
  0
VPORT
  5
2D8
330
8
100
AcDbSymbolTableRecord
100
AcDbViewportTableRecord
  2
*ACTIVE
 70
     0
 10
0.0
 20
0.0
 11
1.0
 21
1.0
 12
43.12130753256934
 22
-20.4437002576592
 13
0.0
 23
0.0
 14
0.5740882589684922
 24
0.5740882589684922
 15
0.5
 25
0.5
 16
0.0
 26
0.0
 36
1.0
 17
0.0
 27
0.0
 37
0.0
 40
24.74668241745048
 41
1.570528967254408
 42
50.0
 43
0.0
 44
0.0
 50
0.0
 51
0.0
 71
     0
 72
   100
 73
     1
 74
     0
 75
     0
 76
     0
 77
     0
 78
     0
  0
ENDTAB
  0
TABLE
  2
LTYPE
  5
5
330
0
100
AcDbSymbolTable
 70
     1
  0
LTYPE
  5
12
330
5
100
AcDbSymbolTableRecord
100
AcDbLinetypeTableRecord
  2
BYBLOCK
 70
     0
  3

 72
    65
 73
     0
 40
0.0
  0
LTYPE
  5
13
330
5
100
AcDbSymbolTableRecord
100
AcDbLinetypeTableRecord
  2
BYLAYER
 70
     0
  3

 72
    65
 73
     0
 40
0.0
  0
LTYPE
  5
14
330
5
100
AcDbSymbolTableRecord
100
AcDbLinetypeTableRecord
  2
CONTINUOUS
 70
     0
  3
Solid line
 72
    65
 73
     0
 40
0.0
  0
ENDTAB
  0
TABLE
  2
LAYER
  5
2
330
0
100
AcDbSymbolTable
 70
     3
  0
LAYER
  5
F
330
2
100
AcDbSymbolTableRecord
100
AcDbLayerTableRecord
  2
0
 70
     0
 62
     7
  6
CONTINUOUS
  0
LAYER
  5
AB
330
2
100
AcDbSymbolTableRecord
100
AcDbLayerTableRecord
  2
DEFPOINTS
 70
     0
 62
     7
  6
CONTINUOUS
  0
LAYER
  5
AC
330
2
100
AcDbSymbolTableRecord
100
AcDbLayerTableRecord
  2
ADPDIM
 70
     0
 62
     3
  6
CONTINUOUS
  0
ENDTAB
  0
TABLE
  2
STYLE
  5
3
330
0
100
AcDbSymbolTable
 70
     2
  0
STYLE
  5
10
330
3
100
AcDbSymbolTableRecord
100
AcDbTextStyleTableRecord
  2
STANDARD
 70
     0
 40
0.0
 41
1.0
 50
0.0
 71
     0
 42
0.2
  3
txt
  4

  0
STYLE
  5
190
330
3
100
AcDbSymbolTableRecord
100
AcDbTextStyleTableRecord
  2
ARIAL_WIDE
 70
     0
 40
0.0
 41
1.25
 50
0.0
 71
     0
 42
0.2
  3
ARIAL.TTF
  4

1001
ACAD
1000
Arial
1071
       34
  0
ENDTAB
  0
TABLE
  2
VIEW
  5
6
330
0
100
AcDbSymbolTable
 70
     0
  0
ENDTAB
  0
TABLE
  2
UCS
  5
7
330
0
100
AcDbSymbolTable
 70
     0
  0
ENDTAB
  0
TABLE
  2
APPID
  5
9
330
0
100
AcDbSymbolTable
 70
     1
  0
APPID
  5
11
330
9
100
AcDbSymbolTableRecord
100
AcDbRegAppTableRecord
  2
ACAD
 70
     0
  0
ENDTAB
  0
TABLE
  2
DIMSTYLE
  5
A
330
0
100
AcDbSymbolTable
 70
     1
  0
DIMSTYLE
105
184
330
A
100
AcDbSymbolTableRecord
100
AcDbDimStyleTableRecord
  2
STANDARD
 70
     0
  3

  4

  5

  6

  7

 40
1.0
 41
0.18
 42
0.0625
 43
0.38
 44
0.18
 45
0.0
 46
0.0
 47
0.0
 48
0.0
140
0.18
141
0.09
142
0.0
143
25.4
144
1.0
145
0.0
146
1.0
147
0.09
 71
     0
 72
     0
 73
     1
 74
     1
 75
     0
 76
     0
 77
     0
 78
     0
170
     0
171
     2
172
     0
173
     0
174
     0
175
     0
176
     0
177
     0
178
     0
270
     2
271
     4
272
     4
273
     2
274
     2
340
10
275
     0
280
     0
281
     0
282
     0
283
     1
284
     0
285
     0
286
     0
287
     3
288
     0
  0
ENDTAB
  0
TABLE
  2
BLOCK_RECORD
  5
1
330
0
100
AcDbSymbolTable
 70
     2
  0
BLOCK_RECORD
  5
18
102
{ACAD_XDICTIONARY
360
1E5
102
}
330
1
100
AcDbSymbolTableRecord
100
AcDbBlockTableRecord
  2
*MODEL_SPACE
  0
BLOCK_RECORD
  5
15
102
{ACAD_XDICTIONARY
360
1E3
102
}
330
1
100
AcDbSymbolTableRecord
100
AcDbBlockTableRecord
  2
*PAPER_SPACE
  0
BLOCK_RECORD
  5
A0
330
1
100
AcDbSymbolTableRecord
100
AcDbBlockTableRecord
  2
*D0
  0
BLOCK_RECORD
  5
A5
330
1
100
AcDbSymbolTableRecord
100
AcDbBlockTableRecord
  2
*D1
  0
ENDTAB
  0
ENDSEC
  0
SECTION
  2
BLOCKS
  0
BLOCK
  5
AF
330
18
100
AcDbEntity
  8
0
100
AcDbBlockBegin
  2
*MODEL_SPACE
 70
     0
 10
0.0
 20
0.0
 30
0.0
  3
*MODEL_SPACE
  1

  0
ENDBLK
  5
B0
330
18
100
AcDbEntity
  8
0
100
AcDbBlockEnd
  0
BLOCK
  5
AD
330
15
100
AcDbEntity
 67
     1
  8
0
100
AcDbBlockBegin
  2
*PAPER_SPACE
 70
     0
 10
0.0
 20
0.0
 30
0.0
  3
*PAPER_SPACE
  1

  0
ENDBLK
  5
AE
330
15
100
AcDbEntity
 67
     1
  8
0
100
AcDbBlockEnd
  0
BLOCK
  5
B2
330
A0
100
AcDbEntity
  8
0
100
AcDbBlockBegin
  2
*D0
 70
     1
 10
0.0
 20
0.0
 30
0.0
  3
*D0
  1

  0
LINE
  5
B3
330
A0
100
AcDbEntity
  8
0
  6
BYBLOCK
 62
     0
100
AcDbLine
 10
44.81507046974956
 20
-27.75753535949126
 30
0.0
 11
47.14991651563217
 21
-27.75753535949126
 31
0.0
  0
LINE
  5
B4
330
A0
100
AcDbEntity
  8
0
  6
BYBLOCK
 62
     0
100
AcDbLine
 10
44.81507046974956
 20
-12.75753535949126
 30
0.0
 11
47.14991651563217
 21
-12.75753535949126
 31
0.0
  0
LINE
  5
B5
330
A0
100
AcDbEntity
  8
0
  6
BYBLOCK
 62
     0
100
AcDbLine
 10
46.96991651563218
 20
-27.75753535949126
 30
0.0
 11
46.96991651563218
 21
-20.46586869282459
 31
0.0
  0
LINE
  5
B6
330
A0
100
AcDbEntity
  8
0
  6
BYBLOCK
 62
     0
100
AcDbLine
 10
46.96991651563218
 20
-12.75753535949126
 30
0.0
 11
46.96991651563218
 21
-20.04920202615792
 31
0.0
  0
LINE
  5
B7
330
A0
100
AcDbEntity
  8
0
  6
BYBLOCK
 62
     0
100
AcDbLine
 10
47.09491651563218
 20
-27.88253535949126
 30
0.0
 11
46.84491651563218
 21
-27.63253535949126
 31
0.0
  0
LINE
  5
B8
330
A0
100
AcDbEntity
  8
0
  6
BYBLOCK
 62
     0
100
AcDbLine
 10
47.09491651563218
 20
-12.88253535949126
 30
0.0
 11
46.84491651563218
 21
-12.63253535949126
 31
0.0
  0
TEXT
  5
B9
330
A0
100
AcDbEntity
  8
0
  6
BYBLOCK
 62
     0
100
AcDbText
 10
47.03241651563217
 20
-20.34086869282459
 30
0.0
 40
0.125
  1
15
 50
90.0
 72
     1
 11
46.96991651563218
 21
-20.25753535949126
 31
0.0
100
AcDbText
 73
     2
  0
POINT
  5
BA
330
A0
100
AcDbEntity
  8
DEFPOINTS
  6
BYBLOCK
 62
     0
100
AcDbPoint
 10
44.75257046974956
 20
-27.75753535949126
 30
0.0
  0
POINT
  5
BB
330
A0
100
AcDbEntity
  8
DEFPOINTS
  6
BYBLOCK
 62
     0
100
AcDbPoint
 10
44.75257046974956
 20
-12.75753535949126
 30
0.0
  0
POINT
  5
BC
330
A0
100
AcDbEntity
  8
DEFPOINTS
  6
BYBLOCK
 62
     0
100
AcDbPoint
 10
46.96991651563218
 20
-12.75753535949126
 30
0.0
  0
ENDBLK
  5
BD
330
A0
100
AcDbEntity
  8
0
100
AcDbBlockEnd
  0
BLOCK
  5
BE
330
A5
100
AcDbEntity
  8
0
100
AcDbBlockBegin
  2
*D1
 70
     1
 10
0.0
 20
0.0
 30
0.0
  3
*D1
  1

  0
LINE
  5
BF
330
A5
100
AcDbEntity
  8
0
  6
BYBLOCK
 62
     0
100
AcDbLine
 10
39.61728341518555
 20
-17.94244027920844
 30
0.0
 11
39.61728341518555
 21
-12.04266429361065
 31
0.0
  0
LINE
  5
C0
330
A5
100
AcDbEntity
  8
0
  6
BYBLOCK
 62
     0
100
AcDbLine
 10
46.61728341518555
 20
-18.12896544286851
 30
0.0
 11
46.61728341518555
 21
-12.04266429361065
 31
0.0
  0
LINE
  5
C1
330
A5
100
AcDbEntity
  8
0
  6
BYBLOCK
 62
     0
100
AcDbLine
 10
39.61728341518555
 20
-12.22266429361065
 30
0.0
 11
42.95061674851889
 21
-12.22266429361065
 31
0.0
  0
LINE
  5
C2
330
A5
100
AcDbEntity
  8
0
  6
BYBLOCK
 62
     0
100
AcDbLine
 10
46.61728341518555
 20
-12.22266429361065
 30
0.0
 11
43.28395008185221
 21
-12.22266429361065
 31
0.0
  0
LINE
  5
C3
330
A5
100
AcDbEntity
  8
0
  6
BYBLOCK
 62
     0
100
AcDbLine
 10
39.49228341518555
 20
-12.34766429361065
 30
0.0
 11
39.74228341518555
 21
-12.09766429361065
 31
0.0
  0
LINE
  5
C4
330
A5
100
AcDbEntity
  8
0
  6
BYBLOCK
 62
     0
100
AcDbLine
 10
46.49228341518555
 20
-12.34766429361065
 30
0.0
 11
46.74228341518555
 21
-12.09766429361065
 31
0.0
  0
TEXT
  5
C5
330
A5
100
AcDbEntity
  8
0
  6
BYBLOCK
 62
     0
100
AcDbText
 10
43.07561674851888
 20
-12.28516429361065
 30
0.0
 40
0.125
  1
7
 72
     1
 11
43.11728341518555
 21
-12.22266429361065
 31
0.0
100
AcDbText
 73
     2
  0
POINT
  5
C6
330
A5
100
AcDbEntity
  8
DEFPOINTS
  6
BYBLOCK
 62
     0
100
AcDbPoint
 10
39.61728341518555
 20
-18.00494027920844
 30
0.0
  0
POINT
  5
C7
330
A5
100
AcDbEntity
  8
DEFPOINTS
  6
BYBLOCK
 62
     0
100
AcDbPoint
 10
46.61728341518555
 20
-18.19146544286851
 30
0.0
  0
POINT
  5
C8
330
A5
100
AcDbEntity
  8
DEFPOINTS
  6
BYBLOCK
 62
     0
100
AcDbPoint
 10
46.61728341518555
 20
-12.22266429361065
 30
0.0
  0
ENDBLK
  5
C9
330
A5
100
AcDbEntity
  8
0
100
AcDbBlockEnd
  0
ENDSEC
  0
SECTION
  2
ENTITIES
  0
LWPOLYLINE
  5
CA
330
18
100
AcDbEntity
  8
0
100
AcDbPolyline
 90
        4
 70
     1
 43
0.0
 10
45.54892505204853
 20
-19.81433090083007
 10
45.54892505204853
 20
-20.85364403749801
 10
45.17286882248822
 20
-20.85364403749801
 10
45.17286882248822
 20
-19.81433090083007
  0
ARC
  5
D0
330
18
100
AcDbEntity
  8
0
100
AcDbCircle
 10
44.81852091046339
 20
-18.70204600403455
 30
0.0
 40
1.907908240252083
100
AcDbArc
 50
355.8126680645258
 51
89.98761108018747
  0
ARC
  5
D1
330
18
100
AcDbEntity
  8
0
100
AcDbCircle
 10
44.6347835231506
 20
-18.89596079164175
 30
0.0
 40
1.803035014304251
100
AcDbArc
 50
24.23493603469489
 51
87.66228758498511
  0
LWPOLYLINE
  5
D2
330
18
100
AcDbEntity
  8
0
100
AcDbPolyline
 90
       11
 70
     0
 43
0.0
 10
43.40319156905589
 20
-13.93226102820269
 42
-0.4876098393307958
 10
44.75257046974956
 20
-12.93717408598808
 42
-0.271813720470718
 10
45.3719573670932
 20
-13.57845238494554
 42
-0.5337607096694013
 10
44.61984450409354
 20
-14.39663515759315
 42
-0.3850893303980935
 10
44.3322721170109
 20
-14.04282621021286
 42
-0.0964883673045349
 10
44.3986350998389
 20
-13.77746965173921
 42
-1.162955940246555
 10
44.53136066161587
 20
-13.86592204064585
 42
0.6527353444361348
 10
44.61984450409354
 20
-14.06493930743952
 42
0.6851080146476085
 10
44.90741729505524
 20
-13.31309582647189
 42
0.3054772119653585
 10
44.28802999383253
 20
-13.22464374168838
 42
0.2252433047630824
 10
43.71977236935483
 20
-13.93226102820269
 42
0.2724132767441017
  0
LWPOLYLINE
  5
DF
330
18
100
AcDbEntity
  8
0
100
AcDbPolyline
 90
       11
 70
     0
 43
0.0
 10
43.40319156905589
 20
-26.71360081289872
 42
0.4876098393307958
 10
44.75257046974956
 20
-27.70868775511334
 42
0.271813720470718
 10
45.3719573670932
 20
-27.06740945615587
 42
0.5337607096694013
 10
44.61984450409354
 20
-26.24922668350826
 42
0.3850893303980935
 10
44.3322721170109
 20
-26.60303563088856
 42
0.0964883673045349
 10
44.3986350998389
 20
-26.86839218936221
 42
1.162955940246555
 10
44.53136066161587
 20
-26.77993980045556
 42
-0.6527353444361348
 10
44.61984450409354
 20
-26.58092253366189
 42
-0.6851080146476085
 10
44.90741729505524
 20
-27.33276601462953
 42
-0.3054772119653585
 10
44.28802999383253
 20
-27.42121809941303
 42
-0.2252433047630824
 10
43.71977236935483
 20
-26.71360081289872
 42
-0.2724132767441017
  0
ARC
  5
EC
330
18
100
AcDbEntity
  8
0
100
AcDbCircle
 10
44.81852091046339
 20
-21.94381583706687
 30
0.0
 40
1.907908240252083
100
AcDbArc
 50
270.0123889198124
 51
4.18733193547417
  0
ARC
  5
ED
330
18
100
AcDbEntity
  8
0
100
AcDbCircle
 10
44.6347835231506
 20
-21.74990104945967
 30
0.0
 40
1.803035014304251
100
AcDbArc
 50
272.3377124150148
 51
335.765063965305
  0
DIMENSION
  5
EE
330
18
100
AcDbEntity
  8
ADPDIM
100
AcDbDimension
  2
*D1
 10
46.61728341518555
 20
-12.22266429361065
 30
0.0
 11
43.11728341518555
 21
-12.22266429361065
 31
0.0
100
AcDbAlignedDimension
 13
39.61728341518555
 23
-18.00494027920844
 33
0.0
 14
46.61728341518555
 24
-18.19146544286851
 34
0.0
100
AcDbRotatedDimension
  0
DIMENSION
  5
EF
330
18
100
AcDbEntity
  8
ADPDIM
100
AcDbDimension
  2
*D0
 10
46.96991651563218
 20
-12.75753535949126
 30
0.0
 11
46.96991651563218
 21
-20.25753535949126
 31
0.0
100
AcDbAlignedDimension
 13
44.75257046974956
 23
-27.75753535949126
 33
0.0
 14
44.75257046974956
 24
-12.75753535949126
 34
0.0
 50
90.0
100
AcDbRotatedDimension
  0
LINE
  5
F0
330
18
100
AcDbEntity
  8
0
100
AcDbLine
 10
44.50923980196622
 20
-19.96912227729355
 30
0.0
 11
44.17742529170522
 21
-20.30081782332405
 31
0.0
  0
LINE
  5
F1
330
18
100
AcDbEntity
  8
0
100
AcDbLine
 10
41.73472322501741
 20
-19.96912227729355
 30
0.0
 11
42.06653773527841
 21
-20.34504401777737
 31
0.0
  0
LWPOLYLINE
  5
F2
330
18
100
AcDbEntity
  8
0
100
AcDbPolyline
 90
        4
 70
     1
 43
0.0
 10
40.69503797493509
 20
-19.81433090083007
 10
40.69503797493509
 20
-20.85364403749801
 10
41.07109420449541
 20
-20.85364403749801
 10
41.07109420449541
 20
-19.81433090083007
  0
ARC
  5
F8
330
18
100
AcDbEntity
  8
0
100
AcDbCircle
 10
41.01674093114461
 20
-21.33021071705734
 30
0.0
 40
0.9682828610545094
100
AcDbArc
 50
315.9435558687188
 51
86.78208601042751
  0
LINE
  5
F9
330
18
100
AcDbEntity
  8
0
100
AcDbLine
 10
39.74383656733044
 20
-20.32293092055071
 30
0.0
 11
40.09777193724111
 21
-19.9470091800669
 31
0.0
  0
ARC
  5
FA
330
18
100
AcDbEntity
  8
0
100
AcDbCircle
 10
41.07811619597193
 20
-21.91838702227126
 30
0.0
 40
1.559652702310994
100
AcDbArc
 50
104.2183374527761
 51
175.8126680645258
  0
ARC
  5
FB
330
18
100
AcDbEntity
  8
0
100
AcDbCircle
 10
41.07811619597193
 20
-18.72747481883016
 30
0.0
 40
1.559652702310994
100
AcDbArc
 50
184.1873319354741
 51
255.7816625472238
  0
ARC
  5
FC
330
18
100
AcDbEntity
  8
0
100
AcDbCircle
 10
41.01674093114461
 20
-19.31565112404408
 30
0.0
 40
0.9682828610545094
100
AcDbArc
 50
273.2179139895725
 51
44.05644413128118
  0
ARC
  5
FD
330
18
100
AcDbEntity
  8
0
100
AcDbCircle
 10
45.22722209583902
 20
-19.31565112404408
 30
0.0
 40
0.9682828610545094
100
AcDbArc
 50
135.9435558687188
 51
266.7820860104275
  0
ARC
  5
FE
330
18
100
AcDbEntity
  8
0
100
AcDbCircle
 10
45.22722209583902
 20
-21.33021071705734
 30
0.0
 40
0.9682828610545094
100
AcDbArc
 50
93.21791398957248
 51
224.0564441312811
  0
LINE
  5
FF
330
18
100
AcDbEntity
  8
0
100
AcDbLine
 10
41.73472322501741
 20
-20.67673956380786
 30
0.0
 11
42.06653773527841
 21
-20.34504401777737
 31
0.0
  0
LWPOLYLINE
  5
100
330
18
100
AcDbEntity
  8
0
100
AcDbPolyline
 90
       11
 70
     0
 43
0.0
 10
42.84077145792774
 20
-26.71360081289872
 42
-0.4876098393307958
 10
41.49139255723407
 20
-27.70868775511334
 42
-0.271813720470718
 10
40.87200565989042
 20
-27.06740945615587
 42
-0.5337607096694013
 10
41.62411852289009
 20
-26.24922668350826
 42
-0.3850893303980935
 10
41.91169090997274
 20
-26.60303563088856
 42
-0.0964883673045349
 10
41.84532792714473
 20
-26.86839218936221
 42
-1.162955940246555
 10
41.71260236536776
 20
-26.77993980045556
 42
0.6527353444361348
 10
41.62411852289009
 20
-26.58092253366189
 42
0.6851080146476085
 10
41.33654573192839
 20
-27.33276601462953
 42
0.3054772119653585
 10
41.95593303315109
 20
-27.42121809941303
 42
0.2252433047630824
 10
42.52419065762881
 20
-26.71360081289872
 42
0.2724132767441017
  0
LWPOLYLINE
  5
10D
330
18
100
AcDbEntity
  8
0
100
AcDbPolyline
 90
        2
 70
     0
 43
0.0
 10
41.71260236536776
 20
-25.14357455928347
 42
-0.3878427128445944
 10
42.85092155773361
 20
-26.18288769595142
 42
0.0809032963243135
  0
LWPOLYLINE
  5
111
330
18
100
AcDbEntity
  8
0
100
AcDbPolyline
 90
        3
 70
     0
 43
0.0
 10
42.51359640465757
 20
-26.18288769595142
 42
0.0876017017656093
 10
42.35411012236105
 20
-25.85119214992092
 42
0.2630425461637331
 10
41.43091288058116
 20
-25.42622112619505
 42
0.9999999772764267
  0
LINE
  5
116
330
18
100
AcDbEntity
  8
0
100
AcDbLine
 10
41.71260236536776
 20
-23.55143551256471
 30
0.0
 11
41.71260236536776
 21
-25.14357455928347
 31
0.0
  0
LWPOLYLINE
  5
117
330
18
100
AcDbEntity
  8
0
100
AcDbPolyline
 90
        2
 70
     0
 43
0.0
 10
41.42502957440606
 20
-25.43104421498378
 10
41.42502957440606
 20
-23.85172403271748
  0
ARC
  5
11B
330
18
100
AcDbEntity
  8
0
100
AcDbCircle
 10
41.1658555215279
 20
-21.94946374985771
 30
0.0
 40
1.316864854095872
100
AcDbArc
 50
110.9485288070238
 51
204.2349360346948
  0
ARC
  5
11C
330
18
100
AcDbEntity
  8
0
100
AcDbCircle
 10
41.42544211652024
 20
-21.94381583706687
 30
0.0
 40
1.907908240252083
100
AcDbArc
 50
175.8126680645258
 51
269.9876110801874
  0
ARC
  5
11D
330
18
100
AcDbEntity
  8
0
100
AcDbCircle
 10
41.60917950383303
 20
-21.74990104945967
 30
0.0
 40
1.803035014304251
100
AcDbArc
 50
204.2349360346948
 51
267.662287584985
  0
LINE
  5
11E
330
18
100
AcDbEntity
  8
0
100
AcDbLine
 10
39.74383656733044
 20
-20.32293092055071
 30
0.0
 11
40.09777193724111
 21
-20.69885266103452
 31
0.0
  0
LINE
  5
11F
330
18
100
AcDbEntity
  8
0
100
AcDbLine
 10
41.54552527455824
 20
-23.5518357386096
 30
0.0
 11
41.71260236536776
 21
-23.55143551256471
 31
0.0
  0
ARC
  5
120
330
18
100
AcDbEntity
  8
0
100
AcDbCircle
 10
41.2765113351634
 20
-21.58156310982171
 30
0.0
 40
0.6068154515243313
100
AcDbArc
 50
233.5803129424968
 51
315.9435558687187
  0
ARC
  5
121
330
18
100
AcDbEntity
  8
0
100
AcDbCircle
 10
41.26500076318408
 20
-21.60082363064877
 30
0.0
 40
0.3357250335215492
100
AcDbArc
 50
212.7397298150759
 51
312.4026814570233
  0
ARC
  5
122
330
18
100
AcDbEntity
  8
0
100
AcDbCircle
 10
41.06011297942231
 20
-21.37646396451733
 30
0.0
 40
0.6395609493073881
100
AcDbArc
 50
312.4026814570232
 51
89.01618638585105
  0
ARC
  5
123
330
18
100
AcDbEntity
  8
0
100
AcDbCircle
 10
41.07920017445183
 20
-21.84899702242892
 30
0.0
 40
0.2744713651413412
100
AcDbArc
 50
175.3231724154865
 51
233.5803129424968
  0
ARC
  5
124
330
18
100
AcDbEntity
  8
0
100
AcDbCircle
 10
40.90161495137949
 20
-21.83446916412907
 30
0.0
 40
0.0962928868662246
100
AcDbArc
 50
32.73972981507589
 51
175.3231724154871
  0
LWPOLYLINE
  5
125
330
18
100
AcDbEntity
  8
0
100
AcDbPolyline
 90
        2
 70
     0
 43
0.0
 10
44.53136066161587
 20
-25.14357455928347
 42
0.3878427128445944
 10
43.39304146925001
 20
-26.18288769595142
 42
-0.0809032963243135
  0
LINE
  5
129
330
18
100
AcDbEntity
  8
0
100
AcDbLine
 10
44.53136066161587
 20
-23.55143551256471
 30
0.0
 11
44.53136066161587
 21
-25.14357455928347
 31
0.0
  0
LWPOLYLINE
  5
12A
330
18
100
AcDbEntity
  8
0
100
AcDbPolyline
 90
        2
 70
     0
 43
0.0
 10
44.81893345257757
 20
-25.43104421498378
 10
44.81893345257757
 20
-23.85172403271748
  0
LWPOLYLINE
  5
12E
330
18
100
AcDbEntity
  8
0
100
AcDbPolyline
 90
        3
 70
     0
 43
0.0
 10
43.73036662232606
 20
-26.18288769595142
 42
-0.0876017017656093
 10
43.88985290462257
 20
-25.85119214992092
 42
-0.2630425461637331
 10
44.81305014640247
 20
-25.42622112619505
 42
-0.9999999772764267
  0
LWPOLYLINE
  5
133
330
18
100
AcDbEntity
  8
0
100
AcDbPolyline
 90
        4
 70
     1
 43
0.0
 10
42.37623098201071
 20
-26.71360081289872
 10
42.37623098201071
 20
-26.18288769595142
 10
43.85833584836039
 20
-26.18288769595142
 10
43.85833584836039
 20
-26.71360081289872
  0
LINE
  5
139
330
18
100
AcDbEntity
  8
0
100
AcDbLine
 10
44.69843775242539
 20
-23.5518357386096
 30
0.0
 11
44.53136066161587
 21
-23.55143551256471
 31
0.0
  0
ARC
  5
13A
330
18
100
AcDbEntity
  8
0
100
AcDbCircle
 10
44.96745169182022
 20
-21.58156310982171
 30
0.0
 40
0.6068154515243313
100
AcDbArc
 50
224.0564441312812
 51
306.4196870575031
  0
ARC
  5
13B
330
18
100
AcDbEntity
  8
0
100
AcDbCircle
 10
45.18385004756132
 20
-21.37646396451733
 30
0.0
 40
0.6395609493073881
100
AcDbArc
 50
90.98381361414896
 51
227.5973185429767
  0
LINE
  5
13C
330
18
100
AcDbEntity
  8
0
100
AcDbLine
 10
44.50923980196622
 20
-20.67673956380786
 30
0.0
 11
44.17742529170522
 21
-20.31281127395061
 31
0.0
  0
ARC
  5
13D
330
18
100
AcDbEntity
  8
0
100
AcDbCircle
 10
45.16476285253179
 20
-21.84899702242892
 30
0.0
 40
0.2744713651413412
100
AcDbArc
 50
306.4196870575031
 51
4.67682758451351
  0
ARC
  5
13E
330
18
100
AcDbEntity
  8
0
100
AcDbCircle
 10
45.34234807560414
 20
-21.83446916412907
 30
0.0
 40
0.0962928868662246
100
AcDbArc
 50
4.676827584512848
 51
147.2602701849241
  0
ARC
  5
13F
330
18
100
AcDbEntity
  8
0
100
AcDbCircle
 10
44.97896226379955
 20
-21.60082363064877
 30
0.0
 40
0.3357250335215492
100
AcDbArc
 50
227.5973185429766
 51
327.260270184924
  0
LWPOLYLINE
  5
140
330
18
100
AcDbEntity
  8
0
100
AcDbPolyline
 90
        3
 70
     0
 43
0.0
 10
42.51359640465757
 20
-14.46297414515
 42
-0.0876017017656093
 10
42.35411012236105
 20
-14.7946696911805
 42
-0.2630425461637331
 10
41.43091288058116
 20
-15.21964071490636
 42
-0.9999999772764267
  0
LWPOLYLINE
  5
145
330
18
100
AcDbEntity
  8
0
100
AcDbPolyline
 90
        2
 70
     0
 43
0.0
 10
41.71260236536776
 20
-15.50228728181794
 42
0.3878427128445944
 10
42.85092155773361
 20
-14.46297414515
 42
-0.0809032963243135
  0
LWPOLYLINE
  5
149
330
18
100
AcDbEntity
  8
0
100
AcDbPolyline
 90
       11
 70
     0
 43
0.0
 10
42.84077145792774
 20
-13.93226102820269
 42
0.4876098393307958
 10
41.49139255723407
 20
-12.93717408598808
 42
0.271813720470718
 10
40.87200565989042
 20
-13.57845238494554
 42
0.5337607096694013
 10
41.62411852289009
 20
-14.39663515759315
 42
0.3850893303980935
 10
41.91169090997274
 20
-14.04282621021286
 42
0.0964883673045349
 10
41.84532792714473
 20
-13.77746965173921
 42
1.162955940246555
 10
41.71260236536776
 20
-13.86592204064585
 42
-0.6527353444361348
 10
41.62411852289009
 20
-14.06493930743952
 42
-0.6851080146476085
 10
41.33654573192839
 20
-13.31309582647189
 42
-0.3054772119653585
 10
41.95593303315109
 20
-13.22464374168838
 42
-0.2252433047630824
 10
42.52419065762881
 20
-13.93226102820269
 42
-0.2724132767441017
  0
LWPOLYLINE
  5
156
330
18
100
AcDbEntity
  8
0
100
AcDbPolyline
 90
        2
 70
     0
 43
0.0
 10
41.42502957440606
 20
-15.21481762611763
 10
41.42502957440606
 20
-16.79413780838393
  0
ARC
  5
15A
330
18
100
AcDbEntity
  8
0
100
AcDbCircle
 10
41.42544211652024
 20
-18.70204600403455
 30
0.0
 40
1.907908240252083
100
AcDbArc
 50
90.01238891981254
 51
184.1873319354742
  0
ARC
  5
15B
330
18
100
AcDbEntity
  8
0
100
AcDbCircle
 10
41.60917950383303
 20
-18.89596079164175
 30
0.0
 40
1.803035014304251
100
AcDbArc
 50
92.33771241501491
 51
155.7650639653051
  0
ARC
  5
15C
330
18
100
AcDbEntity
  8
0
100
AcDbCircle
 10
41.1658555215279
 20
-18.69639809124371
 30
0.0
 40
1.316864854095872
100
AcDbArc
 50
155.765063965305
 51
249.0514711929761
  0
ARC
  5
15D
330
18
100
AcDbEntity
  8
0
100
AcDbCircle
 10
41.2765113351634
 20
-19.0642987312797
 30
0.0
 40
0.6068154515243313
100
AcDbArc
 50
44.05644413128121
 51
126.4196870575031
  0
ARC
  5
15E
330
18
100
AcDbEntity
  8
0
100
AcDbCircle
 10
41.26500076318408
 20
-19.04503821045265
 30
0.0
 40
0.3357250335215492
100
AcDbArc
 50
47.59731854297666
 51
147.260270184924
  0
ARC
  5
15F
330
18
100
AcDbEntity
  8
0
100
AcDbCircle
 10
41.06011297942231
 20
-19.26939787658408
 30
0.0
 40
0.6395609493073881
100
AcDbArc
 50
270.9838136141489
 51
47.59731854297674
  0
ARC
  5
160
330
18
100
AcDbEntity
  8
0
100
AcDbCircle
 10
41.07920017445183
 20
-18.79686481867249
 30
0.0
 40
0.2744713651413412
100
AcDbArc
 50
126.4196870575031
 51
184.6768275845134
  0
ARC
  5
161
330
18
100
AcDbEntity
  8
0
100
AcDbCircle
 10
40.90161495137949
 20
-18.81139267697235
 30
0.0
 40
0.0962928868662246
100
AcDbArc
 50
184.6768275845128
 51
327.2602701849241
  0
LINE
  5
162
330
18
100
AcDbEntity
  8
0
100
AcDbLine
 10
41.54552527455824
 20
-17.09402610249182
 30
0.0
 11
41.71260236536776
 21
-17.09442632853671
 31
0.0
  0
LINE
  5
163
330
18
100
AcDbEntity
  8
0
100
AcDbLine
 10
41.71260236536776
 20
-17.09442632853671
 30
0.0
 11
41.71260236536776
 21
-15.50228728181794
 31
0.0
  0
LWPOLYLINE
  5
164
330
18
100
AcDbEntity
  8
0
100
AcDbPolyline
 90
        2
 70
     0
 43
0.0
 10
44.53136066161587
 20
-15.50228728181794
 42
-0.3878427128445944
 10
43.39304146925001
 20
-14.46297414515
 42
0.0809032963243135
  0
LWPOLYLINE
  5
168
330
18
100
AcDbEntity
  8
0
100
AcDbPolyline
 90
        2
 70
     0
 43
0.0
 10
44.81893345257757
 20
-15.21481762611763
 10
44.81893345257757
 20
-16.79413780838393
  0
ARC
  5
16C
330
18
100
AcDbEntity
  8
0
100
AcDbCircle
 10
45.18385004756132
 20
-19.26939787658408
 30
0.0
 40
0.6395609493073881
100
AcDbArc
 50
132.4026814570232
 51
269.016186385851
  0
ARC
  5
16D
330
18
100
AcDbEntity
  8
0
100
AcDbCircle
 10
44.96745169182022
 20
-19.0642987312797
 30
0.0
 40
0.6068154515243313
100
AcDbArc
 50
53.58031294249688
 51
135.9435558687187
  0
ARC
  5
16E
330
18
100
AcDbEntity
  8
0
100
AcDbCircle
 10
45.16476285253179
 20
-18.79686481867249
 30
0.0
 40
0.2744713651413412
100
AcDbArc
 50
355.3231724154865
 51
53.58031294249682
  0
ARC
  5
16F
330
18
100
AcDbEntity
  8
0
100
AcDbCircle
 10
45.34234807560414
 20
-18.81139267697235
 30
0.0
 40
0.0962928868662246
100
AcDbArc
 50
212.7397298150759
 51
355.3231724154871
  0
ARC
  5
170
330
18
100
AcDbEntity
  8
0
100
AcDbCircle
 10
44.97896226379955
 20
-19.04503821045265
 30
0.0
 40
0.3357250335215492
100
AcDbArc
 50
32.73972981507594
 51
132.4026814570233
  0
LINE
  5
171
330
18
100
AcDbEntity
  8
0
100
AcDbLine
 10
44.69843775242539
 20
-17.09402610249182
 30
0.0
 11
44.53136066161587
 21
-17.09442632853671
 31
0.0
  0
LINE
  5
172
330
18
100
AcDbEntity
  8
0
100
AcDbLine
 10
44.53136066161587
 20
-17.09442632853671
 30
0.0
 11
44.53136066161587
 21
-15.50228728181794
 31
0.0
  0
LWPOLYLINE
  5
173
330
18
100
AcDbEntity
  8
0
100
AcDbPolyline
 90
        3
 70
     0
 43
0.0
 10
43.73036662232606
 20
-14.46297414515
 42
0.0876017017656093
 10
43.88985290462257
 20
-14.7946696911805
 42
0.2630425461637331
 10
44.81305014640247
 20
-15.21964071490636
 42
0.9999999772764267
  0
LWPOLYLINE
  5
178
330
18
100
AcDbEntity
  8
0
100
AcDbPolyline
 90
        4
 70
     1
 43
0.0
 10
42.37623098201071
 20
-13.93226102820269
 10
42.37623098201071
 20
-14.46297414515
 10
43.85833584836039
 20
-14.46297414515
 10
43.85833584836039
 20
-13.93226102820269
  0
LINE
  5
17E
330
18
100
AcDbEntity
  8
0
100
AcDbLine
 10
46.50012645965318
 20
-20.32293092055071
 30
0.0
 11
46.14619108974252
 21
-19.9470091800669
 31
0.0
  0
ARC
  5
17F
330
18
100
AcDbEntity
  8
0
100
AcDbCircle
 10
45.1658468310117
 20
-21.91838702227126
 30
0.0
 40
1.559652702310994
100
AcDbArc
 50
4.187331935474119
 51
75.78166254722389
  0
ARC
  5
180
330
18
100
AcDbEntity
  8
0
100
AcDbCircle
 10
45.1658468310117
 20
-18.72747481883016
 30
0.0
 40
1.559652702310994
100
AcDbArc
 50
284.2183374527761
 51
355.8126680645258
  0
LINE
  5
181
330
18
100
AcDbEntity
  8
0
100
AcDbLine
 10
46.50012645965318
 20
-20.32293092055071
 30
0.0
 11
46.14619108974252
 21
-20.69885266103452
 31
0.0
  0
ARC
  5
182
330
18
100
AcDbEntity
  8
0
100
AcDbCircle
 10
45.07810750545573
 20
-21.94946374985771
 30
0.0
 40
1.316864854095872
100
AcDbArc
 50
335.765063965305
 51
69.05147119297613
  0
ARC
  5
183
330
18
100
AcDbEntity
  8
0
100
AcDbCircle
 10
45.07810750545573
 20
-18.69639809124371
 30
0.0
 40
1.316864854095872
100
AcDbArc
 50
290.9485288070238
 51
24.23493603469491
  0
TEXT
  5
191
330
18
100
AcDbEntity
  8
ADPDIM
100
AcDbText
 10
23.78573891762082
 20
-28.7330594385791
 30
0.0
 40
0.375
  1
J U L I U S  B L U M  &  C O . ,  I N C .      ( 8 0 0 )  5 2 6 - 6 2 9 3        W W W . J U L I U S B L U M . C O M        P A R T  N o .  5 5 9
 41
1.25
  7
ARIAL_WIDE
 72
     1
 11
43.08986153017198
 21
-28.3580594385791
 31
0.0
100
AcDbText
 73
     3
  0
ENDSEC
  0
SECTION
  2
OBJECTS
  0
DICTIONARY
  5
C
330
0
100
AcDbDictionary
  3
ACAD_GROUP
350
D
  3
ACAD_LAYOUT
350
18A
  3
ACAD_MLINESTYLE
350
E
  3
ACAD_PLOTSETTINGS
350
18B
  3
ACAD_PLOTSTYLENAME
350
188
  3
ACDBHEADERROUNDTRIPXREC
350
2D9
  3
ACDBVARIABLEDICTIONARY
350
1EB
  0
DICTIONARY
  5
1E5
330
18
100
AcDbDictionary
280
     1
  3
ACAD_LAYOUTSELFREF
360
2FA
  0
DICTIONARY
  5
1E3
330
15
100
AcDbDictionary
280
     1
  3
ACAD_LAYOUTSELFREF
360
2F9
  0
DICTIONARY
  5
D
102
{ACAD_REACTORS
330
C
102
}
330
C
100
AcDbDictionary
  0
DICTIONARY
  5
18A
102
{ACAD_REACTORS
330
C
102
}
330
C
100
AcDbDictionary
  0
DICTIONARY
  5
E
102
{ACAD_REACTORS
330
C
102
}
330
C
100
AcDbDictionary
  3
STANDARD
350
1B
  0
DICTIONARY
  5
18B
102
{ACAD_REACTORS
330
C
102
}
330
C
100
AcDbDictionary
  0
ACDBDICTIONARYWDFLT
  5
188
102
{ACAD_REACTORS
330
C
102
}
330
C
100
AcDbDictionary
281
     1
  3
Normal
350
189
100
AcDbDictionaryWithDefault
340
189
  0
DICTIONARY
  5
2D9
102
{ACAD_REACTORS
330
C
102
}
330
C
100
AcDbDictionary
  3
CEPSNTYPE
350
2E3
  3
FINGERPRINTGUID
350
2E4
  3
HYPERLINKBASE
350
2DC
  3
INSUNITS
350
2E2
  3
LAYOUTDICT
350
2DE
  3
LWETCUNION
350
2E1
  3
PLOTSETDICT
350
2DF
  3
PLOTSTYLNAMDICT
350
2E0
  3
PSVPSCALE
350
2E6
  3
PUCSBASE
350
2E9
  3
PUCSORGBACK
350
2EF
  3
PUCSORGBOTTOM
350
2EB
  3
PUCSORGFRONT
350
2EE
  3
PUCSORGLEFT
350
2EC
  3
PUCSORGRIGHT
350
2ED
  3
PUCSORGTOP
350
2EA
  3
PUCSORTHOREF
350
2E7
  3
PUCSORTHOVIEW
350
2E8
  3
STYLESHEET
350
2DD
  3
TSTACKALIGN
350
2DA
  3
TSTACKSIZE
350
2DB
  3
UCSBASE
350
2F2
  3
UCSORGBACK
350
2F8
  3
UCSORGBOTTOM
350
2F4
  3
UCSORGFRONT
350
2F7
  3
UCSORGLEFT
350
2F5
  3
UCSORGRIGHT
350
2F6
  3
UCSORGTOP
350
2F3
  3
UCSORTHOREF
350
2F0
  3
UCSORTHOVIEW
350
2F1
  3
VERSIONGUID
350
2E5
  0
DICTIONARY
  5
1EB
102
{ACAD_REACTORS
330
C
102
}
330
C
100
AcDbDictionary
  3
DIMASSOC
350
1EC
  0
XRECORD
  5
2FA
102
{ACAD_REACTORS
330
1E5
102
}
330
1E5
100
AcDbXrecord
340
18
  0
XRECORD
  5
2F9
102
{ACAD_REACTORS
330
1E3
102
}
330
1E3
100
AcDbXrecord
340
15
  0
MLINESTYLE
  5
1B
102
{ACAD_REACTORS
330
E
102
}
330
E
100
AcDbMlineStyle
  2
STANDARD
 70
     0
  3

 62
     0
 51
90.0
 52
90.0
 71
     2
 49
0.5
 62
   256
  6
BYLAYER
 49
-0.5
 62
   256
  6
BYLAYER
  0
ACDBPLACEHOLDER
  5
189
102
{ACAD_REACTORS
330
188
102
}
330
188
100
AcDbPlaceHolder
280
     0
  0
XRECORD
  5
2E3
102
{ACAD_REACTORS
330
2D9
102
}
330
2D9
100
AcDbXrecord
 90
        0
  0
XRECORD
  5
2E4
102
{ACAD_REACTORS
330
2D9
102
}
330
2D9
100
AcDbXrecord
  1
{E8602E27-11C5-4DB1-B1D1-A21EE469B2A2}
  0
XRECORD
  5
2DC
102
{ACAD_REACTORS
330
2D9
102
}
330
2D9
100
AcDbXrecord
  1

  0
XRECORD
  5
2E2
102
{ACAD_REACTORS
330
2D9
102
}
330
2D9
100
AcDbXrecord
 90
        0
  0
XRECORD
  5
2DE
102
{ACAD_REACTORS
330
2D9
102
}
330
2D9
100
AcDbXrecord
340
18A
  0
XRECORD
  5
2E1
102
{ACAD_REACTORS
330
2D9
102
}
330
2D9
100
AcDbXrecord
 90
    14877
  0
XRECORD
  5
2DF
102
{ACAD_REACTORS
330
2D9
102
}
330
2D9
100
AcDbXrecord
340
18B
  0
XRECORD
  5
2E0
102
{ACAD_REACTORS
330
2D9
102
}
330
2D9
100
AcDbXrecord
340
188
  0
XRECORD
  5
2E6
102
{ACAD_REACTORS
330
2D9
102
}
330
2D9
100
AcDbXrecord
 40
0.0
  0
XRECORD
  5
2E9
102
{ACAD_REACTORS
330
2D9
102
}
330
2D9
100
AcDbXrecord
340
0
  0
XRECORD
  5
2EF
102
{ACAD_REACTORS
330
2D9
102
}
330
2D9
100
AcDbXrecord
 10
0.0
 20
0.0
 30
0.0
  0
XRECORD
  5
2EB
102
{ACAD_REACTORS
330
2D9
102
}
330
2D9
100
AcDbXrecord
 10
0.0
 20
0.0
 30
0.0
  0
XRECORD
  5
2EE
102
{ACAD_REACTORS
330
2D9
102
}
330
2D9
100
AcDbXrecord
 10
0.0
 20
0.0
 30
0.0
  0
XRECORD
  5
2EC
102
{ACAD_REACTORS
330
2D9
102
}
330
2D9
100
AcDbXrecord
 10
0.0
 20
0.0
 30
0.0
  0
XRECORD
  5
2ED
102
{ACAD_REACTORS
330
2D9
102
}
330
2D9
100
AcDbXrecord
 10
0.0
 20
0.0
 30
0.0
  0
XRECORD
  5
2EA
102
{ACAD_REACTORS
330
2D9
102
}
330
2D9
100
AcDbXrecord
 10
0.0
 20
0.0
 30
0.0
  0
XRECORD
  5
2E7
102
{ACAD_REACTORS
330
2D9
102
}
330
2D9
100
AcDbXrecord
340
0
  0
XRECORD
  5
2E8
102
{ACAD_REACTORS
330
2D9
102
}
330
2D9
100
AcDbXrecord
 70
     0
  0
XRECORD
  5
2DD
102
{ACAD_REACTORS
330
2D9
102
}
330
2D9
100
AcDbXrecord
  1

  0
XRECORD
  5
2DA
102
{ACAD_REACTORS
330
2D9
102
}
330
2D9
100
AcDbXrecord
 90
        1
  0
XRECORD
  5
2DB
102
{ACAD_REACTORS
330
2D9
102
}
330
2D9
100
AcDbXrecord
 90
       70
  0
XRECORD
  5
2F2
102
{ACAD_REACTORS
330
2D9
102
}
330
2D9
100
AcDbXrecord
340
0
  0
XRECORD
  5
2F8
102
{ACAD_REACTORS
330
2D9
102
}
330
2D9
100
AcDbXrecord
 10
0.0
 20
0.0
 30
0.0
  0
XRECORD
  5
2F4
102
{ACAD_REACTORS
330
2D9
102
}
330
2D9
100
AcDbXrecord
 10
0.0
 20
0.0
 30
0.0
  0
XRECORD
  5
2F7
102
{ACAD_REACTORS
330
2D9
102
}
330
2D9
100
AcDbXrecord
 10
0.0
 20
0.0
 30
0.0
  0
XRECORD
  5
2F5
102
{ACAD_REACTORS
330
2D9
102
}
330
2D9
100
AcDbXrecord
 10
0.0
 20
0.0
 30
0.0
  0
XRECORD
  5
2F6
102
{ACAD_REACTORS
330
2D9
102
}
330
2D9
100
AcDbXrecord
 10
0.0
 20
0.0
 30
0.0
  0
XRECORD
  5
2F3
102
{ACAD_REACTORS
330
2D9
102
}
330
2D9
100
AcDbXrecord
 10
0.0
 20
0.0
 30
0.0
  0
XRECORD
  5
2F0
102
{ACAD_REACTORS
330
2D9
102
}
330
2D9
100
AcDbXrecord
340
0
  0
XRECORD
  5
2F1
102
{ACAD_REACTORS
330
2D9
102
}
330
2D9
100
AcDbXrecord
 70
     0
  0
XRECORD
  5
2E5
102
{ACAD_REACTORS
330
2D9
102
}
330
2D9
100
AcDbXrecord
  1
{15165B66-D440-4F6D-89C7-D958A698CF3E}
  0
DICTIONARYVAR
  5
1EC
102
{ACAD_REACTORS
330
1EB
102
}
330
1EB
100
DictionaryVariables
280
     0
  1
1
  0
ENDSEC
  0
EOF
