  0
SECTION
  2
HEADER
  9
$ACADVER
  1
AC1014
  9
$ACADMAINTVER
 70
     9
  9
$DWGCODEPAGE
  3
ANSI_1252
  9
$INSBASE
 10
15.62310217966353
 20
-30.44839360243127
 30
0.0
  9
$EXTMIN
 10
-12.73951863004352
 20
-32.1641133246878
 30
0.0
  9
$EXTMAX
 10
38.7381416700929
 20
-1.563419116692903
 30
0.0
  9
$LIMMIN
 10
0.0
 20
0.0
  9
$LIMMAX
 10
36.0
 20
36.0
  9
$ORTHOMODE
 70
     1
  9
$REGENMODE
 70
     1
  9
$FILLMODE
 70
     1
  9
$QTEXTMODE
 70
     0
  9
$MIRRTEXT
 70
     1
  9
$DRAGMODE
 70
     0
  9
$LTSCALE
 40
1.0
  9
$OSMODE
 70
    37
  9
$ATTMODE
 70
     1
  9
$TEXTSIZE
 40
0.2
  9
$TRACEWID
 40
0.05
  9
$TEXTSTYLE
  7
STANDARD
  9
$CLAYER
  8
ADPDIM
  9
$CELTYPE
  6
BYLAYER
  9
$CECOLOR
 62
   256
  9
$CELTSCALE
 40
1.0
  9
$DELOBJ
 70
     1
  9
$DISPSILH
 70
     0
  9
$DIMSCALE
 40
1.0
  9
$DIMASZ
 40
0.125
  9
$DIMEXO
 40
0.0625
  9
$DIMDLI
 40
0.38
  9
$DIMRND
 40
0.0
  9
$DIMDLE
 40
0.0
  9
$DIMEXE
 40
0.18
  9
$DIMTP
 40
0.0
  9
$DIMTM
 40
0.0
  9
$DIMTXT
 40
0.125
  9
$DIMCEN
 40
0.1875
  9
$DIMTSZ
 40
0.125
  9
$DIMTOL
 70
     0
  9
$DIMLIM
 70
     0
  9
$DIMTIH
 70
     0
  9
$DIMTOH
 70
     0
  9
$DIMSE1
 70
     0
  9
$DIMSE2
 70
     0
  9
$DIMTAD
 70
     0
  9
$DIMZIN
 70
     3
  9
$DIMBLK
  1

  9
$DIMASO
 70
     1
  9
$DIMSHO
 70
     1
  9
$DIMPOST
  1

  9
$DIMAPOST
  1

  9
$DIMALT
 70
     0
  9
$DIMALTD
 70
     1
  9
$DIMALTF
 40
25.4
  9
$DIMLFAC
 40
1.0
  9
$DIMTOFL
 70
     0
  9
$DIMTVP
 40
0.0
  9
$DIMTIX
 70
     0
  9
$DIMSOXD
 70
     0
  9
$DIMSAH
 70
     0
  9
$DIMBLK1
  1

  9
$DIMBLK2
  1

  9
$DIMSTYLE
  2
STANDARD
  9
$DIMCLRD
 70
     0
  9
$DIMCLRE
 70
     0
  9
$DIMCLRT
 70
     0
  9
$DIMTFAC
 40
1.0
  9
$DIMGAP
 40
0.125
  9
$DIMJUST
 70
     0
  9
$DIMSD1
 70
     0
  9
$DIMSD2
 70
     0
  9
$DIMTOLJ
 70
     1
  9
$DIMTZIN
 70
     0
  9
$DIMALTZ
 70
     0
  9
$DIMALTTZ
 70
     0
  9
$DIMFIT
 70
     3
  9
$DIMUPT
 70
     0
  9
$DIMUNIT
 70
     2
  9
$DIMDEC
 70
     4
  9
$DIMTDEC
 70
     4
  9
$DIMALTU
 70
     2
  9
$DIMALTTD
 70
     2
  9
$DIMTXSTY
  7
STANDARD
  9
$DIMAUNIT
 70
     0
  9
$LUNITS
 70
     5
  9
$LUPREC
 70
     4
  9
$SKETCHINC
 40
0.1
  9
$FILLETRAD
 40
0.062
  9
$AUNITS
 70
     0
  9
$AUPREC
 70
     0
  9
$MENU
  1
acad
  9
$ELEVATION
 40
0.0
  9
$PELEVATION
 40
0.0
  9
$THICKNESS
 40
0.0
  9
$LIMCHECK
 70
     0
  9
$BLIPMODE
 70
     0
  9
$CHAMFERA
 40
0.0
  9
$CHAMFERB
 40
0.0
  9
$CHAMFERC
 40
0.0
  9
$CHAMFERD
 40
0.0
  9
$SKPOLY
 70
     0
  9
$TDCREATE
 40
2450408.671022175
  9
$TDUPDATE
 40
2452297.072859872
  9
$TDINDWG
 40
0.0170050579
  9
$TDUSRTIMER
 40
0.0170050579
  9
$USRTIMER
 70
     1
  9
$ANGBASE
 50
0.0
  9
$ANGDIR
 70
     0
  9
$PDMODE
 70
     0
  9
$PDSIZE
 40
0.0
  9
$PLINEWID
 40
0.0
  9
$COORDS
 70
     2
  9
$SPLFRAME
 70
     0
  9
$SPLINETYPE
 70
     6
  9
$SPLINESEGS
 70
     8
  9
$ATTDIA
 70
     0
  9
$ATTREQ
 70
     1
  9
$HANDLING
 70
 22529
  9
$HANDSEED
  5
612
  9
$SURFTAB1
 70
     6
  9
$SURFTAB2
 70
     6
  9
$SURFTYPE
 70
     6
  9
$SURFU
 70
     6
  9
$SURFV
 70
     6
  9
$UCSNAME
  2

  9
$UCSORG
 10
0.0
 20
0.0
 30
0.0
  9
$UCSXDIR
 10
1.0
 20
0.0
 30
0.0
  9
$UCSYDIR
 10
0.0
 20
1.0
 30
0.0
  9
$PUCSNAME
  2

  9
$PUCSORG
 10
0.0
 20
0.0
 30
0.0
  9
$PUCSXDIR
 10
1.0
 20
0.0
 30
0.0
  9
$PUCSYDIR
 10
0.0
 20
1.0
 30
0.0
  9
$USERI1
 70
     0
  9
$USERI2
 70
     0
  9
$USERI3
 70
     0
  9
$USERI4
 70
     0
  9
$USERI5
 70
     0
  9
$USERR1
 40
0.0
  9
$USERR2
 40
0.0
  9
$USERR3
 40
0.0
  9
$USERR4
 40
0.0
  9
$USERR5
 40
0.0
  9
$WORLDVIEW
 70
     1
  9
$SHADEDGE
 70
     3
  9
$SHADEDIF
 70
    70
  9
$TILEMODE
 70
     1
  9
$MAXACTVP
 70
    15
  9
$PINSBASE
 10
0.0
 20
0.0
 30
0.0
  9
$PLIMCHECK
 70
     0
  9
$PEXTMIN
 10
1.000000000000000E+20
 20
1.000000000000000E+20
 30
1.000000000000000E+20
  9
$PEXTMAX
 10
-1.000000000000000E+20
 20
-1.000000000000000E+20
 30
-1.000000000000000E+20
  9
$PLIMMIN
 10
0.0
 20
0.0
  9
$PLIMMAX
 10
12.0
 20
9.0
  9
$UNITMODE
 70
     0
  9
$VISRETAIN
 70
     0
  9
$PLINEGEN
 70
     0
  9
$PSLTSCALE
 70
     1
  9
$TREEDEPTH
 70
  3020
  9
$PICKSTYLE
 70
     1
  9
$CMLSTYLE
  2
STANDARD
  9
$CMLJUST
 70
     0
  9
$CMLSCALE
 40
1.0
  9
$PROXYGRAPHICS
 70
     1
  9
$MEASUREMENT
 70
     0
  0
ENDSEC
  0
SECTION
  2
CLASSES
  0
CLASS
  1
ACDBDICTIONARYWDFLT
  2
AcDbDictionaryWithDefault
  3
AutoCAD 2000
 90
        0
280
     0
281
     0
  0
CLASS
  1
ACDBPLACEHOLDER
  2
AcDbPlaceHolder
  3
AutoCAD 2000
 90
        0
280
     0
281
     0
  0
CLASS
  1
LAYOUT
  2
AcDbLayout
  3
AutoCAD 2000
 90
        0
280
     0
281
     0
  0
CLASS
  1
DICTIONARYVAR
  2
AcDbDictionaryVar
  3
AutoCAD 2000
 90
        0
280
     0
281
     0
  0
CLASS
  1
LONG_TRANSACTION
  2
AcDbLongTransaction
  3
AutoCAD 2000
 90
        0
280
     0
281
     0
  0
CLASS
  1
LWPOLYLINE
  2
AcDbPolyline
  3
AutoCAD 2000
 90
        0
280
     0
281
     1
  0
CLASS
  1
HATCH
  2
AcDbHatch
  3
AutoCAD 2000
 90
        0
280
     0
281
     1
  0
CLASS
  1
XRECORD
  2
AcDbXrecord
  3
AutoCAD 2000
 90
        0
280
     0
281
     0
  0
CLASS
  1
LONG_TRANSACTION
  2
AcDbLongTransaction
  3
AutoCAD 2000
 90
        0
280
     0
281
     0
  0
CLASS
  1
LWPOLYLINE
  2
AcDbPolyline
  3
AutoCAD 2000
 90
        0
280
     0
281
     1
  0
CLASS
  1
HATCH
  2
AcDbHatch
  3
AutoCAD 2000
 90
        0
280
     0
281
     1
  0
CLASS
  1
XRECORD
  2
AcDbXrecord
  3
AutoCAD 2000
 90
        0
280
     0
281
     0
  0
CLASS
  1
LONG_TRANSACTION
  2
AcDbLongTransaction
  3
AutoCAD 2000
 90
        0
280
     0
281
     0
  0
CLASS
  1
LWPOLYLINE
  2
AcDbPolyline
  3
AutoCAD 2000
 90
        0
280
     0
281
     1
  0
CLASS
  1
HATCH
  2
AcDbHatch
  3
AutoCAD 2000
 90
        0
280
     0
281
     1
  0
CLASS
  1
XRECORD
  2
AcDbXrecord
  3
AutoCAD 2000
 90
        0
280
     0
281
     0
  0
CLASS
  1
LONG_TRANSACTION
  2
AcDbLongTransaction
  3
AutoCAD 2000
 90
        0
280
     0
281
     0
  0
CLASS
  1
LWPOLYLINE
  2
AcDbPolyline
  3
AutoCAD 2000
 90
        0
280
     0
281
     1
  0
CLASS
  1
HATCH
  2
AcDbHatch
  3
AutoCAD 2000
 90
        0
280
     0
281
     1
  0
CLASS
  1
XRECORD
  2
AcDbXrecord
  3
AutoCAD 2000
 90
        0
280
     0
281
     0
  0
CLASS
  1
LONG_TRANSACTION
  2
AcDbLongTransaction
  3
AutoCAD 2000
 90
        0
280
     0
281
     0
  0
CLASS
  1
LWPOLYLINE
  2
AcDbPolyline
  3
AutoCAD 2000
 90
        0
280
     0
281
     1
  0
CLASS
  1
HATCH
  2
AcDbHatch
  3
AutoCAD 2000
 90
        0
280
     0
281
     1
  0
CLASS
  1
XRECORD
  2
AcDbXrecord
  3
AutoCAD 2000
 90
        0
280
     0
281
     0
  0
CLASS
  1
LONG_TRANSACTION
  2
AcDbLongTransaction
  3
AutoCAD 2000
 90
        0
280
     0
281
     0
  0
CLASS
  1
LWPOLYLINE
  2
AcDbPolyline
  3
AutoCAD 2000
 90
        0
280
     0
281
     1
  0
CLASS
  1
HATCH
  2
AcDbHatch
  3
AutoCAD 2000
 90
        0
280
     0
281
     1
  0
CLASS
  1
XRECORD
  2
AcDbXrecord
  3
AutoCAD 2000
 90
        0
280
     0
281
     0
  0
ENDSEC
  0
SECTION
  2
TABLES
  0
TABLE
  2
VPORT
  5
8
330
0
100
AcDbSymbolTable
 70
     2
  0
VPORT
  5
5EF
330
8
100
AcDbSymbolTableRecord
100
AcDbViewportTableRecord
  2
*ACTIVE
 70
     0
 10
0.0
 20
0.0
 11
1.0
 21
1.0
 12
13.04079312708809
 22
-16.86245813220038
 13
0.0
 23
0.0
 14
0.5740882589684922
 24
0.5740882589684922
 15
0.5
 25
0.5
 16
0.0
 26
0.0
 36
1.0
 17
0.0
 27
0.0
 37
0.0
 40
32.99165391651033
 41
1.570528967254408
 42
50.0
 43
0.0
 44
0.0
 50
0.0
 51
0.0
 71
     0
 72
   100
 73
     1
 74
     0
 75
     0
 76
     0
 77
     0
 78
     0
  0
ENDTAB
  0
TABLE
  2
LTYPE
  5
5
330
0
100
AcDbSymbolTable
 70
     1
  0
LTYPE
  5
12
330
5
100
AcDbSymbolTableRecord
100
AcDbLinetypeTableRecord
  2
BYBLOCK
 70
     0
  3

 72
    65
 73
     0
 40
0.0
  0
LTYPE
  5
13
330
5
100
AcDbSymbolTableRecord
100
AcDbLinetypeTableRecord
  2
BYLAYER
 70
     0
  3

 72
    65
 73
     0
 40
0.0
  0
LTYPE
  5
14
330
5
100
AcDbSymbolTableRecord
100
AcDbLinetypeTableRecord
  2
CONTINUOUS
 70
     0
  3
Solid line
 72
    65
 73
     0
 40
0.0
  0
ENDTAB
  0
TABLE
  2
LAYER
  5
2
330
0
100
AcDbSymbolTable
 70
     4
  0
LAYER
  5
F
330
2
100
AcDbSymbolTableRecord
100
AcDbLayerTableRecord
  2
0
 70
     0
 62
     7
  6
CONTINUOUS
  0
LAYER
  5
A1
330
2
100
AcDbSymbolTableRecord
100
AcDbLayerTableRecord
  2
ADP1DETAIL
 70
     0
 62
     7
  6
CONTINUOUS
  0
LAYER
  5
A3
330
2
100
AcDbSymbolTableRecord
100
AcDbLayerTableRecord
  2
DEFPOINTS
 70
     0
 62
     7
  6
CONTINUOUS
  0
LAYER
  5
A4
330
2
100
AcDbSymbolTableRecord
100
AcDbLayerTableRecord
  2
ADPDIM
 70
     0
 62
     3
  6
CONTINUOUS
  0
ENDTAB
  0
TABLE
  2
STYLE
  5
3
330
0
100
AcDbSymbolTable
 70
     2
  0
STYLE
  5
10
330
3
100
AcDbSymbolTableRecord
100
AcDbTextStyleTableRecord
  2
STANDARD
 70
     0
 40
0.0
 41
1.0
 50
0.0
 71
     0
 42
0.2
  3
txt
  4

  0
STYLE
  5
4A7
330
3
100
AcDbSymbolTableRecord
100
AcDbTextStyleTableRecord
  2
ARIAL_WIDE
 70
     0
 40
0.0
 41
1.25
 50
0.0
 71
     0
 42
0.2
  3
ARIAL.TTF
  4

1001
ACAD
1000
Arial
1071
       34
  0
ENDTAB
  0
TABLE
  2
VIEW
  5
6
330
0
100
AcDbSymbolTable
 70
     0
  0
ENDTAB
  0
TABLE
  2
UCS
  5
7
330
0
100
AcDbSymbolTable
 70
     0
  0
ENDTAB
  0
TABLE
  2
APPID
  5
9
330
0
100
AcDbSymbolTable
 70
     1
  0
APPID
  5
11
330
9
100
AcDbSymbolTableRecord
100
AcDbRegAppTableRecord
  2
ACAD
 70
     0
  0
ENDTAB
  0
TABLE
  2
DIMSTYLE
  5
A
330
0
100
AcDbSymbolTable
 70
     1
  0
DIMSTYLE
105
49B
330
A
100
AcDbSymbolTableRecord
100
AcDbDimStyleTableRecord
  2
STANDARD
 70
     0
  3

  4

  5

  6

  7

 40
1.0
 41
0.18
 42
0.0625
 43
0.38
 44
0.18
 45
0.0
 46
0.0
 47
0.0
 48
0.0
140
0.18
141
0.09
142
0.0
143
25.4
144
1.0
145
0.0
146
1.0
147
0.09
 71
     0
 72
     0
 73
     1
 74
     1
 75
     0
 76
     0
 77
     0
 78
     0
170
     0
171
     2
172
     0
173
     0
174
     0
175
     0
176
     0
177
     0
178
     0
270
     2
271
     4
272
     4
273
     2
274
     2
340
10
275
     0
280
     0
281
     0
282
     0
283
     1
284
     0
285
     0
286
     0
287
     3
288
     0
  0
ENDTAB
  0
TABLE
  2
BLOCK_RECORD
  5
1
330
0
100
AcDbSymbolTable
 70
     2
  0
BLOCK_RECORD
  5
18
102
{ACAD_XDICTIONARY
360
4FC
102
}
330
1
100
AcDbSymbolTableRecord
100
AcDbBlockTableRecord
  2
*MODEL_SPACE
  0
BLOCK_RECORD
  5
15
102
{ACAD_XDICTIONARY
360
4FA
102
}
330
1
100
AcDbSymbolTableRecord
100
AcDbBlockTableRecord
  2
*PAPER_SPACE
  0
BLOCK_RECORD
  5
9B
330
1
100
AcDbSymbolTableRecord
100
AcDbBlockTableRecord
  2
*D0
  0
BLOCK_RECORD
  5
9D
330
1
100
AcDbSymbolTableRecord
100
AcDbBlockTableRecord
  2
*D1
  0
ENDTAB
  0
ENDSEC
  0
SECTION
  2
BLOCKS
  0
BLOCK
  5
A7
330
18
100
AcDbEntity
  8
0
100
AcDbBlockBegin
  2
*MODEL_SPACE
 70
     0
 10
0.0
 20
0.0
 30
0.0
  3
*MODEL_SPACE
  1

  0
ENDBLK
  5
A8
330
18
100
AcDbEntity
  8
0
100
AcDbBlockEnd
  0
BLOCK
  5
A5
330
15
100
AcDbEntity
 67
     1
  8
0
100
AcDbBlockBegin
  2
*PAPER_SPACE
 70
     0
 10
0.0
 20
0.0
 30
0.0
  3
*PAPER_SPACE
  1

  0
ENDBLK
  5
A6
330
15
100
AcDbEntity
 67
     1
  8
0
100
AcDbBlockEnd
  0
BLOCK
  5
AA
330
9B
100
AcDbEntity
  8
0
100
AcDbBlockBegin
  2
*D0
 70
     1
 10
0.0
 20
0.0
 30
0.0
  3
*D0
  1

  0
LINE
  5
AB
330
9B
100
AcDbEntity
  8
0
  6
BYBLOCK
 62
     0
100
AcDbLine
 10
7.225015360034024
 20
-4.08350754936875
 30
0.0
 11
7.225015360034024
 21
-1.563419116692903
 31
0.0
  0
LINE
  5
AC
330
9B
100
AcDbEntity
  8
0
  6
BYBLOCK
 62
     0
100
AcDbLine
 10
18.72501536003402
 20
-4.08350754936875
 30
0.0
 11
18.72501536003402
 21
-1.563419116692903
 31
0.0
  0
LINE
  5
AD
330
9B
100
AcDbEntity
  8
0
  6
BYBLOCK
 62
     0
100
AcDbLine
 10
7.225015360034024
 20
-1.743419116692903
 30
0.0
 11
12.55834869336735
 21
-1.743419116692903
 31
0.0
  0
LINE
  5
AE
330
9B
100
AcDbEntity
  8
0
  6
BYBLOCK
 62
     0
100
AcDbLine
 10
18.72501536003402
 20
-1.743419116692903
 30
0.0
 11
13.39168202670069
 21
-1.743419116692903
 31
0.0
  0
LINE
  5
AF
330
9B
100
AcDbEntity
  8
0
  6
BYBLOCK
 62
     0
100
AcDbLine
 10
7.100015360034024
 20
-1.868419116692903
 30
0.0
 11
7.350015360034024
 21
-1.618419116692903
 31
0.0
  0
LINE
  5
B0
330
9B
100
AcDbEntity
  8
0
  6
BYBLOCK
 62
     0
100
AcDbLine
 10
18.60001536003402
 20
-1.868419116692903
 30
0.0
 11
18.85001536003402
 21
-1.618419116692903
 31
0.0
  0
TEXT
  5
B1
330
9B
100
AcDbEntity
  8
0
  6
BYBLOCK
 62
     0
100
AcDbText
 10
12.68334869336735
 20
-1.805919116692903
 30
0.0
 40
0.125
  1
11 1/2
 72
     1
 11
12.97501536003402
 21
-1.743419116692903
 31
0.0
100
AcDbText
 73
     2
  0
POINT
  5
B2
330
9B
100
AcDbEntity
  8
DEFPOINTS
  6
BYBLOCK
 62
     0
100
AcDbPoint
 10
7.225015360034024
 20
-4.14600754936875
 30
0.0
  0
POINT
  5
B3
330
9B
100
AcDbEntity
  8
DEFPOINTS
  6
BYBLOCK
 62
     0
100
AcDbPoint
 10
18.72501536003402
 20
-4.14600754936875
 30
0.0
  0
POINT
  5
B4
330
9B
100
AcDbEntity
  8
DEFPOINTS
  6
BYBLOCK
 62
     0
100
AcDbPoint
 10
18.72501536003402
 20
-1.743419116692903
 30
0.0
  0
ENDBLK
  5
B5
330
9B
100
AcDbEntity
  8
0
100
AcDbBlockEnd
  0
BLOCK
  5
B6
330
9D
100
AcDbEntity
  8
0
100
AcDbBlockBegin
  2
*D1
 70
     1
 10
0.0
 20
0.0
 30
0.0
  3
*D1
  1

  0
LINE
  5
B7
330
9D
100
AcDbEntity
  8
0
  6
BYBLOCK
 62
     0
100
AcDbLine
 10
15.67405733437825
 20
-30.45605546990801
 30
0.0
 11
19.98399154977149
 21
-30.45605546990801
 31
0.0
  0
LINE
  5
B8
330
9D
100
AcDbEntity
  8
0
  6
BYBLOCK
 62
     0
100
AcDbLine
 10
17.72462937717654
 20
-2.456055469908012
 30
0.0
 11
19.98399154977149
 21
-2.456055469908012
 31
0.0
  0
LINE
  5
B9
330
9D
100
AcDbEntity
  8
0
  6
BYBLOCK
 62
     0
100
AcDbLine
 10
19.80399154977149
 20
-30.45605546990801
 30
0.0
 11
19.80399154977149
 21
-16.68522213657468
 31
0.0
  0
LINE
  5
BA
330
9D
100
AcDbEntity
  8
0
  6
BYBLOCK
 62
     0
100
AcDbLine
 10
19.80399154977149
 20
-2.456055469908012
 30
0.0
 11
19.80399154977149
 21
-16.22688880324134
 31
0.0
  0
LINE
  5
BB
330
9D
100
AcDbEntity
  8
0
  6
BYBLOCK
 62
     0
100
AcDbLine
 10
19.92899154977149
 20
-30.58105546990801
 30
0.0
 11
19.67899154977149
 21
-30.33105546990801
 31
0.0
  0
LINE
  5
BC
330
9D
100
AcDbEntity
  8
0
  6
BYBLOCK
 62
     0
100
AcDbLine
 10
19.92899154977149
 20
-2.581055469908012
 30
0.0
 11
19.67899154977149
 21
-2.331055469908012
 31
0.0
  0
TEXT
  5
BD
330
9D
100
AcDbEntity
  8
0
  6
BYBLOCK
 62
     0
100
AcDbText
 10
19.86649154977149
 20
-16.56022213657468
 30
0.0
 40
0.125
  1
28
 50
90.0
 72
     1
 11
19.80399154977149
 21
-16.45605546990801
 31
0.0
100
AcDbText
 73
     2
  0
POINT
  5
BE
330
9D
100
AcDbEntity
  8
DEFPOINTS
  6
BYBLOCK
 62
     0
100
AcDbPoint
 10
15.61155733437825
 20
-30.45605546990801
 30
0.0
  0
POINT
  5
BF
330
9D
100
AcDbEntity
  8
DEFPOINTS
  6
BYBLOCK
 62
     0
100
AcDbPoint
 10
17.66212937717654
 20
-2.456055469908012
 30
0.0
  0
POINT
  5
C0
330
9D
100
AcDbEntity
  8
DEFPOINTS
  6
BYBLOCK
 62
     0
100
AcDbPoint
 10
19.80399154977149
 20
-2.456055469908012
 30
0.0
  0
ENDBLK
  5
C1
330
9D
100
AcDbEntity
  8
0
100
AcDbBlockEnd
  0
ENDSEC
  0
SECTION
  2
ENTITIES
  0
DIMENSION
  5
C2
330
18
100
AcDbEntity
  8
ADPDIM
100
AcDbDimension
  2
*D1
 10
19.80399154977149
 20
-2.456055469908012
 30
0.0
 11
19.80399154977149
 21
-16.45605546990801
 31
0.0
100
AcDbAlignedDimension
 13
15.61155733437825
 23
-30.45605546990801
 33
0.0
 14
17.66212937717654
 24
-2.456055469908012
 34
0.0
 50
90.0
100
AcDbRotatedDimension
  0
LWPOLYLINE
  5
C3
330
18
100
AcDbEntity
  8
ADP1DETAIL
100
AcDbPolyline
 90
        5
 70
     0
 43
0.0
 10
16.04618495741354
 20
-20.43111300723058
 10
15.78498409508517
 20
-20.10991581114248
 10
15.72470706417143
 20
-20.04969127679964
 10
15.6443374427226
 20
-20.15006543662297
 10
15.99567312012215
 20
-20.87517326974134
  0
LWPOLYLINE
  5
CA
330
18
100
AcDbEntity
  8
ADP1DETAIL
100
AcDbPolyline
 90
        2
 70
     0
 43
0.0
 10
16.26720123122495
 20
-24.37696307326246
 42
0.0961946554515679
 10
16.26720123122493
 20
-18.40435848267865
 42
0.1226641033772559
  0
LWPOLYLINE
  5
CE
330
18
100
AcDbEntity
  8
ADP1DETAIL
100
AcDbPolyline
 90
        2
 70
     0
 43
0.0
 10
9.897667390360386
 20
-20.28177071175443
 42
-0.118118550715869
 10
11.16259463326958
 20
-16.27562388633705
 42
-0.5658154404598448
  0
LWPOLYLINE
  5
D2
330
18
100
AcDbEntity
  8
ADP1DETAIL
100
AcDbPolyline
 90
        2
 70
     0
 43
0.0
 10
9.555204426367513
 20
-24.37696307326246
 42
-0.0961946554515679
 10
9.55520442636752
 20
-18.40435848267865
 42
-0.1226641033772559
  0
LWPOLYLINE
  5
D6
330
18
100
AcDbEntity
  8
ADP1DETAIL
100
AcDbPolyline
 90
        5
 70
     0
 43
0.0
 10
9.776220700178914
 20
-20.43111300723058
 10
10.03742156250728
 20
-20.10991581114248
 10
10.09769859342103
 20
-20.04969127679964
 10
10.17806821486985
 20
-20.15006543662297
 10
9.783964263272128
 20
-20.82611173118435
  0
LWPOLYLINE
  5
DD
330
18
100
AcDbEntity
  8
ADP1DETAIL
100
AcDbPolyline
 90
        2
 70
     0
 43
0.0
 10
15.92473826723207
 20
-20.28177071175444
 42
0.1181185507158691
 10
14.65981102432287
 20
-16.27562388633705
 42
0.5658154404598448
  0
ARC
  5
E1
330
18
100
AcDbEntity
  8
ADP1DETAIL
100
AcDbCircle
 10
17.37064476910824
 20
-30.16822178453788
 30
0.0
 40
2.639809491865372
100
AcDbArc
 50
94.76701296873988
 51
111.8595982410093
  0
LWPOLYLINE
  5
E2
330
18
100
AcDbEntity
  8
ADP1DETAIL
100
AcDbPolyline
 90
        6
 70
     0
 43
0.0
 10
15.965815484103
 20
-26.79477518453223
 10
16.36766299879395
 20
-26.67432621196867
 10
16.74941821922642
 20
-26.67432621196867
 10
17.19145047057262
 20
-26.5538772394051
 42
-0.2895863515269209
 10
17.27181994388314
 20
-26.15238069623392
 42
-0.2252346197751584
 10
17.53302095434982
 20
-26.17245550897417
 42
-0.0356377612719511
  0
LWPOLYLINE
  5
EA
330
18
100
AcDbEntity
  8
ADP1DETAIL
100
AcDbPolyline
 90
        3
 70
     0
 43
0.0
 10
16.24710878882816
 20
-26.91522406097369
 10
16.78960295588168
 20
-26.79477518453223
 10
17.19145047057262
 20
-26.75462546292964
  0
LWPOLYLINE
  5
EF
330
18
100
AcDbEntity
  8
ADP1DETAIL
100
AcDbPolyline
 90
        6
 70
     0
 43
0.0
 10
14.8406424133407
 20
-29.14352981309439
 42
0.220362092566609
 10
13.43417603785326
 20
-28.56135985913892
 42
-0.1670292572207075
 10
15.965815484103
 20
-28.20001303757033
 42
-0.0477673409101164
 10
18.25634651042118
 20
-29.18367953469699
 42
0.072231141096136
 10
16.00600022075827
 20
-28.07956406500676
 42
0.1162488783424841
 10
13.55473039595735
 20
-28.26023747579105
 42
-0.1537096048284021
  0
LWPOLYLINE
  5
F7
330
18
100
AcDbEntity
  8
ADP1DETAIL
100
AcDbPolyline
 90
       37
 70
     0
 43
0.0
 10
12.89168187079974
 20
-29.10338018761391
 42
-0.0783576362948356
 10
11.22401463298392
 20
-30.44839360243127
 10
10.19930347792892
 20
-30.44839360243127
 42
0.0507730713489369
 10
12.20854105138364
 20
-28.92270677682962
 42
-0.0217296186324686
 10
13.35380656454273
 20
-27.69814233457582
 42
0.168116073245074
 10
13.73556178497519
 20
-26.91522406097369
 42
-0.2742140244644141
 10
14.47897963530503
 20
-25.14863938636701
 42
-0.2955564558009927
 10
14.65981102432287
 20
-26.39327864136105
 42
0.073969869025593
 10
14.82055011908223
 20
-25.34938760989156
 42
-0.4696992218397154
 10
15.62424514846411
 20
-24.10474835489751
 42
-0.349099770330125
 10
15.76489180082669
 20
-25.26908835893058
 42
-0.0137670145861061
 10
16.12655457886237
 20
-24.46609527258821
 42
-0.3100772859940346
 10
17.45265133290098
 20
-24.24527214020133
 42
-0.4118211596499021
 10
16.6489563035191
 20
-25.57021074227844
 42
0.1253211216178611
 10
16.12655457886237
 20
-25.85125831288606
 42
0.0147454253834416
 10
16.76951051348489
 20
-25.690659714842
 42
-0.0217182298171997
 10
17.31200468053842
 20
-25.97170728544962
 42
-0.3532025663684685
 10
16.78960295588168
 20
-26.57395205214535
 42
-0.0498322342114588
 10
15.70461462177464
 20
-26.63417649036608
 42
0.1769693705097772
 10
15.06165853901381
 20
-26.91522406097369
 42
0.1080162588210765
 10
15.50369079036002
 20
-26.79477518453223
 42
-0.2442724197593335
 10
16.38775544119073
 20
-27.05574784627751
 42
-0.2035708734274574
 10
17.61339042766035
 20
-27.45724438944869
 42
-0.2309064349344628
 10
16.48821735689805
 20
-27.89889055810036
 42
0.1897431553760541
 10
16.82978769253694
 20
-27.99926471792368
 42
-0.2525430962329959
 10
17.9951454999545
 20
-28.099638877747
 42
-0.1686813197827603
 10
18.69837876176739
 20
-29.28405359839821
 42
-0.3237576968223441
 10
16.91015716584747
 20
-29.00300602779059
 42
0.0560638020483039
 10
16.32747826213869
 20
-28.54128504639867
 42
-0.1566245264306673
 10
16.82978769253694
 20
-29.38442775822153
 42
-0.5803569908681356
 10
16.16673931551763
 20
-29.52495154352534
 42
-0.1183750067605604
 10
15.26258237042843
 20
-28.80225780426605
 42
0.1387256321129509
 10
14.37851771959772
 20
-28.4609856993156
 42
-0.2010989912049378
 10
15.06165853901381
 20
-28.94278158956986
 42
-0.969449818911778
 10
14.67990346671965
 20
-29.36435294548128
 42
-0.0293708708442199
 10
13.29352938549068
 20
-28.66173401896224
 42
0.0622643424598507
 10
12.93186660745501
 20
-29.06323056213342
 42
-0.5218283678164254
  0
ARC
  5
11E
330
18
100
AcDbEntity
  8
ADP1DETAIL
100
AcDbCircle
 10
63.47956047012367
 20
-81.25981014175319
 30
0.0
 40
73.26923347506042
100
AcDbArc
 50
129.0581168336808
 51
133.5996825941657
  0
ARC
  5
11F
330
18
100
AcDbEntity
  8
ADP1DETAIL
100
AcDbCircle
 10
352.4185837723421
 20
-396.3287661260967
 30
0.0
 40
500.6525004493648
100
AcDbArc
 50
132.0161206028474
 51
132.6794290134668
  0
ARC
  5
120
330
18
100
AcDbEntity
  8
ADP1DETAIL
100
AcDbCircle
 10
7.813909737065512
 20
-30.67751242216497
 30
0.0
 40
4.952621147367056
100
AcDbArc
 50
59.88769695099676
 51
68.41887576309206
  0
LWPOLYLINE
  5
121
330
18
100
AcDbEntity
  8
ADP1DETAIL
100
AcDbPolyline
 90
        4
 70
     0
 43
0.0
 10
12.72335958200566
 20
-28.34573453507142
 42
0.0339708415915149
 10
11.94619736839299
 20
-27.97918990518343
 42
0.0961077419934577
 10
10.74065467618185
 20
-27.75836677279655
 42
-0.2718761458324621
 10
9.47483495305698
 20
-27.09589756788009
 42
-1.802384225030809
  0
ARC
  5
127
330
18
100
AcDbEntity
  8
ADP1DETAIL
100
AcDbCircle
 10
-37.65715481253121
 20
-81.25981014175319
 30
0.0
 40
73.26923347506042
100
AcDbArc
 50
46.40031740583423
 51
50.94188316631918
  0
ARC
  5
128
330
18
100
AcDbEntity
  8
ADP1DETAIL
100
AcDbCircle
 10
-326.5961781147497
 20
-396.3287661260967
 30
0.0
 40
500.6525004493648
100
AcDbArc
 50
47.32057098653318
 51
47.98387939715257
  0
ARC
  5
129
330
18
100
AcDbEntity
  8
ADP1DETAIL
100
AcDbCircle
 10
10.6740139566262
 20
-25.13992964583176
 30
0.0
 40
2.810569551764882
100
AcDbArc
 50
232.7431468591338
 51
259.0031457054831
  0
ARC
  5
12A
330
18
100
AcDbEntity
  8
ADP1DETAIL
100
AcDbCircle
 10
12.24917905851851
 20
-32.01215873213294
 30
0.0
 40
3.96953252738335
100
AcDbArc
 50
106.1881651426896
 51
138.5493341623433
  0
ARC
  5
12B
330
18
100
AcDbEntity
  8
ADP1DETAIL
100
AcDbCircle
 10
9.685804931600845
 20
-28.68584322419109
 30
0.0
 40
2.33290899108457
100
AcDbArc
 50
79.3289224258076
 51
100.6710775741923
  0
ARC
  5
12C
330
18
100
AcDbEntity
  8
ADP1DETAIL
100
AcDbCircle
 10
5.036751185999588
 20
-45.729984928835
 30
0.0
 40
20.00472025031724
100
AcDbArc
 50
72.47042860690775
 51
78.71216680429269
  0
LWPOLYLINE
  5
12D
330
18
100
AcDbEntity
  8
ADP1DETAIL
100
AcDbPolyline
 90
        2
 70
     0
 43
0.0
 10
10.21825295152512
 20
-24.09511249861058
 42
-0.0607110066801023
 10
9.878758321308847
 20
-20.66350191359092
 42
-0.4495406680181033
  0
LWPOLYLINE
  5
131
330
18
100
AcDbEntity
  8
ADP1DETAIL
100
AcDbPolyline
 90
       34
 70
     0
 43
0.0
 10
13.09904607558678
 20
-28.34573453507142
 42
0.0117092664102238
 10
12.46859909304972
 20
-27.69814233457582
 42
-0.168116073245074
 10
12.08684387261727
 20
-26.91522406097369
 42
0.2742140244644141
 10
11.34342602228742
 20
-25.14863938636701
 42
0.2955564558009927
 10
11.16259463326958
 20
-26.39327864136105
 42
-0.073969869025593
 10
11.00185553851022
 20
-25.34938760989156
 42
0.4696992218397154
 10
10.19816050912834
 20
-24.10474835489751
 42
0.349099770330125
 10
10.05751385676576
 20
-25.26908835893058
 42
0.0137670145861061
 10
9.69585107873009
 20
-24.46609527258821
 42
0.3100772859940346
 10
8.369754324691459
 20
-24.24527214020133
 42
0.4118211596499021
 10
9.173449354073351
 20
-25.57021074227844
 42
-0.1253211216178611
 10
9.69585107873009
 20
-25.85125831288606
 42
-0.0147454253834416
 10
9.052895144107555
 20
-25.690659714842
 42
0.0217182298171997
 10
8.510400977054036
 20
-25.97170728544962
 42
0.3532025663684685
 10
9.032802701710775
 20
-26.57395205214535
 42
0.0498322342114588
 10
10.11779103581781
 20
-26.63417649036608
 42
-0.1769693705097772
 10
10.76074711857863
 20
-26.91522406097369
 42
-0.1080162588210765
 10
10.31871486723243
 20
-26.79477518453223
 42
0.2442724197593335
 10
9.434650216401717
 20
-27.05574784627751
 42
0.2035708734274574
 10
8.209015229932102
 20
-27.45724438944869
 42
0.2309064349344628
 10
9.334188300694403
 20
-27.89889055810036
 42
-0.1897431553760541
 10
8.992617965055512
 20
-27.99926471792368
 42
0.2525430962329959
 10
7.827260157637948
 20
-28.099638877747
 42
0.1686813197827603
 10
7.124026895825072
 20
-29.28405359839821
 42
0.3237576968223441
 10
8.912248491744978
 20
-29.00300602779059
 42
-0.0560638020483039
 10
9.49492739545376
 20
-28.54128504639867
 42
0.1566245264306673
 10
8.992617965055512
 20
-29.38442775822153
 42
0.5803569908681356
 10
9.65566634207482
 20
-29.52495154352534
 42
0.1183750067605604
 10
10.55982328716401
 20
-28.80225780426605
 42
-0.1387256321129509
 10
11.44388793799473
 20
-28.4609856993156
 42
0.2010989912049378
 10
10.76074711857863
 20
-28.94278158956986
 42
0.969449818911778
 10
11.1425021908728
 20
-29.36435294548128
 42
0.0293708708442199
 10
12.52887627210177
 20
-28.66173401896224
 42
-0.0041493321282866
 10
12.55601846186686
 20
-28.68561059119071
 42
0.5218283678164254
  0
LWPOLYLINE
  5
155
330
18
100
AcDbEntity
  8
ADP1DETAIL
100
AcDbPolyline
 90
        6
 70
     0
 43
0.0
 10
10.98176324425174
 20
-29.14352981309439
 42
-0.220362092566609
 10
12.3882296197392
 20
-28.56135985913892
 42
0.1670292572207075
 10
9.856590173489447
 20
-28.20001303757033
 42
0.0477673409101164
 10
7.566059147171277
 20
-29.18367953469699
 42
-0.072231141096136
 10
9.816405436834184
 20
-28.07956406500676
 42
-0.1162488783424841
 10
12.2676752616351
 20
-28.26023747579105
 42
0.1537096048284021
  0
ARC
  5
15D
330
18
100
AcDbEntity
  8
ADP1DETAIL
100
AcDbCircle
 10
6.696299837379517
 20
-26.34041986487625
 30
0.0
 40
1.619942080711922
100
AcDbArc
 50
335.3678031042393
 51
5.23800285760538
  0
LWPOLYLINE
  5
15E
330
18
100
AcDbEntity
  8
ADP1DETAIL
100
AcDbPolyline
 90
        9
 70
     0
 43
0.0
 10
8.289384703242635
 20
-26.17245550897417
 10
7.827260157637948
 20
-26.17245550897417
 42
0.1338867807904502
 10
7.566059147171277
 20
-26.3732037324987
 42
-0.0229213760036424
 10
7.465597379602269
 20
-26.49365270506227
 42
0.0711126226094532
 10
7.545966852912795
 20
-26.67432621196867
 42
0.1462848865282687
 10
7.746890536189117
 20
-26.99552340805678
 42
-0.0553370187706779
 10
8.168830493276839
 20
-27.01559822079702
 42
0.2153304830381737
 10
8.409939061346729
 20
-27.23642135318391
 42
0.2277500053040937
 10
8.651047481278308
 20
-26.51372761392462
 42
-1.134488183458485
  0
ARC
  5
169
330
18
100
AcDbEntity
  8
ADP1DETAIL
100
AcDbCircle
 10
8.451760888484212
 20
-30.16822178453788
 30
0.0
 40
2.639809491865372
100
AcDbArc
 50
68.14040175899066
 51
85.23298703126011
  0
LWPOLYLINE
  5
16A
330
18
100
AcDbEntity
  8
ADP1DETAIL
100
AcDbPolyline
 90
        3
 70
     0
 43
0.0
 10
9.575296868764294
 20
-26.91522406097369
 10
9.032802701710775
 20
-26.79477518453223
 10
8.630955187019832
 20
-26.75462546292964
  0
LWPOLYLINE
  5
16F
330
18
100
AcDbEntity
  8
ADP1DETAIL
100
AcDbPolyline
 90
        6
 70
     0
 43
0.0
 10
9.856590173489447
 20
-26.79477518453223
 10
9.454742658798497
 20
-26.67432621196867
 10
9.072987438366038
 20
-26.67432621196867
 10
8.630955187019832
 20
-26.5538772394051
 42
0.2895863515269209
 10
8.550585713709306
 20
-26.15238069623392
 42
0.2252346197751584
 10
8.289384703242635
 20
-26.17245550897417
 42
0.0356377612719511
  0
LWPOLYLINE
  5
177
330
18
100
AcDbEntity
  8
ADP1DETAIL
100
AcDbPolyline
 90
        5
 70
     0
 43
0.0
 10
12.93072378679272
 20
-29.10338018761391
 42
0.0783576362948356
 10
14.59839102460854
 20
-30.44839360243127
 10
15.62310217966353
 20
-30.44839360243127
 42
-0.0507730713489369
 10
13.61386460620881
 20
-28.92270677682962
 42
0.0026395829733874
 10
13.4804609745626
 20
-28.76868145392771
 42
-0.168116073245074
  0
ARC
  5
17E
330
18
100
AcDbEntity
  8
ADP1DETAIL
100
AcDbCircle
 10
11.64111376184635
 20
-26.22811347577488
 30
0.0
 40
3.320853343920455
100
AcDbArc
 50
20.07162061952052
 51
62.52991196367112
  0
ARC
  5
17F
330
18
100
AcDbEntity
  8
ADP1DETAIL
100
AcDbCircle
 10
14.05956261867656
 20
-25.99060438738067
 30
0.0
 40
0.6863580803086161
100
AcDbArc
 50
193.8426767348542
 51
241.9558159262382
  0
LWPOLYLINE
  5
180
330
18
100
AcDbEntity
  8
ADP1DETAIL
100
AcDbPolyline
 90
        2
 70
     0
 43
0.0
 10
13.63395690046729
 20
-28.9628564023101
 42
0.0181870386346897
 10
13.26638719572559
 20
-28.68561059119071
 42
0.0961077419934577
  0
LWPOLYLINE
  5
184
330
18
100
AcDbEntity
  8
ADP1DETAIL
100
AcDbPolyline
 90
       10
 70
     0
 43
0.0
 10
13.09260570221436
 20
-25.8713331256263
 42
-0.0384331928401219
 10
12.97205134411026
 20
-25.44976176971487
 42
-0.4628257096332791
 10
13.05242096555909
 20
-25.12856457362677
 42
0.512270720420648
 10
13.07251325981757
 20
-25.0081156010632
 42
0.1731116035224326
 10
13.21315991218015
 20
-25.06834003928394
 42
-0.3364022521351715
 10
13.57482269021583
 20
-25.24901345006823
 42
-0.0388548329601135
 10
13.69537690018162
 20
-25.5501359295382
 42
-0.3927261642420642
 10
13.91639317399303
 20
-25.79103377854322
 42
-0.2768592518899997
 10
13.25334464883542
 20
-26.15238069623392
 42
-0.6182752232085687
 10
13.09260570221436
 20
-25.85125831288606
 42
1.935875719615664
  0
ARC
  5
190
330
18
100
AcDbEntity
  8
ADP1DETAIL
100
AcDbCircle
 10
12.9716186077698
 20
-24.67318194961984
 30
0.0
 40
1.180844163601128
100
AcDbArc
 50
273.9236800015081
 51
309.0450563891489
  0
LWPOLYLINE
  5
191
330
18
100
AcDbEntity
  8
ADP1DETAIL
100
AcDbPolyline
 90
       17
 70
     0
 43
0.0
 10
15.36304428613575
 20
-24.18504770198059
 42
0.1969967262353396
 10
15.06165853901381
 20
-23.84377559703014
 42
0.3479901736774222
 10
14.82055011908223
 20
-24.34564630002464
 42
0.1527189611436792
 10
14.45888734104655
 20
-23.12108185777085
 42
1.031394527840254
 10
14.13740929966613
 20
-23.2816804558149
 42
0.1827011424830442
 10
14.3986101619945
 20
-23.84377559703014
 42
-0.2912202327272391
 10
14.11731685726935
 20
-23.56272802642252
 42
0.1834767240375597
 10
13.19306761792167
 20
-23.02070769794753
 42
0.6883032185108153
 10
13.03232852316231
 20
-23.32183017741749
 42
0.3621372095853994
 10
13.7154693425784
 20
-23.90400013137297
 42
-0.0918068581760358
 10
14.05703967821731
 20
-24.22519732746108
 42
-0.0742580871727016
 10
13.55473039595735
 20
-24.00437419507419
 42
0.9295247292867058
 10
13.35380656454273
 20
-24.28542176568181
 42
0.3609489443154876
 10
13.8360235525442
 20
-24.68691830885299
 42
-0.2276692898432752
 10
14.29814824628718
 20
-24.90774144123988
 42
0.599365814418866
 10
13.77574652163045
 20
-25.08841485202418
 42
0.3878815061539589
 10
14.11731685726935
 20
-25.46983658245512
 42
-19.89749785156768
  0
ARC
  5
1A4
330
18
100
AcDbEntity
  8
ADP1DETAIL
100
AcDbCircle
 10
12.46703138041897
 20
-25.67418365716397
 30
0.0
 40
2.49447954698251
100
AcDbArc
 50
19.35367767400832
 51
73.56051833290003
  0
LWPOLYLINE
  5
1A5
330
18
100
AcDbEntity
  8
ADP1DETAIL
100
AcDbPolyline
 90
        4
 70
     0
 43
0.0
 10
12.18844875712516
 20
-28.9628564023101
 42
-0.0776064594487508
 10
13.87620828919946
 20
-27.97918990518343
 42
-0.0961077419934577
 10
15.08175098141059
 20
-27.75836677279655
 42
0.2718761458324621
 10
16.34757070453547
 20
-27.09589756788009
 42
1.802384225030809
  0
ARC
  5
1AB
330
18
100
AcDbEntity
  8
ADP1DETAIL
100
AcDbCircle
 10
8.781738429811117
 20
-25.32671571551107
 30
0.0
 40
1.757994481427158
100
AcDbArc
 50
359.915357031701
 51
36.32176159917882
  0
ARC
  5
1AC
330
18
100
AcDbEntity
  8
ADP1DETAIL
100
AcDbCircle
 10
14.1812918957461
 20
-26.22811347577488
 30
0.0
 40
3.320853343920455
100
AcDbArc
 50
117.4700880363289
 51
159.9283793804794
  0
LWPOLYLINE
  5
1AD
330
18
100
AcDbEntity
  8
ADP1DETAIL
100
AcDbPolyline
 90
       17
 70
     0
 43
0.0
 10
10.4593613714567
 20
-24.18504770198059
 42
-0.1969967262353396
 10
10.76074711857863
 20
-23.84377559703014
 42
-0.3479901736774222
 10
11.00185553851022
 20
-24.34564630002464
 42
-0.1527189611436792
 10
11.36351831654591
 20
-23.12108185777085
 42
-1.031394527840254
 10
11.68499635792632
 20
-23.2816804558149
 42
-0.1827011424830442
 10
11.42379549559795
 20
-23.84377559703014
 42
0.2912202327272391
 10
11.7050888003231
 20
-23.56272802642252
 42
-0.1834767240375597
 10
12.62933803967078
 20
-23.02070769794753
 42
-0.6883032185108153
 10
12.79007713443014
 20
-23.32183017741749
 42
-0.3621372095853994
 10
12.10693631501404
 20
-23.90400013137297
 42
0.0918068581760358
 10
11.76536597937515
 20
-24.22519732746108
 42
0.0742580871727016
 10
12.2676752616351
 20
-24.00437419507419
 42
-0.9295247292867058
 10
12.46859909304972
 20
-24.28542176568181
 42
-0.3609489443154876
 10
11.98638210504825
 20
-24.68691830885299
 42
0.2276692898432752
 10
11.52425741130526
 20
-24.90774144123988
 42
-0.599365814418866
 10
12.04665913596199
 20
-25.08841485202418
 42
-0.3878815061539589
 10
11.7050888003231
 20
-25.46983658245512
 42
19.89749785156768
  0
ARC
  5
1C0
330
18
100
AcDbEntity
  8
ADP1DETAIL
100
AcDbCircle
 10
16.42698799074385
 20
-25.67803643032397
 30
0.0
 40
4.884313171983114
100
AcDbArc
 50
178.4994826527379
 51
197.3680638726136
  0
ARC
  5
1C1
330
18
100
AcDbEntity
  8
ADP1DETAIL
100
AcDbCircle
 10
12.74888065022139
 20
-26.68359892989704
 30
0.0
 40
1.084416259383949
100
AcDbArc
 50
157.7410632203553
 51
181.63162033461
  0
ARC
  5
1C2
330
18
100
AcDbEntity
  8
ADP1DETAIL
100
AcDbCircle
 10
10.53374617803203
 20
-31.42196550106903
 30
0.0
 40
4.037291499899063
100
AcDbArc
 50
70.432261339831
 51
94.48193515125829
  0
ARC
  5
1C3
330
18
100
AcDbEntity
  8
ADP1DETAIL
100
AcDbCircle
 10
9.801946278347511
 20
-30.212801608649
 30
0.0
 40
3.154128510326615
100
AcDbArc
 50
64.0391676838016
 51
75.72056691687869
  0
ARC
  5
1C4
330
18
100
AcDbEntity
  8
ADP1DETAIL
100
AcDbCircle
 10
9.575337335900353
 20
-32.07261286509532
 30
0.0
 40
4.916324525021247
100
AcDbArc
 50
75.32252475213974
 51
84.84197953527003
  0
ARC
  5
1C5
330
18
100
AcDbEntity
  8
ADP1DETAIL
100
AcDbCircle
 10
12.22491040860743
 20
-25.30345774961964
 30
0.0
 40
1.685377745963273
100
AcDbArc
 50
180.8789977305061
 51
211.0382425002621
  0
ARC
  5
1C6
330
18
100
AcDbEntity
  8
ADP1DETAIL
100
AcDbCircle
 10
10.38772957702107
 20
-26.91072786774729
 30
0.0
 40
1.368220678599372
100
AcDbArc
 50
30.67990568111781
 51
44.50569189997374
  0
ARC
  5
1C7
330
18
100
AcDbEntity
  8
ADP1DETAIL
100
AcDbCircle
 10
12.85078704982266
 20
-24.67318194961984
 30
0.0
 40
1.180844163601128
100
AcDbArc
 50
230.954943610851
 51
266.0763199984919
  0
LWPOLYLINE
  5
1C8
330
18
100
AcDbEntity
  8
ADP1DETAIL
100
AcDbPolyline
 90
       10
 70
     0
 43
0.0
 10
12.72979995537809
 20
-25.8713331256263
 42
0.0384331928401219
 10
12.85035431348219
 20
-25.44976176971487
 42
0.4628257096332791
 10
12.76998469203336
 20
-25.12856457362677
 42
-0.512270720420648
 10
12.74989239777487
 20
-25.0081156010632
 42
-0.1731116035224326
 10
12.60924574541229
 20
-25.06834003928394
 42
0.3364022521351715
 10
12.24758296737662
 20
-25.24901345006823
 42
0.0388548329601135
 10
12.12702875741083
 20
-25.5501359295382
 42
0.3927261642420642
 10
11.90601248359942
 20
-25.79103377854322
 42
0.2768592518899997
 10
12.56906100875703
 20
-26.15238069623392
 42
0.6182752232085687
 10
12.72979995537809
 20
-25.85125831288606
 42
-1.935875719615664
  0
ARC
  5
1D4
330
18
100
AcDbEntity
  8
ADP1DETAIL
100
AcDbCircle
 10
11.92034911641889
 20
-26.05033899127602
 30
0.0
 40
0.5257400626133664
100
AcDbArc
 50
289.0413273006981
 51
348.5372004974355
  0
ARC
  5
1D5
330
18
100
AcDbEntity
  8
ADP1DETAIL
100
AcDbCircle
 10
13.35537427717348
 20
-25.67418365716397
 30
0.0
 40
2.49447954698251
100
AcDbArc
 50
106.4394816670999
 51
160.6463223259916
  0
ARC
  5
1D6
330
18
100
AcDbEntity
  8
ADP1DETAIL
100
AcDbCircle
 10
13.28345975398113
 20
-27.55939869657415
 30
0.0
 40
3.446278187531492
100
AcDbArc
 50
108.1941986454227
 51
127.5589426295447
  0
ARC
  5
1D7
330
18
100
AcDbEntity
  8
ADP1DETAIL
100
AcDbCircle
 10
14.20470693455325
 20
-24.8307836556091
 30
0.0
 40
3.083777973305591
100
AcDbArc
 50
151.130914835282
 51
170.5707862978105
  0
ARC
  5
1D8
330
18
100
AcDbEntity
  8
ADP1DETAIL
100
AcDbCircle
 10
17.04066722778134
 20
-25.32671571551107
 30
0.0
 40
1.757994481427158
100
AcDbArc
 50
143.6782384008211
 51
180.0846429682989
  0
ARC
  5
1D9
330
18
100
AcDbEntity
  8
ADP1DETAIL
100
AcDbCircle
 10
16.2470683216921
 20
-32.07261286509532
 30
0.0
 40
4.916324525021247
100
AcDbArc
 50
95.15802046472996
 51
104.6774752478602
  0
ARC
  5
1DA
330
18
100
AcDbEntity
  8
ADP1DETAIL
100
AcDbCircle
 10
13.59749524898502
 20
-25.30345774961964
 30
0.0
 40
1.685377745963273
100
AcDbArc
 50
328.9617574997379
 51
359.1210022694937
  0
ARC
  5
1DB
330
18
100
AcDbEntity
  8
ADP1DETAIL
100
AcDbCircle
 10
15.28865947956042
 20
-31.42196550106903
 30
0.0
 40
4.037291499899063
100
AcDbArc
 50
85.51806484874171
 51
109.567738660169
  0
ARC
  5
1DC
330
18
100
AcDbEntity
  8
ADP1DETAIL
100
AcDbCircle
 10
13.57322659907395
 20
-32.01215873213294
 30
0.0
 40
3.96953252738335
100
AcDbArc
 50
41.45066583765666
 51
73.81183485731032
  0
ARC
  5
1DD
330
18
100
AcDbEntity
  8
ADP1DETAIL
100
AcDbCircle
 10
20.78565447159286
 20
-45.729984928835
 30
0.0
 40
20.00472025031724
100
AcDbArc
 50
101.2878331957073
 51
107.5295713930922
  0
ARC
  5
1DE
330
18
100
AcDbEntity
  8
ADP1DETAIL
100
AcDbCircle
 10
15.43467608057138
 20
-26.91072786774729
 30
0.0
 40
1.368220678599372
100
AcDbArc
 50
135.4943081000262
 51
149.3200943188821
  0
ARC
  5
1DF
330
18
100
AcDbEntity
  8
ADP1DETAIL
100
AcDbCircle
 10
13.85943736788115
 20
-26.05665466067303
 30
0.0
 40
0.1977567675056784
100
AcDbArc
 50
187.1379980075962
 51
240.2883201965802
  0
ARC
  5
1E0
330
18
100
AcDbEntity
  8
ADP1DETAIL
100
AcDbCircle
 10
13.07352500737106
 20
-26.68359892989704
 30
0.0
 40
1.084416259383949
100
AcDbArc
 50
358.3683796653899
 51
22.2589367796447
  0
ARC
  5
1E1
330
18
100
AcDbEntity
  8
ADP1DETAIL
100
AcDbCircle
 10
9.395417666848604
 20
-25.67803643032397
 30
0.0
 40
4.884313171983114
100
AcDbArc
 50
342.6319361273862
 51
1.500517347262093
  0
ARC
  5
1E2
330
18
100
AcDbEntity
  8
ADP1DETAIL
100
AcDbCircle
 10
16.02045937924494
 20
-30.212801608649
 30
0.0
 40
3.154128510326615
100
AcDbArc
 50
104.2794330831213
 51
115.9608323161984
  0
ARC
  5
1E3
330
18
100
AcDbEntity
  8
ADP1DETAIL
100
AcDbCircle
 10
15.14839170096625
 20
-25.13992964583176
 30
0.0
 40
2.810569551764882
100
AcDbArc
 50
280.9968542945168
 51
307.2568531408661
  0
ARC
  5
1E4
330
18
100
AcDbEntity
  8
ADP1DETAIL
100
AcDbCircle
 10
18.00849592052694
 20
-30.67751242216497
 30
0.0
 40
4.952621147367056
100
AcDbArc
 50
111.5811242369079
 51
120.1123030490032
  0
ARC
  5
1E5
330
18
100
AcDbEntity
  8
ADP1DETAIL
100
AcDbCircle
 10
16.13660072599161
 20
-28.68584322419109
 30
0.0
 40
2.33290899108457
100
AcDbArc
 50
79.32892242580762
 51
100.6710775741923
  0
ARC
  5
1E6
330
18
100
AcDbEntity
  8
ADP1DETAIL
100
AcDbCircle
 10
11.6176987230392
 20
-24.8307836556091
 30
0.0
 40
3.083777973305591
100
AcDbArc
 50
9.429213702189501
 51
28.86908516471793
  0
ARC
  5
1E7
330
18
100
AcDbEntity
  8
ADP1DETAIL
100
AcDbCircle
 10
12.53894590361131
 20
-27.55939869657415
 30
0.0
 40
3.446278187531492
100
AcDbArc
 50
52.44105737045529
 51
71.80580135457731
  0
LWPOLYLINE
  5
1E8
330
18
100
AcDbEntity
  8
ADP1DETAIL
100
AcDbPolyline
 90
        2
 70
     0
 43
0.0
 10
15.60415270606732
 20
-24.09511249861058
 42
0.0578074274690676
 10
15.9460781074668
 20
-20.7728160812367
 42
0.4458297251265916
  0
LWPOLYLINE
  5
1EC
330
18
100
AcDbEntity
  8
ADP1DETAIL
100
AcDbPolyline
 90
        9
 70
     0
 43
0.0
 10
17.53302095434982
 20
-26.17245550897417
 10
17.9951454999545
 20
-26.17245550897417
 42
-0.1338867807904502
 10
18.25634651042118
 20
-26.3732037324987
 42
0.0229213760036424
 10
18.35680827799018
 20
-26.49365270506227
 42
-0.0711126226094532
 10
18.27643880467966
 20
-26.67432621196867
 42
-0.1462848865282687
 10
18.07551512140333
 20
-26.99552340805678
 42
0.0553370187706779
 10
17.65357516431561
 20
-27.01559822079702
 42
-0.2153304830381737
 10
17.41246659624572
 20
-27.23642135318391
 42
-0.2277500053040937
 10
17.17135817631414
 20
-26.51372761392462
 42
1.134488183458485
  0
ARC
  5
1F7
330
18
100
AcDbEntity
  8
ADP1DETAIL
100
AcDbCircle
 10
19.12610582021294
 20
-26.34041986487625
 30
0.0
 40
1.619942080711922
100
AcDbArc
 50
174.7619971423946
 51
204.6321968957605
  0
DIMENSION
  5
1F8
330
18
100
AcDbEntity
  8
ADPDIM
100
AcDbDimension
  2
*D0
 10
18.72501536003402
 20
-1.743419116692903
 30
0.0
 11
12.97501536003402
 21
-1.743419116692903
 31
0.0
100
AcDbAlignedDimension
 13
7.225015360034024
 23
-4.14600754936875
 33
0.0
 14
18.72501536003402
 24
-4.14600754936875
 34
0.0
100
AcDbRotatedDimension
  0
ARC
  5
1F9
330
18
100
AcDbEntity
  8
ADP1DETAIL
100
AcDbCircle
 10
17.96540469371961
 20
-5.80470000909797
 30
0.0
 40
1.121367826623182
100
AcDbArc
 50
116.6093913241224
 51
150.9028357689337
  0
ARC
  5
1FA
330
18
100
AcDbEntity
  8
ADP1DETAIL
100
AcDbCircle
 10
15.49387833718368
 20
-0.8586504894441624
 30
0.0
 40
2.487766176270651
100
AcDbArc
 50
276.4120823096303
 51
310.3608045314105
  0
ARC
  5
1FB
330
18
100
AcDbEntity
  8
ADP1DETAIL
100
AcDbCircle
 10
15.68138790271423
 20
-10.09682295269738
 30
0.0
 40
6.626860035584759
100
AcDbArc
 50
63.89434748338379
 51
90.2513799717661
  0
ARC
  5
1FC
330
18
100
AcDbEntity
  8
ADP1DETAIL
100
AcDbCircle
 10
17.70106572558895
 20
-16.4027717189376
 30
0.0
 40
0.9859991391842084
100
AcDbArc
 50
212.8226506773569
 51
250.9115328413299
  0
LWPOLYLINE
  5
1FD
330
18
100
AcDbEntity
  8
ADP1DETAIL
100
AcDbPolyline
 90
       10
 70
     0
 43
0.0
 10
16.18557780910318
 20
-18.67103670570646
 42
-0.1375620968119544
 10
16.89055528612052
 20
-17.55128211422827
 42
0.026744594720519
 10
17.27015867954228
 20
-17.62352442954757
 42
0.5148787349223493
 10
17.3966929960694
 20
-17.37067656592464
 42
-0.0365467191415731
 10
17.66783821367917
 20
-16.99140491448702
 42
0.2812410116711899
 10
17.61360919974658
 20
-16.55795150256047
 42
0.0453215619846826
 10
17.23400595427162
 20
-16.57601205739083
 42
-0.0237949691647293
 10
16.85440270879666
 20
-16.93722315399809
 42
0.9260932291829208
 10
16.61941006851074
 20
-17.15394990796029
 42
-0.0000003148961694
 10
16.87247899745858
 20
-17.5332215593979
 42
-1.869422352923711
  0
LWPOLYLINE
  5
209
330
18
100
AcDbEntity
  8
ADP1DETAIL
100
AcDbPolyline
 90
        7
 70
     0
 43
0.0
 10
16.45672302671296
 20
-13.12933523597646
 10
16.83632627218792
 20
-13.12933523597646
 42
-0.2813890290979663
 10
17.07131876452702
 20
-13.40024365442975
 42
0.3202749560913693
 10
17.16170050373029
 20
-13.49054642858156
 42
0.2655928328489654
 10
17.07131876452702
 20
-13.59890975756374
 42
-0.5139094726866734
 10
16.85440270879666
 20
-13.88787863484954
 42
0.0297779245015555
 10
16.3663412875097
 20
-13.90593918967991
 42
-0.0483005354961874
  0
LWPOLYLINE
  5
212
330
18
100
AcDbEntity
  8
ADP1DETAIL
100
AcDbPolyline
 90
        9
 70
     0
 43
0.0
 10
16.80646506162286
 20
-4.58340690094776
 10
17.04525517198036
 20
-4.643052227803078
 42
0.0622307459006322
 10
17.28404513440144
 20
-4.503879702482887
 42
-0.8023237865862226
 10
17.46313771716957
 20
-4.762342977504832
 42
-0.2516528323346576
 10
17.70192767959064
 20
-5.000924476908334
 42
-0.693213012829861
 10
17.38354096440493
 20
-5.517850930961106
 42
-0.0557256309256785
 10
16.96565841921571
 20
-5.259387655939161
 42
-0.3698546433934682
 10
16.78656598438401
 20
-5.120215130618969
 42
-0.2933068268179331
 10
17.08505347439447
 20
-4.643052227803078
 42
-0.2242464812265799
  0
ARC
  5
21D
330
18
100
AcDbEntity
  8
ADP1DETAIL
100
AcDbCircle
 10
12.95749630848318
 20
-9.697244406037672
 30
0.0
 40
5.659328331667599
100
AcDbArc
 50
33.76687921049323
 51
61.10507005383432
  0
LWPOLYLINE
  5
21E
330
18
100
AcDbEntity
  8
ADP1DETAIL
100
AcDbPolyline
 90
       17
 70
     0
 43
0.0
 10
12.92612695180482
 20
-3.947189601202122
 42
-0.2208768506657131
 10
14.51806052773342
 20
-4.722579426267952
 42
0.2900300281264275
 10
15.51301912364113
 20
-4.80210652874171
 42
0.7642048254642226
 10
15.61251495364461
 20
-4.643052227803078
 42
0.1156760524101618
 10
15.25432978810836
 20
-4.046598575285432
 42
-0.082750711135743
 10
15.7120107836481
 20
-4.424352600009129
 42
0.224749212944705
 10
16.76666675920875
 20
-4.662934003421518
 42
0.4440509165599363
 10
16.34878421401954
 20
-3.827898947491487
 42
-0.720162280692593
 10
16.48807834643713
 20
-3.808017075881931
 42
0.1930700414263284
 10
18.00041531753753
 20
-4.344825401544255
 42
0.1942676381339207
 10
18.67698705032308
 20
-4.185771100605627
 42
0.334653460245746
 10
17.24424683198733
 20
-3.211563423364289
 42
-1.438350223834032
 10
17.10495269956974
 20
-3.072390898044098
 42
0.3564645199672323
 10
17.66212937717654
 20
-2.456055469908012
 42
0.1818339783260201
 10
15.95080074606918
 20
-2.853691270250145
 42
-0.1207114249866908
 10
14.21957303772297
 20
-3.549553896851104
 42
-0.0805019722240367
 10
12.92612695180482
 20
-3.768253524645054
 42
292.3452361535506
  0
LWPOLYLINE
  5
231
330
18
100
AcDbEntity
  8
ADP1DETAIL
100
AcDbPolyline
 90
       12
 70
     0
 43
0.0
 10
14.97574152327317
 20
-4.901515502825024
 42
0.0881536486005867
 10
15.41352314570121
 20
-5.855841308456806
 42
0.131665349370961
 10
15.83140583882685
 20
-6.074541032241871
 42
0.3564466291742996
 10
15.85130491606569
 20
-5.577496257816424
 42
-0.3773383117972837
 10
15.87120414124096
 20
-5.319033078785597
 42
0.010645373106459
 10
15.97069997124444
 20
-5.696787007518175
 42
0.2157990294360916
 10
16.56767509920178
 20
-6.889694312553466
 42
0.7636200705448932
 10
16.82636428679813
 20
-6.670994684759513
 42
0.0616717281749959
 10
16.6870700064441
 20
-5.895604955684799
 42
0.0250868292982967
 10
17.26414605716261
 20
-6.889694312553466
 42
0.2678635401853145
 10
18.04021361995164
 20
-7.168039363193848
 42
0.2345533332603074
 10
17.48303679440841
 20
-5.517850930961106
 42
-2.417647455509569
  0
LWPOLYLINE
  5
23F
330
18
100
AcDbEntity
  8
ADP1DETAIL
100
AcDbPolyline
 90
        5
 70
     0
 43
0.0
 10
12.92672288918361
 20
-13.9781815049992
 42
0.001479208074907
 10
14.60782320877486
 20
-12.42497350159446
 42
-0.1494429943391592
 10
17.15658804718121
 20
-11.4858244584199
 42
0.1241987320566692
 10
14.58974692011293
 20
-12.551397385407
 42
0.0111095606258796
 10
12.78211213604776
 20
-14.30327149194573
 42
0.0111095606258796
  0
LWPOLYLINE
  5
246
330
18
100
AcDbEntity
  8
ADP1DETAIL
100
AcDbPolyline
 90
       25
 70
     0
 43
0.0
 10
12.67365410818257
 20
-14.50193759507973
 42
-0.1824150738406172
 10
14.21014352669116
 20
-13.9781815049992
 42
0.1531766980635864
 10
15.2585716718596
 20
-13.68921253171555
 42
0.5126696266786532
 10
15.34895341106286
 20
-13.32800133911045
 42
0.3025150806205324
 10
14.55359419484227
 20
-13.21963801012827
 42
0.1407404279860314
 10
13.7763112672836
 20
-13.52666753824228
 42
-0.0651974556757098
 10
14.55359419484227
 20
-13.09321412631573
 42
0.0104939850119473
 10
15.92739657155307
 20
-12.98485079733356
 42
0.372564208986587
 10
16.52391602070521
 20
-12.47915516608555
 42
0.2560885497071512
 10
15.8912438462824
 20
-12.15406517913902
 42
-0.0749660335260496
 10
16.74083207643559
 20
-12.06376230898936
 42
0.0082606306275179
 10
17.50003871533232
 20
-11.59418788339993
 42
0.3004545223511687
 10
16.25277080309544
 20
-11.03431058766084
 42
-0.0503750308278061
 10
15.67432764260522
 20
-11.41358223909845
 42
-0.1784351885153553
 10
15.7827856704704
 20
-11.21491613596447
 42
0.2845657297232514
 10
16.10816004995959
 20
-10.70922050471646
 42
0.0918793824455766
 10
16.03585459941826
 20
-10.43831218226102
 42
0.1208555440143715
 10
15.18626636926507
 20
-10.72728105954682
 42
-0.2216819058808185
 10
14.93319744031723
 20
-11.12461336181265
 42
0.1868215616238098
 10
14.49936518090968
 20
-11.61224843823029
 42
-0.2698088106051162
 10
14.1197617874879
 20
-12.29854961778193
 10
14.48128874430093
 20
-11.5580667737392
 42
0.2310803648663411
 10
14.48128874430093
 20
-11.39552168426809
 42
0.0227667121229316
 10
14.37283071643575
 20
-11.1968555811341
 42
0.0911696957147791
 10
14.22821996329989
 20
-11.03431058766084
 42
-2.910552653248005
  0
LWPOLYLINE
  5
261
330
18
100
AcDbEntity
  8
ADP1DETAIL
100
AcDbPolyline
 90
        5
 70
     0
 43
0.0
 10
13.29336230254572
 20
-14.35745315643682
 42
-0.0780305035152005
 10
15.78789812701949
 20
-15.15211776096848
 42
-0.0870983418499126
 10
17.46899844661073
 20
-16.3982962362592
 42
0.0422713129912806
 10
15.75174554969563
 20
-15.26048108995066
 42
0.0978337267372118
 10
13.34759131647831
 20
-14.50193759507973
 42
0.0553470636655376
  0
LWPOLYLINE
  5
268
330
18
100
AcDbEntity
  8
ADP1DETAIL
100
AcDbPolyline
 90
       21
 70
     0
 43
0.0
 10
14.37794317298482
 20
-15.80229783085938
 10
14.9383098968663
 20
-16.05514559848446
 42
0.3575661946693533
 10
14.90215717159563
 20
-15.65781329621864
 42
-0.1741270011425422
 10
14.68524096791846
 20
-15.1882388706292
 42
-0.0407790160487469
 10
15.20945511447607
 20
-15.98290337916301
 42
0.1338033233695376
 10
15.69751638781622
 20
-16.48859901041102
 42
0.2143647403092387
 10
16.16750152044125
 20
-16.5427806749021
 42
0.0000003808014346
 10
16.0228906193586
 20
-16.10932726297555
 42
-0.3543404298125097
 10
16.07711978123799
 20
-15.96484282433265
 42
0.1585489475944636
 10
16.92670801139118
 20
-16.50665956524138
 42
0.1272951173329448
 10
17.55938018581399
 20
-16.50665956524138
 42
0.3807189642632987
 10
16.43864673805103
 20
-14.91733045217592
 42
0.0511047533867864
 10
16.94478444799991
 20
-14.84508823285447
 42
0.7816485831626899
 10
16.94478444799991
 20
-14.51999814991009
 42
0.3333712940244274
 10
15.37214215627385
 20
-14.08654483398138
 42
-0.1128282022237312
 10
14.73947012979786
 20
-14.21296871779392
 42
0.0598603386323596
 10
15.37214215627385
 20
-13.99624205982957
 42
0.1748804434077062
 10
15.80597456362822
 20
-13.50860698341192
 42
-0.2635728445884252
 10
15.64328737388363
 20
-13.38218309959938
 42
0.2490287374866132
 10
15.10099693866408
 20
-13.18351690046754
 42
0.1306365687594674
 10
14.5406302147826
 20
-13.41830420926011
 42
-0.3406097169928024
  0
ARC
  5
27F
330
18
100
AcDbEntity
  8
ADP1DETAIL
100
AcDbCircle
 10
10.36892882778736
 20
-5.321435984334179
 30
0.0
 40
1.738485715070349
100
AcDbArc
 50
103.2285508492893
 51
119.4787120760327
  0
ARC
  5
280
330
18
100
AcDbEntity
  8
ADP1DETAIL
100
AcDbCircle
 10
10.32852732040877
 20
-0.8586504894441624
 30
0.0
 40
2.487766176270651
100
AcDbArc
 50
229.6391954685895
 51
263.5879176903697
  0
ARC
  5
281
330
18
100
AcDbEntity
  8
ADP1DETAIL
100
AcDbCircle
 10
12.45036625223677
 20
-8.493741824668436
 30
0.0
 40
5.050820933780199
100
AcDbArc
 50
104.7425695270513
 51
125.5546377888995
  0
LWPOLYLINE
  5
282
330
18
100
AcDbEntity
  8
ADP1DETAIL
100
AcDbPolyline
 90
       17
 70
     0
 43
0.0
 10
12.89627870578763
 20
-3.947189601202122
 42
0.2208768506657131
 10
11.30434512985902
 20
-4.722579426267952
 42
-0.2900300281264275
 10
10.30938653395132
 20
-4.80210652874171
 42
-0.7642048254642226
 10
10.20989070394783
 20
-4.643052227803078
 42
-0.1156760524101618
 10
10.56807586948409
 20
-4.046598575285432
 42
0.082750711135743
 10
10.11039487394435
 20
-4.424352600009129
 42
-0.224749212944705
 10
9.055738898383705
 20
-4.662934003421518
 42
-0.4440509165599363
 10
9.473621443572913
 20
-3.827898947491487
 42
0.720162280692593
 10
9.334327311155316
 20
-3.808017075881931
 42
-0.1930700414263284
 10
7.821990340054928
 20
-4.344825401544255
 42
-0.1942676381339207
 10
7.145418607269374
 20
-4.185771100605627
 42
-0.334653460245746
 10
8.578158825605118
 20
-3.211563423364289
 42
1.438350223834032
 10
8.717452958022708
 20
-3.072390898044098
 42
-0.3564645199672323
 10
8.160276280415917
 20
-2.456055469908012
 42
-0.1818339783260201
 10
9.871604911523281
 20
-2.853691270250145
 42
0.1207114249866908
 10
11.60283261986947
 20
-3.549553896851104
 42
0.0805019722240367
 10
12.89627870578763
 20
-3.768253524645054
 42
-292.3452361535506
  0
ARC
  5
295
330
18
100
AcDbEntity
  8
ADP1DETAIL
100
AcDbCircle
 10
10.14101775487822
 20
-10.09682295269738
 30
0.0
 40
6.626860035584759
100
AcDbArc
 50
89.74862002823391
 51
116.1056525166162
  0
ARC
  5
296
330
18
100
AcDbEntity
  8
ADP1DETAIL
100
AcDbCircle
 10
11.24722684261198
 20
-8.507855768346683
 30
0.0
 40
1.766699570523576
100
AcDbArc
 50
49.32093214500895
 51
137.1878340654713
  0
LWPOLYLINE
  5
297
330
18
100
AcDbEntity
  8
ADP1DETAIL
100
AcDbPolyline
 90
        8
 70
     0
 43
0.0
 10
11.47970381963235
 20
-6.047238018045053
 42
0.0225846124694863
 10
11.42374003710135
 20
-6.074541032241871
 42
0.0622307459006115
 10
11.22474837709438
 20
-6.193831781943622
 42
-0.1397853942243856
 10
10.76706752949106
 20
-6.651112909141076
 42
0.0106413354494303
 10
11.02575671708741
 20
-6.213713557562062
 42
0.3877478491724897
 10
10.96605918949803
 20
-5.95525028254012
 42
0.2803979654383568
 10
10.07059657153025
 20
-6.710758235996394
 42
-0.06240552032974
 10
9.831806461172742
 20
-7.207802914430725
 42
-0.5451901211644889
  0
ARC
  5
2A1
330
18
100
AcDbEntity
  8
ADP1DETAIL
100
AcDbCircle
 10
15.72609864529866
 20
-8.191063507785408
 30
0.0
 40
5.937270772243286
100
AcDbArc
 50
158.292074473594
 51
200.6447340815725
  0
LWPOLYLINE
  5
2A2
330
18
100
AcDbEntity
  8
ADP1DETAIL
100
AcDbPolyline
 90
       15
 70
     0
 43
0.0
 10
9.811907383933903
 20
-7.863901989794801
 42
-0.3567658693123899
 10
10.38898328671596
 20
-7.645202266009736
 42
0.1730712872655349
 10
11.02575671708741
 20
-7.74461124009305
 42
0.1607863982550179
 10
11.20484929985554
 20
-7.645202266009736
 42
0.2975336169998104
 10
10.58797494672293
 20
-7.247566561658718
 42
-0.1788028480331031
 10
11.52323601504126
 20
-7.645202266009736
 42
0.2891142992276219
 10
11.96101763746931
 20
-7.74461124009305
 42
0.6410990246922124
 10
11.98091686264458
 20
-7.466266189452667
 42
-0.0935284843335632
 10
11.64263092228358
 20
-7.187921138812289
 42
0.0037152478858099
 10
12.23960605024092
 20
-7.466266189452667
 42
0.8051426369476835
 10
12.65748859543012
 20
-6.909576088171903
 42
0.202257786697546
 10
11.56303431745537
 20
-6.631231133522636
 42
-0.117966442955801
 10
12.02071516505869
 20
-6.472176736592889
 42
0.3343693690441086
 10
12.27940435265503
 20
-6.233595333180502
 42
0.0504687565496807
 10
12.1793035330672
 20
-6.137347320459213
 42
0.0622307459006115
  0
ARC
  5
2B3
330
18
100
AcDbEntity
  8
ADP1DETAIL
100
AcDbCircle
 10
11.32220123365214
 20
-8.8091441046808
 30
0.0
 40
1.962724739025365
100
AcDbArc
 50
56.7343084524127
 51
132.7063817495966
  0
LWPOLYLINE
  5
2B4
330
18
100
AcDbEntity
  8
ADP1DETAIL
100
AcDbPolyline
 90
        2
 70
     0
 43
0.0
 10
9.627250017567167
 20
-18.08455824378133
 42
-0.1233362670283855
 10
10.84111659188917
 20
-15.85405253042562
 42
-0.4387839230653582
  0
LWPOLYLINE
  5
2B8
330
18
100
AcDbEntity
  8
ADP1DETAIL
100
AcDbPolyline
 90
        9
 70
     0
 43
0.0
 10
9.997236825852017
 20
-19.26677300319752
 42
-0.3025730651751187
 10
10.68037764526811
 20
-19.00580034145225
 42
0.3332497158907082
 10
11.60462688461579
 20
-18.96565061984967
 42
0.2109958280296489
 10
11.02194798090701
 20
-18.64445342376156
 42
-0.2835518545008837
 10
11.66490406366784
 20
-18.8452016472861
 42
0.2683877887310422
 10
12.30786014642867
 20
-19.06602477967298
 42
0.6645380500614646
 10
12.34804488308394
 20
-18.76490239632512
 42
-0.0847293299141863
 10
11.96628966265147
 20
-18.44370520023701
 42
0.2540555989331727
 10
13.05127799675851
 20
-18.78497720906536
 42
0.3414163778215909
  0
LWPOLYLINE
  5
2C3
330
18
100
AcDbEntity
  8
ADP1DETAIL
100
AcDbPolyline
 90
        5
 70
     0
 43
0.0
 10
12.89568276840883
 20
-13.9781815049992
 42
-0.001479208074907
 10
11.21458244881759
 20
-12.42497350159446
 42
0.1494429943391592
 10
8.665817610411242
 20
-11.4858244584199
 42
-0.1241987320566692
 10
11.23265873747952
 20
-12.551397385407
 42
-0.0096071931432666
 10
12.80043686157923
 20
-14.06170587021409
 42
-0.0111095606258796
  0
ARC
  5
2CA
330
18
100
AcDbEntity
  8
ADP1DETAIL
100
AcDbCircle
 10
9.523138842513933
 20
-19.01518480738189
 30
0.0
 40
6.41039714269086
100
AcDbArc
 50
72.17220653163014
 51
89.09968684861487
  0
ARC
  5
2CB
330
18
100
AcDbEntity
  8
ADP1DETAIL
100
AcDbCircle
 10
9.848232225151033
 20
-13.31491680566128
 30
0.0
 40
1.162661794760463
100
AcDbArc
 50
57.4694768645881
 51
86.80238065718063
  0
ARC
  5
2CC
330
18
100
AcDbEntity
  8
ADP1DETAIL
100
AcDbCircle
 10
9.81759132689579
 20
-22.09142223926642
 30
0.0
 40
7.545789466888544
100
AcDbArc
 50
80.62487166186425
 51
93.02101304245075
  0
ARC
  5
2CD
330
18
100
AcDbEntity
  8
ADP1DETAIL
100
AcDbCircle
 10
11.76809813630746
 20
-17.41096427723728
 30
0.0
 40
2.442659753336948
100
AcDbArc
 50
132.2767990538179
 51
143.6989904207725
  0
ARC
  5
2CE
330
18
100
AcDbEntity
  8
ADP1DETAIL
100
AcDbCircle
 10
10.15860367279473
 20
-12.00437694471404
 30
0.0
 40
1.633224288987717
100
AcDbArc
 50
256.8172304877911
 51
268.006573131614
  0
LWPOLYLINE
  5
2CF
330
18
100
AcDbEntity
  8
ADP1DETAIL
100
AcDbPolyline
 90
        8
 70
     0
 43
0.0
 10
10.10681283316749
 20
-13.41830420926011
 10
9.745285876354461
 20
-13.34606198993866
 42
0.0890852981319773
 10
9.582598834556673
 20
-12.98485079733356
 42
0.8123022599948393
 10
9.365682630879494
 20
-13.07515357148537
 42
0.020627361794265
 10
9.456064370082753
 20
-13.94206039533848
 42
0.3505416814625239
 10
9.636827848489279
 20
-14.01430261465993
 42
0.3254135477617308
 10
9.781438601625122
 20
-13.58084920273338
 42
-0.1156923331703565
 10
9.763362312963192
 20
-13.34606198993866
 42
-0.8571617250073598
  0
LWPOLYLINE
  5
2D9
330
18
100
AcDbEntity
  8
ADP1DETAIL
100
AcDbPolyline
 90
        5
 70
     0
 43
0.0
 10
12.52904335504672
 20
-14.35745315643682
 42
0.0780305035152005
 10
10.03450753057297
 20
-15.15211776096848
 42
0.0870983418499126
 10
8.353407210981732
 20
-16.3982962362592
 42
-0.0422713129912806
 10
10.07066010789682
 20
-15.26048108995066
 42
-0.0978337267372118
 10
12.47481434111413
 20
-14.50193759507973
 42
-0.0553470636655376
  0
LWPOLYLINE
  5
2E0
330
18
100
AcDbEntity
  8
ADP1DETAIL
100
AcDbPolyline
 90
       21
 70
     0
 43
0.0
 10
11.44446248460763
 20
-15.80229783085938
 10
10.88409576072615
 20
-16.05514559848446
 42
-0.3575661946693533
 10
10.92024848599681
 20
-15.65781329621864
 42
0.1741270011425422
 10
11.13716468967399
 20
-15.1882388706292
 42
0.0407790160487469
 10
10.61295054311637
 20
-15.98290337916301
 42
-0.1338033233695376
 10
10.12488926977622
 20
-16.48859901041102
 42
-0.2143647403092387
 10
9.654904137151202
 20
-16.5427806749021
 42
-0.0000003808014346
 10
9.79951503823386
 20
-16.10932726297555
 42
0.3543404298125097
 10
9.745285876354461
 20
-15.96484282433265
 42
-0.1585489475944636
 10
8.895697646201281
 20
-16.50665956524138
 42
-0.1272951173329448
 10
8.263025471778465
 20
-16.50665956524138
 42
-0.3807189642632987
 10
9.383758919541431
 20
-14.91733045217592
 42
-0.0511047533867864
 10
8.877621209592536
 20
-14.84508823285447
 42
-0.7816485831626899
 10
8.877621209592536
 20
-14.51999814991009
 42
-0.3333712940244274
 10
10.45026350131859
 20
-14.08654483398138
 42
0.1128282022237312
 10
11.08293552779459
 20
-14.21296871779392
 42
-0.0598603386323596
 10
10.45026350131859
 20
-13.99624205982957
 42
-0.1748804434077062
 10
10.01643109396423
 20
-13.50860698341192
 42
0.2635728445884252
 10
10.17911828370882
 20
-13.38218309959938
 42
-0.2490287374866132
 10
10.72140871892836
 20
-13.18351690046754
 42
-0.1306365687594674
 10
11.28177544280984
 20
-13.41830420926011
 42
0.3406097169928024
  0
LWPOLYLINE
  5
2F7
330
18
100
AcDbEntity
  8
ADP1DETAIL
100
AcDbPolyline
 90
       25
 70
     0
 43
0.0
 10
12.68644305901684
 20
-14.20581608431615
 42
0.1211687987562481
 10
11.61226213090128
 20
-13.9781815049992
 42
-0.1531766980635864
 10
10.56383398573285
 20
-13.68921253171555
 42
-0.5126696266786532
 10
10.47345224652959
 20
-13.32800133911045
 42
-0.3025150806205324
 10
11.26881146275018
 20
-13.21963801012827
 42
-0.1407404279860314
 10
12.04609439030885
 20
-13.52666753824228
 42
0.0651974556757098
 10
11.26881146275018
 20
-13.09321412631573
 42
-0.0104939850119473
 10
9.895009086039383
 20
-12.98485079733356
 42
-0.372564208986587
 10
9.298489636887243
 20
-12.47915516608555
 42
-0.2560885497071512
 10
9.931161811310051
 20
-12.15406517913902
 42
0.0749660335260496
 10
9.08157358115687
 20
-12.06376230898936
 42
-0.0082606306275179
 10
8.322366942260135
 20
-11.59418788339993
 42
-0.3004545223511687
 10
9.569634854497014
 20
-11.03431058766084
 42
0.0503750308278061
 10
10.14807801498723
 20
-11.41358223909845
 42
0.1784351885153553
 10
10.03961998712204
 20
-11.21491613596447
 42
-0.2845657297232514
 10
9.714245607632864
 20
-10.70922050471646
 42
-0.0918793824455766
 10
9.7865510581742
 20
-10.43831218226102
 42
-0.1208555440143715
 10
10.63613928832738
 20
-10.72728105954682
 42
0.2216819058808185
 10
10.88920821727523
 20
-11.12461336181265
 42
-0.1868215616238098
 10
11.32304047668278
 20
-11.61224843823029
 42
0.2698088106051162
 10
11.70264387010454
 20
-12.29854961778193
 10
11.34111691329151
 20
-11.5580667737392
 42
-0.2310803648663411
 10
11.34111691329151
 20
-11.39552168426809
 42
-0.0227667121229316
 10
11.4495749411567
 20
-11.1968555811341
 42
-0.0911696957147791
 10
11.59418569429256
 20
-11.03431058766084
 42
2.910552653248005
  0
ARC
  5
312
330
18
100
AcDbEntity
  8
ADP1DETAIL
100
AcDbCircle
 10
12.86490934910927
 20
-9.697244406037672
 30
0.0
 40
5.659328331667599
100
AcDbArc
 50
118.8949299461656
 51
146.2331207895067
  0
LWPOLYLINE
  5
313
330
18
100
AcDbEntity
  8
ADP1DETAIL
100
AcDbPolyline
 90
       12
 70
     0
 43
0.0
 10
10.84666413431927
 20
-4.901515502825024
 42
-0.0881536486005867
 10
10.40888251189123
 20
-5.855841308456806
 42
-0.131665349370961
 10
9.990999818765597
 20
-6.074541032241871
 42
-0.3564466291742996
 10
9.971100741526758
 20
-5.577496257816424
 42
0.3773383117972837
 10
9.951201516351492
 20
-5.319033078785597
 42
-0.010645373106459
 10
9.851705686348008
 20
-5.696787007518175
 42
-0.2157990294360916
 10
9.254730558390672
 20
-6.889694312553466
 42
-0.7636200705448932
 10
8.996041370794326
 20
-6.670994684759513
 42
-0.0616717281749959
 10
9.135335651148349
 20
-5.895604955684799
 42
-0.0250868292982967
 10
8.558259600429853
 20
-6.889694312553466
 42
-0.2678635401853145
 10
7.782192037640816
 20
-7.168039363193848
 42
-0.2345533332603074
 10
8.339368863184045
 20
-5.517850930961106
 42
2.417647455509569
  0
ARC
  5
321
330
18
100
AcDbEntity
  8
ADP1DETAIL
100
AcDbCircle
 10
15.77393432552932
 20
-8.176166128921206
 30
0.0
 40
6.582083933597711
100
AcDbArc
 50
181.7818334376625
 51
202.9401635113037
  0
LWPOLYLINE
  5
322
330
18
100
AcDbEntity
  8
ADP1DETAIL
100
AcDbPolyline
 90
       10
 70
     0
 43
0.0
 10
9.636827848489279
 20
-18.67103670570646
 42
0.1375620968119544
 10
8.931850371471941
 20
-17.55128211422827
 42
-0.026744594720519
 10
8.552246978050174
 20
-17.62352442954757
 42
-0.5148787349223493
 10
8.425712661523053
 20
-17.37067656592464
 42
0.0365467191415731
 10
8.154567443913283
 20
-16.99140491448702
 42
-0.2812410116711899
 10
8.208796457845874
 20
-16.55795150256047
 42
-0.0453215619846826
 10
8.588399703320842
 20
-16.57601205739083
 42
0.0237949691647293
 10
8.968002948795795
 20
-16.93722315399809
 42
-0.9260932291829208
 10
9.202995589081719
 20
-17.15394990796029
 42
0.0000003148961694
 10
8.949926660133872
 20
-17.5332215593979
 42
1.869422352923711
  0
ARC
  5
32E
330
18
100
AcDbEntity
  8
ADP1DETAIL
100
AcDbCircle
 10
10.72586281894036
 20
-16.60594528063463
 30
0.0
 40
1.842076649362483
100
AcDbArc
 50
205.147545621634
 51
237.8375584627008
  0
ARC
  5
32F
330
18
100
AcDbEntity
  8
ADP1DETAIL
100
AcDbCircle
 10
7.492345343289447
 20
-15.57154148809071
 30
0.0
 40
1.993631442683953
100
AcDbArc
 50
297.674399008275
 51
316.7470290411725
  0
LWPOLYLINE
  5
330
330
18
100
AcDbEntity
  8
ADP1DETAIL
100
AcDbPolyline
 90
        7
 70
     0
 43
0.0
 10
9.365682630879494
 20
-13.12933523597646
 10
8.986079385404533
 20
-13.12933523597646
 42
0.2813890290979663
 10
8.75108689306543
 20
-13.40024365442975
 42
-0.3202749560913693
 10
8.660705153862171
 20
-13.49054642858156
 42
-0.2655928328489654
 10
8.75108689306543
 20
-13.59890975756374
 42
0.5139094726866734
 10
8.968002948795795
 20
-13.88787863484954
 42
-0.0297779245015555
 10
9.456064370082753
 20
-13.90593918967991
 42
0.0483005354961874
  0
LINE
  5
339
330
18
100
AcDbEntity
  8
ADP1DETAIL
100
AcDbLine
 10
9.015940595969599
 20
-8.162128816053623
 30
0.0
 11
9.254730558390672
 21
-8.480237417930887
 31
0.0
  0
LINE
  5
33A
330
18
100
AcDbEntity
  8
ADP1DETAIL
100
AcDbLine
 10
9.075638123558977
 20
-7.943429092268562
 30
0.0
 11
9.015940595969599
 21
-8.162128816053623
 31
0.0
  0
ARC
  5
33B
330
18
100
AcDbEntity
  8
ADP1DETAIL
100
AcDbCircle
 10
17.84607090884245
 20
-8.097229085208063
 30
0.0
 40
8.71246659025815
100
AcDbArc
 50
172.1652461090569
 51
178.8577412111347
  0
LINE
  5
33C
330
18
100
AcDbEntity
  8
ADP1DETAIL
100
AcDbLine
 10
9.334327311155316
 20
-7.903665541031681
 30
0.0
 11
9.075638123558977
 21
-7.943429092268562
 31
0.0
  0
ARC
  5
33D
330
18
100
AcDbEntity
  8
ADP1DETAIL
100
AcDbCircle
 10
8.020982147998328
 20
-6.556867855421963
 30
0.0
 40
2.971817279909675
100
AcDbArc
 50
82.69083921565041
 51
93.07067173503572
  0
ARC
  5
33E
330
18
100
AcDbEntity
  8
ADP1DETAIL
100
AcDbCircle
 10
8.032505373978242
 20
-3.604821953817936
 30
0.0
 40
0.4309691868483066
100
AcDbArc
 50
281.7784205357575
 51
340.5438104876009
  0
LWPOLYLINE
  5
33F
330
18
100
AcDbEntity
  8
ADP1DETAIL
100
AcDbPolyline
 90
        9
 70
     0
 43
0.0
 10
9.015940595969599
 20
-4.58340690094776
 10
8.777150485612086
 20
-4.643052227803078
 42
-0.0622307459006322
 10
8.538360523191013
 20
-4.503879702482887
 42
0.8023237865862226
 10
8.359267940422885
 20
-4.762342977504832
 42
0.2516528323346576
 10
8.120477978001805
 20
-5.000924476908334
 42
0.693213012829861
 10
8.438864693187529
 20
-5.517850930961106
 42
0.0557256309256785
 10
8.856747238376737
 20
-5.259387655939161
 42
0.3698546433934682
 10
9.035839673208432
 20
-5.120215130618969
 42
0.2933068268179331
 10
8.73735218319798
 20
-4.643052227803078
 42
0.2242464812265799
  0
ARC
  5
34A
330
18
100
AcDbEntity
  8
ADP1DETAIL
100
AcDbCircle
 10
9.483223554805551
 20
-5.170232505011064
 30
0.0
 40
0.5492200088932715
100
AcDbArc
 50
121.6498615031059
 51
148.3000940542104
  0
ARC
  5
34B
330
18
100
AcDbEntity
  8
ADP1DETAIL
100
AcDbCircle
 10
7.857000963872846
 20
-5.80470000909797
 30
0.0
 40
1.121367826623182
100
AcDbArc
 50
29.09716423106626
 51
63.39060867587754
  0
ARC
  5
34C
330
18
100
AcDbEntity
  8
ADP1DETAIL
100
AcDbCircle
 10
10.04847133206313
 20
-8.176166128921227
 30
0.0
 40
6.582083933597711
100
AcDbArc
 50
337.0598364886964
 51
358.2181665623375
  0
LWPOLYLINE
  5
34D
330
18
100
AcDbEntity
  8
ADP1DETAIL
100
AcDbPolyline
 90
       12
 70
     0
 43
0.0
 10
10.36499421866441
 20
-10.60085717573428
 42
-0.1833410364707198
 10
10.74459746413937
 20
-10.02291932516482
 42
-0.4582251034186689
 10
11.43149865249477
 20
-10.18546431863809
 42
-0.0600880661955441
 10
11.53995668035996
 20
-10.47443329192174
 42
0.0114504091958695
 10
11.26881146275018
 20
-10.79952327886827
 42
0.4826361112125048
 10
11.55803311696869
 20
-10.92594725867866
 42
-0.1103999769935164
 10
12.28108688264796
 20
-10.54667551124319
 42
0.2415805365563051
 10
12.11839984085017
 20
-10.25770653795954
 42
-0.039904350638994
 10
11.7930256093078
 20
-10.32994885327884
 42
0.0151482986981707
 10
11.34111691329151
 20
-9.860374331691566
 42
0.3573085372198899
 10
10.72652102753064
 20
-9.806192667200477
 42
0.1866544111360621
 10
10.1300017263253
 20
-10.45637273709138
 42
-0.6822855805302474
  0
ARC
  5
35B
330
18
100
AcDbEntity
  8
ADP1DETAIL
100
AcDbCircle
 10
2.841276890137227
 20
-16.36927608273716
 30
0.0
 40
9.18868380486354
100
AcDbArc
 50
26.9262214162439
 51
37.88042541378748
  0
LWPOLYLINE
  5
35C
330
18
100
AcDbEntity
  8
ADP1DETAIL
100
AcDbPolyline
 90
        7
 70
     0
 43
0.0
 10
12.24493415737729
 20
-10.60085717573428
 10
12.37146862185121
 20
-10.92594725867866
 42
-0.302995886765551
 10
12.1907051434447
 20
-11.30521891011628
 42
0.1809355287159011
 10
12.11839984085017
 20
-11.39552168426809
 42
0.1621432315211932
 10
12.02801810164692
 20
-11.37746112943773
 42
-0.3331000758468053
 10
11.73879644742841
 20
-11.32327946494664
 42
-0.1499935104337102
 10
11.55803311696869
 20
-10.94400781350902
 42
0.8628423587407596
  0
LWPOLYLINE
  5
365
330
18
100
AcDbEntity
  8
ADP1DETAIL
100
AcDbPolyline
 90
        7
 70
     0
 43
0.0
 10
13.57747150021516
 20
-10.60085717573428
 10
13.45093703574124
 20
-10.92594725867866
 42
0.302995886765551
 10
13.63170051414775
 20
-11.30521891011628
 42
-0.1809355287159011
 10
13.70400581674228
 20
-11.39552168426809
 42
-0.1621432315211932
 10
13.79438755594553
 20
-11.37746112943773
 42
0.3331000758468053
 10
14.08360921016404
 20
-11.32327946494664
 42
0.1499935104337102
 10
14.26437254062375
 20
-10.94400781350902
 42
-0.8628423587407596
  0
ARC
  5
36E
330
18
100
AcDbEntity
  8
ADP1DETAIL
100
AcDbCircle
 10
22.98112876745523
 20
-16.36927608273716
 30
0.0
 40
9.18868380486354
100
AcDbArc
 50
142.1195745862125
 51
153.0737785837561
  0
LWPOLYLINE
  5
36F
330
18
100
AcDbEntity
  8
ADP1DETAIL
100
AcDbPolyline
 90
       12
 70
     0
 43
0.0
 10
15.45741143892804
 20
-10.60085717573428
 42
0.1833410364707198
 10
15.07780819345308
 20
-10.02291932516482
 42
0.4582251034186689
 10
14.39090700509768
 20
-10.18546431863809
 42
0.0600880661955441
 10
14.28244897723249
 20
-10.47443329192174
 42
-0.0114504091958695
 10
14.55359419484227
 20
-10.79952327886827
 42
-0.4826361112125048
 10
14.26437254062375
 20
-10.92594725867866
 42
0.1103999769935164
 10
13.5413187749445
 20
-10.54667551124319
 42
-0.2415805365563051
 10
13.70400581674228
 20
-10.25770653795954
 42
0.039904350638994
 10
14.02938004828465
 20
-10.32994885327884
 42
-0.0151482986981707
 10
14.48128874430093
 20
-9.860374331691566
 42
-0.3573085372198899
 10
15.09588463006182
 20
-9.806192667200477
 42
-0.1866544111360621
 10
15.69240393126715
 20
-10.45637273709138
 42
0.6822855805302474
  0
LWPOLYLINE
  5
37D
330
18
100
AcDbEntity
  8
ADP1DETAIL
100
AcDbPolyline
 90
        2
 70
     0
 43
0.0
 10
13.59554778887709
 20
-14.05042372432065
 42
0.1221911200437961
 10
11.29985173147177
 20
-16.0370850436541
 42
1.928971912982132
  0
LWPOLYLINE
  5
381
330
18
100
AcDbEntity
  8
ADP1DETAIL
100
AcDbPolyline
 90
        4
 70
     0
 43
0.0
 10
13.7763112672836
 20
-11.35940057460736
 42
0.0722089324431314
 10
13.4328605991325
 20
-12.31661017261229
 42
-0.0898042723957428
 10
13.10748636759013
 20
-13.54472809307265
 42
-0.097422688351034
 10
12.43866161584347
 20
-14.465816485419
 42
2.546008629500952
  0
LWPOLYLINE
  5
387
330
18
100
AcDbEntity
  8
ADP1DETAIL
100
AcDbPolyline
 90
        2
 70
     0
 43
0.0
 10
12.81791925726449
 20
-14.39227509653556
 42
-0.0947803924635268
 10
14.52255392612068
 20
-16.0370850436541
 42
-1.928971912982132
  0
LWPOLYLINE
  5
38B
330
18
100
AcDbEntity
  8
ADP1DETAIL
100
AcDbPolyline
 90
       10
 70
     0
 43
0.0
 10
14.11731685726935
 20
-16.99831762559633
 10
14.11731685726935
 20
-17.37973935602727
 42
-0.3430290234458193
 10
13.85611599494098
 20
-17.56041276681157
 42
0.5151550038825646
 10
13.77574652163045
 20
-17.66078692663489
 42
-0.0000000593016656
 10
13.61500742687109
 20
-17.54033795407133
 42
-0.4087457462508761
 10
13.31362182788746
 20
-17.39981416876752
 10
13.33371412214594
 20
-16.99831762559633
 42
-0.573743221062624
 10
13.23325235457693
 20
-16.77749458933155
 42
-0.2186938555225358
 10
14.13740929966613
 20
-16.69719524224847
 42
-1.000838842269061
 10
14.09722456301087
 20
-16.97824281285609
 42
0.0715506666197118
  0
ARC
  5
397
330
18
100
AcDbEntity
  8
ADP1DETAIL
100
AcDbCircle
 10
13.77029394031227
 20
-18.41330742909842
 30
0.0
 40
1.475952150240743
100
AcDbArc
 50
76.24720217849617
 51
106.8464010006747
  0
ARC
  5
398
330
18
100
AcDbEntity
  8
ADP1DETAIL
100
AcDbCircle
 10
24.99615444958732
 20
-15.84088447293516
 30
0.0
 40
11.78020168121387
100
AcDbArc
 50
157.6399858403954
 51
167.6833618981034
  0
ARC
  5
399
330
18
100
AcDbEntity
  8
ADP1DETAIL
100
AcDbCircle
 10
12.67794643248778
 20
-16.26974092766385
 30
0.0
 40
1.880941159843468
100
AcDbArc
 50
19.56842887249546
 51
64.34838039400673
  0
ARC
  5
39A
330
18
100
AcDbEntity
  8
ADP1DETAIL
100
AcDbCircle
 10
14.77109917236454
 20
-17.42869955722111
 30
0.0
 40
3.834917647860724
100
AcDbArc
 50
87.03670018280758
 51
111.8717086970892
  0
LWPOLYLINE
  5
39B
330
18
100
AcDbEntity
  8
ADP1DETAIL
100
AcDbPolyline
 90
       13
 70
     0
 43
0.0
 10
15.82516883174043
 20
-19.26677300319752
 42
0.3025730651751187
 10
15.14202801232434
 20
-19.00580034145225
 42
-0.3332497158907082
 10
14.21777877297667
 20
-18.96565061984967
 42
-0.2109958280296489
 10
14.80045767668545
 20
-18.64445342376156
 42
0.2835518545008837
 10
14.15750159392461
 20
-18.8452016472861
 42
-0.2683877887310422
 10
13.51454551116378
 20
-19.06602477967298
 42
-0.6645380500614646
 10
13.47436077450852
 20
-18.76490239632512
 42
0.0847293299141863
 10
13.85611599494098
 20
-18.44370520023701
 42
-0.2540555989331725
 10
12.77112766083394
 20
-18.78497720906536
 42
-0.3414163778215909
 10
12.91177431319652
 20
-18.14258272076705
 42
-0.1179553112739799
 10
13.91639317399303
 20
-17.92175968450226
 42
-0.0827103446813438
 10
13.45426848025004
 20
-17.74108617759587
 42
-0.7293286315742536
 10
13.33371412214594
 20
-17.39981416876752
 42
2.967405807549478
  0
ARC
  5
3AA
330
18
100
AcDbEntity
  8
ADP1DETAIL
100
AcDbCircle
 10
14.16891309268847
 20
-19.94820867981008
 30
0.0
 40
1.868959540605419
100
AcDbArc
 50
44.64296083346764
 51
127.8464762147627
  0
ARC
  5
3AB
330
18
100
AcDbEntity
  8
ADP1DETAIL
100
AcDbCircle
 10
14.08950725513663
 20
-20.28498353512846
 30
0.0
 40
2.103490896266551
100
AcDbArc
 50
48.59892555267119
 51
120.4901324126339
  0
ARC
  5
3AC
330
18
100
AcDbEntity
  8
ADP1DETAIL
100
AcDbCircle
 10
13.9414449030405
 20
-17.75884469472942
 30
0.0
 40
4.046163407654853
100
AcDbArc
 50
132.8177706376248
 51
153.3943621498435
  0
ARC
  5
3AD
330
18
100
AcDbEntity
  8
ADP1DETAIL
100
AcDbCircle
 10
13.14445922510466
 20
-16.26974092766385
 30
0.0
 40
1.880941159843468
100
AcDbArc
 50
115.6516196059932
 51
160.4315711275045
  0
ARC
  5
3AE
330
18
100
AcDbEntity
  8
ADP1DETAIL
100
AcDbCircle
 10
11.44704151971945
 20
-16.77027388047744
 30
0.0
 40
0.7417081215041616
100
AcDbArc
 50
13.74266064421295
 51
113.1672793343162
  0
ARC
  5
3AF
330
18
100
AcDbEntity
  8
ADP1DETAIL
100
AcDbCircle
 10
11.36311896370874
 20
-16.83672862699317
 30
0.0
 40
0.6342102721725435
100
AcDbArc
 50
17.28828140978977
 51
119.9197991206599
  0
ARC
  5
3B0
330
18
100
AcDbEntity
  8
ADP1DETAIL
100
AcDbCircle
 10
11.73289840245582
 20
-20.28498353512846
 30
0.0
 40
2.103490896266551
100
AcDbArc
 50
61.61194176878173
 51
131.4010744473288
  0
ARC
  5
3B1
330
18
100
AcDbEntity
  8
ADP1DETAIL
100
AcDbCircle
 10
11.01412774991569
 20
-19.58017105466075
 30
0.0
 40
1.280280771318471
100
AcDbArc
 50
36.67331474567141
 51
82.85738356991451
  0
ARC
  5
3B2
330
18
100
AcDbEntity
  8
ADP1DETAIL
100
AcDbCircle
 10
11.65349256490398
 20
-19.94820867981008
 30
0.0
 40
1.868959540605419
100
AcDbArc
 50
52.15352378523721
 51
135.3570391665323
  0
ARC
  5
3B3
330
18
100
AcDbEntity
  8
ADP1DETAIL
100
AcDbCircle
 10
12.10096257052946
 20
-18.85425239762002
 30
0.0
 40
1.916748785243974
100
AcDbArc
 50
77.95967036800647
 51
102.0403296319936
  0
LWPOLYLINE
  5
3B4
330
18
100
AcDbEntity
  8
ADP1DETAIL
100
AcDbPolyline
 90
       10
 70
     0
 43
0.0
 10
11.7050888003231
 20
-16.99831762559633
 10
11.7050888003231
 20
-17.37973935602727
 42
0.3430290234458193
 10
11.96628966265147
 20
-17.56041276681157
 42
-0.5151550038825646
 10
12.04665913596199
 20
-17.66078692663489
 42
0.0000000593016656
 10
12.20739823072136
 20
-17.54033795407133
 42
0.4087457462508761
 10
12.50878382970499
 20
-17.39981416876752
 10
12.48869153544651
 20
-16.99831762559633
 42
0.573743221062624
 10
12.58915330301551
 20
-16.77749458933155
 42
0.2186938555225358
 10
11.68499635792632
 20
-16.69719524224847
 42
1.000838842269061
 10
11.72518109458158
 20
-16.97824281285609
 42
-0.0715506666197118
  0
ARC
  5
3C0
330
18
100
AcDbEntity
  8
ADP1DETAIL
100
AcDbCircle
 10
11.07943549236077
 20
-16.92235581072242
 30
0.0
 40
1.146674472642265
100
AcDbArc
 50
286.6668920604556
 51
322.3033992056176
  0
ARC
  5
3C1
330
18
100
AcDbEntity
  8
ADP1DETAIL
100
AcDbCircle
 10
-364088.4275605642
 20
364399.9840228461
 30
0.0
 40
515139.6862350408
100
AcDbArc
 50
314.9749527638186
 51
314.9749840264992
  0
LWPOLYLINE
  5
3C2
330
18
100
AcDbEntity
  8
ADP1DETAIL
100
AcDbPolyline
 90
        6
 70
     0
 43
0.0
 10
10.39908434054296
 20
-17.94183449724251
 42
-0.1416244466708586
 10
11.06213271756226
 20
-17.2994400089442
 42
0.05533701877068
 10
11.36351831654591
 20
-17.27936519620395
 42
-0.5534186489479535
 10
11.22287181232163
 20
-17.64071211389465
 42
0.4891954534398091
 10
11.28314884323537
 20
-17.76116108645821
 42
0.0132944678505279
 10
11.7050888003231
 20
-17.37973935602727
 42
-0.4003362260395808
  0
ARC
  5
3CA
330
18
100
AcDbEntity
  8
ADP1DETAIL
100
AcDbCircle
 10
19.0052995989239
 20
-24.64305300987789
 30
0.0
 40
10.67040006498203
100
AcDbArc
 50
138.0866418163169
 51
143.9525833094307
  0
ARC
  5
3CB
330
18
100
AcDbEntity
  8
ADP1DETAIL
100
AcDbCircle
 10
11.64576790199599
 20
-18.24085671817445
 30
0.0
 40
0.6587553434010403
100
AcDbArc
 50
129.4100582721033
 51
155.4043475289472
  0
LWPOLYLINE
  5
3CC
330
18
100
AcDbEntity
  8
ADP1DETAIL
100
AcDbPolyline
 90
        2
 70
     0
 43
0.0
 10
10.03742156250728
 20
-20.10991581114248
 10
10.15797577247307
 20
-20.17014024936321
  0
ARC
  5
3D0
330
18
100
AcDbEntity
  8
ADP1DETAIL
100
AcDbCircle
 10
9.890942377700998
 20
-16.44859718799537
 30
0.0
 40
1.674099440149451
100
AcDbArc
 50
304.8654370445689
 51
325.0845000122478
  0
LWPOLYLINE
  5
3D1
330
18
100
AcDbEntity
  8
ADP1DETAIL
100
AcDbPolyline
 90
        5
 70
     0
 43
0.0
 10
12.91120282879622
 20
-18.14306206122792
 42
0.0003468246154587
 10
12.91063134439593
 20
-18.14258272076705
 42
0.1179553112739799
 10
11.90601248359942
 20
-17.92175968450226
 42
0.0827103446813438
 10
12.36813717734241
 20
-17.74108617759587
 42
0.7293286315742536
 10
12.48869153544651
 20
-17.39981416876752
 42
-2.967405807549478
  0
ARC
  5
3D8
330
18
100
AcDbEntity
  8
ADP1DETAIL
100
AcDbCircle
 10
11.05130648522791
 20
-17.42869955722111
 30
0.0
 40
3.834917647860724
100
AcDbArc
 50
68.12829130291081
 51
92.96329981719242
  0
ARC
  5
3D9
330
18
100
AcDbEntity
  8
ADP1DETAIL
100
AcDbCircle
 10
0.8262512080051331
 20
-15.84088447293516
 30
0.0
 40
11.78020168121387
100
AcDbArc
 50
12.31663810189659
 51
22.36001415960453
  0
ARC
  5
3DA
330
18
100
AcDbEntity
  8
ADP1DETAIL
100
AcDbCircle
 10
11.9801212076681
 20
-12.34652896932292
 30
0.0
 40
0.2596719508760151
100
AcDbArc
 50
177.3826068674078
 51
248.1334332957034
  0
ARC
  5
3DB
330
18
100
AcDbEntity
  8
ADP1DETAIL
100
AcDbCircle
 10
8.214920245518964
 20
-14.64170342151651
 30
0.0
 40
4.010995009589634
100
AcDbArc
 50
54.47120504249642
 51
62.35849816262071
  0
LWPOLYLINE
  5
3DC
330
18
100
AcDbEntity
  8
ADP1DETAIL
100
AcDbPolyline
 90
        4
 70
     0
 43
0.0
 10
12.04609439030885
 20
-11.35940057460736
 42
-0.0722089324431314
 10
12.38954505845995
 20
-12.31661017261229
 42
0.0898042723957428
 10
12.71491929000231
 20
-13.54472809307265
 42
0.051111042430094
 10
13.02196879601323
 20
-14.06170587021409
 42
-2.546008629500952
  0
LWPOLYLINE
  5
3E2
330
18
100
AcDbEntity
  8
ADP1DETAIL
100
AcDbPolyline
 90
        2
 70
     0
 43
0.0
 10
12.22685786871536
 20
-14.05042372432065
 42
-0.0181998195054342
 10
12.62803028267485
 20
-14.27302372743804
 42
-1.928971912982132
  0
LWPOLYLINE
  5
3E6
330
18
100
AcDbEntity
  8
ADP1DETAIL
100
AcDbPolyline
 90
        2
 70
     0
 43
0.0
 10
13.13596259857562
 20
-14.20581608431615
 42
0.0304783446259479
 10
13.38374404174898
 20
-14.465816485419
 42
-2.546008629500952
  0
LWPOLYLINE
  5
3EA
330
18
100
AcDbEntity
  8
ADP1DETAIL
100
AcDbPolyline
 90
        2
 70
     0
 43
0.0
 10
12.91120282879622
 20
-14.17290034867629
 42
-0.0008096158119438
 10
13.04029352154468
 20
-14.30327149194573
 42
-0.0111095606258796
  0
LWPOLYLINE
  5
3EE
330
18
100
AcDbEntity
  8
ADP1DETAIL
100
AcDbPolyline
 90
        2
 70
     0
 43
0.0
 10
13.14875154940987
 20
-14.50193759507973
 42
0.0443410301013857
 10
12.81308225353403
 20
-14.27191712274354
 42
-0.1531766980635864
  0
ARC
  5
3F2
330
18
100
AcDbEntity
  8
ADP1DETAIL
100
AcDbCircle
 10
11.88096075455194
 20
-17.75884469472942
 30
0.0
 40
4.046163407654853
100
AcDbArc
 50
26.60563785015642
 51
47.1822293623751
  0
LWPOLYLINE
  5
3F3
330
18
100
AcDbEntity
  8
ADP1DETAIL
100
AcDbPolyline
 90
        2
 70
     0
 43
0.0
 10
16.19515564002529
 20
-18.08455824378133
 42
0.1233362670283855
 10
14.98128906570328
 20
-15.85405253042562
 42
0.4387839230653582
  0
ARC
  5
3F7
330
18
100
AcDbEntity
  8
ADP1DETAIL
100
AcDbCircle
 10
6.817106058668561
 20
-24.64305300987789
 30
0.0
 40
10.67040006498203
100
AcDbArc
 50
36.04741669056927
 51
41.91335818368307
  0
LWPOLYLINE
  5
3F8
330
18
100
AcDbEntity
  8
ADP1DETAIL
100
AcDbPolyline
 90
        6
 70
     0
 43
0.0
 10
15.42332131704949
 20
-17.94183449724251
 42
0.1416244466708586
 10
14.76027294003018
 20
-17.2994400089442
 42
-0.05533701877068
 10
14.45888734104655
 20
-17.27936519620395
 42
0.5534186489479535
 10
14.59953384527082
 20
-17.64071211389465
 42
-0.4891954534398091
 10
14.53925681435707
 20
-17.76116108645821
 42
-0.0132944678505279
 10
14.11731685726935
 20
-17.37973935602727
 42
0.4003362260395808
  0
ARC
  5
400
330
18
100
AcDbEntity
  8
ADP1DETAIL
100
AcDbCircle
 10
14.74297016523167
 20
-16.92235581072242
 30
0.0
 40
1.146674472642265
100
AcDbArc
 50
217.6966007943823
 51
253.3331079395443
  0
ARC
  5
401
330
18
100
AcDbEntity
  8
ADP1DETAIL
100
AcDbCircle
 10
364114.2499662217
 20
364399.9840228461
 30
0.0
 40
515139.6862350408
100
AcDbArc
 50
225.0250159735007
 51
225.0250472361813
  0
ARC
  5
402
330
18
100
AcDbEntity
  8
ADP1DETAIL
100
AcDbCircle
 10
14.17663775559646
 20
-18.24085671817445
 30
0.0
 40
0.6587553434010403
100
AcDbArc
 50
24.59565247105278
 51
50.58994172789669
  0
ARC
  5
403
330
18
100
AcDbEntity
  8
ADP1DETAIL
100
AcDbCircle
 10
14.80827790767675
 20
-19.58017105466075
 30
0.0
 40
1.280280771318471
100
AcDbArc
 50
97.14261643008548
 51
143.3266852543285
  0
ARC
  5
404
330
18
100
AcDbEntity
  8
ADP1DETAIL
100
AcDbCircle
 10
14.45928669388371
 20
-16.83672862699317
 30
0.0
 40
0.6342102721725435
100
AcDbArc
 50
60.08020087934005
 51
162.7117185902102
  0
ARC
  5
405
330
18
100
AcDbEntity
  8
ADP1DETAIL
100
AcDbCircle
 10
14.375364137873
 20
-16.77027388047744
 30
0.0
 40
0.7417081215041616
100
AcDbArc
 50
66.83272066568381
 51
166.257339355787
  0
ARC
  5
406
330
18
100
AcDbEntity
  8
ADP1DETAIL
100
AcDbCircle
 10
15.93146327989145
 20
-16.44859718799537
 30
0.0
 40
1.674099440149451
100
AcDbArc
 50
214.9154999877521
 51
235.1345629554311
  0
ARC
  5
407
330
18
100
AcDbEntity
  8
ADP1DETAIL
100
AcDbCircle
 10
15.0965428386521
 20
-16.60594528063463
 30
0.0
 40
1.842076649362483
100
AcDbArc
 50
302.1624415372991
 51
334.8524543783659
  0
LWPOLYLINE
  5
408
330
18
100
AcDbEntity
  8
ADP1DETAIL
100
AcDbPolyline
 90
        2
 70
     0
 43
0.0
 10
15.78498409508517
 20
-20.10991581114248
 10
15.66442988511938
 20
-20.17014024936321
  0
ARC
  5
40C
330
18
100
AcDbEntity
  8
ADP1DETAIL
100
AcDbCircle
 10
14.05430752128498
 20
-17.41096427723728
 30
0.0
 40
2.442659753336948
100
AcDbArc
 50
36.30100957922743
 51
47.72320094618201
  0
ARC
  5
40D
330
18
100
AcDbEntity
  8
ADP1DETAIL
100
AcDbCircle
 10
17.60748541207349
 20
-14.64170342151651
 30
0.0
 40
4.010995009589634
100
AcDbArc
 50
117.6415018373793
 51
125.5287949575035
  0
ARC
  5
40E
330
18
100
AcDbEntity
  8
ADP1DETAIL
100
AcDbCircle
 10
16.00481433069666
 20
-22.09142223926642
 30
0.0
 40
7.545789466888544
100
AcDbArc
 50
86.97898695754926
 51
99.37512833813576
  0
ARC
  5
40F
330
18
100
AcDbEntity
  8
ADP1DETAIL
100
AcDbCircle
 10
16.29926681507852
 20
-19.01518480738189
 30
0.0
 40
6.41039714269086
100
AcDbArc
 50
90.90031315138512
 51
107.8277934683698
  0
ARC
  5
410
330
18
100
AcDbEntity
  8
ADP1DETAIL
100
AcDbCircle
 10
13.84228444992435
 20
-12.34652896932292
 30
0.0
 40
0.2596719508760151
100
AcDbArc
 50
291.8665667042965
 51
2.617393132592133
  0
LWPOLYLINE
  5
411
330
18
100
AcDbEntity
  8
ADP1DETAIL
100
AcDbPolyline
 90
        8
 70
     0
 43
0.0
 10
15.71559282442497
 20
-13.41830420926011
 10
16.07711978123799
 20
-13.34606198993866
 42
-0.0890852981319773
 10
16.23980682303578
 20
-12.98485079733356
 42
-0.8123022599948393
 10
16.45672302671296
 20
-13.07515357148537
 42
-0.020627361794265
 10
16.3663412875097
 20
-13.94206039533848
 42
-0.3505416814625239
 10
16.18557780910318
 20
-14.01430261465993
 42
-0.3254135477617308
 10
16.04096705596733
 20
-13.58084920273338
 42
0.1156923331703565
 10
16.05904334462926
 20
-13.34606198993866
 42
0.8571617250073598
  0
LWPOLYLINE
  5
41B
330
18
100
AcDbEntity
  8
ADP1DETAIL
100
AcDbPolyline
 90
        2
 70
     0
 43
0.0
 10
16.0228906193586
 20
-13.56278864790301
 10
15.75174554969563
 20
-13.56278864790301
  0
ARC
  5
41F
330
18
100
AcDbEntity
  8
ADP1DETAIL
100
AcDbCircle
 10
15.97417343244142
 20
-13.31491680566128
 30
0.0
 40
1.162661794760463
100
AcDbArc
 50
93.19761934281938
 51
122.5305231354119
  0
ARC
  5
420
330
18
100
AcDbEntity
  8
ADP1DETAIL
100
AcDbCircle
 10
13.02101568231908
 20
-1.933113958553445
 30
0.0
 40
1.75721329050327
100
AcDbArc
 50
267.5541458763781
 51
319.5832125027443
  0
LWPOLYLINE
  5
421
330
18
100
AcDbEntity
  8
ADP1DETAIL
100
AcDbPolyline
 90
       10
 70
     0
 43
0.0
 10
14.9558422980979
 20
-4.961160829680338
 42
0.3201981612057724
 10
14.17977473530887
 20
-5.100333355000529
 42
0.2155139369974904
 10
14.10017798254422
 20
-5.319033078785597
 42
-0.0710244232093431
 10
14.45836300014405
 20
-5.458205604105788
 42
-0.3949161481978432
 10
14.31906886772646
 20
-5.657023456281297
 42
-0.1098658186669336
 10
14.35886717014056
 20
-6.014895609395438
 42
-0.4974099136838232
 10
13.66239621217974
 20
-6.173949910334066
 42
-0.1730646028581019
 10
13.58279960735153
 20
-5.716668783136615
 42
-0.8205063787099842
 10
13.52310207976215
 20
-5.458205604105788
 42
-0.1698055877795899
 10
14.13997628495832
 20
-5.319033078785597
 42
0.0573167132077133
  0
ARC
  5
42D
330
18
100
AcDbEntity
  8
ADP1DETAIL
100
AcDbCircle
 10
16.17270336363183
 20
-12.52584867349621
 30
0.0
 40
9.070761682953909
100
AcDbArc
 50
93.28886789752827
 51
108.1706015065762
  0
ARC
  5
42E
330
18
100
AcDbEntity
  8
ADP1DETAIL
100
AcDbCircle
 10
14.57517881498047
 20
-8.507855768346683
 30
0.0
 40
1.766699570523576
100
AcDbArc
 50
42.8121659345286
 51
130.679067854991
  0
ARC
  5
42F
330
18
100
AcDbEntity
  8
ADP1DETAIL
100
AcDbCircle
 10
14.5002044239403
 20
-8.8091441046808
 30
0.0
 40
1.962724739025365
100
AcDbArc
 50
47.29361825040334
 51
123.2656915475873
  0
LWPOLYLINE
  5
430
330
18
100
AcDbEntity
  8
ADP1DETAIL
100
AcDbPolyline
 90
        9
 70
     0
 43
0.0
 10
12.92612695180482
 20
-3.867662498728368
 42
0.1837357683013898
 10
14.47826222531931
 20
-3.231445294973841
 42
-0.133846147872355
 10
14.71705233567683
 20
-3.35073594868448
 42
0.7205599028365616
 10
14.91604399568379
 20
-3.171799872127408
 42
-0.0000002655106358
 10
15.1946324084554
 20
-2.893454821487026
 42
0.8300597457060472
 10
14.87624569326969
 20
-2.475937245526452
 42
-0.0257452721367457
 10
14.53795975290869
 20
-2.67475519369308
 42
0.6564808349002127
 10
14.27927056531235
 20
-2.794045943394831
 42
-0.0634156168157285
 10
14.49816145049458
 20
-3.271208846210722
 42
0.7347697365899592
  0
LWPOLYLINE
  5
43B
330
18
100
AcDbEntity
  8
ADP1DETAIL
100
AcDbPolyline
 90
       15
 70
     0
 43
0.0
 10
16.01049827365855
 20
-7.863901989794801
 42
0.3567658693123899
 10
15.43342237087649
 20
-7.645202266009736
 42
-0.1730712872655349
 10
14.79664894050504
 20
-7.74461124009305
 42
-0.1607863982550179
 10
14.61755635773691
 20
-7.645202266009736
 42
-0.2975336169998104
 10
15.23443071086952
 20
-7.247566561658718
 42
0.1788028480331031
 10
14.29916964255118
 20
-7.645202266009736
 42
-0.2891142992276219
 10
13.86138802012314
 20
-7.74461124009305
 42
-0.6410990246922124
 10
13.84148879494788
 20
-7.466266189452667
 42
0.0935284843335632
 10
14.17977473530887
 20
-7.187921138812289
 42
-0.0037152478858099
 10
13.58279960735153
 20
-7.466266189452667
 42
-0.8051426369476835
 10
13.16491706216232
 20
-6.909576088171903
 42
-0.202257786697546
 10
14.25937134013708
 20
-6.631231133522636
 42
0.117966442955801
 10
13.80169049253376
 20
-6.472176736592889
 42
-0.3343693690441086
 10
13.54300130493742
 20
-6.233595333180502
 42
-0.0504687565496807
 10
13.64310212452526
 20
-6.137347320459213
 42
-0.0622307459006115
  0
LWPOLYLINE
  5
44C
330
18
100
AcDbEntity
  8
ADP1DETAIL
100
AcDbPolyline
 90
       10
 70
     0
 43
0.0
 10
10.86656335949455
 20
-4.961160829680338
 42
-0.3201981612057724
 10
11.64263092228358
 20
-5.100333355000529
 42
-0.2155139369974904
 10
11.72222767504823
 20
-5.319033078785597
 42
0.0710244232093431
 10
11.3640426574484
 20
-5.458205604105788
 42
0.3949161481978432
 10
11.50333678986599
 20
-5.657023456281297
 42
0.1098658186669336
 10
11.46353848745188
 20
-6.014895609395438
 42
0.4974099136838232
 10
12.16000944541271
 20
-6.173949910334066
 42
0.1730646028581019
 10
12.23960605024092
 20
-5.716668783136615
 42
0.8205063787099842
 10
12.2993035778303
 20
-5.458205604105788
 42
0.1698055877795899
 10
11.68242937263412
 20
-5.319033078785597
 42
-0.0573167132077133
  0
ARC
  5
458
330
18
100
AcDbEntity
  8
ADP1DETAIL
100
AcDbCircle
 10
10.46184306881293
 20
-8.682219001923847
 30
0.0
 40
1.739977693892894
100
AcDbArc
 50
41.64804160789735
 51
79.89698072529629
  0
ARC
  5
459
330
18
100
AcDbEntity
  8
ADP1DETAIL
100
AcDbCircle
 10
12.77788245474949
 20
-8.600861062421749
 30
0.0
 40
3.108857738687079
100
AcDbArc
 50
125.6472901936159
 51
151.3100745765669
  0
ARC
  5
45A
330
18
100
AcDbEntity
  8
ADP1DETAIL
100
AcDbCircle
 10
9.801957418289649
 20
-4.4630577203934
 30
0.0
 40
2.625459854077027
100
AcDbArc
 50
300.266593596085
 51
317.00417517762
  0
ARC
  5
45B
330
18
100
AcDbEntity
  8
ADP1DETAIL
100
AcDbCircle
 10
11.31048284854938
 20
-5.332918628678743
 30
0.0
 40
0.6108943152831792
100
AcDbArc
 50
1.302437929277236
 51
92.44274498010838
  0
ARC
  5
45C
330
18
100
AcDbEntity
  8
ADP1DETAIL
100
AcDbCircle
 10
12.80138997527337
 20
-1.933113958553445
 30
0.0
 40
1.75721329050327
100
AcDbArc
 50
220.4167874972557
 51
272.4458541236218
  0
LWPOLYLINE
  5
45D
330
18
100
AcDbEntity
  8
ADP1DETAIL
100
AcDbPolyline
 90
        9
 70
     0
 43
0.0
 10
12.89627870578763
 20
-3.867662498728368
 42
-0.1837357683013898
 10
11.34414343227313
 20
-3.231445294973841
 42
0.133846147872355
 10
11.10535332191562
 20
-3.35073594868448
 42
-0.7205599028365616
 10
10.90636166190865
 20
-3.171799872127408
 42
0.0000002655106358
 10
10.62777324913704
 20
-2.893454821487026
 42
-0.8300597457060472
 10
10.94615996432277
 20
-2.475937245526452
 42
0.0257452721367457
 10
11.28444590468376
 20
-2.67475519369308
 42
-0.6564808349002127
 10
11.5431350922801
 20
-2.794045943394831
 42
0.0634156168157285
 10
11.32424420709786
 20
-3.271208846210722
 42
-0.7347697365899592
  0
ARC
  5
468
330
18
100
AcDbEntity
  8
ADP1DETAIL
100
AcDbCircle
 10
9.649702293960618
 20
-12.52584867349621
 30
0.0
 40
9.070761682953909
100
AcDbArc
 50
71.82939849342378
 51
86.71113210247176
  0
ARC
  5
469
330
18
100
AcDbEntity
  8
ADP1DETAIL
100
AcDbCircle
 10
13.60357034077986
 20
-8.401949723769419
 30
0.0
 40
4.808479988606386
100
AcDbArc
 50
108.7175586245486
 51
127.0355899777577
  0
ARC
  5
46A
330
18
100
AcDbEntity
  8
ADP1DETAIL
100
AcDbCircle
 10
11.69237883728533
 20
-8.017086861853275
 30
0.0
 40
2.369294353539349
100
AcDbArc
 50
76.15092745732046
 51
95.059322647315
  0
ARC
  5
46B
330
18
100
AcDbEntity
  8
ADP1DETAIL
100
AcDbCircle
 10
12.07011525094327
 20
-6.704884307973895
 30
0.0
 40
3.053294178435692
100
AcDbArc
 50
108.4196303008779
 51
119.4682118218797
  0
ARC
  5
46C
330
18
100
AcDbEntity
  8
ADP1DETAIL
100
AcDbCircle
 10
10.2208813896059
 20
-2.336450827405815
 30
0.0
 40
1.078214775655065
100
AcDbArc
 50
310.8598178787155
 51
341.713820671893
  0
LWPOLYLINE
  5
46D
330
18
100
AcDbEntity
  8
ADP1DETAIL
100
AcDbPolyline
 90
        6
 70
     0
 43
0.0
 10
12.89627870578763
 20
-2.694636969311517
 42
-0.333099932330863
 10
12.69728689784423
 20
-2.754282296166834
 42
0.4316775892863877
 10
12.49829523783727
 20
-3.052509122425657
 42
-0.1816007530762326
 10
12.45849693542316
 20
-3.35073594868448
 42
0.5808264497319106
 10
12.47839616059843
 20
-3.668844646552855
 42
0.0492883296816508
 10
12.89627870578763
 20
-3.708608197789736
 42
551.3067280321187
  0
LWPOLYLINE
  5
475
330
18
100
AcDbEntity
  8
ADP1DETAIL
100
AcDbPolyline
 90
        6
 70
     0
 43
0.0
 10
12.92612695180482
 20
-2.694636969311517
 42
0.333099932330863
 10
13.12511875974822
 20
-2.754282296166834
 42
-0.4316775892863877
 10
13.32411041975519
 20
-3.052509122425657
 42
0.1816007530762326
 10
13.36390872216929
 20
-3.35073594868448
 42
-0.5808264497319106
 10
13.34400949699402
 20
-3.668844646552855
 42
-0.0492883296816508
 10
12.92612695180482
 20
-3.708608197789736
 42
-551.3067280321187
  0
ARC
  5
47D
330
18
100
AcDbEntity
  8
ADP1DETAIL
100
AcDbCircle
 10
12.76693411198946
 20
-2.364867327568362
 30
0.0
 40
1.014033568262286
100
AcDbArc
 50
252.2918477669065
 51
277.3283017700033
  0
ARC
  5
47E
330
18
100
AcDbEntity
  8
ADP1DETAIL
100
AcDbCircle
 10
13.05547154560298
 20
-2.364867327568362
 30
0.0
 40
1.014033568262286
100
AcDbArc
 50
262.6716982299966
 51
287.7081522330934
  0
LWPOLYLINE
  5
47F
330
18
100
AcDbEntity
  8
ADP1DETAIL
100
AcDbPolyline
 90
        8
 70
     0
 43
0.0
 10
14.34270183796009
 20
-6.047238018045053
 42
-0.0225846124694863
 10
14.3986656204911
 20
-6.074541032241871
 42
-0.0622307459006115
 10
14.59765728049807
 20
-6.193831781943622
 42
0.1397853942243856
 10
15.05533812810139
 20
-6.651112909141076
 42
-0.0106413354494303
 10
14.79664894050504
 20
-6.213713557562062
 42
-0.3877478491724897
 10
14.85634646809442
 20
-5.95525028254012
 42
-0.2803979654383568
 10
15.7518090860622
 20
-6.710758235996394
 42
0.06240552032974
 10
15.99059919641971
 20
-7.207802914430725
 42
0.5451901211644889
  0
ARC
  5
489
330
18
100
AcDbEntity
  8
ADP1DETAIL
100
AcDbCircle
 10
13.04452320284296
 20
-8.600861062421749
 30
0.0
 40
3.108857738687079
100
AcDbArc
 50
28.6899254234331
 51
54.35270980638403
  0
ARC
  5
48A
330
18
100
AcDbEntity
  8
ADP1DETAIL
100
AcDbCircle
 10
16.02044823930281
 20
-4.4630577203934
 30
0.0
 40
2.625459854077027
100
AcDbArc
 50
222.9958248223798
 51
239.7334064039148
  0
ARC
  5
48B
330
18
100
AcDbEntity
  8
ADP1DETAIL
100
AcDbCircle
 10
15.36056258877952
 20
-8.682219001923847
 30
0.0
 40
1.739977693892894
100
AcDbArc
 50
100.1030192747037
 51
138.3519583921026
  0
LINE
  5
48C
330
18
100
AcDbEntity
  8
ADP1DETAIL
100
AcDbLine
 10
16.80646506162286
 20
-8.162128816053623
 30
0.0
 11
16.56767509920178
 21
-8.480237417930887
 31
0.0
  0
ARC
  5
48D
330
18
100
AcDbEntity
  8
ADP1DETAIL
100
AcDbCircle
 10
10.09630701229378
 20
-8.191063507785408
 30
0.0
 40
5.937270772243288
100
AcDbArc
 50
339.3552659184274
 51
21.70792552640589
  0
LINE
  5
48E
330
18
100
AcDbEntity
  8
ADP1DETAIL
100
AcDbLine
 10
16.74676753403347
 20
-7.943429092268562
 30
0.0
 11
16.80646506162286
 21
-8.162128816053623
 31
0.0
  0
LINE
  5
48F
330
18
100
AcDbEntity
  8
ADP1DETAIL
100
AcDbLine
 10
16.48807834643713
 20
-7.903665541031681
 30
0.0
 11
16.74676753403347
 21
-7.943429092268562
 31
0.0
  0
ARC
  5
490
330
18
100
AcDbEntity
  8
ADP1DETAIL
100
AcDbCircle
 10
7.97633474875001
 20
-8.097229085208063
 30
0.0
 40
8.71246659025815
100
AcDbArc
 50
1.142258788865265
 51
7.834753890943032
  0
ARC
  5
491
330
18
100
AcDbEntity
  8
ADP1DETAIL
100
AcDbCircle
 10
13.37203940535568
 20
-8.493741824668436
 30
0.0
 40
5.050820933780199
100
AcDbArc
 50
54.44536221110048
 51
75.25743047294863
  0
ARC
  5
492
330
18
100
AcDbEntity
  8
ADP1DETAIL
100
AcDbCircle
 10
14.51192280904306
 20
-5.332918628678743
 30
0.0
 40
0.6108943152831792
100
AcDbArc
 50
87.55725501989159
 51
178.6975620707227
  0
ARC
  5
493
330
18
100
AcDbEntity
  8
ADP1DETAIL
100
AcDbCircle
 10
12.21883531681259
 20
-8.401949723769419
 30
0.0
 40
4.808479988606386
100
AcDbArc
 50
52.96441002224221
 51
71.28244137545138
  0
ARC
  5
494
330
18
100
AcDbEntity
  8
ADP1DETAIL
100
AcDbCircle
 10
14.13002682030712
 20
-8.017086861853275
 30
0.0
 40
2.369294353539349
100
AcDbArc
 50
84.94067735268499
 51
103.8490725426795
  0
ARC
  5
495
330
18
100
AcDbEntity
  8
ADP1DETAIL
100
AcDbCircle
 10
13.75229040664917
 20
-6.704884307973895
 30
0.0
 40
3.053294178435692
100
AcDbArc
 50
60.53178817812028
 51
71.58036969912207
  0
ARC
  5
496
330
18
100
AcDbEntity
  8
ADP1DETAIL
100
AcDbCircle
 10
15.60152426798655
 20
-2.336450827405815
 30
0.0
 40
1.078214775655065
100
AcDbArc
 50
198.2861793281069
 51
229.1401821212844
  0
ARC
  5
497
330
18
100
AcDbEntity
  8
ADP1DETAIL
100
AcDbCircle
 10
15.45347682980509
 20
-5.321435984334179
 30
0.0
 40
1.738485715070349
100
AcDbArc
 50
60.52128792396718
 51
76.77144915071067
  0
ARC
  5
498
330
18
100
AcDbEntity
  8
ADP1DETAIL
100
AcDbCircle
 10
16.33918210278691
 20
-5.170232505011064
 30
0.0
 40
0.5492200088932715
100
AcDbArc
 50
31.69990594578959
 51
58.35013849689406
  0
ARC
  5
499
330
18
100
AcDbEntity
  8
ADP1DETAIL
100
AcDbCircle
 10
17.80142350959413
 20
-6.556867855421963
 30
0.0
 40
2.971817279909675
100
AcDbArc
 50
86.92932826496429
 51
97.3091607843496
  0
ARC
  5
49A
330
18
100
AcDbEntity
  8
ADP1DETAIL
100
AcDbCircle
 10
17.78990028361421
 20
-3.604821953817936
 30
0.0
 40
0.4309691868483066
100
AcDbArc
 50
199.456189512399
 51
258.2215794642424
  0
TEXT
  5
4A8
330
18
100
AcDbEntity
  8
ADPDIM
100
AcDbText
 10
-12.73951863004352
 20
-32.01609149658411
 30
0.0
 40
0.5
  1
J U L I U S  B L U M  &  C O . ,  I N C .      ( 8 0 0 )  5 2 6 - 6 2 9 3        W W W . J U L I U S B L U M . C O M        P A R T  N o .  5 5 8
 41
1.25
  7
ARIAL_WIDE
 72
     1
 11
12.99931152002469
 21
-31.51609149658411
 31
0.0
100
AcDbText
 73
     3
  0
ENDSEC
  0
SECTION
  2
OBJECTS
  0
DICTIONARY
  5
C
330
0
100
AcDbDictionary
  3
ACAD_GROUP
350
D
  3
ACAD_LAYOUT
350
4A1
  3
ACAD_MLINESTYLE
350
E
  3
ACAD_PLOTSETTINGS
350
4A2
  3
ACAD_PLOTSTYLENAME
350
49F
  3
ACDBHEADERROUNDTRIPXREC
350
5F0
  3
ACDBVARIABLEDICTIONARY
350
502
  0
DICTIONARY
  5
4FC
330
18
100
AcDbDictionary
280
     1
  3
ACAD_LAYOUTSELFREF
360
611
  0
DICTIONARY
  5
4FA
330
15
100
AcDbDictionary
280
     1
  3
ACAD_LAYOUTSELFREF
360
610
  0
DICTIONARY
  5
D
102
{ACAD_REACTORS
330
C
102
}
330
C
100
AcDbDictionary
  0
DICTIONARY
  5
4A1
102
{ACAD_REACTORS
330
C
102
}
330
C
100
AcDbDictionary
  0
DICTIONARY
  5
E
102
{ACAD_REACTORS
330
C
102
}
330
C
100
AcDbDictionary
  3
STANDARD
350
1B
  0
DICTIONARY
  5
4A2
102
{ACAD_REACTORS
330
C
102
}
330
C
100
AcDbDictionary
  0
ACDBDICTIONARYWDFLT
  5
49F
102
{ACAD_REACTORS
330
C
102
}
330
C
100
AcDbDictionary
281
     1
  3
Normal
350
4A0
100
AcDbDictionaryWithDefault
340
4A0
  0
DICTIONARY
  5
5F0
102
{ACAD_REACTORS
330
C
102
}
330
C
100
AcDbDictionary
  3
CEPSNTYPE
350
5FA
  3
FINGERPRINTGUID
350
5FB
  3
HYPERLINKBASE
350
5F3
  3
INSUNITS
350
5F9
  3
LAYOUTDICT
350
5F5
  3
LWETCUNION
350
5F8
  3
PLOTSETDICT
350
5F6
  3
PLOTSTYLNAMDICT
350
5F7
  3
PSVPSCALE
350
5FD
  3
PUCSBASE
350
600
  3
PUCSORGBACK
350
606
  3
PUCSORGBOTTOM
350
602
  3
PUCSORGFRONT
350
605
  3
PUCSORGLEFT
350
603
  3
PUCSORGRIGHT
350
604
  3
PUCSORGTOP
350
601
  3
PUCSORTHOREF
350
5FE
  3
PUCSORTHOVIEW
350
5FF
  3
STYLESHEET
350
5F4
  3
TSTACKALIGN
350
5F1
  3
TSTACKSIZE
350
5F2
  3
UCSBASE
350
609
  3
UCSORGBACK
350
60F
  3
UCSORGBOTTOM
350
60B
  3
UCSORGFRONT
350
60E
  3
UCSORGLEFT
350
60C
  3
UCSORGRIGHT
350
60D
  3
UCSORGTOP
350
60A
  3
UCSORTHOREF
350
607
  3
UCSORTHOVIEW
350
608
  3
VERSIONGUID
350
5FC
  0
DICTIONARY
  5
502
102
{ACAD_REACTORS
330
C
102
}
330
C
100
AcDbDictionary
  3
DIMASSOC
350
503
  0
XRECORD
  5
611
102
{ACAD_REACTORS
330
4FC
102
}
330
4FC
100
AcDbXrecord
340
18
  0
XRECORD
  5
610
102
{ACAD_REACTORS
330
4FA
102
}
330
4FA
100
AcDbXrecord
340
15
  0
MLINESTYLE
  5
1B
102
{ACAD_REACTORS
330
E
102
}
330
E
100
AcDbMlineStyle
  2
STANDARD
 70
     0
  3

 62
     0
 51
90.0
 52
90.0
 71
     2
 49
0.5
 62
   256
  6
BYLAYER
 49
-0.5
 62
   256
  6
BYLAYER
  0
ACDBPLACEHOLDER
  5
4A0
102
{ACAD_REACTORS
330
49F
102
}
330
49F
100
AcDbPlaceHolder
280
     0
  0
XRECORD
  5
5FA
102
{ACAD_REACTORS
330
5F0
102
}
330
5F0
100
AcDbXrecord
 90
        0
  0
XRECORD
  5
5FB
102
{ACAD_REACTORS
330
5F0
102
}
330
5F0
100
AcDbXrecord
  1
{0861F5C6-80C3-40DA-9732-CCC6CC524509}
  0
XRECORD
  5
5F3
102
{ACAD_REACTORS
330
5F0
102
}
330
5F0
100
AcDbXrecord
  1

  0
XRECORD
  5
5F9
102
{ACAD_REACTORS
330
5F0
102
}
330
5F0
100
AcDbXrecord
 90
        0
  0
XRECORD
  5
5F5
102
{ACAD_REACTORS
330
5F0
102
}
330
5F0
100
AcDbXrecord
340
4A1
  0
XRECORD
  5
5F8
102
{ACAD_REACTORS
330
5F0
102
}
330
5F0
100
AcDbXrecord
 90
    14877
  0
XRECORD
  5
5F6
102
{ACAD_REACTORS
330
5F0
102
}
330
5F0
100
AcDbXrecord
340
4A2
  0
XRECORD
  5
5F7
102
{ACAD_REACTORS
330
5F0
102
}
330
5F0
100
AcDbXrecord
340
49F
  0
XRECORD
  5
5FD
102
{ACAD_REACTORS
330
5F0
102
}
330
5F0
100
AcDbXrecord
 40
0.0
  0
XRECORD
  5
600
102
{ACAD_REACTORS
330
5F0
102
}
330
5F0
100
AcDbXrecord
340
0
  0
XRECORD
  5
606
102
{ACAD_REACTORS
330
5F0
102
}
330
5F0
100
AcDbXrecord
 10
0.0
 20
0.0
 30
0.0
  0
XRECORD
  5
602
102
{ACAD_REACTORS
330
5F0
102
}
330
5F0
100
AcDbXrecord
 10
0.0
 20
0.0
 30
0.0
  0
XRECORD
  5
605
102
{ACAD_REACTORS
330
5F0
102
}
330
5F0
100
AcDbXrecord
 10
0.0
 20
0.0
 30
0.0
  0
XRECORD
  5
603
102
{ACAD_REACTORS
330
5F0
102
}
330
5F0
100
AcDbXrecord
 10
0.0
 20
0.0
 30
0.0
  0
XRECORD
  5
604
102
{ACAD_REACTORS
330
5F0
102
}
330
5F0
100
AcDbXrecord
 10
0.0
 20
0.0
 30
0.0
  0
XRECORD
  5
601
102
{ACAD_REACTORS
330
5F0
102
}
330
5F0
100
AcDbXrecord
 10
0.0
 20
0.0
 30
0.0
  0
XRECORD
  5
5FE
102
{ACAD_REACTORS
330
5F0
102
}
330
5F0
100
AcDbXrecord
340
0
  0
XRECORD
  5
5FF
102
{ACAD_REACTORS
330
5F0
102
}
330
5F0
100
AcDbXrecord
 70
     0
  0
XRECORD
  5
5F4
102
{ACAD_REACTORS
330
5F0
102
}
330
5F0
100
AcDbXrecord
  1

  0
XRECORD
  5
5F1
102
{ACAD_REACTORS
330
5F0
102
}
330
5F0
100
AcDbXrecord
 90
        1
  0
XRECORD
  5
5F2
102
{ACAD_REACTORS
330
5F0
102
}
330
5F0
100
AcDbXrecord
 90
       70
  0
XRECORD
  5
609
102
{ACAD_REACTORS
330
5F0
102
}
330
5F0
100
AcDbXrecord
340
0
  0
XRECORD
  5
60F
102
{ACAD_REACTORS
330
5F0
102
}
330
5F0
100
AcDbXrecord
 10
0.0
 20
0.0
 30
0.0
  0
XRECORD
  5
60B
102
{ACAD_REACTORS
330
5F0
102
}
330
5F0
100
AcDbXrecord
 10
0.0
 20
0.0
 30
0.0
  0
XRECORD
  5
60E
102
{ACAD_REACTORS
330
5F0
102
}
330
5F0
100
AcDbXrecord
 10
0.0
 20
0.0
 30
0.0
  0
XRECORD
  5
60C
102
{ACAD_REACTORS
330
5F0
102
}
330
5F0
100
AcDbXrecord
 10
0.0
 20
0.0
 30
0.0
  0
XRECORD
  5
60D
102
{ACAD_REACTORS
330
5F0
102
}
330
5F0
100
AcDbXrecord
 10
0.0
 20
0.0
 30
0.0
  0
XRECORD
  5
60A
102
{ACAD_REACTORS
330
5F0
102
}
330
5F0
100
AcDbXrecord
 10
0.0
 20
0.0
 30
0.0
  0
XRECORD
  5
607
102
{ACAD_REACTORS
330
5F0
102
}
330
5F0
100
AcDbXrecord
340
0
  0
XRECORD
  5
608
102
{ACAD_REACTORS
330
5F0
102
}
330
5F0
100
AcDbXrecord
 70
     0
  0
XRECORD
  5
5FC
102
{ACAD_REACTORS
330
5F0
102
}
330
5F0
100
AcDbXrecord
  1
{9054A052-C482-472B-BA3C-641C46F0E914}
  0
DICTIONARYVAR
  5
503
102
{ACAD_REACTORS
330
502
102
}
330
502
100
DictionaryVariables
280
     0
  1
1
  0
ENDSEC
  0
EOF
