  0
SECTION
  2
HEADER
  9
$ACADVER
  1
AC1015
  9
$ACADMAINTVER
 70
    20
  9
$DWGCODEPAGE
  3
ANSI_1252
  9
$INSBASE
 10
10.27637575954505
 20
2.398372149616883
 30
0.0
  9
$EXTMIN
 10
3.220642177412102
 20
1.465576257400186
 30
-0.0000000349181948
  9
$EXTMAX
 10
16.27514654523128
 20
4.412658738452776
 30
0.0000000814935746
  9
$LIMMIN
 10
0.0
 20
0.0
  9
$LIMMAX
 10
36.0
 20
36.0
  9
$ORTHOMODE
 70
     1
  9
$REGENMODE
 70
     1
  9
$FILLMODE
 70
     1
  9
$QTEXTMODE
 70
     0
  9
$MIRRTEXT
 70
     1
  9
$LTSCALE
 40
1.0
  9
$ATTMODE
 70
     1
  9
$TEXTSIZE
 40
0.2
  9
$TRACEWID
 40
0.05
  9
$TEXTSTYLE
  7
STANDARD
  9
$CLAYER
  8
ADP1DETAIL
  9
$CELTYPE
  6
BYLAYER
  9
$CECOLOR
 62
   256
  9
$CELTSCALE
 40
1.0
  9
$DISPSILH
 70
     0
  9
$DIMSCALE
 40
1.0
  9
$DIMASZ
 40
0.125
  9
$DIMEXO
 40
0.0625
  9
$DIMDLI
 40
0.38
  9
$DIMRND
 40
0.0
  9
$DIMDLE
 40
0.0
  9
$DIMEXE
 40
0.18
  9
$DIMTP
 40
0.0
  9
$DIMTM
 40
0.0
  9
$DIMTXT
 40
0.125
  9
$DIMCEN
 40
0.1875
  9
$DIMTSZ
 40
0.125
  9
$DIMTOL
 70
     0
  9
$DIMLIM
 70
     0
  9
$DIMTIH
 70
     0
  9
$DIMTOH
 70
     0
  9
$DIMSE1
 70
     0
  9
$DIMSE2
 70
     0
  9
$DIMTAD
 70
     0
  9
$DIMZIN
 70
     3
  9
$DIMBLK
  1

  9
$DIMASO
 70
     1
  9
$DIMSHO
 70
     1
  9
$DIMPOST
  1

  9
$DIMAPOST
  1

  9
$DIMALT
 70
     0
  9
$DIMALTD
 70
     1
  9
$DIMALTF
 40
25.4
  9
$DIMLFAC
 40
1.0
  9
$DIMTOFL
 70
     0
  9
$DIMTVP
 40
0.0
  9
$DIMTIX
 70
     0
  9
$DIMSOXD
 70
     0
  9
$DIMSAH
 70
     0
  9
$DIMBLK1
  1

  9
$DIMBLK2
  1

  9
$DIMSTYLE
  2
STANDARD
  9
$DIMCLRD
 70
     0
  9
$DIMCLRE
 70
     0
  9
$DIMCLRT
 70
     0
  9
$DIMTFAC
 40
1.0
  9
$DIMGAP
 40
0.125
  9
$DIMJUST
 70
     0
  9
$DIMSD1
 70
     0
  9
$DIMSD2
 70
     0
  9
$DIMTOLJ
 70
     1
  9
$DIMTZIN
 70
     0
  9
$DIMALTZ
 70
     0
  9
$DIMALTTZ
 70
     0
  9
$DIMUPT
 70
     0
  9
$DIMDEC
 70
     4
  9
$DIMTDEC
 70
     4
  9
$DIMALTU
 70
     2
  9
$DIMALTTD
 70
     2
  9
$DIMTXSTY
  7
STANDARD
  9
$DIMAUNIT
 70
     0
  9
$DIMADEC
 70
     0
  9
$DIMALTRND
 40
0.0
  9
$DIMAZIN
 70
     0
  9
$DIMDSEP
 70
    46
  9
$DIMATFIT
 70
     3
  9
$DIMFRAC
 70
     0
  9
$DIMLDRBLK
  1

  9
$DIMLUNIT
 70
     2
  9
$DIMLWD
 70
    -2
  9
$DIMLWE
 70
    -2
  9
$DIMTMOVE
 70
     0
  9
$LUNITS
 70
     5
  9
$LUPREC
 70
     5
  9
$SKETCHINC
 40
0.1
  9
$FILLETRAD
 40
0.078125
  9
$AUNITS
 70
     0
  9
$AUPREC
 70
     0
  9
$MENU
  1
acad
  9
$ELEVATION
 40
0.0
  9
$PELEVATION
 40
0.0
  9
$THICKNESS
 40
0.0
  9
$LIMCHECK
 70
     0
  9
$CHAMFERA
 40
0.03125
  9
$CHAMFERB
 40
0.03125
  9
$CHAMFERC
 40
0.0
  9
$CHAMFERD
 40
0.0
  9
$SKPOLY
 70
     0
  9
$TDCREATE
 40
2450277.541274687
  9
$TDUCREATE
 40
2450277.707941355
  9
$TDUPDATE
 40
2453961.649992604
  9
$TDUUPDATE
 40
2453961.816659271
  9
$TDINDWG
 40
0.0483919676
  9
$TDUSRTIMER
 40
0.0483919676
  9
$USRTIMER
 70
     1
  9
$ANGBASE
 50
0.0
  9
$ANGDIR
 70
     0
  9
$PDMODE
 70
     0
  9
$PDSIZE
 40
0.0
  9
$PLINEWID
 40
0.0
  9
$SPLFRAME
 70
     0
  9
$SPLINETYPE
 70
     6
  9
$SPLINESEGS
 70
     8
  9
$HANDSEED
  5
675
  9
$SURFTAB1
 70
     6
  9
$SURFTAB2
 70
     6
  9
$SURFTYPE
 70
     6
  9
$SURFU
 70
     6
  9
$SURFV
 70
     6
  9
$UCSBASE
  2

  9
$UCSNAME
  2

  9
$UCSORG
 10
0.0
 20
0.0
 30
0.0
  9
$UCSXDIR
 10
1.0
 20
0.0
 30
0.0
  9
$UCSYDIR
 10
0.0
 20
1.0
 30
0.0
  9
$UCSORTHOREF
  2

  9
$UCSORTHOVIEW
 70
     0
  9
$UCSORGTOP
 10
0.0
 20
0.0
 30
0.0
  9
$UCSORGBOTTOM
 10
0.0
 20
0.0
 30
0.0
  9
$UCSORGLEFT
 10
0.0
 20
0.0
 30
0.0
  9
$UCSORGRIGHT
 10
0.0
 20
0.0
 30
0.0
  9
$UCSORGFRONT
 10
0.0
 20
0.0
 30
0.0
  9
$UCSORGBACK
 10
0.0
 20
0.0
 30
0.0
  9
$PUCSBASE
  2

  9
$PUCSNAME
  2

  9
$PUCSORG
 10
0.0
 20
0.0
 30
0.0
  9
$PUCSXDIR
 10
1.0
 20
0.0
 30
0.0
  9
$PUCSYDIR
 10
0.0
 20
1.0
 30
0.0
  9
$PUCSORTHOREF
  2

  9
$PUCSORTHOVIEW
 70
     0
  9
$PUCSORGTOP
 10
0.0
 20
0.0
 30
0.0
  9
$PUCSORGBOTTOM
 10
0.0
 20
0.0
 30
0.0
  9
$PUCSORGLEFT
 10
0.0
 20
0.0
 30
0.0
  9
$PUCSORGRIGHT
 10
0.0
 20
0.0
 30
0.0
  9
$PUCSORGFRONT
 10
0.0
 20
0.0
 30
0.0
  9
$PUCSORGBACK
 10
0.0
 20
0.0
 30
0.0
  9
$USERI1
 70
     0
  9
$USERI2
 70
     0
  9
$USERI3
 70
     0
  9
$USERI4
 70
     0
  9
$USERI5
 70
     0
  9
$USERR1
 40
0.0
  9
$USERR2
 40
0.0
  9
$USERR3
 40
0.0
  9
$USERR4
 40
0.0
  9
$USERR5
 40
0.0
  9
$WORLDVIEW
 70
     1
  9
$SHADEDGE
 70
     3
  9
$SHADEDIF
 70
    70
  9
$TILEMODE
 70
     1
  9
$MAXACTVP
 70
    15
  9
$PINSBASE
 10
0.1875029802322391
 20
0.0
 30
0.0
  9
$PLIMCHECK
 70
     0
  9
$PEXTMIN
 10
1.000000000000000E+20
 20
1.000000000000000E+20
 30
1.000000000000000E+20
  9
$PEXTMAX
 10
-1.000000000000000E+20
 20
-1.000000000000000E+20
 30
-1.000000000000000E+20
  9
$PLIMMIN
 10
0.0
 20
0.0
  9
$PLIMMAX
 10
12.0
 20
9.0
  9
$UNITMODE
 70
     0
  9
$VISRETAIN
 70
     0
  9
$PLINEGEN
 70
     0
  9
$PSLTSCALE
 70
     1
  9
$TREEDEPTH
 70
  3020
  9
$CMLSTYLE
  2
STANDARD
  9
$CMLJUST
 70
     0
  9
$CMLSCALE
 40
1.0
  9
$PROXYGRAPHICS
 70
     1
  9
$MEASUREMENT
 70
     0
  9
$CELWEIGHT
370
    -1
  9
$ENDCAPS
280
     0
  9
$JOINSTYLE
280
     0
  9
$LWDISPLAY
290
     0
  9
$INSUNITS
 70
     0
  9
$HYPERLINKBASE
  1

  9
$STYLESHEET
  1

  9
$XEDIT
290
     1
  9
$CEPSNTYPE
380
     0
  9
$PSTYLEMODE
290
     1
  9
$FINGERPRINTGUID
  2
{3352D0D9-50F4-4974-A086-28708CA7B4BD}
  9
$VERSIONGUID
  2
{F2BFE29C-79FE-40F5-9409-29DDA22B2F79}
  9
$EXTNAMES
290
     1
  9
$PSVPSCALE
 40
0.0
  9
$OLESTARTUP
290
     0
  0
ENDSEC
  0
SECTION
  2
CLASSES
  0
CLASS
  1
ACDBDICTIONARYWDFLT
  2
AcDbDictionaryWithDefault
  3
ObjectDBX Classes
 90
        0
280
     0
281
     0
  0
CLASS
  1
ACDBPLACEHOLDER
  2
AcDbPlaceHolder
  3
ObjectDBX Classes
 90
        0
280
     0
281
     0
  0
CLASS
  1
LAYOUT
  2
AcDbLayout
  3
ObjectDBX Classes
 90
        0
280
     0
281
     0
  0
CLASS
  1
DICTIONARYVAR
  2
AcDbDictionaryVar
  3
ObjectDBX Classes
 90
        0
280
     0
281
     0
  0
CLASS
  1
MATERIAL
  2
AcDbMaterial
  3
ObjectDBX Classes
 90
     1024
280
     0
281
     0
  0
CLASS
  1
VISUALSTYLE
  2
AcDbVisualStyle
  3
ObjectDBX Classes
 90
     4095
280
     0
281
     0
  0
CLASS
  1
TABLESTYLE
  2
AcDbTableStyle
  3
ObjectDBX Classes
 90
     4095
280
     0
281
     0
  0
ENDSEC
  0
SECTION
  2
TABLES
  0
TABLE
  2
VPORT
  5
8
102
{ACAD_XDICTIONARY
360
27C
102
}
330
0
100
AcDbSymbolTable
 70
     1
  0
VPORT
  5
1B0
330
8
100
AcDbSymbolTableRecord
100
AcDbViewportTableRecord
  2
*Active
 70
     0
 10
0.0
 20
0.0
 11
1.0
 21
1.0
 12
9.747894361321691
 22
2.939117497926482
 13
0.0
 23
0.0
 14
0.5740882589684922
 24
0.5740882589684922
 15
0.5
 25
0.5
 16
0.0
 26
0.0
 36
1.0
 17
0.0
 27
0.0
 37
0.0
 40
7.405532188496271
 41
1.774011299435028
 42
50.0
 43
0.0
 44
0.0
 50
0.0
 51
0.0
 71
     0
 72
   100
 73
     1
 74
     0
 75
     0
 76
     0
 77
     0
 78
     0
281
     0
 65
     1
110
0.0
120
0.0
130
0.0
111
1.0
121
0.0
131
0.0
112
0.0
122
1.0
132
0.0
 79
     0
146
0.0
  0
ENDTAB
  0
TABLE
  2
LTYPE
  5
5
330
0
100
AcDbSymbolTable
 70
     2
  0
LTYPE
  5
12
330
5
100
AcDbSymbolTableRecord
100
AcDbLinetypeTableRecord
  2
BYBLOCK
 70
     0
  3

 72
    65
 73
     0
 40
0.0
  0
LTYPE
  5
13
330
5
100
AcDbSymbolTableRecord
100
AcDbLinetypeTableRecord
  2
BYLAYER
 70
     0
  3

 72
    65
 73
     0
 40
0.0
  0
LTYPE
  5
14
330
5
100
AcDbSymbolTableRecord
100
AcDbLinetypeTableRecord
  2
CONTINUOUS
 70
     0
  3
Solid line
 72
    65
 73
     0
 40
0.0
  0
LTYPE
  5
24
330
5
100
AcDbSymbolTableRecord
100
AcDbLinetypeTableRecord
  2
HIDDEN2
 70
     0
  3
_ _ _ _ _ _ _ _ _ _ _ _ _ _ _ _ _ _ _ _ _ _ _ _
 72
    65
 73
     2
 40
0.1875
 49
0.125
 74
     0
 49
-0.0625
 74
     0
  0
ENDTAB
  0
TABLE
  2
LAYER
  5
2
330
0
100
AcDbSymbolTable
 70
     6
  0
LAYER
  5
F
330
2
100
AcDbSymbolTableRecord
100
AcDbLayerTableRecord
  2
0
 70
     0
 62
     7
  6
CONTINUOUS
370
    -3
390
94
  0
LAYER
  5
25
330
2
100
AcDbSymbolTableRecord
100
AcDbLayerTableRecord
  2
ADP2DETAIL
 70
     0
 62
     5
  6
CONTINUOUS
370
    -3
390
94
  0
LAYER
  5
26
330
2
100
AcDbSymbolTableRecord
100
AcDbLayerTableRecord
  2
ADPDIM
 70
     0
 62
     3
  6
CONTINUOUS
370
    -3
390
94
  0
LAYER
  5
27
330
2
100
AcDbSymbolTableRecord
100
AcDbLayerTableRecord
  2
ADP1DETAIL
 70
     0
 62
     7
  6
CONTINUOUS
370
    -3
390
94
  0
LAYER
  5
28
330
2
100
AcDbSymbolTableRecord
100
AcDbLayerTableRecord
  2
DEFPOINTS
 70
     0
 62
     7
  6
CONTINUOUS
290
     0
370
    -3
390
94
  0
LAYER
  5
2EB
330
2
100
AcDbSymbolTableRecord
100
AcDbLayerTableRecord
  2
LAYER_1
 70
     0
 62
   160
  6
CONTINUOUS
370
    -3
390
94
  0
ENDTAB
  0
TABLE
  2
STYLE
  5
3
330
0
100
AcDbSymbolTable
 70
     2
  0
STYLE
  5
10
330
3
100
AcDbSymbolTableRecord
100
AcDbTextStyleTableRecord
  2
STANDARD
 70
     0
 40
0.0
 41
1.0
 50
0.0
 71
     0
 42
0.2
  3
txt
  4

  0
STYLE
  5
9B
330
3
100
AcDbSymbolTableRecord
100
AcDbTextStyleTableRecord
  2
ARIAL_WIDE
 70
     0
 40
0.0
 41
1.25
 50
0.0
 71
     0
 42
0.2
  3
ARIAL.TTF
  4

1001
ACAD
1000
Arial
1071
       34
  0
ENDTAB
  0
TABLE
  2
VIEW
  5
6
330
0
100
AcDbSymbolTable
 70
     0
  0
ENDTAB
  0
TABLE
  2
UCS
  5
7
330
0
100
AcDbSymbolTable
 70
     0
  0
ENDTAB
  0
TABLE
  2
APPID
  5
9
330
0
100
AcDbSymbolTable
 70
     3
  0
APPID
  5
11
330
9
100
AcDbSymbolTableRecord
100
AcDbRegAppTableRecord
  2
ACAD
 70
     0
  0
APPID
  5
221
330
9
100
AcDbSymbolTableRecord
100
AcDbRegAppTableRecord
  2
ACAD_EXEMPT_FROM_CAD_STANDARDS
 70
     0
  0
APPID
  5
279
330
9
100
AcDbSymbolTableRecord
100
AcDbRegAppTableRecord
  2
DCO15
 70
     0
  0
ENDTAB
  0
TABLE
  2
DIMSTYLE
  5
A
330
0
100
AcDbSymbolTable
 70
     1
100
AcDbDimStyleTable
 71
     1
340
8F
  0
DIMSTYLE
105
8F
102
{ACAD_REACTORS
330
4FE
330
534
330
542
330
550
330
55E
330
57A
102
}
330
A
100
AcDbSymbolTableRecord
100
AcDbDimStyleTableRecord
  2
STANDARD
 70
     0
340
10
  0
ENDTAB
  0
TABLE
  2
BLOCK_RECORD
  5
1
330
0
100
AcDbSymbolTable
 70
    19
  0
BLOCK_RECORD
  5
18
102
{ACAD_XDICTIONARY
360
F0
102
}
330
1
100
AcDbSymbolTableRecord
100
AcDbBlockTableRecord
  2
*MODEL_SPACE
340
97
  0
BLOCK_RECORD
  5
15
102
{ACAD_XDICTIONARY
360
EE
102
}
330
1
100
AcDbSymbolTableRecord
100
AcDbBlockTableRecord
  2
*PAPER_SPACE
340
98
  0
BLOCK_RECORD
  5
2D1
330
1
100
AcDbSymbolTableRecord
100
AcDbBlockTableRecord
  2
AI9-BLK6
340
0
  0
BLOCK_RECORD
  5
2D5
330
1
100
AcDbSymbolTableRecord
100
AcDbBlockTableRecord
  2
AI9-BLK7
340
0
102
{BLKREFS
331
2D3
102
}
  0
BLOCK_RECORD
  5
2F4
330
1
100
AcDbSymbolTableRecord
100
AcDbBlockTableRecord
  2
*D6
340
0
  0
BLOCK_RECORD
  5
334
330
1
100
AcDbSymbolTableRecord
100
AcDbBlockTableRecord
  2
*D7
340
0
  0
BLOCK_RECORD
  5
342
330
1
100
AcDbSymbolTableRecord
100
AcDbBlockTableRecord
  2
*D8
340
0
  0
BLOCK_RECORD
  5
350
330
1
100
AcDbSymbolTableRecord
100
AcDbBlockTableRecord
  2
*D9
340
0
  0
BLOCK_RECORD
  5
35E
330
1
100
AcDbSymbolTableRecord
100
AcDbBlockTableRecord
  2
*D10
340
0
  0
BLOCK_RECORD
  5
4FF
330
1
100
AcDbSymbolTableRecord
100
AcDbBlockTableRecord
  2
*D12
340
0
  0
BLOCK_RECORD
  5
535
330
1
100
AcDbSymbolTableRecord
100
AcDbBlockTableRecord
  2
*D13
340
0
  0
BLOCK_RECORD
  5
543
330
1
100
AcDbSymbolTableRecord
100
AcDbBlockTableRecord
  2
*D14
340
0
  0
BLOCK_RECORD
  5
551
330
1
100
AcDbSymbolTableRecord
100
AcDbBlockTableRecord
  2
*D15
340
0
  0
BLOCK_RECORD
  5
55F
330
1
100
AcDbSymbolTableRecord
100
AcDbBlockTableRecord
  2
*D16
340
0
  0
BLOCK_RECORD
  5
56D
330
1
100
AcDbSymbolTableRecord
100
AcDbBlockTableRecord
  2
*D17
340
0
  0
BLOCK_RECORD
  5
57B
330
1
100
AcDbSymbolTableRecord
100
AcDbBlockTableRecord
  2
*D18
340
0
  0
ENDTAB
  0
ENDSEC
  0
SECTION
  2
BLOCKS
  0
BLOCK
  5
2B
330
18
100
AcDbEntity
  8
0
100
AcDbBlockBegin
  2
*MODEL_SPACE
 70
     0
 10
0.0
 20
0.0
 30
0.0
  3
*MODEL_SPACE
  1

  0
ENDBLK
  5
2C
330
18
100
AcDbEntity
  8
0
100
AcDbBlockEnd
  0
BLOCK
  5
29
330
15
100
AcDbEntity
 67
     1
  8
0
100
AcDbBlockBegin
  2
*PAPER_SPACE
 70
     0
 10
0.0
 20
0.0
 30
0.0
  3
*PAPER_SPACE
  1

  0
ENDBLK
  5
2A
330
15
100
AcDbEntity
 67
     1
  8
0
100
AcDbBlockEnd
  0
BLOCK
  5
2D2
330
2D1
100
AcDbEntity
  8
LAYER_1
 62
     7
100
AcDbBlockBegin
  2
AI9-BLK6
 70
     0
 10
0.0
 20
0.0
 30
0.0
  3
AI9-BLK6
  1

  0
INSERT
  5
2D3
330
2D1
100
AcDbEntity
  8
LAYER_1
 62
     7
100
AcDbBlockReference
  2
AI9-BLK7
 10
0.0
 20
0.0
 30
0.0
  0
ENDBLK
  5
2D4
330
2D1
100
AcDbEntity
  8
LAYER_1
100
AcDbBlockEnd
  0
BLOCK
  5
2D6
330
2D5
100
AcDbEntity
  8
LAYER_1
 62
     7
100
AcDbBlockBegin
  2
AI9-BLK7
 70
     0
 10
0.0
 20
0.0
 30
0.0
  3
AI9-BLK7
  1

  0
POLYLINE
  5
2D7
330
2D5
100
AcDbEntity
  8
LAYER_1
 62
     7
100
AcDb2dPolyline
 66
     1
 10
0.0
 20
0.0
 30
0.0
 70
     1
  0
VERTEX
  5
2D8
330
2D7
100
AcDbEntity
  8
LAYER_1
 62
     7
100
AcDbVertex
100
AcDb2dVertex
 10
12.32319268120659
 20
10.25329318576388
 30
0.0
  0
VERTEX
  5
2D9
330
2D7
100
AcDbEntity
  8
LAYER_1
 62
     7
100
AcDbVertex
100
AcDb2dVertex
 10
12.32319268120659
 20
10.21780870225694
 30
0.0
  0
VERTEX
  5
2DA
330
2D7
100
AcDbEntity
  8
LAYER_1
 62
     7
100
AcDbVertex
100
AcDb2dVertex
 10
12.50164862738715
 20
10.21711968315972
 30
0.0
  0
SEQEND
  5
2DB
330
2D7
100
AcDbEntity
  8
LAYER_1
 62
     7
  0
SPLINE
  5
2DC
330
2D5
100
AcDbEntity
  8
LAYER_1
 62
     7
100
AcDbSpline
210
0.0
220
0.0
230
1.0
 70
    11
 71
     3
 72
   173
 73
   169
 74
     0
 42
0.0000000001
 43
0.0000000001
 40
0.0
 40
0.0
 40
0.0
 40
0.0
 40
1.0
 40
1.0
 40
1.0
 40
2.0
 40
2.0
 40
2.0
 40
3.0
 40
3.0
 40
3.0
 40
4.0
 40
4.0
 40
4.0
 40
5.0
 40
5.0
 40
5.0
 40
6.0
 40
6.0
 40
6.0
 40
7.0
 40
7.0
 40
7.0
 40
8.0
 40
8.0
 40
8.0
 40
9.0
 40
9.0
 40
9.0
 40
10.0
 40
10.0
 40
10.0
 40
11.0
 40
11.0
 40
11.0
 40
12.0
 40
12.0
 40
12.0
 40
13.0
 40
13.0
 40
13.0
 40
14.0
 40
14.0
 40
14.0
 40
15.0
 40
15.0
 40
15.0
 40
16.0
 40
16.0
 40
16.0
 40
17.0
 40
17.0
 40
17.0
 40
18.0
 40
18.0
 40
18.0
 40
19.0
 40
19.0
 40
19.0
 40
20.0
 40
20.0
 40
20.0
 40
21.0
 40
21.0
 40
21.0
 40
22.0
 40
22.0
 40
22.0
 40
23.0
 40
23.0
 40
23.0
 40
24.0
 40
24.0
 40
24.0
 40
25.0
 40
25.0
 40
25.0
 40
26.0
 40
26.0
 40
26.0
 40
27.0
 40
27.0
 40
27.0
 40
28.0
 40
28.0
 40
28.0
 40
29.0
 40
29.0
 40
29.0
 40
30.0
 40
30.0
 40
30.0
 40
31.0
 40
31.0
 40
31.0
 40
32.0
 40
32.0
 40
32.0
 40
33.0
 40
33.0
 40
33.0
 40
34.0
 40
34.0
 40
34.0
 40
35.0
 40
35.0
 40
35.0
 40
36.0
 40
36.0
 40
36.0
 40
37.0
 40
37.0
 40
37.0
 40
38.0
 40
38.0
 40
38.0
 40
39.0
 40
39.0
 40
39.0
 40
40.0
 40
40.0
 40
40.0
 40
41.0
 40
41.0
 40
41.0
 40
42.0
 40
42.0
 40
42.0
 40
43.0
 40
43.0
 40
43.0
 40
44.0
 40
44.0
 40
44.0
 40
45.0
 40
45.0
 40
45.0
 40
46.0
 40
46.0
 40
46.0
 40
47.0
 40
47.0
 40
47.0
 40
48.0
 40
48.0
 40
48.0
 40
49.0
 40
49.0
 40
49.0
 40
50.0
 40
50.0
 40
50.0
 40
51.0
 40
51.0
 40
51.0
 40
52.0
 40
52.0
 40
52.0
 40
53.0
 40
53.0
 40
53.0
 40
54.0
 40
54.0
 40
54.0
 40
55.0
 40
55.0
 40
55.0
 40
56.0
 40
56.0
 40
56.0
 40
56.0
 10
7.83182169596354
 20
3.931026204427082
 30
0.0
 10
7.83182169596354
 20
3.931026204427082
 30
0.0
 10
7.827687581380208
 20
-5.619122992621527
 30
0.0
 10
7.827687581380208
 20
-5.619122992621527
 30
0.0
 10
7.827687581380208
 20
-5.619122992621527
 30
0.0
 10
5.139479573567707
 20
-5.600863986545138
 30
0.0
 10
5.139479573567707
 20
-5.600863986545138
 30
0.0
 10
5.139479573567707
 20
-5.600863986545138
 30
0.0
 10
5.139479573567707
 20
-9.050610351562498
 30
0.0
 10
5.139479573567707
 20
-9.050610351562498
 30
0.0
 10
5.139479573567707
 20
-9.880189344618054
 30
0.0
 10
5.475720893012152
 20
-10.21608615451389
 30
0.0
 10
6.305299886067707
 20
-10.21608615451389
 30
0.0
 10
6.305299886067707
 20
-10.21608615451389
 30
0.0
 10
28.71099514431423
 20
-10.21608615451389
 30
0.0
 10
28.71099514431423
 20
-10.21608615451389
 30
0.0
 10
29.5407463921441
 20
-10.21608615451389
 30
0.0
 10
29.87664320203993
 20
-9.880189344618054
 30
0.0
 10
29.87664320203993
 20
-9.050610351562498
 30
0.0
 10
29.87664320203993
 20
-9.050610351562498
 30
0.0
 10
29.87664320203993
 20
3.868669976128471
 30
0.0
 10
29.87664320203993
 20
3.868669976128471
 30
0.0
 10
29.87664320203993
 20
3.868669976128471
 30
0.0
 10
29.87664320203993
 20
3.964271375868055
 30
0.0
 10
29.87664320203993
 20
3.964271375868055
 30
0.0
 10
29.87664320203993
 20
3.964271375868055
 30
0.0
 10
50.79991387261284
 20
3.964271375868055
 30
0.0
 10
50.79991387261284
 20
3.964271375868055
 30
0.0
 10
50.79991387261284
 20
3.964271375868055
 30
0.0
 10
50.79991387261284
 20
10.26500651041666
 30
0.0
 10
50.79991387261284
 20
10.26500651041666
 30
0.0
 10
50.79991387261284
 20
10.26500651041666
 30
0.0
 10
41.18430786132812
 20
10.25329318576388
 30
0.0
 10
41.18430786132812
 20
10.25329318576388
 30
0.0
 10
40.80982598198784
 20
8.916596137152776
 30
0.0
 10
39.58302747938367
 20
7.936466471354165
 30
0.0
 10
38.12730238172743
 20
7.936466471354165
 30
0.0
 10
36.66830444335938
 20
7.936466471354165
 30
0.0
 10
35.43943888346354
 20
8.920557996961804
 30
0.0
 10
35.06788533528645
 20
10.26121690538194
 30
0.0
 10
35.06788533528645
 20
10.26121690538194
 30
0.0
 10
25.29638875325521
 20
10.25587700737847
 30
0.0
 10
25.29638875325521
 20
10.25587700737847
 30
0.0
 10
25.29638875325521
 20
10.25587700737847
 30
0.0
 10
25.29638875325521
 20
3.913111707899305
 30
0.0
 10
25.29638875325521
 20
3.913111707899305
 30
0.0
 10
25.29638875325521
 20
3.913111707899305
 30
0.0
 10
26.51112942165799
 20
3.913111707899305
 30
0.0
 10
26.51112942165799
 20
3.913111707899305
 30
0.0
 10
26.51112942165799
 20
3.913111707899305
 30
0.0
 10
26.51112942165799
 20
-6.179123263888888
 30
0.0
 10
26.51112942165799
 20
-6.179123263888888
 30
0.0
 10
26.51112942165799
 20
-6.179123263888888
 30
0.0
 10
11.19750773111979
 20
-6.179123263888888
 30
0.0
 10
11.19750773111979
 20
-6.179123263888888
 30
0.0
 10
11.19750773111979
 20
-6.179123263888888
 30
0.0
 10
11.19750773111979
 20
3.910355631510416
 30
0.0
 10
11.19750773111979
 20
3.910355631510416
 30
0.0
 10
11.19750773111979
 20
3.910355631510416
 30
0.0
 10
12.32319268120659
 20
3.910355631510416
 30
0.0
 10
12.32319268120659
 20
3.910355631510416
 30
0.0
 10
12.32319268120659
 20
3.910355631510416
 30
0.0
 10
12.32319268120659
 20
10.21780870225694
 30
0.0
 10
12.32319268120659
 20
10.21780870225694
 30
0.0
 10
12.32319268120659
 20
10.21780870225694
 30
0.0
 10
3.336833360460069
 20
10.25329318576388
 30
0.0
 10
3.336833360460069
 20
10.25329318576388
 30
0.0
 10
2.962523735894096
 20
8.916596137152776
 30
0.0
 10
1.735552978515624
 20
7.936466471354165
 30
0.0
 10
0.279827880859375
 20
7.936466471354165
 30
0.0
 10
-1.17917005750868
 20
7.936466471354165
 30
0.0
 10
-2.408035617404513
 20
8.920557996961804
 30
0.0
 10
-2.779416910807291
 20
10.26121690538194
 30
0.0
 10
-2.779416910807291
 20
10.26121690538194
 30
0.0
 10
-15.96259155273437
 20
10.24502495659722
 30
0.0
 10
-15.96259155273437
 20
10.24502495659722
 30
0.0
 10
-16.33690117730034
 20
8.90867241753472
 30
0.0
 10
-17.5635274251302
 20
7.92854275173611
 30
0.0
 10
-19.01994154188368
 20
7.92854275173611
 30
0.0
 10
-20.47859497070312
 20
7.92854275173611
 30
0.0
 10
-21.70746053059896
 20
8.912634277343748
 30
0.0
 10
-22.07884182400174
 20
10.25329318576388
 30
0.0
 10
-22.07884182400174
 20
10.25329318576388
 30
0.0
 10
-34.57454766167535
 20
10.25725504557291
 30
0.0
 10
-34.57454766167535
 20
10.25725504557291
 30
0.0
 10
-34.99812215169271
 20
9.002379014756943
 30
0.0
 10
-36.17686157226562
 20
8.094940863715276
 30
0.0
 10
-37.57470906575521
 20
8.094940863715276
 30
0.0
 10
-38.97376234266493
 20
8.094940863715276
 30
0.0
 10
-40.15319078233506
 20
9.004273817274304
 30
0.0
 10
-40.57573174370658
 20
10.26121690538194
 30
0.0
 10
-40.57573174370658
 20
10.26121690538194
 30
0.0
 10
-47.87830064561631
 20
10.26500651041666
 30
0.0
 10
-47.87830064561631
 20
10.26500651041666
 30
0.0
 10
-47.87830064561631
 20
10.26500651041666
 30
0.0
 10
-47.81215481228298
 20
10.26965738932291
 30
0.0
 10
-47.81215481228298
 20
10.26965738932291
 30
0.0
 10
-47.81215481228298
 20
10.26965738932291
 30
0.0
 10
-50.02872924804687
 20
10.27654758029513
 30
0.0
 10
-50.02872924804687
 20
10.27654758029513
 30
0.0
 10
-50.02872924804687
 20
10.27654758029513
 30
0.0
 10
-49.66320461697048
 20
10.26965738932291
 30
0.0
 10
-49.66320461697048
 20
10.26965738932291
 30
0.0
 10
-50.49312811957465
 20
10.26965738932291
 30
0.0
 10
-50.79991387261284
 20
10.04624294704861
 30
0.0
 10
-50.79991387261284
 20
9.215974934895832
 30
0.0
 10
-50.79991387261284
 20
9.215974934895832
 30
0.0
 10
-50.79991387261284
 20
7.192842610677082
 30
0.0
 10
-50.79991387261284
 20
7.192842610677082
 30
0.0
 10
-50.79991387261284
 20
6.535173882378471
 30
0.0
 10
-50.80025838216145
 20
6.531556532118054
 30
0.0
 10
-49.97067938910589
 20
6.531556532118054
 30
0.0
 10
-49.97067938910589
 20
6.531556532118054
 30
0.0
 10
-46.83495347764757
 20
6.531556532118054
 30
0.0
 10
-46.83495347764757
 20
6.531556532118054
 30
0.0
 10
-46.83495347764757
 20
6.531556532118054
 30
0.0
 10
-46.83495347764757
 20
-1.388890245225694
 30
0.0
 10
-46.83495347764757
 20
-1.388890245225694
 30
0.0
 10
-46.83495347764757
 20
-1.388890245225694
 30
0.0
 10
-37.9497077094184
 20
-1.388890245225694
 30
0.0
 10
-37.9497077094184
 20
-1.388890245225694
 30
0.0
 10
-37.9497077094184
 20
-1.388890245225694
 30
0.0
 10
-37.93230997721354
 20
-6.011002604166666
 30
0.0
 10
-37.93230997721354
 20
-6.011002604166666
 30
0.0
 10
-37.93230997721354
 20
-6.011002604166666
 30
0.0
 10
-46.83495347764757
 20
-6.011002604166666
 30
0.0
 10
-46.83495347764757
 20
-6.011002604166666
 30
0.0
 10
-46.83495347764757
 20
-6.011002604166666
 30
0.0
 10
-46.83495347764757
 20
-10.27654758029513
 30
0.0
 10
-46.83495347764757
 20
-10.27654758029513
 30
0.0
 10
-46.83495347764757
 20
-10.27654758029513
 30
0.0
 10
-33.95890909830729
 20
-10.27654758029513
 30
0.0
 10
-33.95890909830729
 20
-10.27654758029513
 30
0.0
 10
-33.95890909830729
 20
-10.27654758029513
 30
0.0
 10
-32.95931464301215
 20
-10.30927598741319
 30
0.0
 10
-32.95931464301215
 20
-7.72235378689236
 30
0.0
 10
-32.95931464301215
 20
-5.135431586371526
 30
0.0
 10
-32.95931464301215
 20
3.953074815538194
 30
0.0
 10
-32.95931464301215
 20
3.953074815538194
 30
0.0
 10
-32.95931464301215
 20
3.953074815538194
 30
0.0
 10
-11.36270005967882
 20
3.931026204427082
 30
0.0
 10
-11.36270005967882
 20
3.931026204427082
 30
0.0
 10
-11.36270005967882
 20
3.931026204427082
 30
0.0
 10
-11.36959025065104
 20
-9.330352105034721
 30
0.0
 10
-11.36959025065104
 20
-9.330352105034721
 30
0.0
 10
-11.36959025065104
 20
-9.330352105034721
 30
0.0
 10
-11.36270005967882
 20
-8.964482964409722
 30
0.0
 10
-11.36270005967882
 20
-8.964482964409722
 30
0.0
 10
-11.36270005967882
 20
-9.794061957465276
 30
0.0
 10
-11.02680324978298
 20
-10.13030327690972
 30
0.0
 10
-10.19653523763021
 20
-10.13030327690972
 30
0.0
 10
-10.19653523763021
 20
-10.13030327690972
 30
0.0
 10
-6.47031995985243
 20
-10.13030327690972
 30
0.0
 10
-6.47031995985243
 20
-10.13030327690972
 30
0.0
 10
-5.640740966796874
 20
-10.13030327690972
 30
0.0
 10
-5.304155137803818
 20
-9.794061957465276
 30
0.0
 10
-5.304155137803818
 20
-8.964482964409722
 30
0.0
 10
-5.304155137803818
 20
-8.964482964409722
 30
0.0
 10
-5.304155137803818
 20
-5.514908854166666
 30
0.0
 10
-5.304155137803818
 20
-5.514908854166666
 30
0.0
 10
-5.304155137803818
 20
-5.514908854166666
 30
0.0
 10
-7.992707655164929
 20
-5.53334011501736
 30
0.0
 10
-7.992707655164929
 20
-5.53334011501736
 30
0.0
 10
-7.992707655164929
 20
-5.53334011501736
 30
0.0
 10
-7.997014024522568
 20
4.016809082031249
 30
0.0
 10
-7.997014024522568
 20
4.016809082031249
 30
0.0
 10
-7.997014024522568
 20
4.016809082031249
 30
0.0
 10
7.83182169596354
 20
3.931026204427082
 30
0.0
 10
7.83182169596354
 20
3.931026204427082
 30
0.0
  0
ENDBLK
  5
2DD
330
2D5
100
AcDbEntity
  8
LAYER_1
100
AcDbBlockEnd
  0
BLOCK
  5
2FF
330
2F4
100
AcDbEntity
  8
0
100
AcDbBlockBegin
  2
*D6
 70
     1
 10
0.0
 20
0.0
 30
0.0
  3
*D6
  1

  0
LINE
  5
401
330
2F4
100
AcDbEntity
  8
ADPDIM
  6
Continuous
 62
     0
370
     0
100
AcDbLine
 10
7.788109371501576
 20
3.694690567819321
 30
0.0
 11
7.788109371501576
 21
5.065030247187955
 31
0.0
  0
LINE
  5
402
330
2F4
100
AcDbEntity
  8
ADPDIM
  6
Continuous
 62
     0
370
     0
100
AcDbLine
 10
11.78810937150157
 20
3.694690567819321
 30
0.0
 11
11.78810937150157
 21
5.065030247187955
 31
0.0
  0
LINE
  5
403
330
2F4
100
AcDbEntity
  8
ADPDIM
  6
Continuous
 62
     0
370
     0
100
AcDbLine
 10
7.968109371501576
 20
4.885030247187955
 30
0.0
 11
9.638109371501576
 21
4.885030247187955
 31
0.0
  0
LINE
  5
404
330
2F4
100
AcDbEntity
  8
ADPDIM
  6
Continuous
 62
     0
370
     0
100
AcDbLine
 10
11.60810937150158
 20
4.885030247187955
 30
0.0
 11
9.938109371501576
 21
4.885030247187955
 31
0.0
  0
SOLID
  5
405
330
2F4
100
AcDbEntity
  8
ADPDIM
  6
Continuous
 62
     0
100
AcDbTrace
 10
7.968109371501576
 20
4.915030247187956
 30
0.0
 11
7.968109371501576
 21
4.855030247187955
 31
0.0
 12
7.788109371501576
 22
4.885030247187955
 32
0.0
 13
7.788109371501576
 23
4.885030247187955
 33
0.0
  0
SOLID
  5
406
330
2F4
100
AcDbEntity
  8
ADPDIM
  6
Continuous
 62
     0
100
AcDbTrace
 10
11.60810937150158
 20
4.915030247187956
 30
0.0
 11
11.60810937150158
 21
4.855030247187955
 31
0.0
 12
11.78810937150157
 22
4.885030247187955
 32
0.0
 13
11.78810937150157
 23
4.885030247187955
 33
0.0
  0
MTEXT
  5
407
330
2F4
100
AcDbEntity
  8
ADPDIM
  6
Continuous
 62
     0
370
     0
100
AcDbMText
 10
9.788109371501576
 20
4.885030247187955
 30
0.0
 40
0.18
 41
0.0
 71
     5
 72
     1
  1
\A1;4
 73
     1
 44
1.0
1001
ACAD
1000
MTEXTBEGIN
1070
    73
1070
     1
1070
    44
1040
1.0
1070
    74
1070
     0
1000
MTEXTEND
  0
POINT
  5
408
330
2F4
100
AcDbEntity
  8
DEFPOINTS
  6
Continuous
 62
     0
100
AcDbPoint
 10
7.788109371501576
 20
3.632190567819321
 30
0.0
  0
POINT
  5
409
330
2F4
100
AcDbEntity
  8
DEFPOINTS
  6
Continuous
 62
     0
100
AcDbPoint
 10
11.78810937150157
 20
3.632190567819321
 30
0.0
  0
POINT
  5
40A
330
2F4
100
AcDbEntity
  8
DEFPOINTS
  6
Continuous
 62
     0
100
AcDbPoint
 10
11.78810937150157
 20
4.885030247187955
 30
0.0
  0
ENDBLK
  5
300
330
2F4
100
AcDbEntity
  8
0
100
AcDbBlockEnd
  0
BLOCK
  5
33F
330
334
100
AcDbEntity
  8
0
 62
     3
100
AcDbBlockBegin
  2
*D7
 70
     1
 10
0.0
 20
0.0
 30
0.0
  3
*D7
  1

  0
LINE
  5
40B
330
334
100
AcDbEntity
  8
ADPDIM
 62
     0
370
    -2
100
AcDbLine
 10
7.792916072558313
 20
3.766567771888755
 30
0.0
 11
7.792916072558313
 21
4.223156005957893
 31
0.0
  0
LINE
  5
40C
330
334
100
AcDbEntity
  8
ADPDIM
 62
     0
370
    -2
100
AcDbLine
 10
10.54291607255831
 20
3.766567771888755
 30
0.0
 11
10.54291607255831
 21
4.223156005957893
 31
0.0
  0
LINE
  5
40D
330
334
100
AcDbEntity
  8
ADPDIM
 62
     0
370
    -2
100
AcDbLine
 10
7.792916072558313
 20
4.043156005957893
 30
0.0
 11
8.751249405891647
 21
4.043156005957893
 31
0.0
  0
LINE
  5
40E
330
334
100
AcDbEntity
  8
ADPDIM
 62
     0
370
    -2
100
AcDbLine
 10
10.54291607255831
 20
4.043156005957893
 30
0.0
 11
9.584582739224979
 21
4.043156005957893
 31
0.0
  0
LINE
  5
40F
330
334
100
AcDbEntity
  8
ADPDIM
 62
     0
370
    -2
100
AcDbLine
 10
10.41791607255831
 20
3.918156005957893
 30
0.0
 11
10.66791607255831
 21
4.168156005957893
 31
0.0
  0
LINE
  5
410
330
334
100
AcDbEntity
  8
ADPDIM
 62
     0
370
    -2
100
AcDbLine
 10
7.667916072558313
 20
3.918156005957893
 30
0.0
 11
7.917916072558313
 21
4.168156005957893
 31
0.0
  0
MTEXT
  5
411
330
334
100
AcDbEntity
  8
ADPDIM
 62
     0
100
AcDbMText
 10
9.167916072558313
 20
4.043156005957893
 30
0.0
 40
0.125
 41
0.0
 71
     5
 72
     1
  1
\A1;2 3/4
 73
     1
 44
1.0
1001
ACAD
1000
MTEXTBEGIN
1070
    73
1070
     1
1070
    44
1040
1.0
1070
    74
1070
     0
1000
MTEXTEND
  0
POINT
  5
412
330
334
100
AcDbEntity
  8
DEFPOINTS
 62
     0
100
AcDbPoint
 10
7.792916072558313
 20
3.704067771888755
 30
0.0
  0
POINT
  5
413
330
334
100
AcDbEntity
  8
DEFPOINTS
 62
     0
100
AcDbPoint
 10
10.54291607255831
 20
3.704067771888755
 30
0.0
  0
POINT
  5
414
330
334
100
AcDbEntity
  8
DEFPOINTS
 62
     0
100
AcDbPoint
 10
10.54291607255831
 20
4.043156005957893
 30
0.0
  0
ENDBLK
  5
340
330
334
100
AcDbEntity
  8
0
 62
     3
100
AcDbBlockEnd
  0
BLOCK
  5
34D
330
342
100
AcDbEntity
  8
0
 62
     3
100
AcDbBlockBegin
  2
*D8
 70
     1
 10
0.0
 20
0.0
 30
0.0
  3
*D8
  1

  0
LINE
  5
415
330
342
100
AcDbEntity
  8
ADPDIM
 62
     0
370
    -2
100
AcDbLine
 10
10.54295546457056
 20
3.760721416054817
 30
0.0
 11
10.54295546457056
 21
4.223156005957893
 31
0.0
  0
LINE
  5
416
330
342
100
AcDbEntity
  8
ADPDIM
 62
     0
370
    -2
100
AcDbLine
 10
11.79295546457056
 20
3.760721416054817
 30
0.0
 11
11.79295546457056
 21
4.223156005957893
 31
0.0
  0
LINE
  5
417
330
342
100
AcDbEntity
  8
ADPDIM
 62
     0
370
    -2
100
AcDbLine
 10
10.54295546457056
 20
4.043156005957893
 30
0.0
 11
10.79295546457056
 21
4.043156005957893
 31
0.0
  0
LINE
  5
418
330
342
100
AcDbEntity
  8
ADPDIM
 62
     0
370
    -2
100
AcDbLine
 10
11.79295546457056
 20
4.043156005957893
 30
0.0
 11
11.54295546457056
 21
4.043156005957893
 31
0.0
  0
LINE
  5
419
330
342
100
AcDbEntity
  8
ADPDIM
 62
     0
370
    -2
100
AcDbLine
 10
11.66795546457056
 20
3.918156005957893
 30
0.0
 11
11.91795546457056
 21
4.168156005957893
 31
0.0
  0
LINE
  5
41A
330
342
100
AcDbEntity
  8
ADPDIM
 62
     0
370
    -2
100
AcDbLine
 10
10.41795546457056
 20
3.918156005957893
 30
0.0
 11
10.66795546457056
 21
4.168156005957893
 31
0.0
  0
MTEXT
  5
41B
330
342
100
AcDbEntity
  8
ADPDIM
 62
     0
100
AcDbMText
 10
11.16795546457056
 20
4.043156005957893
 30
0.0
 40
0.125
 41
0.0
 71
     5
 72
     1
  1
\A1;1 1/4
 73
     1
 44
1.0
1001
ACAD
1000
MTEXTBEGIN
1070
    73
1070
     1
1070
    44
1040
1.0
1070
    74
1070
     0
1000
MTEXTEND
  0
POINT
  5
41C
330
342
100
AcDbEntity
  8
DEFPOINTS
 62
     0
100
AcDbPoint
 10
10.54295546457056
 20
3.698221416054817
 30
0.0
  0
POINT
  5
41D
330
342
100
AcDbEntity
  8
DEFPOINTS
 62
     0
100
AcDbPoint
 10
11.79295546457056
 20
3.698221416054817
 30
0.0
  0
POINT
  5
41E
330
342
100
AcDbEntity
  8
DEFPOINTS
 62
     0
100
AcDbPoint
 10
11.79295546457056
 20
4.043156005957893
 30
0.0
  0
ENDBLK
  5
34E
330
342
100
AcDbEntity
  8
0
 62
     3
100
AcDbBlockEnd
  0
BLOCK
  5
35B
330
350
100
AcDbEntity
  8
0
 62
     3
100
AcDbBlockBegin
  2
*D9
 70
     1
 10
0.0
 20
0.0
 30
0.0
  3
*D9
  1

  0
LINE
  5
41F
330
350
100
AcDbEntity
  8
ADPDIM
 62
     0
370
    -2
100
AcDbLine
 10
11.82834529210067
 20
3.645604284896304
 30
0.0
 11
12.21499807175173
 21
3.645604284896304
 31
0.0
  0
LINE
  5
420
330
350
100
AcDbEntity
  8
ADPDIM
 62
     0
370
    -2
100
AcDbLine
 10
11.82834529210067
 20
3.395604284896304
 30
0.0
 11
12.21499807175173
 21
3.395604284896304
 31
0.0
  0
LINE
  5
421
330
350
100
AcDbEntity
  8
ADPDIM
 62
     0
370
    -2
100
AcDbLine
 10
12.03499807175173
 20
3.645604284896304
 30
0.0
 11
12.03499807175173
 21
3.395604284896304
 31
0.0
  0
LINE
  5
422
330
350
100
AcDbEntity
  8
ADPDIM
 62
     0
370
    -2
100
AcDbLine
 10
12.03499807175173
 20
3.395604284896304
 30
0.0
 11
12.03499807175173
 21
3.145604284896304
 31
0.0
  0
LINE
  5
423
330
350
100
AcDbEntity
  8
ADPDIM
 62
     0
370
    -2
100
AcDbLine
 10
12.15999807175174
 20
3.270604284896304
 30
0.0
 11
11.90999807175173
 21
3.520604284896304
 31
0.0
  0
LINE
  5
424
330
350
100
AcDbEntity
  8
ADPDIM
 62
     0
370
    -2
100
AcDbLine
 10
12.15999807175174
 20
3.520604284896304
 30
0.0
 11
11.90999807175173
 21
3.770604284896304
 31
0.0
  0
MTEXT
  5
425
330
350
100
AcDbEntity
  8
ADPDIM
 62
     0
100
AcDbMText
 10
12.03499807175173
 20
2.874770951562973
 30
0.0
 40
0.125
 41
0.0
 71
     5
 72
     1
  1
\A1;1/4
 11
0.0000000000000001
 21
1.0
 31
0.0
 73
     1
 44
1.0
1001
ACAD
1000
MTEXTBEGIN
1070
    73
1070
     1
1070
    44
1040
1.0
1070
    74
1070
     0
1000
MTEXTEND
  0
POINT
  5
426
330
350
100
AcDbEntity
  8
DEFPOINTS
 62
     0
100
AcDbPoint
 10
11.76584529210067
 20
3.645604284896304
 30
0.0
  0
POINT
  5
427
330
350
100
AcDbEntity
  8
DEFPOINTS
 62
     0
100
AcDbPoint
 10
11.76584529210067
 20
3.395604284896304
 30
0.0
  0
POINT
  5
428
330
350
100
AcDbEntity
  8
DEFPOINTS
 62
     0
100
AcDbPoint
 10
12.03499807175173
 20
3.395604284896304
 30
0.0
  0
ENDBLK
  5
35C
330
350
100
AcDbEntity
  8
0
 62
     3
100
AcDbBlockEnd
  0
BLOCK
  5
369
330
35E
100
AcDbEntity
  8
0
 62
     3
100
AcDbBlockBegin
  2
*D10
 70
     1
 10
0.0
 20
0.0
 30
0.0
  3
*D10
  1

  0
LINE
  5
429
330
35E
100
AcDbEntity
  8
ADPDIM
 62
     0
370
    -2
100
AcDbLine
 10
7.730416072558313
 20
3.645604284896304
 30
0.0
 11
7.191633471069259
 21
3.645604284896304
 31
0.0
  0
LINE
  5
42A
330
35E
100
AcDbEntity
  8
ADPDIM
 62
     0
370
    -2
100
AcDbLine
 10
7.730416072558313
 20
2.833104284896304
 30
0.0
 11
7.191633471069259
 21
2.833104284896304
 31
0.0
  0
LINE
  5
42B
330
35E
100
AcDbEntity
  8
ADPDIM
 62
     0
370
    -2
100
AcDbLine
 10
7.371633471069259
 20
3.645604284896304
 30
0.0
 11
7.371633471069259
 21
3.895604284896304
 31
0.0
  0
LINE
  5
42C
330
35E
100
AcDbEntity
  8
ADPDIM
 62
     0
370
    -2
100
AcDbLine
 10
7.371633471069259
 20
2.833104284896304
 30
0.0
 11
7.371633471069259
 21
2.583104284896304
 31
0.0
  0
LINE
  5
42D
330
35E
100
AcDbEntity
  8
ADPDIM
 62
     0
370
    -2
100
AcDbLine
 10
7.496633471069259
 20
2.708104284896304
 30
0.0
 11
7.246633471069259
 21
2.958104284896304
 31
0.0
  0
LINE
  5
42E
330
35E
100
AcDbEntity
  8
ADPDIM
 62
     0
370
    -2
100
AcDbLine
 10
7.496633471069259
 20
3.520604284896304
 30
0.0
 11
7.246633471069259
 21
3.770604284896304
 31
0.0
  0
MTEXT
  5
42F
330
35E
100
AcDbEntity
  8
ADPDIM
 62
     0
100
AcDbMText
 10
7.371633471069258
 20
3.239354284896305
 30
0.0
 40
0.125
 41
0.0
 71
     5
 72
     1
  1
\A1;13/16
 11
0.0000000000000001
 21
1.0
 31
0.0
 73
     1
 44
1.0
1001
ACAD
1000
MTEXTBEGIN
1070
    73
1070
     1
1070
    44
1040
1.0
1070
    74
1070
     0
1000
MTEXTEND
  0
POINT
  5
430
330
35E
100
AcDbEntity
  8
DEFPOINTS
 62
     0
100
AcDbPoint
 10
7.792916072558313
 20
3.645604284896304
 30
0.0
  0
POINT
  5
431
330
35E
100
AcDbEntity
  8
DEFPOINTS
 62
     0
100
AcDbPoint
 10
7.792916072558313
 20
2.833104284896304
 30
0.0
  0
POINT
  5
432
330
35E
100
AcDbEntity
  8
DEFPOINTS
 62
     0
100
AcDbPoint
 10
7.371633471069259
 20
2.833104284896304
 30
0.0
  0
ENDBLK
  5
36A
330
35E
100
AcDbEntity
  8
0
 62
     3
100
AcDbBlockEnd
  0
BLOCK
  5
50A
330
4FF
100
AcDbEntity
  8
0
 62
     3
100
AcDbBlockBegin
  2
*D12
 70
     1
 10
0.0
 20
0.0
 30
0.0
  3
*D12
  1

  0
LINE
  5
5E2
330
4FF
100
AcDbEntity
  8
ADPDIM
 62
     0
370
    -2
100
AcDbLine
 10
7.026139051134446
 20
3.438686073000114
 30
0.0
 11
7.026139051134446
 21
4.411397046982029
 31
0.0
  0
LINE
  5
5E3
330
4FF
100
AcDbEntity
  8
ADPDIM
 62
     0
370
    -2
100
AcDbLine
 10
12.52613905113445
 20
3.438686073000114
 30
0.0
 11
12.52613905113445
 21
4.411397046982029
 31
0.0
  0
LINE
  5
5E4
330
4FF
100
AcDbEntity
  8
ADPDIM
 62
     0
370
    -2
100
AcDbLine
 10
7.026139051134446
 20
4.23139704698203
 30
0.0
 11
9.380305717801112
 21
4.23139704698203
 31
0.0
  0
LINE
  5
5E5
330
4FF
100
AcDbEntity
  8
ADPDIM
 62
     0
370
    -2
100
AcDbLine
 10
12.52613905113445
 20
4.23139704698203
 30
0.0
 11
10.17197238446778
 21
4.23139704698203
 31
0.0
  0
LINE
  5
5E6
330
4FF
100
AcDbEntity
  8
ADPDIM
 62
     0
370
    -2
100
AcDbLine
 10
12.40113905113444
 20
4.10639704698203
 30
0.0
 11
12.65113905113445
 21
4.35639704698203
 31
0.0
  0
LINE
  5
5E7
330
4FF
100
AcDbEntity
  8
ADPDIM
 62
     0
370
    -2
100
AcDbLine
 10
6.901139051134446
 20
4.10639704698203
 30
0.0
 11
7.151139051134446
 21
4.35639704698203
 31
0.0
  0
MTEXT
  5
5E8
330
4FF
100
AcDbEntity
  8
ADPDIM
 62
     0
100
AcDbMText
 10
9.776139051134446
 20
4.23139704698203
 30
0.0
 40
0.125
 41
0.0
 71
     5
 72
     1
  1
\A1;5 1/2
 73
     1
 44
1.0
1001
ACAD
1000
MTEXTBEGIN
1070
    73
1070
     1
1070
    44
1040
1.0
1070
    74
1070
     0
1000
MTEXTEND
  0
POINT
  5
5E9
330
4FF
100
AcDbEntity
  8
DEFPOINTS
 62
     0
100
AcDbPoint
 10
7.026139051134446
 20
3.376186073000114
 30
0.0
  0
POINT
  5
5EA
330
4FF
100
AcDbEntity
  8
DEFPOINTS
 62
     0
100
AcDbPoint
 10
12.52613905113445
 20
3.376186073000114
 30
0.0
  0
POINT
  5
5EB
330
4FF
100
AcDbEntity
  8
DEFPOINTS
 62
     0
100
AcDbPoint
 10
12.52613905113445
 20
4.23139704698203
 30
0.0
  0
ENDBLK
  5
50B
330
4FF
100
AcDbEntity
  8
0
 62
     3
100
AcDbBlockEnd
  0
BLOCK
  5
540
330
535
100
AcDbEntity
  8
0
 62
     3
100
AcDbBlockBegin
  2
*D13
 70
     1
 10
0.0
 20
0.0
 30
0.0
  3
*D13
  1

  0
LINE
  5
5EC
330
535
100
AcDbEntity
  8
ADPDIM
 62
     0
370
    -2
100
AcDbLine
 10
7.029430271742445
 20
3.47844649706708
 30
0.0
 11
7.029430271742445
 21
4.015261406084453
 31
0.0
  0
LINE
  5
5ED
330
535
100
AcDbEntity
  8
ADPDIM
 62
     0
370
    -2
100
AcDbLine
 10
9.904430271742445
 20
3.47844649706708
 30
0.0
 11
9.904430271742445
 21
4.015261406084453
 31
0.0
  0
LINE
  5
5EE
330
535
100
AcDbEntity
  8
ADPDIM
 62
     0
370
    -2
100
AcDbLine
 10
7.029430271742445
 20
3.835261406084454
 30
0.0
 11
8.050263605075778
 21
3.835261406084454
 31
0.0
  0
LINE
  5
5EF
330
535
100
AcDbEntity
  8
ADPDIM
 62
     0
370
    -2
100
AcDbLine
 10
9.904430271742445
 20
3.835261406084454
 30
0.0
 11
8.883596938409111
 21
3.835261406084454
 31
0.0
  0
LINE
  5
5F0
330
535
100
AcDbEntity
  8
ADPDIM
 62
     0
370
    -2
100
AcDbLine
 10
9.779430271742445
 20
3.710261406084454
 30
0.0
 11
10.02943027174244
 21
3.960261406084454
 31
0.0
  0
LINE
  5
5F1
330
535
100
AcDbEntity
  8
ADPDIM
 62
     0
370
    -2
100
AcDbLine
 10
6.904430271742445
 20
3.710261406084454
 30
0.0
 11
7.154430271742445
 21
3.960261406084454
 31
0.0
  0
MTEXT
  5
5F2
330
535
100
AcDbEntity
  8
ADPDIM
 62
     0
100
AcDbMText
 10
8.466930271742445
 20
3.835261406084454
 30
0.0
 40
0.125
 41
0.0
 71
     5
 72
     1
  1
\A1;2 7/8
 73
     1
 44
1.0
1001
ACAD
1000
MTEXTBEGIN
1070
    73
1070
     1
1070
    44
1040
1.0
1070
    74
1070
     0
1000
MTEXTEND
  0
POINT
  5
5F3
330
535
100
AcDbEntity
  8
DEFPOINTS
 62
     0
100
AcDbPoint
 10
7.029430271742445
 20
3.41594649706708
 30
0.0
  0
POINT
  5
5F4
330
535
100
AcDbEntity
  8
DEFPOINTS
 62
     0
100
AcDbPoint
 10
9.904430271742445
 20
3.41594649706708
 30
0.0
  0
POINT
  5
5F5
330
535
100
AcDbEntity
  8
DEFPOINTS
 62
     0
100
AcDbPoint
 10
9.904430271742445
 20
3.835261406084454
 30
0.0
  0
ENDBLK
  5
541
330
535
100
AcDbEntity
  8
0
 62
     3
100
AcDbBlockEnd
  0
BLOCK
  5
54E
330
543
100
AcDbEntity
  8
0
 62
     3
100
AcDbBlockBegin
  2
*D14
 70
     1
 10
0.0
 20
0.0
 30
0.0
  3
*D14
  1

  0
LINE
  5
5D8
330
543
100
AcDbEntity
  8
ADPDIM
 62
     0
370
    -2
100
AcDbLine
 10
9.902322388516413
 20
3.47844649706708
 30
0.0
 11
9.902322388516413
 21
4.015261406084453
 31
0.0
  0
LINE
  5
5D9
330
543
100
AcDbEntity
  8
ADPDIM
 62
     0
370
    -2
100
AcDbLine
 10
11.40232238851641
 20
3.47844649706708
 30
0.0
 11
11.40232238851641
 21
4.015261406084453
 31
0.0
  0
LINE
  5
5DA
330
543
100
AcDbEntity
  8
ADPDIM
 62
     0
370
    -2
100
AcDbLine
 10
9.902322388516413
 20
3.835261406084454
 30
0.0
 11
10.27732238851641
 21
3.835261406084454
 31
0.0
  0
LINE
  5
5DB
330
543
100
AcDbEntity
  8
ADPDIM
 62
     0
370
    -2
100
AcDbLine
 10
11.40232238851641
 20
3.835261406084454
 30
0.0
 11
11.02732238851641
 21
3.835261406084454
 31
0.0
  0
LINE
  5
5DC
330
543
100
AcDbEntity
  8
ADPDIM
 62
     0
370
    -2
100
AcDbLine
 10
11.27732238851641
 20
3.710261406084454
 30
0.0
 11
11.52732238851641
 21
3.960261406084454
 31
0.0
  0
LINE
  5
5DD
330
543
100
AcDbEntity
  8
ADPDIM
 62
     0
370
    -2
100
AcDbLine
 10
9.777322388516413
 20
3.710261406084454
 30
0.0
 11
10.02732238851641
 21
3.960261406084454
 31
0.0
  0
MTEXT
  5
5DE
330
543
100
AcDbEntity
  8
ADPDIM
 62
     0
100
AcDbMText
 10
10.65232238851641
 20
3.835261406084454
 30
0.0
 40
0.125
 41
0.0
 71
     5
 72
     1
  1
\A1;1 1/2
 73
     1
 44
1.0
1001
ACAD
1000
MTEXTBEGIN
1070
    73
1070
     1
1070
    44
1040
1.0
1070
    74
1070
     0
1000
MTEXTEND
  0
POINT
  5
5DF
330
543
100
AcDbEntity
  8
DEFPOINTS
 62
     0
100
AcDbPoint
 10
9.902322388516413
 20
3.41594649706708
 30
0.0
  0
POINT
  5
5E0
330
543
100
AcDbEntity
  8
DEFPOINTS
 62
     0
100
AcDbPoint
 10
11.40232238851641
 20
3.41594649706708
 30
0.0
  0
POINT
  5
5E1
330
543
100
AcDbEntity
  8
DEFPOINTS
 62
     0
100
AcDbPoint
 10
11.40232238851641
 20
3.835261406084454
 30
0.0
  0
ENDBLK
  5
54F
330
543
100
AcDbEntity
  8
0
 62
     3
100
AcDbBlockEnd
  0
BLOCK
  5
55C
330
551
100
AcDbEntity
  8
0
 62
     3
100
AcDbBlockBegin
  2
*D15
 70
     1
 10
0.0
 20
0.0
 30
0.0
  3
*D15
  1

  0
LINE
  5
5CE
330
551
100
AcDbEntity
  8
ADPDIM
 62
     0
370
    -2
100
AcDbLine
 10
11.40406140576072
 20
3.471216935615865
 30
0.0
 11
11.40406140576072
 21
4.015261406084453
 31
0.0
  0
LINE
  5
5CF
330
551
100
AcDbEntity
  8
ADPDIM
 62
     0
370
    -2
100
AcDbLine
 10
12.52906140576072
 20
3.471216935615865
 30
0.0
 11
12.52906140576072
 21
4.015261406084453
 31
0.0
  0
LINE
  5
5D0
330
551
100
AcDbEntity
  8
ADPDIM
 62
     0
370
    -2
100
AcDbLine
 10
11.40406140576072
 20
3.835261406084454
 30
0.0
 11
11.59156140576071
 21
3.835261406084454
 31
0.0
  0
LINE
  5
5D1
330
551
100
AcDbEntity
  8
ADPDIM
 62
     0
370
    -2
100
AcDbLine
 10
12.52906140576072
 20
3.835261406084454
 30
0.0
 11
12.34156140576072
 21
3.835261406084454
 31
0.0
  0
LINE
  5
5D2
330
551
100
AcDbEntity
  8
ADPDIM
 62
     0
370
    -2
100
AcDbLine
 10
12.40406140576072
 20
3.710261406084454
 30
0.0
 11
12.65406140576072
 21
3.960261406084454
 31
0.0
  0
LINE
  5
5D3
330
551
100
AcDbEntity
  8
ADPDIM
 62
     0
370
    -2
100
AcDbLine
 10
11.27906140576071
 20
3.710261406084454
 30
0.0
 11
11.52906140576072
 21
3.960261406084454
 31
0.0
  0
MTEXT
  5
5D4
330
551
100
AcDbEntity
  8
ADPDIM
 62
     0
100
AcDbMText
 10
11.96656140576072
 20
3.835261406084454
 30
0.0
 40
0.125
 41
0.0
 71
     5
 72
     1
  1
\A1;1 1/8
 73
     1
 44
1.0
1001
ACAD
1000
MTEXTBEGIN
1070
    73
1070
     1
1070
    44
1040
1.0
1070
    74
1070
     0
1000
MTEXTEND
  0
POINT
  5
5D5
330
551
100
AcDbEntity
  8
DEFPOINTS
 62
     0
100
AcDbPoint
 10
11.40406140576072
 20
3.408716935615865
 30
0.0
  0
POINT
  5
5D6
330
551
100
AcDbEntity
  8
DEFPOINTS
 62
     0
100
AcDbPoint
 10
12.52906140576072
 20
3.408716935615865
 30
0.0
  0
POINT
  5
5D7
330
551
100
AcDbEntity
  8
DEFPOINTS
 62
     0
100
AcDbPoint
 10
12.52906140576072
 20
3.835261406084454
 30
0.0
  0
ENDBLK
  5
55D
330
551
100
AcDbEntity
  8
0
 62
     3
100
AcDbBlockEnd
  0
BLOCK
  5
56A
330
55F
100
AcDbEntity
  8
0
 62
     3
100
AcDbBlockBegin
  2
*D16
 70
     1
 10
0.0
 20
0.0
 30
0.0
  3
*D16
  1

  0
LINE
  5
5F6
330
55F
100
AcDbEntity
  8
ADPDIM
 62
     0
370
    -2
100
AcDbLine
 10
6.966906871830129
 20
3.414229900599713
 30
0.0
 11
6.588234883460224
 21
3.414229900599713
 31
0.0
  0
LINE
  5
5F7
330
55F
100
AcDbEntity
  8
ADPDIM
 62
     0
370
    -2
100
AcDbLine
 10
6.966906871830129
 20
3.164229900599713
 30
0.0
 11
6.588234883460224
 21
3.164229900599713
 31
0.0
  0
LINE
  5
5F8
330
55F
100
AcDbEntity
  8
ADPDIM
 62
     0
370
    -2
100
AcDbLine
 10
6.768234883460223
 20
3.414229900599713
 30
0.0
 11
6.768234883460223
 21
3.164229900599713
 31
0.0
  0
LINE
  5
5F9
330
55F
100
AcDbEntity
  8
ADPDIM
 62
     0
370
    -2
100
AcDbLine
 10
6.768234883460223
 20
3.164229900599713
 30
0.0
 11
6.768234883460223
 21
2.914229900599713
 31
0.0
  0
LINE
  5
5FA
330
55F
100
AcDbEntity
  8
ADPDIM
 62
     0
370
    -2
100
AcDbLine
 10
6.893234883460223
 20
3.039229900599713
 30
0.0
 11
6.643234883460223
 21
3.289229900599713
 31
0.0
  0
LINE
  5
5FB
330
55F
100
AcDbEntity
  8
ADPDIM
 62
     0
370
    -2
100
AcDbLine
 10
6.893234883460223
 20
3.289229900599713
 30
0.0
 11
6.643234883460223
 21
3.539229900599713
 31
0.0
  0
MTEXT
  5
5FC
330
55F
100
AcDbEntity
  8
ADPDIM
 62
     0
100
AcDbMText
 10
6.768234883460222
 20
2.643396567266381
 30
0.0
 40
0.125
 41
0.0
 71
     5
 72
     1
  1
\A1;1/4
 11
0.0000000000000001
 21
1.0
 31
0.0
 73
     1
 44
1.0
1001
ACAD
1000
MTEXTBEGIN
1070
    73
1070
     1
1070
    44
1040
1.0
1070
    74
1070
     0
1000
MTEXTEND
  0
POINT
  5
5FD
330
55F
100
AcDbEntity
  8
DEFPOINTS
 62
     0
100
AcDbPoint
 10
7.029406871830129
 20
3.414229900599712
 30
0.0
  0
POINT
  5
5FE
330
55F
100
AcDbEntity
  8
DEFPOINTS
 62
     0
100
AcDbPoint
 10
7.029406871830129
 20
3.164229900599712
 30
0.0
  0
POINT
  5
5FF
330
55F
100
AcDbEntity
  8
DEFPOINTS
 62
     0
100
AcDbPoint
 10
6.768234883460223
 20
3.164229900599713
 30
0.0
  0
ENDBLK
  5
56B
330
55F
100
AcDbEntity
  8
0
 62
     3
100
AcDbBlockEnd
  0
BLOCK
  5
578
330
56D
100
AcDbEntity
  8
0
 62
     3
100
AcDbBlockBegin
  2
*D17
 70
     1
 10
0.0
 20
0.0
 30
0.0
  3
*D17
  1

  0
LINE
  5
56E
330
56D
100
AcDbEntity
  8
ADPDIM
 62
     0
370
    -2
100
AcDbLine
 10
12.57651905583191
 20
3.414229900599712
 30
0.0
 11
13.14381529031199
 21
3.414229900599712
 31
0.0
  0
LINE
  5
56F
330
56D
100
AcDbEntity
  8
ADPDIM
 62
     0
370
    -2
100
AcDbLine
 10
12.57651905583191
 20
2.741729900599712
 30
0.0
 11
13.14381529031199
 21
2.741729900599712
 31
0.0
  0
LINE
  5
570
330
56D
100
AcDbEntity
  8
ADPDIM
 62
     0
370
    -2
100
AcDbLine
 10
12.96381529031199
 20
3.414229900599712
 30
0.0
 11
12.96381529031199
 21
2.741729900599712
 31
0.0
  0
LINE
  5
571
330
56D
100
AcDbEntity
  8
ADPDIM
 62
     0
370
    -2
100
AcDbLine
 10
12.96381529031199
 20
2.741729900599712
 30
0.0
 11
12.96381529031199
 21
2.491729900599712
 31
0.0
  0
LINE
  5
572
330
56D
100
AcDbEntity
  8
ADPDIM
 62
     0
370
    -2
100
AcDbLine
 10
13.08881529031199
 20
2.616729900599712
 30
0.0
 11
12.83881529031199
 21
2.866729900599712
 31
0.0
  0
LINE
  5
573
330
56D
100
AcDbEntity
  8
ADPDIM
 62
     0
370
    -2
100
AcDbLine
 10
13.08881529031199
 20
3.289229900599712
 30
0.0
 11
12.83881529031199
 21
3.539229900599712
 31
0.0
  0
MTEXT
  5
574
330
56D
100
AcDbEntity
  8
ADPDIM
 62
     0
100
AcDbMText
 10
12.96381529031199
 20
2.064646567266381
 30
0.0
 40
0.125
 41
0.0
 71
     5
 72
     1
  1
\A1;0.6725
 11
0.0000000000000001
 21
1.0
 31
0.0
 73
     1
 44
1.0
1001
ACAD
1000
MTEXTBEGIN
1070
    73
1070
     1
1070
    44
1040
1.0
1070
    74
1070
     0
1000
MTEXTEND
  0
POINT
  5
575
330
56D
100
AcDbEntity
  8
DEFPOINTS
 62
     0
100
AcDbPoint
 10
12.51401905583191
 20
3.414229900599712
 30
0.0
  0
POINT
  5
576
330
56D
100
AcDbEntity
  8
DEFPOINTS
 62
     0
100
AcDbPoint
 10
12.51401905583191
 20
2.741729900599712
 30
0.0
  0
POINT
  5
577
330
56D
100
AcDbEntity
  8
DEFPOINTS
 62
     0
100
AcDbPoint
 10
12.96381529031199
 20
2.741729900599712
 30
0.0
  0
ENDBLK
  5
579
330
56D
100
AcDbEntity
  8
0
 62
     3
100
AcDbBlockEnd
  0
BLOCK
  5
586
330
57B
100
AcDbEntity
  8
0
 62
     3
100
AcDbBlockBegin
  2
*D18
 70
     1
 10
0.0
 20
0.0
 30
0.0
  3
*D18
  1

  0
LINE
  5
5C4
330
57B
100
AcDbEntity
  8
ADPDIM
 62
     0
370
    -2
100
AcDbLine
 10
12.57822740237141
 20
3.411027772374234
 30
0.0
 11
13.04395676098211
 21
3.411027772374234
 31
0.0
  0
LINE
  5
5C5
330
57B
100
AcDbEntity
  8
ADPDIM
 62
     0
370
    -2
100
AcDbLine
 10
12.57822740237141
 20
2.723527772374234
 30
0.0
 11
13.04395676098211
 21
2.723527772374234
 31
0.0
  0
LINE
  5
5C6
330
57B
100
AcDbEntity
  8
ADPDIM
 62
     0
370
    -2
100
AcDbLine
 10
12.86395676098212
 20
3.411027772374234
 30
0.0
 11
12.86395676098212
 21
2.723527772374234
 31
0.0
  0
LINE
  5
5C7
330
57B
100
AcDbEntity
  8
ADPDIM
 62
     0
370
    -2
100
AcDbLine
 10
12.86395676098212
 20
2.723527772374234
 30
0.0
 11
12.86395676098212
 21
2.473527772374234
 31
0.0
  0
LINE
  5
5C8
330
57B
100
AcDbEntity
  8
ADPDIM
 62
     0
370
    -2
100
AcDbLine
 10
12.98895676098211
 20
2.598527772374234
 30
0.0
 11
12.73895676098211
 21
2.848527772374234
 31
0.0
  0
LINE
  5
5C9
330
57B
100
AcDbEntity
  8
ADPDIM
 62
     0
370
    -2
100
AcDbLine
 10
12.98895676098211
 20
3.286027772374234
 30
0.0
 11
12.73895676098211
 21
3.536027772374234
 31
0.0
  0
MTEXT
  5
5CA
330
57B
100
AcDbEntity
  8
ADPDIM
 62
     0
100
AcDbMText
 10
12.86395676098212
 20
2.119361105707569
 30
0.0
 40
0.125
 41
0.0
 71
     5
 72
     1
  1
\A1;11/16
 11
0.0000000000000001
 21
1.0
 31
0.0
 73
     1
 44
1.0
1001
ACAD
1000
MTEXTBEGIN
1070
    73
1070
     1
1070
    44
1040
1.0
1070
    74
1070
     0
1000
MTEXTEND
  0
POINT
  5
5CB
330
57B
100
AcDbEntity
  8
DEFPOINTS
 62
     0
100
AcDbPoint
 10
12.51572740237141
 20
3.411027772374234
 30
0.0
  0
POINT
  5
5CC
330
57B
100
AcDbEntity
  8
DEFPOINTS
 62
     0
100
AcDbPoint
 10
12.51572740237141
 20
2.723527772374234
 30
0.0
  0
POINT
  5
5CD
330
57B
100
AcDbEntity
  8
DEFPOINTS
 62
     0
100
AcDbPoint
 10
12.86395676098212
 20
2.723527772374234
 30
0.0
  0
ENDBLK
  5
587
330
57B
100
AcDbEntity
  8
0
 62
     3
100
AcDbBlockEnd
  0
ENDSEC
  0
SECTION
  2
ENTITIES
  0
TEXT
  5
9C
330
18
100
AcDbEntity
  8
ADPDIM
100
AcDbText
 10
3.22197796897784
 20
1.50526075473874
 30
0.0
 40
0.125
  1
J U L I U S  B L U M  &  C O . ,  I N C .      ( 8 0 0 )  5 2 6 - 6 2 9 3        W W W . J U L I U S B L U M . C O M        P A R T  N o .  5 5 7 9
 41
1.25
  7
ARIAL_WIDE
 72
     1
 11
9.747706993534457
 21
1.63026075473874
 31
0.0
100
AcDbText
 73
     3
  0
LINE
  5
4DE
330
18
100
AcDbEntity
  8
ADP1DETAIL
 62
     7
100
AcDbLine
 10
12.51963774543211
 20
3.417562654912682
 30
0.0
 11
12.51963774543211
 21
3.16774289517359
 31
0.0
  0
SPLINE
  5
4DF
330
18
100
AcDbEntity
  8
ADP1DETAIL
 62
     7
100
AcDbSpline
210
0.0
220
0.0
230
1.0
 70
     8
 71
     3
 72
    11
 73
     7
 74
     0
 42
0.0000000001
 43
0.0000000001
 40
0.0
 40
0.0
 40
0.0
 40
0.0
 40
1.0
 40
1.0
 40
1.0
 40
2.0
 40
2.0
 40
2.0
 40
2.0
 10
11.95754328601916
 20
3.417562654912682
 30
0.0
 10
11.95754328601916
 20
3.348574884889245
 30
0.0
 10
12.01346539586527
 20
3.292652775043136
 30
0.0
 10
12.08245316588871
 20
3.292652775043136
 30
0.0
 10
12.15144093591214
 20
3.292652775043136
 30
0.0
 10
12.20736304575825
 20
3.348574884889245
 30
0.0
 10
12.20736304575825
 20
3.417562654912682
 30
0.0
  0
LINE
  5
4E0
330
18
100
AcDbEntity
  8
ADP1DETAIL
 62
     7
100
AcDbLine
 10
12.20736304575825
 20
3.417562654912682
 30
0.0
 11
12.51963774543211
 21
3.417562654912682
 31
0.0
  0
SPLINE
  5
4E1
330
18
100
AcDbEntity
  8
ADP1DETAIL
 62
     7
100
AcDbSpline
210
0.0
220
0.0
230
1.0
 70
     8
 71
     3
 72
    11
 73
     7
 74
     0
 42
0.0000000001
 43
0.0000000001
 40
0.0
 40
0.0
 40
0.0
 40
0.0
 40
1.0
 40
1.0
 40
1.0
 40
2.0
 40
2.0
 40
2.0
 40
2.0
 10
10.52107966751938
 20
3.420530890990312
 30
0.0
 10
10.52107966751938
 20
3.351543120966875
 30
0.0
 10
10.57700177736549
 20
3.295621011120765
 30
0.0
 10
10.64598954738893
 20
3.295621011120765
 30
0.0
 10
10.71497731741237
 20
3.295621011120765
 30
0.0
 10
10.77089942725847
 20
3.351543120966875
 30
0.0
 10
10.77089942725847
 20
3.420530890990312
 30
0.0
  0
LINE
  5
4E2
330
18
100
AcDbEntity
  8
ADP1DETAIL
 62
     7
100
AcDbLine
 10
10.77089942725847
 20
3.420530890990312
 30
0.0
 11
11.14562906686711
 21
3.417562654912682
 31
0.0
  0
LINE
  5
4E3
330
18
100
AcDbEntity
  8
ADP1DETAIL
 62
     7
100
AcDbLine
 10
11.6452685863453
 20
3.417562654912682
 30
0.0
 11
11.95754328601916
 21
3.417562654912682
 31
0.0
  0
LINE
  5
4E4
330
18
100
AcDbEntity
  8
ADP1DETAIL
 62
     7
100
AcDbLine
 10
12.51963774543211
 20
3.16774289517359
 30
0.0
 11
11.77017846621484
 21
3.16774289517359
 31
0.0
  0
LINE
  5
4E5
330
18
100
AcDbEntity
  8
ADP1DETAIL
 62
     7
100
AcDbLine
 10
9.271980868823924
 20
3.417562654912682
 30
0.0
 11
9.646710508432562
 21
3.417562654912682
 31
0.0
  0
LINE
  5
4E6
330
18
100
AcDbEntity
  8
ADP1DETAIL
 62
     7
100
AcDbLine
 10
8.77234134934574
 20
3.417562654912682
 30
0.0
 11
9.022161109084834
 21
3.417562654912682
 31
0.0
  0
SPLINE
  5
4E7
330
18
100
AcDbEntity
  8
ADP1DETAIL
 62
     7
100
AcDbSpline
210
0.0
220
0.0
230
1.0
 70
     8
 71
     3
 72
    11
 73
     7
 74
     0
 42
0.0000000001
 43
0.0000000001
 40
0.0
 40
0.0
 40
0.0
 40
0.0
 40
1.0
 40
1.0
 40
1.0
 40
2.0
 40
2.0
 40
2.0
 40
2.0
 10
8.52252158960665
 20
3.417562654912682
 30
0.0
 10
8.52252158960665
 20
3.348574884889245
 30
0.0
 10
8.578443699452762
 20
3.292652775043136
 30
0.0
 10
8.647431469476197
 20
3.292652775043136
 30
0.0
 10
8.71641923949963
 20
3.292652775043136
 30
0.0
 10
8.77234134934574
 20
3.348574884889245
 30
0.0
 10
8.77234134934574
 20
3.417562654912682
 30
0.0
  0
SPLINE
  5
4E8
330
18
100
AcDbEntity
  8
ADP1DETAIL
 62
     7
100
AcDbSpline
210
0.0
220
0.0
230
1.0
 70
     8
 71
     3
 72
    11
 73
     7
 74
     0
 42
0.0000000001
 43
0.0000000001
 40
0.0
 40
0.0
 40
0.0
 40
0.0
 40
1.0
 40
1.0
 40
1.0
 40
2.0
 40
2.0
 40
2.0
 40
2.0
 10
8.022882070128465
 20
3.417562654912682
 30
0.0
 10
8.022882070128465
 20
3.348574884889245
 30
0.0
 10
8.078804179974577
 20
3.292652775043136
 30
0.0
 10
8.147791949998014
 20
3.292652775043136
 30
0.0
 10
8.216779720021447
 20
3.292652775043136
 30
0.0
 10
8.272701829867559
 20
3.348574884889245
 30
0.0
 10
8.272701829867559
 20
3.417562654912682
 30
0.0
  0
SPLINE
  5
4E9
330
18
100
AcDbEntity
  8
ADP1DETAIL
 62
     7
100
AcDbSpline
210
0.0
220
0.0
230
1.0
 70
     8
 71
     3
 72
    23
 73
    19
 74
     0
 42
0.0000000001
 43
0.0000000001
 40
0.0
 40
0.0
 40
0.0
 40
0.0
 40
1.0
 40
1.0
 40
1.0
 40
2.0
 40
2.0
 40
2.0
 40
3.0
 40
3.0
 40
3.0
 40
4.0
 40
4.0
 40
4.0
 40
5.0
 40
5.0
 40
5.0
 40
6.0
 40
6.0
 40
6.0
 40
6.0
 10
9.521800628563019
 20
3.16774289517359
 30
0.0
 10
9.521800628563019
 20
3.16774289517359
 30
0.0
 10
7.023603031172099
 20
3.16774289517359
 30
0.0
 10
7.023603031172099
 20
3.16774289517359
 30
0.0
 10
7.023603031172099
 20
3.16774289517359
 30
0.0
 10
7.023603031172099
 20
3.417562654912682
 30
0.0
 10
7.023603031172099
 20
3.417562654912682
 30
0.0
 10
7.023603031172099
 20
3.417562654912682
 30
0.0
 10
7.523242550650282
 20
3.417562654912682
 30
0.0
 10
7.523242550650282
 20
3.417562654912682
 30
0.0
 10
7.523242550650282
 20
3.348574884889245
 30
0.0
 10
7.579164660496391
 20
3.292652775043136
 30
0.0
 10
7.648152430519828
 20
3.292652775043136
 30
0.0
 10
7.717140200543265
 20
3.292652775043136
 30
0.0
 10
7.773062310389374
 20
3.348574884889245
 30
0.0
 10
7.773062310389374
 20
3.417562654912682
 30
0.0
 10
7.773062310389374
 20
3.417562654912682
 30
0.0
 10
8.022882070128465
 20
3.417562654912682
 30
0.0
 10
8.022882070128465
 20
3.417562654912682
 30
0.0
  0
LINE
  5
4EA
330
18
100
AcDbEntity
  8
ADP1DETAIL
 62
     7
100
AcDbLine
 10
8.272701829867559
 20
3.417562654912682
 30
0.0
 11
8.52252158960665
 21
3.417562654912682
 31
0.0
  0
SPLINE
  5
4EB
330
18
100
AcDbEntity
  8
ADP1DETAIL
 62
     7
100
AcDbSpline
210
0.0
220
0.0
230
1.0
 70
     8
 71
     3
 72
    11
 73
     7
 74
     0
 42
0.0000000001
 43
0.0000000001
 40
0.0
 40
0.0
 40
0.0
 40
0.0
 40
1.0
 40
1.0
 40
1.0
 40
2.0
 40
2.0
 40
2.0
 40
2.0
 10
9.022161109084834
 20
3.417562654912682
 30
0.0
 10
9.022161109084834
 20
3.348574884889245
 30
0.0
 10
9.078083218930943
 20
3.292652775043136
 30
0.0
 10
9.14707098895438
 20
3.292652775043136
 30
0.0
 10
9.216058758977816
 20
3.292652775043136
 30
0.0
 10
9.271980868823925
 20
3.348574884889245
 30
0.0
 10
9.271980868823925
 20
3.417562654912682
 30
0.0
  0
LINE
  5
4EC
330
18
100
AcDbEntity
  8
ADP1DETAIL
 62
     7
100
AcDbLine
 10
11.02071918699756
 20
3.16774289517359
 30
0.0
 11
10.27125990778029
 21
3.16774289517359
 31
0.0
  0
LINE
  5
4ED
330
18
100
AcDbEntity
  8
ADP1DETAIL
 62
     7
100
AcDbLine
 10
10.14635002791074
 20
3.417562654912682
 30
0.0
 11
10.52107966751938
 21
3.420530890990312
 31
0.0
  0
SPLINE
  5
4EE
330
18
100
AcDbEntity
  8
ADP1DETAIL
 62
     7
100
AcDbSpline
210
0.0
220
0.0
230
1.0
 70
     8
 71
     3
 72
     8
 73
     4
 74
     0
 42
0.0000000001
 43
0.0000000001
 40
0.0
 40
0.0
 40
0.0
 40
0.0
 40
1.0
 40
1.0
 40
1.0
 40
1.0
 10
11.7232152789592
 20
2.730056832822544
 30
0.0
 10
11.74915684906231
 20
2.730056832822544
 30
0.0
 10
11.77017846621484
 20
2.751092003564463
 30
0.0
 10
11.77017846621484
 20
2.777020020078183
 30
0.0
  0
SPLINE
  5
4EF
330
18
100
AcDbEntity
  8
ADP1DETAIL
 62
     7
100
AcDbSpline
210
0.0
220
0.0
230
1.0
 70
     8
 71
     3
 72
     8
 73
     4
 74
     0
 42
0.0000000001
 43
0.0000000001
 40
0.0
 40
0.0
 40
0.0
 40
0.0
 40
1.0
 40
1.0
 40
1.0
 40
1.0
 10
11.02071918699757
 20
2.777020020078183
 30
0.0
 10
11.02071918699757
 20
2.751092003564463
 30
0.0
 10
11.04174758094479
 20
2.730056832822544
 30
0.0
 10
11.0676823742532
 20
2.730056832822544
 30
0.0
  0
LINE
  5
4F0
330
18
100
AcDbEntity
  8
ADP1DETAIL
 62
     7
100
AcDbLine
 10
11.6452685863453
 20
2.854966712692089
 30
0.0
 11
11.14562906686711
 21
2.854966712692089
 31
0.0
  0
LINE
  5
4F1
330
18
100
AcDbEntity
  8
ADP1DETAIL
 62
     7
100
AcDbLine
 10
11.7232152789592
 20
2.730056832822544
 30
0.0
 11
11.0676823742532
 21
2.730056832822544
 31
0.0
  0
SPLINE
  5
4F2
330
18
100
AcDbEntity
  8
ADP1DETAIL
 62
     7
100
AcDbSpline
210
0.0
220
0.0
230
1.0
 70
     8
 71
     3
 72
     8
 73
     4
 74
     0
 42
0.0000000001
 43
0.0000000001
 40
0.0
 40
0.0
 40
0.0
 40
0.0
 40
1.0
 40
1.0
 40
1.0
 40
1.0
 10
10.22429672052465
 20
2.730056832822544
 30
0.0
 10
10.25023151383307
 20
2.730056832822544
 30
0.0
 10
10.27125990778029
 20
2.751092003564463
 30
0.0
 10
10.27125990778029
 20
2.777020020078183
 30
0.0
  0
SPLINE
  5
4F3
330
18
100
AcDbEntity
  8
ADP1DETAIL
 62
     7
100
AcDbSpline
210
0.0
220
0.0
230
1.0
 70
     8
 71
     3
 72
     8
 73
     4
 74
     0
 42
0.0000000001
 43
0.0000000001
 40
0.0
 40
0.0
 40
0.0
 40
0.0
 40
1.0
 40
1.0
 40
1.0
 40
1.0
 10
9.521800628563019
 20
2.777020020078183
 30
0.0
 10
9.521800628563019
 20
2.751092003564463
 30
0.0
 10
9.54282902251024
 20
2.730056832822544
 30
0.0
 10
9.568763815818659
 20
2.730056832822544
 30
0.0
  0
LINE
  5
4F4
330
18
100
AcDbEntity
  8
ADP1DETAIL
 62
     7
100
AcDbLine
 10
10.22429672052465
 20
2.730056832822544
 30
0.0
 11
9.568763815818657
 21
2.730056832822544
 31
0.0
  0
LINE
  5
4F5
330
18
100
AcDbEntity
  8
ADP1DETAIL
 62
     7
100
AcDbLine
 10
10.14635002791074
 20
2.854966712692089
 30
0.0
 11
9.646710508432562
 21
2.854966712692089
 31
0.0
  0
LINE
  5
4F6
330
18
100
AcDbEntity
  8
ADP1DETAIL
 62
     7
100
AcDbLine
 10
10.27125990778029
 20
3.16774289517359
 30
0.0
 11
10.27125990778029
 21
2.777020020078183
 31
0.0
  0
LINE
  5
4F7
330
18
100
AcDbEntity
  8
ADP1DETAIL
 62
     7
100
AcDbLine
 10
10.14635002791074
 20
3.417562654912682
 30
0.0
 11
10.14635002791074
 21
2.854966712692089
 31
0.0
  0
LINE
  5
4F8
330
18
100
AcDbEntity
  8
ADP1DETAIL
 62
     7
100
AcDbLine
 10
9.646710508432562
 20
2.854966712692089
 30
0.0
 11
9.646710508432562
 21
3.417562654912682
 31
0.0
  0
LINE
  5
4F9
330
18
100
AcDbEntity
  8
ADP1DETAIL
 62
     7
100
AcDbLine
 10
9.521800628563017
 20
2.777020020078183
 30
0.0
 11
9.521800628563017
 21
3.16774289517359
 31
0.0
  0
LINE
  5
4FA
330
18
100
AcDbEntity
  8
ADP1DETAIL
 62
     7
100
AcDbLine
 10
11.6452685863453
 20
3.417562654912682
 30
0.0
 11
11.6452685863453
 21
2.854966712692089
 31
0.0
  0
LINE
  5
4FB
330
18
100
AcDbEntity
  8
ADP1DETAIL
 62
     7
100
AcDbLine
 10
11.77017846621484
 20
3.16774289517359
 30
0.0
 11
11.77017846621484
 21
2.777020020078183
 31
0.0
  0
LINE
  5
4FC
330
18
100
AcDbEntity
  8
ADP1DETAIL
 62
     7
100
AcDbLine
 10
11.14562906686711
 20
2.854966712692089
 30
0.0
 11
11.14562906686711
 21
3.417562654912682
 31
0.0
  0
LINE
  5
4FD
330
18
100
AcDbEntity
  8
ADP1DETAIL
 62
     7
100
AcDbLine
 10
11.02071918699756
 20
2.777020020078183
 30
0.0
 11
11.02071918699756
 21
3.16774289517359
 31
0.0
  0
DIMENSION
  5
4FE
330
18
100
AcDbEntity
  8
ADPDIM
 62
     3
100
AcDbDimension
  2
*D12
 10
12.52613905113445
 20
4.23139704698203
 30
0.0
 11
9.776139051134446
 21
4.23139704698203
 31
0.0
 70
    32
 71
     5
 42
5.5
  3
STANDARD
100
AcDbAlignedDimension
 13
7.026139051134446
 23
3.376186073000114
 33
0.0
 14
12.52613905113445
 24
3.376186073000114
 34
0.0
100
AcDbRotatedDimension
1001
ACAD
1000
DSTYLE
1002
{
1070
   276
1070
     2
1070
   277
1070
     5
1070
    41
1040
0.125
1070
    73
1070
     0
1070
    74
1070
     0
1070
    78
1070
     3
1070
   140
1040
0.125
1070
   141
1040
0.1875
1070
   142
1040
0.125
1070
   147
1040
0.125
1070
   171
1070
     1
1002
}
  0
DIMENSION
  5
534
330
18
100
AcDbEntity
  8
ADPDIM
 62
     3
100
AcDbDimension
  2
*D13
 10
9.904430271742445
 20
3.835261406084454
 30
0.0
 11
8.466930271742445
 21
3.835261406084454
 31
0.0
 70
    32
 71
     5
 42
2.875
  3
STANDARD
100
AcDbAlignedDimension
 13
7.029430271742445
 23
3.41594649706708
 33
0.0
 14
9.904430271742445
 24
3.41594649706708
 34
0.0
100
AcDbRotatedDimension
1001
ACAD
1000
DSTYLE
1002
{
1070
   276
1070
     2
1070
   277
1070
     5
1070
    41
1040
0.125
1070
    73
1070
     0
1070
    74
1070
     0
1070
    78
1070
     3
1070
   140
1040
0.125
1070
   141
1040
0.1875
1070
   142
1040
0.125
1070
   147
1040
0.125
1070
   171
1070
     1
1002
}
  0
DIMENSION
  5
542
330
18
100
AcDbEntity
  8
ADPDIM
 62
     3
100
AcDbDimension
  2
*D14
 10
11.40232238851641
 20
3.835261406084454
 30
0.0
 11
10.65232238851641
 21
3.835261406084454
 31
0.0
 70
    32
 71
     5
 42
1.5
  3
STANDARD
100
AcDbAlignedDimension
 13
9.902322388516413
 23
3.41594649706708
 33
0.0
 14
11.40232238851641
 24
3.41594649706708
 34
0.0
100
AcDbRotatedDimension
1001
ACAD
1000
DSTYLE
1002
{
1070
   276
1070
     2
1070
   277
1070
     5
1070
    41
1040
0.125
1070
    73
1070
     0
1070
    74
1070
     0
1070
    78
1070
     3
1070
   140
1040
0.125
1070
   141
1040
0.1875
1070
   142
1040
0.125
1070
   147
1040
0.125
1070
   171
1070
     1
1002
}
  0
DIMENSION
  5
550
330
18
100
AcDbEntity
  8
ADPDIM
 62
     3
100
AcDbDimension
  2
*D15
 10
12.52906140576072
 20
3.835261406084454
 30
0.0
 11
11.96656140576072
 21
3.835261406084454
 31
0.0
 70
    32
 71
     5
 42
1.125
  3
STANDARD
100
AcDbAlignedDimension
 13
11.40406140576072
 23
3.408716935615865
 33
0.0
 14
12.52906140576072
 24
3.408716935615865
 34
0.0
100
AcDbRotatedDimension
1001
ACAD
1000
DSTYLE
1002
{
1070
   276
1070
     2
1070
   277
1070
     5
1070
    41
1040
0.125
1070
    73
1070
     0
1070
    74
1070
     0
1070
    78
1070
     3
1070
   140
1040
0.125
1070
   141
1040
0.1875
1070
   142
1040
0.125
1070
   147
1040
0.125
1070
   171
1070
     1
1002
}
  0
DIMENSION
  5
55E
330
18
100
AcDbEntity
  8
ADPDIM
 62
     3
100
AcDbDimension
  2
*D16
 10
6.768234883460223
 20
3.164229900599713
 30
0.0
 11
6.768234883460222
 21
2.643396567266381
 31
0.0
 70
    32
 71
     5
 42
0.25
  3
STANDARD
100
AcDbAlignedDimension
 13
7.029406871830129
 23
3.414229900599712
 33
0.0
 14
7.029406871830129
 24
3.164229900599712
 34
0.0
 50
90.0
100
AcDbRotatedDimension
1001
ACAD
1000
DSTYLE
1002
{
1070
   276
1070
     2
1070
   277
1070
     5
1070
    41
1040
0.125
1070
    73
1070
     0
1070
    74
1070
     0
1070
    78
1070
     3
1070
   140
1040
0.125
1070
   141
1040
0.1875
1070
   142
1040
0.125
1070
   147
1040
0.125
1070
   171
1070
     1
1002
}
  0
DIMENSION
  5
57A
330
18
100
AcDbEntity
  8
ADPDIM
 62
     3
100
AcDbDimension
  2
*D18
 10
12.86395676098212
 20
2.723527772374234
 30
0.0
 11
12.86395676098212
 21
2.119361105707569
 31
0.0
 70
    32
 71
     5
 42
0.6875
  3
STANDARD
100
AcDbAlignedDimension
 13
12.51572740237141
 23
3.411027772374234
 33
0.0
 14
12.51572740237141
 24
2.723527772374234
 34
0.0
 50
90.0
100
AcDbRotatedDimension
1001
ACAD
1000
DSTYLE
1002
{
1070
   276
1070
     2
1070
   277
1070
     5
1070
    41
1040
0.125
1070
    73
1070
     0
1070
    74
1070
     0
1070
    78
1070
     3
1070
   140
1040
0.125
1070
   141
1040
0.1875
1070
   142
1040
0.125
1070
   147
1040
0.125
1070
   171
1070
     1
1002
}
  0
ENDSEC
  0
SECTION
  2
OBJECTS
  0
DICTIONARY
  5
C
330
0
100
AcDbDictionary
281
     1
  3
ACAD_COLOR
350
1F1
  3
ACAD_GROUP
350
D
  3
ACAD_LAYOUT
350
95
  3
ACAD_MATERIAL
350
1DC
  3
ACAD_MLINESTYLE
350
E
  3
ACAD_PLOTSETTINGS
350
96
  3
ACAD_PLOTSTYLENAME
350
93
  3
ACAD_TABLESTYLE
350
1F2
  3
ACAD_VISUALSTYLE
350
1E0
  3
AcDbVariableDictionary
350
F6
  3
ASE_INDEX_DICTIONARY
350
278
  3
DWGPROPS
350
668
  0
DICTIONARY
  5
27C
330
8
100
AcDbDictionary
280
     1
281
     1
  0
DICTIONARY
  5
F0
330
18
100
AcDbDictionary
280
     1
281
     1
  3
ACAD_LAYOUTSELFREF
360
1D6
  0
DICTIONARY
  5
EE
330
15
100
AcDbDictionary
280
     1
281
     1
  3
ACAD_LAYOUTSELFREF
360
1D5
  0
DICTIONARY
  5
1F1
102
{ACAD_REACTORS
330
C
102
}
330
C
100
AcDbDictionary
281
     1
  0
DICTIONARY
  5
D
102
{ACAD_REACTORS
330
C
102
}
330
C
100
AcDbDictionary
281
     1
  0
DICTIONARY
  5
95
102
{ACAD_REACTORS
330
C
102
}
330
C
100
AcDbDictionary
281
     1
  3
Layout1
350
98
  3
Model
350
97
  0
DICTIONARY
  5
1DC
102
{ACAD_REACTORS
330
C
102
}
330
C
100
AcDbDictionary
281
     1
  3
ByBlock
350
1DE
  3
ByLayer
350
1DD
  3
Global
350
1DF
  0
DICTIONARY
  5
E
102
{ACAD_REACTORS
330
C
102
}
330
C
100
AcDbDictionary
281
     1
  3
STANDARD
350
1B
  0
DICTIONARY
  5
96
102
{ACAD_REACTORS
330
C
102
}
330
C
100
AcDbDictionary
281
     1
  0
ACDBDICTIONARYWDFLT
  5
93
102
{ACAD_REACTORS
330
C
102
}
330
C
100
AcDbDictionary
281
     1
  3
Normal
350
94
100
AcDbDictionaryWithDefault
340
94
  0
DICTIONARY
  5
1F2
102
{ACAD_REACTORS
330
C
102
}
330
C
100
AcDbDictionary
281
     1
  3
Standard
350
1F3
  0
DICTIONARY
  5
1E0
102
{ACAD_REACTORS
330
C
102
}
330
C
100
AcDbDictionary
281
     1
  3
2dWireframe
350
1E6
  3
3D Hidden
350
1E8
  3
3dWireframe
350
1E7
  3
Basic
350
1E5
  3
Brighten
350
1EC
  3
ColorChange
350
1F0
  3
Conceptual
350
1E9
  3
Dim
350
1EB
  3
Facepattern
350
1EF
  3
Flat
350
1E1
  3
FlatWithEdges
350
1E2
  3
Gouraud
350
1E3
  3
GouraudWithEdges
350
1E4
  3
Linepattern
350
1EE
  3
Realistic
350
1EA
  3
Thicken
350
1ED
  0
DICTIONARY
  5
F6
102
{ACAD_REACTORS
330
C
102
}
330
C
100
AcDbDictionary
281
     1
  3
CTABLESTYLE
350
294
  3
DIMASSOC
350
F7
  3
INDEXCTL
350
296
  3
SORTENTS
350
295
  0
DICTIONARY
  5
278
102
{ACAD_REACTORS
330
C
102
}
330
C
100
AcDbDictionary
281
     1
  3
ASEBlockHierarchyIndexRecord
350
27A
1001
DCO15
1040
1568807223.554
  0
XRECORD
  5
668
102
{ACAD_REACTORS
330
C
102
}
330
C
100
AcDbXrecord
280
     1
  1
DWGPROPS COOKIE
  2

  3

  4

  6

  7

  8
Yu Hu
  9

300
=
301
=
302
=
303
=
304
=
305
=
306
=
307
=
308
=
309
=
 40
0.0483918518518519
 41
2450277.541274687
 42
2453961.649992604
  1

 90
        0
  0
XRECORD
  5
1D6
102
{ACAD_REACTORS
330
F0
102
}
330
F0
100
AcDbXrecord
280
     1
340
18
  0
XRECORD
  5
1D5
102
{ACAD_REACTORS
330
EE
102
}
330
EE
100
AcDbXrecord
280
     1
340
15
  0
LAYOUT
  5
98
102
{ACAD_XDICTIONARY
360
66B
102
}
102
{ACAD_REACTORS
330
95
102
}
330
95
100
AcDbPlotSettings
  1

  2
Fax
  4

  6

 40
0.0
 41
0.0
 42
0.0
 43
0.0
 44
0.0
 45
0.0
 46
0.0
 47
0.0
 48
0.0
 49
0.0
140
0.0
141
0.0
142
1.0
143
1.0
 70
   688
 72
     0
 73
     0
 74
     5
  7
Default R14 pen assignments.ctb
 75
    16
147
1.0
148
0.0
149
0.0
100
AcDbLayout
  1
Layout1
 70
     1
 71
     1
 10
0.0
 20
0.0
 11
12.0
 21
9.0
 12
0.1875029802322391
 22
0.0
 32
0.0
 14
1.000000000000000E+20
 24
1.000000000000000E+20
 34
1.000000000000000E+20
 15
-1.000000000000000E+20
 25
-1.000000000000000E+20
 35
-1.000000000000000E+20
146
0.0
 13
0.0
 23
0.0
 33
0.0
 16
1.0
 26
0.0
 36
0.0
 17
0.0
 27
1.0
 37
0.0
 76
     0
330
15
  0
LAYOUT
  5
97
102
{ACAD_XDICTIONARY
360
669
102
}
102
{ACAD_REACTORS
330
95
102
}
330
95
100
AcDbPlotSettings
  1

  2
Fax
  4

  6

 40
0.0
 41
0.0
 42
0.0
 43
0.0
 44
0.0
 45
0.0
 46
0.0
 47
0.0
 48
0.0
 49
0.0
140
0.0
141
0.0
142
1.0
143
1.0
 70
  1712
 72
     0
 73
     0
 74
     0
  7
Default R14 pen assignments.ctb
 75
     0
147
1.0
148
0.0
149
0.0
100
AcDbLayout
  1
Model
 70
     1
 71
     0
 10
0.0
 20
0.0
 11
12.0
 21
9.0
 12
0.0
 22
0.0
 32
0.0
 14
0.0
 24
0.0
 34
0.0
 15
0.0
 25
0.0
 35
0.0
146
0.0
 13
0.0
 23
0.0
 33
0.0
 16
1.0
 26
0.0
 36
0.0
 17
0.0
 27
1.0
 37
0.0
 76
     0
330
18
331
1B0
  0
MATERIAL
  5
1DE
102
{ACAD_XDICTIONARY
360
66F
102
}
102
{ACAD_REACTORS
330
1DC
102
}
330
1DC
100
AcDbMaterial
  1
ByBlock
  0
MATERIAL
  5
1DD
102
{ACAD_XDICTIONARY
360
66D
102
}
102
{ACAD_REACTORS
330
1DC
102
}
330
1DC
100
AcDbMaterial
  1
ByLayer
  0
MATERIAL
  5
1DF
102
{ACAD_XDICTIONARY
360
671
102
}
102
{ACAD_REACTORS
330
1DC
102
}
330
1DC
100
AcDbMaterial
  1
Global
  0
MLINESTYLE
  5
1B
102
{ACAD_REACTORS
330
E
102
}
330
E
100
AcDbMlineStyle
  2
STANDARD
 70
     0
  3

 62
     0
 51
90.0
 52
90.0
 71
     2
 49
0.5
 62
   256
  6
BYLAYER
 49
-0.5
 62
   256
  6
BYLAYER
  0
ACDBPLACEHOLDER
  5
94
102
{ACAD_REACTORS
330
93
102
}
330
93
  0
TABLESTYLE
  5
1F3
102
{ACAD_XDICTIONARY
360
673
102
}
102
{ACAD_REACTORS
330
1F2
102
}
330
1F2
100
AcDbTableStyle
  3
Standard
 70
     0
 71
     0
 40
0.06
 41
0.06
280
     0
281
     0
  7
STANDARD
140
0.18
170
     2
 62
     0
 63
     7
283
     0
274
    -2
284
     1
 64
     0
275
    -2
285
     1
 65
     0
276
    -2
286
     1
 66
     0
277
    -2
287
     1
 67
     0
278
    -2
288
     1
 68
     0
279
    -2
289
     1
 69
     0
  7
STANDARD
140
0.25
170
     5
 62
     0
 63
     7
283
     0
274
    -2
284
     1
 64
     0
275
    -2
285
     1
 65
     0
276
    -2
286
     1
 66
     0
277
    -2
287
     1
 67
     0
278
    -2
288
     1
 68
     0
279
    -2
289
     1
 69
     0
  7
STANDARD
140
0.18
170
     5
 62
     0
 63
     7
283
     0
274
    -2
284
     1
 64
     0
275
    -2
285
     1
 65
     0
276
    -2
286
     1
 66
     0
277
    -2
287
     1
 67
     0
278
    -2
288
     1
 68
     0
279
    -2
289
     1
 69
     0
  0
VISUALSTYLE
  5
1E6
102
{ACAD_REACTORS
330
1E0
102
}
330
1E0
100
AcDbVisualStyle
  2
2dWireframe
 70
     4
 71
     0
 72
     2
 73
     0
 90
        0
 40
-0.6
 41
-30.0
 62
     5
 63
     7
 74
     1
 91
        4
 64
     7
 65
   257
 75
     1
175
     1
 42
1.0
 92
        0
 66
   257
 43
1.0
 76
     1
 77
     6
 78
     2
 67
     7
 79
     5
170
     0
171
     0
290
     0
174
     0
 93
        1
 44
0.0
173
     0
291
     0
 45
0.0
1001
ACAD
1000
AcDbSavedByObjectVersion
1070
     0
  0
VISUALSTYLE
  5
1E8
102
{ACAD_REACTORS
330
1E0
102
}
330
1E0
100
AcDbVisualStyle
  2
3D Hidden
 70
     6
 71
     1
 72
     2
 73
     2
 90
        0
 40
-0.6
 41
-30.0
 62
     5
 63
     7
 74
     2
 91
        2
 64
     7
 65
   257
 75
     2
175
     1
 42
40.0
 92
        0
 66
   257
 43
1.0
 76
     1
 77
     6
 78
     2
 67
     7
 79
     3
170
     0
171
     0
290
     0
174
     0
 93
        1
 44
0.0
173
     0
291
     0
 45
0.0
1001
ACAD
1000
AcDbSavedByObjectVersion
1070
     0
  0
VISUALSTYLE
  5
1E7
102
{ACAD_REACTORS
330
1E0
102
}
330
1E0
100
AcDbVisualStyle
  2
3dWireframe
 70
     5
 71
     0
 72
     2
 73
     0
 90
        0
 40
-0.6
 41
-30.0
 62
     5
 63
     7
 74
     1
 91
        4
 64
     7
 65
   257
 75
     1
175
     1
 42
1.0
 92
        0
 66
   257
 43
1.0
 76
     1
 77
     6
 78
     2
 67
     7
 79
     5
170
     0
171
     0
290
     0
174
     0
 93
        1
 44
0.0
173
     0
291
     0
 45
0.0
1001
ACAD
1000
AcDbSavedByObjectVersion
1070
     0
  0
VISUALSTYLE
  5
1E5
102
{ACAD_REACTORS
330
1E0
102
}
330
1E0
100
AcDbVisualStyle
  2
Basic
 70
     7
 71
     1
 72
     0
 73
     1
 90
        0
 40
-0.6
 41
-30.0
 62
     5
 63
     7
 74
     0
 91
        4
 64
     7
 65
   257
 75
     1
175
     1
 42
1.0
 92
        8
 66
     7
 43
1.0
 76
     1
 77
     6
 78
     2
 67
     7
 79
     5
170
     0
171
     0
290
     0
174
     0
 93
        1
 44
0.0
173
     0
291
     1
 45
0.0
1001
ACAD
1000
AcDbSavedByObjectVersion
1070
     0
  0
VISUALSTYLE
  5
1EC
102
{ACAD_REACTORS
330
1E0
102
}
330
1E0
100
AcDbVisualStyle
  2
Brighten
 70
    12
 71
     2
 72
     2
 73
     0
 90
        0
 40
-0.6
 41
-30.0
 62
     5
 63
     7
 74
     1
 91
        4
 64
     7
 65
   257
 75
     1
175
     1
 42
1.0
 92
        8
 66
     7
 43
1.0
 76
     1
 77
     6
 78
     2
 67
     7
 79
     5
170
     0
171
     0
290
     0
174
     0
 93
        1
 44
50.0
173
     0
291
     1
 45
0.0
1001
ACAD
1000
AcDbSavedByObjectVersion
1070
     0
  0
VISUALSTYLE
  5
1F0
102
{ACAD_REACTORS
330
1E0
102
}
330
1E0
100
AcDbVisualStyle
  2
ColorChange
 70
    16
 71
     2
 72
     2
 73
     3
 90
        0
 40
-0.6
 41
-30.0
 62
     5
 63
     8
 74
     1
 91
        4
 64
     7
 65
   257
 75
     1
175
     1
 42
1.0
 92
        8
 66
     8
 43
1.0
 76
     1
 77
     6
 78
     2
 67
     7
 79
     5
170
     0
171
     0
290
     0
174
     0
 93
        1
 44
0.0
173
     0
291
     1
 45
0.0
1001
ACAD
1000
AcDbSavedByObjectVersion
1070
     0
  0
VISUALSTYLE
  5
1E9
102
{ACAD_REACTORS
330
1E0
102
}
330
1E0
100
AcDbVisualStyle
  2
Conceptual
 70
     9
 71
     3
 72
     2
 73
     0
 90
        0
 40
-0.6
 41
-30.0
 62
     5
 63
     7
 74
     2
 91
        2
 64
     7
 65
   257
 75
     1
175
     1
 42
40.0
 92
        8
 66
     7
 43
1.0
 76
     1
 77
     6
 78
     2
 67
     7
 79
     3
170
     0
171
     0
290
     0
174
     0
 93
        1
 44
0.0
173
     0
291
     0
 45
0.0
1001
ACAD
1000
AcDbSavedByObjectVersion
1070
     0
  0
VISUALSTYLE
  5
1EB
102
{ACAD_REACTORS
330
1E0
102
}
330
1E0
100
AcDbVisualStyle
  2
Dim
 70
    11
 71
     2
 72
     2
 73
     0
 90
        0
 40
-0.6
 41
-30.0
 62
     5
 63
     7
 74
     1
 91
        4
 64
     7
 65
   257
 75
     1
175
     1
 42
1.0
 92
        8
 66
     7
 43
1.0
 76
     1
 77
     6
 78
     2
 67
     7
 79
     5
170
     0
171
     0
290
     0
174
     0
 93
        1
 44
-50.0
173
     0
291
     1
 45
0.0
1001
ACAD
1000
AcDbSavedByObjectVersion
1070
     0
  0
VISUALSTYLE
  5
1EF
102
{ACAD_REACTORS
330
1E0
102
}
330
1E0
100
AcDbVisualStyle
  2
Facepattern
 70
    15
 71
     2
 72
     2
 73
     0
 90
        0
 40
-0.6
 41
-30.0
 62
     5
 63
     7
 74
     1
 91
        4
 64
     7
 65
   257
 75
     1
175
     1
 42
1.0
 92
        8
 66
     7
 43
1.0
 76
     1
 77
     6
 78
     2
 67
     7
 79
     5
170
     0
171
     0
290
     0
174
     0
 93
        1
 44
0.0
173
     0
291
     1
 45
0.0
1001
ACAD
1000
AcDbSavedByObjectVersion
1070
     0
  0
VISUALSTYLE
  5
1E1
102
{ACAD_REACTORS
330
1E0
102
}
330
1E0
100
AcDbVisualStyle
  2
Flat
 70
     0
 71
     2
 72
     1
 73
     1
 90
        2
 40
-0.6
 41
30.0
 62
     5
 63
     7
 74
     0
 91
        4
 64
     7
 65
   257
 75
     1
175
     1
 42
1.0
 92
        8
 66
     7
 43
1.0
 76
     1
 77
     6
 78
     2
 67
     7
 79
     5
170
     0
171
     0
290
     0
174
     0
 93
       13
 44
0.0
173
     0
291
     1
 45
0.0
1001
ACAD
1000
AcDbSavedByObjectVersion
1070
     0
  0
VISUALSTYLE
  5
1E2
102
{ACAD_REACTORS
330
1E0
102
}
330
1E0
100
AcDbVisualStyle
  2
FlatWithEdges
 70
     1
 71
     2
 72
     1
 73
     1
 90
        2
 40
-0.6
 41
30.0
 62
     5
 63
     7
 74
     1
 91
        4
 64
     7
 65
   257
 75
     1
175
     1
 42
1.0
 92
        0
 66
   257
 43
1.0
 76
     1
 77
     6
 78
     2
 67
     7
 79
     5
170
     0
171
     0
290
     0
174
     0
 93
       13
 44
0.0
173
     0
291
     1
 45
0.0
1001
ACAD
1000
AcDbSavedByObjectVersion
1070
     0
  0
VISUALSTYLE
  5
1E3
102
{ACAD_REACTORS
330
1E0
102
}
330
1E0
100
AcDbVisualStyle
  2
Gouraud
 70
     2
 71
     2
 72
     2
 73
     1
 90
        2
 40
-0.6
 41
30.0
 62
     5
 63
     7
 74
     0
 91
        4
 64
     7
 65
   257
 75
     1
175
     1
 42
1.0
 92
        0
 66
     7
 43
1.0
 76
     1
 77
     6
 78
     2
 67
     7
 79
     5
170
     0
171
     0
290
     0
174
     0
 93
       13
 44
0.0
173
     0
291
     1
 45
0.0
1001
ACAD
1000
AcDbSavedByObjectVersion
1070
     0
  0
VISUALSTYLE
  5
1E4
102
{ACAD_REACTORS
330
1E0
102
}
330
1E0
100
AcDbVisualStyle
  2
GouraudWithEdges
 70
     3
 71
     2
 72
     2
 73
     1
 90
        2
 40
-0.6
 41
30.0
 62
     5
 63
     7
 74
     1
 91
        4
 64
     7
 65
   257
 75
     1
175
     1
 42
1.0
 92
        0
 66
   257
 43
1.0
 76
     1
 77
     6
 78
     2
 67
     7
 79
     5
170
     0
171
     0
290
     0
174
     0
 93
       13
 44
0.0
173
     0
291
     1
 45
0.0
1001
ACAD
1000
AcDbSavedByObjectVersion
1070
     0
  0
VISUALSTYLE
  5
1EE
102
{ACAD_REACTORS
330
1E0
102
}
330
1E0
100
AcDbVisualStyle
  2
Linepattern
 70
    14
 71
     2
 72
     2
 73
     0
 90
        0
 40
-0.6
 41
-30.0
 62
     5
 63
     7
 74
     1
 91
        4
 64
     7
 65
   257
 75
     7
175
     7
 42
1.0
 92
        8
 66
     7
 43
1.0
 76
     1
 77
     6
 78
     2
 67
     7
 79
     5
170
     0
171
     0
290
     0
174
     0
 93
        1
 44
0.0
173
     0
291
     1
 45
0.0
1001
ACAD
1000
AcDbSavedByObjectVersion
1070
     0
  0
VISUALSTYLE
  5
1EA
102
{ACAD_REACTORS
330
1E0
102
}
330
1E0
100
AcDbVisualStyle
  2
Realistic
 70
     8
 71
     2
 72
     2
 73
     0
 90
        0
 40
-0.6
 41
-30.0
 62
     5
 63
     7
 74
     1
 91
        0
 64
     7
 65
   257
 75
     1
175
     1
 42
1.0
 92
        8
 66
     8
 43
1.0
 76
     1
 77
     6
 78
     2
 67
     7
 79
     5
170
     0
171
     0
290
     0
174
     0
 93
       13
 44
0.0
173
     0
291
     0
 45
0.0
1001
ACAD
1000
AcDbSavedByObjectVersion
1070
     0
  0
VISUALSTYLE
  5
1ED
102
{ACAD_REACTORS
330
1E0
102
}
330
1E0
100
AcDbVisualStyle
  2
Thicken
 70
    13
 71
     2
 72
     2
 73
     0
 90
        0
 40
-0.6
 41
-30.0
 62
     5
 63
     7
 74
     1
 91
        4
 64
     7
 65
   257
 75
     1
175
     1
 42
1.0
 92
       12
 66
     7
 43
1.0
 76
     1
 77
     6
 78
     2
 67
     7
 79
     5
170
     0
171
     0
290
     0
174
     0
 93
        1
 44
0.0
173
     0
291
     1
 45
0.0
1001
ACAD
1000
AcDbSavedByObjectVersion
1070
     0
  0
DICTIONARYVAR
  5
294
102
{ACAD_REACTORS
330
F6
102
}
330
F6
100
DictionaryVariables
280
     0
  1
STANDARD
  0
DICTIONARYVAR
  5
F7
102
{ACAD_REACTORS
330
F6
102
}
330
F6
100
DictionaryVariables
280
     0
  1
1
  0
DICTIONARYVAR
  5
296
102
{ACAD_REACTORS
330
F6
102
}
330
F6
100
DictionaryVariables
280
     0
  1
0
  0
DICTIONARYVAR
  5
295
102
{ACAD_REACTORS
330
F6
102
}
330
F6
100
DictionaryVariables
280
     0
  1
127
  0
XRECORD
  5
27A
102
{ACAD_REACTORS
330
278
102
}
330
278
100
AcDbXrecord
280
     1
  0
DICTIONARY
  5
66B
330
98
100
AcDbDictionary
280
     1
281
     1
  3
ACAD_XREC_ROUNDTRIP
360
66C
  0
DICTIONARY
  5
669
330
97
100
AcDbDictionary
280
     1
281
     1
  3
ACAD_XREC_ROUNDTRIP
360
66A
  0
DICTIONARY
  5
66F
330
1DE
100
AcDbDictionary
280
     1
281
     1
  3
ACAD_XREC_ROUNDTRIP
360
670
  0
DICTIONARY
  5
66D
330
1DD
100
AcDbDictionary
280
     1
281
     1
  3
ACAD_XREC_ROUNDTRIP
360
66E
  0
DICTIONARY
  5
671
330
1DF
100
AcDbDictionary
280
     1
281
     1
  3
ACAD_XREC_ROUNDTRIP
360
672
  0
DICTIONARY
  5
673
330
1F3
100
AcDbDictionary
280
     1
281
     1
  3
ACAD_XREC_ROUNDTRIP
360
674
  0
XRECORD
  5
66C
102
{ACAD_REACTORS
330
66B
102
}
330
66B
100
AcDbXrecord
280
     1
102
SHADEPLOT
 70
     0
102
SHADEPLOTRESLEVEL
 70
     2
102
SHADEPLOTCUSTOMDPI
 70
   300
  0
XRECORD
  5
66A
102
{ACAD_REACTORS
330
669
102
}
330
669
100
AcDbXrecord
280
     1
102
SHADEPLOT
 70
     0
102
SHADEPLOTRESLEVEL
 70
     2
102
SHADEPLOTCUSTOMDPI
 70
   300
  0
XRECORD
  5
670
102
{ACAD_REACTORS
330
66F
102
}
330
66F
100
AcDbXrecord
280
     1
102
MATERIAL
148
0.0
149
0.0
149
0.0
 93
        0
 94
       63
282
     0
 72
     1
 77
     1
171
     1
175
     1
179
     1
273
     0
  0
XRECORD
  5
66E
102
{ACAD_REACTORS
330
66D
102
}
330
66D
100
AcDbXrecord
280
     1
102
MATERIAL
148
0.0
149
0.0
149
0.0
 93
        0
 94
       63
282
     0
 72
     1
 77
     1
171
     1
175
     1
179
     1
273
     0
  0
XRECORD
  5
672
102
{ACAD_REACTORS
330
671
102
}
330
671
100
AcDbXrecord
280
     1
102
MATERIAL
148
0.0
149
0.0
149
0.0
 93
        0
 94
       63
282
     0
 72
     1
 77
     1
171
     1
175
     1
179
     1
273
     0
  0
XRECORD
  5
674
102
{ACAD_REACTORS
330
673
102
}
330
673
100
AcDbXrecord
280
     1
102
ACAD_ROUNDTRIP_PRE2007_TABLESTYLE
 90
      512
 91
        0
  1

 92
      512
 93
        0
  2

 94
      512
 95
        0
  3

  0
ENDSEC
  0
EOF
