  0
SECTION
  2
HEADER
  9
$ACADVER
  1
AC1014
  9
$ACADMAINTVER
 70
     9
  9
$DWGCODEPAGE
  3
ANSI_1252
  9
$INSBASE
 10
-15.21719942302814
 20
-16.50301596540938
 30
0.0
  9
$EXTMIN
 10
-21.91873634321913
 20
-17.74563882627158
 30
0.0
  9
$EXTMAX
 10
-8.515662502837145
 20
-12.48320321912013
 30
0.0
  9
$LIMMIN
 10
0.0
 20
0.0
  9
$LIMMAX
 10
36.0
 20
36.0
  9
$ORTHOMODE
 70
     1
  9
$REGENMODE
 70
     1
  9
$FILLMODE
 70
     1
  9
$QTEXTMODE
 70
     0
  9
$MIRRTEXT
 70
     1
  9
$DRAGMODE
 70
     0
  9
$LTSCALE
 40
1.0
  9
$OSMODE
 70
    37
  9
$ATTMODE
 70
     1
  9
$TEXTSIZE
 40
0.2
  9
$TRACEWID
 40
0.05
  9
$TEXTSTYLE
  7
STANDARD
  9
$CLAYER
  8
ADPDIM
  9
$CELTYPE
  6
BYLAYER
  9
$CECOLOR
 62
   256
  9
$CELTSCALE
 40
1.0
  9
$DELOBJ
 70
     1
  9
$DISPSILH
 70
     0
  9
$DIMSCALE
 40
1.0
  9
$DIMASZ
 40
0.125
  9
$DIMEXO
 40
0.0625
  9
$DIMDLI
 40
0.38
  9
$DIMRND
 40
0.0
  9
$DIMDLE
 40
0.0
  9
$DIMEXE
 40
0.18
  9
$DIMTP
 40
0.0
  9
$DIMTM
 40
0.0
  9
$DIMTXT
 40
0.125
  9
$DIMCEN
 40
0.1875
  9
$DIMTSZ
 40
0.125
  9
$DIMTOL
 70
     0
  9
$DIMLIM
 70
     0
  9
$DIMTIH
 70
     0
  9
$DIMTOH
 70
     0
  9
$DIMSE1
 70
     0
  9
$DIMSE2
 70
     0
  9
$DIMTAD
 70
     0
  9
$DIMZIN
 70
     2
  9
$DIMBLK
  1

  9
$DIMASO
 70
     1
  9
$DIMSHO
 70
     1
  9
$DIMPOST
  1

  9
$DIMAPOST
  1

  9
$DIMALT
 70
     0
  9
$DIMALTD
 70
     1
  9
$DIMALTF
 40
25.4
  9
$DIMLFAC
 40
1.0
  9
$DIMTOFL
 70
     0
  9
$DIMTVP
 40
0.0
  9
$DIMTIX
 70
     0
  9
$DIMSOXD
 70
     0
  9
$DIMSAH
 70
     0
  9
$DIMBLK1
  1

  9
$DIMBLK2
  1

  9
$DIMSTYLE
  2
STANDARD
  9
$DIMCLRD
 70
     0
  9
$DIMCLRE
 70
     0
  9
$DIMCLRT
 70
     0
  9
$DIMTFAC
 40
1.0
  9
$DIMGAP
 40
0.125
  9
$DIMJUST
 70
     0
  9
$DIMSD1
 70
     0
  9
$DIMSD2
 70
     0
  9
$DIMTOLJ
 70
     1
  9
$DIMTZIN
 70
     0
  9
$DIMALTZ
 70
     0
  9
$DIMALTTZ
 70
     0
  9
$DIMFIT
 70
     3
  9
$DIMUPT
 70
     0
  9
$DIMUNIT
 70
     7
  9
$DIMDEC
 70
     2
  9
$DIMTDEC
 70
     4
  9
$DIMALTU
 70
     2
  9
$DIMALTTD
 70
     2
  9
$DIMTXSTY
  7
STANDARD
  9
$DIMAUNIT
 70
     0
  9
$LUNITS
 70
     5
  9
$LUPREC
 70
     4
  9
$SKETCHINC
 40
0.1
  9
$FILLETRAD
 40
0.0
  9
$AUNITS
 70
     0
  9
$AUPREC
 70
     0
  9
$MENU
  1
acad
  9
$ELEVATION
 40
0.0
  9
$PELEVATION
 40
0.0
  9
$THICKNESS
 40
0.0
  9
$LIMCHECK
 70
     0
  9
$BLIPMODE
 70
     0
  9
$CHAMFERA
 40
0.0
  9
$CHAMFERB
 40
0.0
  9
$CHAMFERC
 40
0.0
  9
$CHAMFERD
 40
0.0
  9
$SKPOLY
 70
     0
  9
$TDCREATE
 40
2450406.659535486
  9
$TDUPDATE
 40
2452297.091412037
  9
$TDINDWG
 40
0.0754870949
  9
$TDUSRTIMER
 40
0.0754870949
  9
$USRTIMER
 70
     1
  9
$ANGBASE
 50
0.0
  9
$ANGDIR
 70
     0
  9
$PDMODE
 70
     0
  9
$PDSIZE
 40
0.0
  9
$PLINEWID
 40
0.0
  9
$COORDS
 70
     2
  9
$SPLFRAME
 70
     0
  9
$SPLINETYPE
 70
     6
  9
$SPLINESEGS
 70
     8
  9
$ATTDIA
 70
     0
  9
$ATTREQ
 70
     1
  9
$HANDLING
 70
 22529
  9
$HANDSEED
  5
30B
  9
$SURFTAB1
 70
     6
  9
$SURFTAB2
 70
     6
  9
$SURFTYPE
 70
     6
  9
$SURFU
 70
     6
  9
$SURFV
 70
     6
  9
$UCSNAME
  2

  9
$UCSORG
 10
0.0
 20
0.0
 30
0.0
  9
$UCSXDIR
 10
1.0
 20
0.0
 30
0.0
  9
$UCSYDIR
 10
0.0
 20
1.0
 30
0.0
  9
$PUCSNAME
  2

  9
$PUCSORG
 10
0.0
 20
0.0
 30
0.0
  9
$PUCSXDIR
 10
1.0
 20
0.0
 30
0.0
  9
$PUCSYDIR
 10
0.0
 20
1.0
 30
0.0
  9
$USERI1
 70
     0
  9
$USERI2
 70
     0
  9
$USERI3
 70
     0
  9
$USERI4
 70
     0
  9
$USERI5
 70
     0
  9
$USERR1
 40
0.0
  9
$USERR2
 40
0.0
  9
$USERR3
 40
0.0
  9
$USERR4
 40
0.0
  9
$USERR5
 40
0.0
  9
$WORLDVIEW
 70
     1
  9
$SHADEDGE
 70
     3
  9
$SHADEDIF
 70
    70
  9
$TILEMODE
 70
     1
  9
$MAXACTVP
 70
    15
  9
$PINSBASE
 10
0.0008545028977096
 20
1.250283272183907
 30
0.0
  9
$PLIMCHECK
 70
     0
  9
$PEXTMIN
 10
1.000000000000000E+20
 20
1.000000000000000E+20
 30
1.000000000000000E+20
  9
$PEXTMAX
 10
-1.000000000000000E+20
 20
-1.000000000000000E+20
 30
-1.000000000000000E+20
  9
$PLIMMIN
 10
0.0
 20
0.0
  9
$PLIMMAX
 10
12.0
 20
9.0
  9
$UNITMODE
 70
     0
  9
$VISRETAIN
 70
     0
  9
$PLINEGEN
 70
     0
  9
$PSLTSCALE
 70
     1
  9
$TREEDEPTH
 70
  3020
  9
$PICKSTYLE
 70
     1
  9
$CMLSTYLE
  2
STANDARD
  9
$CMLJUST
 70
     0
  9
$CMLSCALE
 40
1.0
  9
$PROXYGRAPHICS
 70
     1
  9
$MEASUREMENT
 70
     0
  0
ENDSEC
  0
SECTION
  2
CLASSES
  0
CLASS
  1
ACDBDICTIONARYWDFLT
  2
AcDbDictionaryWithDefault
  3
AutoCAD 2000
 90
        0
280
     0
281
     0
  0
CLASS
  1
ACDBPLACEHOLDER
  2
AcDbPlaceHolder
  3
AutoCAD 2000
 90
        0
280
     0
281
     0
  0
CLASS
  1
LAYOUT
  2
AcDbLayout
  3
AutoCAD 2000
 90
        0
280
     0
281
     0
  0
CLASS
  1
DICTIONARYVAR
  2
AcDbDictionaryVar
  3
AutoCAD 2000
 90
        0
280
     0
281
     0
  0
CLASS
  1
LONG_TRANSACTION
  2
AcDbLongTransaction
  3
AutoCAD 2000
 90
        0
280
     0
281
     0
  0
CLASS
  1
LWPOLYLINE
  2
AcDbPolyline
  3
AutoCAD 2000
 90
        0
280
     0
281
     1
  0
CLASS
  1
HATCH
  2
AcDbHatch
  3
AutoCAD 2000
 90
        0
280
     0
281
     1
  0
CLASS
  1
XRECORD
  2
AcDbXrecord
  3
AutoCAD 2000
 90
        0
280
     0
281
     0
  0
CLASS
  1
LONG_TRANSACTION
  2
AcDbLongTransaction
  3
AutoCAD 2000
 90
        0
280
     0
281
     0
  0
CLASS
  1
LWPOLYLINE
  2
AcDbPolyline
  3
AutoCAD 2000
 90
        0
280
     0
281
     1
  0
CLASS
  1
HATCH
  2
AcDbHatch
  3
AutoCAD 2000
 90
        0
280
     0
281
     1
  0
CLASS
  1
XRECORD
  2
AcDbXrecord
  3
AutoCAD 2000
 90
        0
280
     0
281
     0
  0
CLASS
  1
LONG_TRANSACTION
  2
AcDbLongTransaction
  3
AutoCAD 2000
 90
        0
280
     0
281
     0
  0
CLASS
  1
LWPOLYLINE
  2
AcDbPolyline
  3
AutoCAD 2000
 90
        0
280
     0
281
     1
  0
CLASS
  1
HATCH
  2
AcDbHatch
  3
AutoCAD 2000
 90
        0
280
     0
281
     1
  0
CLASS
  1
XRECORD
  2
AcDbXrecord
  3
AutoCAD 2000
 90
        0
280
     0
281
     0
  0
CLASS
  1
LONG_TRANSACTION
  2
AcDbLongTransaction
  3
AutoCAD 2000
 90
        0
280
     0
281
     0
  0
CLASS
  1
LWPOLYLINE
  2
AcDbPolyline
  3
AutoCAD 2000
 90
        0
280
     0
281
     1
  0
CLASS
  1
HATCH
  2
AcDbHatch
  3
AutoCAD 2000
 90
        0
280
     0
281
     1
  0
CLASS
  1
XRECORD
  2
AcDbXrecord
  3
AutoCAD 2000
 90
        0
280
     0
281
     0
  0
CLASS
  1
LONG_TRANSACTION
  2
AcDbLongTransaction
  3
AutoCAD 2000
 90
        0
280
     0
281
     0
  0
CLASS
  1
LWPOLYLINE
  2
AcDbPolyline
  3
AutoCAD 2000
 90
        0
280
     0
281
     1
  0
CLASS
  1
HATCH
  2
AcDbHatch
  3
AutoCAD 2000
 90
        0
280
     0
281
     1
  0
CLASS
  1
XRECORD
  2
AcDbXrecord
  3
AutoCAD 2000
 90
        0
280
     0
281
     0
  0
ENDSEC
  0
SECTION
  2
TABLES
  0
TABLE
  2
VPORT
  5
13
330
0
100
AcDbSymbolTable
 70
     2
  0
VPORT
  5
2C9
330
13
100
AcDbSymbolTableRecord
100
AcDbViewportTableRecord
  2
*ACTIVE
 70
     0
 10
0.0
 20
0.0
 11
1.0
 21
1.0
 12
-15.20645204567102
 22
-15.11419689227933
 13
0.0
 23
0.0
 14
0.5740882589684922
 24
0.5740882589684922
 15
0.5
 25
0.5
 16
0.0
 26
0.0
 36
1.0
 17
0.0
 27
0.0
 37
0.0
 40
8.590524784221884
 41
1.570528967254408
 42
50.0
 43
0.0
 44
0.0
 50
0.0
 51
0.0
 71
     0
 72
   100
 73
     1
 74
     0
 75
     0
 76
     0
 77
     0
 78
     0
  0
ENDTAB
  0
TABLE
  2
LTYPE
  5
F
330
0
100
AcDbSymbolTable
 70
     2
  0
LTYPE
  5
10
330
F
100
AcDbSymbolTableRecord
100
AcDbLinetypeTableRecord
  2
BYBLOCK
 70
     0
  3

 72
    65
 73
     0
 40
0.0
  0
LTYPE
  5
6
330
F
100
AcDbSymbolTableRecord
100
AcDbLinetypeTableRecord
  2
BYLAYER
 70
     0
  3

 72
    65
 73
     0
 40
0.0
  0
LTYPE
  5
5
330
F
100
AcDbSymbolTableRecord
100
AcDbLinetypeTableRecord
  2
CONTINUOUS
 70
     0
  3
Solid line
 72
    65
 73
     0
 40
0.0
  0
LTYPE
  5
30
330
F
100
AcDbSymbolTableRecord
100
AcDbLinetypeTableRecord
  2
HIDDEN2
 70
     0
  3
_ _ _ _ _ _ _ _ _ _ _ _ _ _ _ _ _ _ _ _ _ _ _ _
 72
    65
 73
     2
 40
0.1875
 49
0.125
 74
     0
 49
-0.0625
 74
     0
  0
ENDTAB
  0
TABLE
  2
LAYER
  5
B
330
0
100
AcDbSymbolTable
 70
     5
  0
LAYER
  5
C
330
B
100
AcDbSymbolTableRecord
100
AcDbLayerTableRecord
  2
0
 70
     0
 62
     7
  6
CONTINUOUS
  0
LAYER
  5
4
330
B
100
AcDbSymbolTableRecord
100
AcDbLayerTableRecord
  2
ADP1DETAIL
 70
     0
 62
     7
  6
CONTINUOUS
  0
LAYER
  5
29
330
B
100
AcDbSymbolTableRecord
100
AcDbLayerTableRecord
  2
DEFPOINTS
 70
     0
 62
     7
  6
CONTINUOUS
  0
LAYER
  5
1C
330
B
100
AcDbSymbolTableRecord
100
AcDbLayerTableRecord
  2
ADPDIM
 70
     0
 62
     3
  6
CONTINUOUS
  0
LAYER
  5
2F
330
B
100
AcDbSymbolTableRecord
100
AcDbLayerTableRecord
  2
ADP2DETAIL
 70
     0
 62
     5
  6
CONTINUOUS
  0
ENDTAB
  0
TABLE
  2
STYLE
  5
D
330
0
100
AcDbSymbolTable
 70
     2
  0
STYLE
  5
E
330
D
100
AcDbSymbolTableRecord
100
AcDbTextStyleTableRecord
  2
STANDARD
 70
     0
 40
0.0
 41
1.0
 50
0.0
 71
     0
 42
0.2
  3
txt
  4

  0
STYLE
  5
9A
330
D
100
AcDbSymbolTableRecord
100
AcDbTextStyleTableRecord
  2
ARIAL_WIDE
 70
     0
 40
0.0
 41
1.25
 50
0.0
 71
     0
 42
0.2
  3
ARIAL.TTF
  4

1001
ACAD
1000
Arial
1071
       34
  0
ENDTAB
  0
TABLE
  2
VIEW
  5
11
330
0
100
AcDbSymbolTable
 70
     0
  0
ENDTAB
  0
TABLE
  2
UCS
  5
12
330
0
100
AcDbSymbolTable
 70
     0
  0
ENDTAB
  0
TABLE
  2
APPID
  5
15
330
0
100
AcDbSymbolTable
 70
     1
  0
APPID
  5
16
330
15
100
AcDbSymbolTableRecord
100
AcDbRegAppTableRecord
  2
ACAD
 70
     0
  0
ENDTAB
  0
TABLE
  2
DIMSTYLE
  5
17
330
0
100
AcDbSymbolTable
 70
     1
  0
DIMSTYLE
105
1E
102
{ACAD_REACTORS
330
1F
330
73
330
81
102
}
330
17
100
AcDbSymbolTableRecord
100
AcDbDimStyleTableRecord
  2
STANDARD
 70
     0
  3

  4

  5

  6

  7

 40
1.0
 41
0.18
 42
0.0625
 43
0.38
 44
0.18
 45
0.0
 46
0.0
 47
0.0
 48
0.0
140
0.18
141
0.09
142
0.0
143
25.4
144
1.0
145
0.0
146
1.0
147
0.09
 71
     0
 72
     0
 73
     1
 74
     1
 75
     0
 76
     0
 77
     0
 78
     0
170
     0
171
     2
172
     0
173
     0
174
     0
175
     0
176
     0
177
     0
178
     0
270
     2
271
     4
272
     4
273
     2
274
     2
340
E
275
     0
280
     0
281
     0
282
     0
283
     1
284
     0
285
     0
286
     0
287
     3
288
     0
  0
ENDTAB
  0
TABLE
  2
BLOCK_RECORD
  5
1
330
0
100
AcDbSymbolTable
 70
     3
  0
BLOCK_RECORD
  5
2
102
{ACAD_XDICTIONARY
360
116
102
}
330
1
100
AcDbSymbolTableRecord
100
AcDbBlockTableRecord
  2
*MODEL_SPACE
  0
BLOCK_RECORD
  5
8
102
{ACAD_XDICTIONARY
360
118
102
}
330
1
100
AcDbSymbolTableRecord
100
AcDbBlockTableRecord
  2
*PAPER_SPACE
  0
BLOCK_RECORD
  5
11A
330
1
100
AcDbSymbolTableRecord
100
AcDbBlockTableRecord
  2
*D0
  0
BLOCK_RECORD
  5
129
330
1
100
AcDbSymbolTableRecord
100
AcDbBlockTableRecord
  2
*D1
  0
BLOCK_RECORD
  5
136
330
1
100
AcDbSymbolTableRecord
100
AcDbBlockTableRecord
  2
*D2
  0
ENDTAB
  0
ENDSEC
  0
SECTION
  2
BLOCKS
  0
BLOCK
  5
3
330
2
100
AcDbEntity
  8
0
100
AcDbBlockBegin
  2
*MODEL_SPACE
 70
     0
 10
0.0
 20
0.0
 30
0.0
  3
*MODEL_SPACE
  1

  0
ENDBLK
  5
7
330
2
100
AcDbEntity
  8
0
100
AcDbBlockEnd
  0
BLOCK
  5
9
330
8
100
AcDbEntity
 67
     1
  8
0
100
AcDbBlockBegin
  2
*PAPER_SPACE
 70
     0
 10
0.0
 20
0.0
 30
0.0
  3
*PAPER_SPACE
  1

  0
ENDBLK
  5
A
330
8
100
AcDbEntity
 67
     1
  8
0
100
AcDbBlockEnd
  0
BLOCK
  5
125
330
11A
100
AcDbEntity
  8
0
100
AcDbBlockBegin
  2
*D0
 70
     1
 10
0.0
 20
0.0
 30
0.0
  3
*D0
  1

  0
LINE
  5
2ED
330
11A
100
AcDbEntity
  8
ADPDIM
 62
     0
100
AcDbLine
 10
-15.21719942302814
 20
-16.56551596540938
 30
0.0
 11
-15.21719942302814
 21
-16.89979289349054
 31
0.0
  0
LINE
  5
2EE
330
11A
100
AcDbEntity
  8
ADPDIM
 62
     0
100
AcDbLine
 10
-11.24214190933691
 20
-16.13508860827388
 30
0.0
 11
-11.24214190933691
 21
-16.89979289349054
 31
0.0
  0
LINE
  5
2EF
330
11A
100
AcDbEntity
  8
ADPDIM
 62
     0
100
AcDbLine
 10
-15.21719942302814
 20
-16.71979289349054
 30
0.0
 11
-13.39633733284919
 21
-16.71979289349054
 31
0.0
  0
LINE
  5
2F0
330
11A
100
AcDbEntity
  8
ADPDIM
 62
     0
100
AcDbLine
 10
-11.24214190933691
 20
-16.71979289349054
 30
0.0
 11
-13.06300399951586
 21
-16.71979289349054
 31
0.0
  0
LINE
  5
2F1
330
11A
100
AcDbEntity
  8
ADPDIM
 62
     0
100
AcDbLine
 10
-11.36714190933691
 20
-16.84479289349054
 30
0.0
 11
-11.11714190933691
 21
-16.59479289349054
 31
0.0
  0
LINE
  5
2F2
330
11A
100
AcDbEntity
  8
ADPDIM
 62
     0
100
AcDbLine
 10
-15.34219942302814
 20
-16.84479289349054
 30
0.0
 11
-15.09219942302814
 21
-16.59479289349054
 31
0.0
  0
MTEXT
  5
2F3
330
11A
100
AcDbEntity
  8
ADPDIM
 62
     0
100
AcDbMText
 10
-13.22967066618252
 20
-16.71979289349054
 30
0.0
 40
0.125
 41
0.0
 71
     5
 72
     1
  1
\A1;4
  0
POINT
  5
2F4
330
11A
100
AcDbEntity
  8
DEFPOINTS
 62
     0
100
AcDbPoint
 10
-15.21719942302814
 20
-16.50301596540938
 30
0.0
  0
POINT
  5
2F5
330
11A
100
AcDbEntity
  8
DEFPOINTS
 62
     0
100
AcDbPoint
 10
-11.24214190933691
 20
-16.07258860827388
 30
0.0
  0
POINT
  5
2F6
330
11A
100
AcDbEntity
  8
DEFPOINTS
 62
     0
100
AcDbPoint
 10
-11.24214190933691
 20
-16.71979289349054
 30
0.0
  0
ENDBLK
  5
126
330
11A
100
AcDbEntity
  8
0
100
AcDbBlockEnd
  0
BLOCK
  5
134
330
129
100
AcDbEntity
  8
0
100
AcDbBlockBegin
  2
*D1
 70
     1
 10
0.0
 20
0.0
 30
0.0
  3
*D1
  1

  0
LINE
  5
2F7
330
129
100
AcDbEntity
  8
ADPDIM
 62
     0
100
AcDbLine
 10
-19.2727718764916
 20
-15.89731248123236
 30
0.0
 11
-19.2727718764916
 21
-15.48629336529083
 31
0.0
  0
LINE
  5
2F8
330
129
100
AcDbEntity
  8
ADPDIM
 62
     0
100
AcDbLine
 10
-16.53732917290834
 20
-15.98571840385822
 30
0.0
 11
-16.53732917290834
 21
-15.48629336529083
 31
0.0
  0
LINE
  5
2F9
330
129
100
AcDbEntity
  8
ADPDIM
 62
     0
100
AcDbLine
 10
-19.2727718764916
 20
-15.66629336529083
 30
0.0
 11
-18.32171719136664
 21
-15.66629336529083
 31
0.0
  0
LINE
  5
2FA
330
129
100
AcDbEntity
  8
ADPDIM
 62
     0
100
AcDbLine
 10
-16.53732917290834
 20
-15.66629336529083
 30
0.0
 11
-17.4883838580333
 21
-15.66629336529083
 31
0.0
  0
LINE
  5
2FB
330
129
100
AcDbEntity
  8
ADPDIM
 62
     0
100
AcDbLine
 10
-16.66232917290834
 20
-15.79129336529083
 30
0.0
 11
-16.41232917290834
 21
-15.54129336529083
 31
0.0
  0
LINE
  5
2FC
330
129
100
AcDbEntity
  8
ADPDIM
 62
     0
100
AcDbLine
 10
-19.3977718764916
 20
-15.79129336529083
 30
0.0
 11
-19.1477718764916
 21
-15.54129336529083
 31
0.0
  0
MTEXT
  5
2FD
330
129
100
AcDbEntity
  8
ADPDIM
 62
     0
100
AcDbMText
 10
-17.90505052469997
 20
-15.66629336529083
 30
0.0
 40
0.125
 41
0.0
 71
     5
 72
     1
  1
\A1;2 3/4
  0
POINT
  5
2FE
330
129
100
AcDbEntity
  8
DEFPOINTS
 62
     0
100
AcDbPoint
 10
-19.2727718764916
 20
-15.95981248123236
 30
0.0
  0
POINT
  5
2FF
330
129
100
AcDbEntity
  8
DEFPOINTS
 62
     0
100
AcDbPoint
 10
-16.53732917290834
 20
-16.04821840385822
 30
0.0
  0
POINT
  5
300
330
129
100
AcDbEntity
  8
DEFPOINTS
 62
     0
100
AcDbPoint
 10
-16.53732917290834
 20
-15.66629336529083
 30
0.0
  0
ENDBLK
  5
135
330
129
100
AcDbEntity
  8
0
100
AcDbBlockEnd
  0
BLOCK
  5
141
330
136
100
AcDbEntity
  8
0
100
AcDbBlockBegin
  2
*D2
 70
     1
 10
0.0
 20
0.0
 30
0.0
  3
*D2
  1

  0
LINE
  5
301
330
136
100
AcDbEntity
  8
ADPDIM
 62
     0
100
AcDbLine
 10
-18.66919394960627
 20
-16.62055384280362
 30
0.0
 11
-18.66919394960627
 21
-16.92657010992544
 31
0.0
  0
LINE
  5
302
330
136
100
AcDbEntity
  8
ADPDIM
 62
     0
100
AcDbLine
 10
-17.13509997108948
 20
-16.62055384280362
 30
0.0
 11
-17.13509997108948
 21
-16.92657010992544
 31
0.0
  0
LINE
  5
303
330
136
100
AcDbEntity
  8
ADPDIM
 62
     0
100
AcDbLine
 10
-18.66919394960627
 20
-16.74657010992544
 30
0.0
 11
-18.27714696034788
 21
-16.74657010992544
 31
0.0
  0
LINE
  5
304
330
136
100
AcDbEntity
  8
ADPDIM
 62
     0
100
AcDbLine
 10
-17.13509997108948
 20
-16.74657010992544
 30
0.0
 11
-17.52714696034788
 21
-16.74657010992544
 31
0.0
  0
LINE
  5
305
330
136
100
AcDbEntity
  8
ADPDIM
 62
     0
100
AcDbLine
 10
-17.26009997108948
 20
-16.87157010992543
 30
0.0
 11
-17.01009997108949
 21
-16.62157010992544
 31
0.0
  0
LINE
  5
306
330
136
100
AcDbEntity
  8
ADPDIM
 62
     0
100
AcDbLine
 10
-18.79419394960627
 20
-16.87157010992543
 30
0.0
 11
-18.54419394960627
 21
-16.62157010992544
 31
0.0
  0
MTEXT
  5
307
330
136
100
AcDbEntity
  8
ADPDIM
 62
     0
100
AcDbMText
 10
-17.90214696034788
 20
-16.74657010992544
 30
0.0
 40
0.125
 41
0.0
 71
     5
 72
     1
  1
\A1;1 1/2
  0
POINT
  5
308
330
136
100
AcDbEntity
  8
DEFPOINTS
 62
     0
100
AcDbPoint
 10
-18.66919394960627
 20
-16.55805384280362
 30
0.0
  0
POINT
  5
309
330
136
100
AcDbEntity
  8
DEFPOINTS
 62
     0
100
AcDbPoint
 10
-17.13509997108948
 20
-16.55805384280362
 30
0.0
  0
POINT
  5
30A
330
136
100
AcDbEntity
  8
DEFPOINTS
 62
     0
100
AcDbPoint
 10
-17.13509997108948
 20
-16.74657010992544
 30
0.0
  0
ENDBLK
  5
142
330
136
100
AcDbEntity
  8
0
100
AcDbBlockEnd
  0
ENDSEC
  0
SECTION
  2
ENTITIES
  0
DIMENSION
  5
1F
330
2
100
AcDbEntity
  8
ADPDIM
100
AcDbDimension
  2
*D0
 10
-11.24214190933691
 20
-16.71979289349054
 30
0.0
 11
-13.22967066618252
 21
-16.71979289349054
 31
0.0
 70
    32
  3
STANDARD
100
AcDbAlignedDimension
 13
-15.21719942302814
 23
-16.50301596540938
 33
0.0
 14
-11.24214190933691
 24
-16.07258860827388
 34
0.0
100
AcDbRotatedDimension
1001
ACAD
1000
DSTYLE
1002
{
1070
   270
1070
     7
1070
   270
1070
     7
1070
   270
1070
     7
1070
   270
1070
     7
1070
   270
1070
     7
1070
    41
1040
0.125
1070
    73
1070
     0
1070
    74
1070
     0
1070
    78
1070
     2
1070
   140
1040
0.125
1070
   141
1040
0.1875
1070
   142
1040
0.125
1070
   147
1040
0.125
1070
   171
1070
     1
1070
   271
1070
     2
1070
   276
1070
     2
1070
   277
1070
     5
1002
}
  0
LINE
  5
2E
330
2
100
AcDbEntity
  8
ADP2DETAIL
  6
HIDDEN2
100
AcDbLine
 10
-12.06114378799139
 20
-13.28291126729972
 30
0.0
 11
-12.06114378799139
 21
-14.45834798468291
 31
0.0
  0
LINE
  5
31
330
2
100
AcDbEntity
  8
ADP2DETAIL
  6
HIDDEN2
100
AcDbLine
 10
-11.96719942302814
 20
-16.13136796552065
 30
0.0
 11
-11.96719942302814
 21
-16.26214261313365
 31
0.0
  0
LINE
  5
32
330
2
100
AcDbEntity
  8
ADP2DETAIL
  6
HIDDEN2
100
AcDbLine
 10
-12.08392055617186
 20
-16.13136796552065
 30
0.0
 11
-11.96719942302814
 21
-16.13136796552065
 31
0.0
  0
LINE
  5
33
330
2
100
AcDbEntity
  8
ADP2DETAIL
  6
HIDDEN2
100
AcDbLine
 10
-12.08392055617186
 20
-16.03606251223135
 30
0.0
 11
-12.08392055617186
 21
-16.13136796552064
 31
0.0
  0
LINE
  5
34
330
2
100
AcDbEntity
  8
ADP2DETAIL
  6
HIDDEN2
100
AcDbLine
 10
-11.86719942302814
 20
-16.26214261313364
 30
0.0
 11
-11.86719942302814
 21
-16.50301596540938
 31
0.0
  0
LINE
  5
35
330
2
100
AcDbEntity
  8
ADP2DETAIL
  6
HIDDEN2
100
AcDbLine
 10
-15.21719942302814
 20
-16.03606251223135
 30
0.0
 11
-11.38479376953029
 21
-16.03606251223134
 31
0.0
  0
LINE
  5
36
330
2
100
AcDbEntity
  8
ADP2DETAIL
  6
HIDDEN2
100
AcDbLine
 10
-15.21719942302814
 20
-16.26214261313364
 30
0.0
 11
-11.88487315955825
 21
-16.26214261313364
 31
0.0
  0
LINE
  5
37
330
2
100
AcDbEntity
  8
ADP1DETAIL
100
AcDbLine
 10
-15.21719942302814
 20
-16.37522505031337
 30
0.0
 11
-11.33009475051341
 21
-16.37522505031337
 31
0.0
  0
LINE
  5
38
330
2
100
AcDbEntity
  8
ADP1DETAIL
100
AcDbLine
 10
-15.21719942302814
 20
-16.07258860827388
 30
0.0
 11
-11.24214190933691
 21
-16.07258860827388
 31
0.0
  0
LINE
  5
39
330
2
100
AcDbEntity
  8
ADP1DETAIL
100
AcDbLine
 10
-12.01375129036889
 20
-15.87501755437604
 30
0.0
 11
-11.24214190933691
 21
-16.07258860827388
 31
0.0
  0
LINE
  5
3A
330
2
100
AcDbEntity
  8
ADP2DETAIL
  6
HIDDEN2
100
AcDbLine
 10
-12.71719942302814
 20
-16.03606251223135
 30
0.0
 11
-12.71719942302814
 21
-16.13136796552064
 31
0.0
  0
LINE
  5
3B
330
2
100
AcDbEntity
  8
ADP2DETAIL
  6
HIDDEN2
100
AcDbLine
 10
-15.21719942302814
 20
-16.13136796552065
 30
0.0
 11
-12.71719942302814
 21
-16.13136796552064
 31
0.0
  0
LINE
  5
3C
330
2
100
AcDbEntity
  8
0
100
AcDbLine
 10
-11.83407163143099
 20
-16.50301596540938
 30
0.0
 11
-11.33009475051341
 21
-16.37522505031337
 31
0.0
  0
LINE
  5
3D
330
2
100
AcDbEntity
  8
0
100
AcDbLine
 10
-11.24214190933691
 20
-16.07258860827388
 30
0.0
 11
-11.33009475051341
 21
-16.37522505031337
 31
0.0
  0
LINE
  5
3E
330
2
100
AcDbEntity
  8
ADP1DETAIL
100
AcDbLine
 10
-11.83407163143099
 20
-16.50301596540938
 30
0.0
 11
-15.21719942302814
 21
-16.50301596540938
 31
0.0
  0
LINE
  5
3F
330
2
100
AcDbEntity
  8
ADP1DETAIL
100
AcDbLine
 10
-15.21719942302814
 20
-15.87501755437604
 30
0.0
 11
-12.01375129036889
 21
-15.87501755437604
 31
0.0
  0
LINE
  5
40
330
2
100
AcDbEntity
  8
ADP1DETAIL
100
AcDbLine
 10
-15.21719942302814
 20
-16.50301596540938
 30
0.0
 11
-15.21719942302814
 21
-15.87501755437604
 31
0.0
  0
ARC
  5
41
330
2
100
AcDbEntity
  8
ADP1DETAIL
100
AcDbCircle
 10
-11.27719942302814
 20
-12.55562962599132
 30
0.0
 40
0.06
100
AcDbArc
 50
0.0
 51
90.0
  0
ARC
  5
42
330
2
100
AcDbEntity
  8
ADP1DETAIL
100
AcDbCircle
 10
-11.27719942302814
 20
-15.18562962599132
 30
0.0
 40
0.06
100
AcDbArc
 50
270.0
 51
0.0
  0
LINE
  5
43
330
2
100
AcDbEntity
  8
ADP2DETAIL
  6
HIDDEN2
100
AcDbLine
 10
-15.21719942302814
 20
-13.70302747766649
 30
0.0
 11
-12.71719942302814
 21
-13.70302747766649
 31
0.0
  0
LINE
  5
44
330
2
100
AcDbEntity
  8
ADP2DETAIL
  6
HIDDEN2
100
AcDbLine
 10
-15.21719942302814
 20
-13.28291126729972
 30
0.0
 11
-12.06114378799139
 21
-13.28291126729972
 31
0.0
  0
LINE
  5
45
330
2
100
AcDbEntity
  8
ADP2DETAIL
  6
HIDDEN2
100
AcDbLine
 10
-15.21719942302814
 20
-14.45834798468292
 30
0.0
 11
-12.06114378799139
 21
-14.45834798468291
 31
0.0
  0
LINE
  5
46
330
2
100
AcDbEntity
  8
ADP2DETAIL
  6
HIDDEN2
100
AcDbLine
 10
-15.21719942302814
 20
-14.03823177431615
 30
0.0
 11
-12.71719942302814
 21
-14.03823177431615
 31
0.0
  0
LINE
  5
47
330
2
100
AcDbEntity
  8
0
100
AcDbLine
 10
-17.30621691093213
 20
-16.1316944663303
 30
0.0
 11
-17.27571691093213
 21
-16.1316944663303
 31
0.0
  0
LINE
  5
48
330
2
100
AcDbEntity
  8
0
100
AcDbLine
 10
-18.08621691093212
 20
-16.0316944663303
 30
0.0
 11
-18.50621691093213
 21
-16.0316944663303
 31
0.0
  0
LINE
  5
49
330
2
100
AcDbEntity
  8
0
100
AcDbLine
 10
-18.50621691093213
 20
-16.1316944663303
 30
0.0
 11
-18.53447306471458
 21
-16.1316944663303
 31
0.0
  0
LINE
  5
4A
330
2
100
AcDbEntity
  8
ADP1DETAIL
100
AcDbLine
 10
-18.50621691093213
 20
-16.1316944663303
 30
0.0
 11
-18.50621691093213
 21
-16.0316944663303
 31
0.0
  0
LINE
  5
4B
330
2
100
AcDbEntity
  8
ADP1DETAIL
100
AcDbLine
 10
-17.30621691093213
 20
-16.1316944663303
 30
0.0
 11
-17.30621691093213
 21
-16.0316944663303
 31
0.0
  0
LINE
  5
4C
330
2
100
AcDbEntity
  8
ADP1DETAIL
100
AcDbLine
 10
-18.08621691093213
 20
-16.1316944663303
 30
0.0
 11
-18.08621691093213
 21
-16.0316944663303
 31
0.0
  0
LINE
  5
4D
330
2
100
AcDbEntity
  8
ADP1DETAIL
100
AcDbLine
 10
-17.72621691093213
 20
-16.1316944663303
 30
0.0
 11
-17.72621691093213
 21
-16.0316944663303
 31
0.0
  0
LINE
  5
4E
330
2
100
AcDbEntity
  8
0
100
AcDbLine
 10
-17.72621691093213
 20
-16.0316944663303
 30
0.0
 11
-17.30621691093213
 21
-16.0316944663303
 31
0.0
  0
LINE
  5
4F
330
2
100
AcDbEntity
  8
ADP2DETAIL
  6
HIDDEN2
100
AcDbLine
 10
-15.21719942302814
 20
-13.10527587803749
 30
0.0
 11
-11.86719942302814
 21
-13.10527587803749
 31
0.0
  0
LINE
  5
50
330
2
100
AcDbEntity
  8
ADP2DETAIL
  6
HIDDEN2
100
AcDbLine
 10
-15.21719942302814
 20
-13.23398796701165
 30
0.0
 11
-11.96719942302814
 21
-13.23398796701165
 31
0.0
  0
LINE
  5
51
330
2
100
AcDbEntity
  8
ADP2DETAIL
  6
HIDDEN2
100
AcDbLine
 10
-15.21719942302814
 20
-12.59042760619849
 30
0.0
 11
-11.36719942302814
 21
-12.59042760619849
 31
0.0
  0
LINE
  5
52
330
2
100
AcDbEntity
  8
ADP2DETAIL
  6
HIDDEN2
100
AcDbLine
 10
-11.36719942302814
 20
-12.59042760619849
 30
0.0
 11
-11.36719942302814
 21
-15.15083164578415
 31
0.0
  0
LINE
  5
53
330
2
100
AcDbEntity
  8
ADP2DETAIL
  6
HIDDEN2
100
AcDbLine
 10
-11.86719942302814
 20
-13.10527587803749
 30
0.0
 11
-11.86719942302814
 21
-14.63598337394515
 31
0.0
  0
LINE
  5
54
330
2
100
AcDbEntity
  8
ADP2DETAIL
  6
HIDDEN2
100
AcDbLine
 10
-12.71719942302814
 20
-13.70302747766649
 30
0.0
 11
-12.71719942302814
 21
-14.03823177431615
 31
0.0
  0
LINE
  5
55
330
2
100
AcDbEntity
  8
ADP2DETAIL
  6
HIDDEN2
100
AcDbLine
 10
-15.21719942302814
 20
-14.50727128497099
 30
0.0
 11
-11.96719942302814
 21
-14.50727128497099
 31
0.0
  0
LINE
  5
56
330
2
100
AcDbEntity
  8
ADP2DETAIL
  6
HIDDEN2
100
AcDbLine
 10
-15.21719942302814
 20
-14.63598337394515
 30
0.0
 11
-11.86719942302814
 21
-14.63598337394515
 31
0.0
  0
LINE
  5
57
330
2
100
AcDbEntity
  8
ADP2DETAIL
  6
HIDDEN2
100
AcDbLine
 10
-11.96719942302814
 20
-13.23398796701165
 30
0.0
 11
-11.96719942302814
 21
-14.50727128497099
 31
0.0
  0
LINE
  5
58
330
2
100
AcDbEntity
  8
ADP2DETAIL
  6
HIDDEN2
100
AcDbLine
 10
-15.21719942302814
 20
-15.15083164578415
 30
0.0
 11
-11.36719942302814
 21
-15.15083164578415
 31
0.0
  0
LINE
  5
59
330
2
100
AcDbEntity
  8
ADP1DETAIL
100
AcDbLine
 10
-15.21719942302814
 20
-15.24562962599132
 30
0.0
 11
-15.21719942302814
 21
-12.49562962599132
 31
0.0
  0
LINE
  5
5A
330
2
100
AcDbEntity
  8
ADP1DETAIL
100
AcDbLine
 10
-11.27719942302814
 20
-15.24562962599132
 30
0.0
 11
-15.21719942302814
 21
-15.24562962599132
 31
0.0
  0
LINE
  5
5B
330
2
100
AcDbEntity
  8
ADP1DETAIL
100
AcDbLine
 10
-11.21719942302814
 20
-12.55562962599132
 30
0.0
 11
-11.21719942302814
 21
-15.18562962599132
 31
0.0
  0
LINE
  5
5C
330
2
100
AcDbEntity
  8
ADP1DETAIL
100
AcDbLine
 10
-15.21719942302814
 20
-12.49562962599132
 30
0.0
 11
-11.27719942302814
 21
-12.49562962599132
 31
0.0
  0
ARC
  5
5D
330
2
100
AcDbEntity
  8
0
100
AcDbCircle
 10
-16.5640484032874
 20
-16.0639372692101
 30
0.0
 40
0.031
100
AcDbArc
 50
343.7949673469637
 51
77.14144657021492
  0
ARC
  5
5E
330
2
100
AcDbEntity
  8
0
100
AcDbCircle
 10
-17.15571691093212
 20
-16.2716944663303
 30
0.0
 40
0.0150000000000006
100
AcDbArc
 50
0.0
 51
90.0
  0
LINE
  5
5F
330
2
100
AcDbEntity
  8
0
100
AcDbLine
 10
-17.12203011102745
 20
-16.50195614727153
 30
0.0
 11
-16.62223289999527
 21
-16.37522505031337
 31
0.0
  0
ARC
  5
60
330
2
100
AcDbEntity
  8
0
100
AcDbCircle
 10
-17.12571691093213
 20
-16.48741628804033
 30
0.0
 40
0.0149999999999988
100
AcDbArc
 50
179.9999999999966
 51
284.2283276629783
  0
LINE
  5
61
330
2
100
AcDbEntity
  8
0
100
AcDbLine
 10
-16.53428005881877
 20
-16.07258860827388
 30
0.0
 11
-16.62223289999527
 21
-16.37522505031337
 31
0.0
  0
LINE
  5
62
330
2
100
AcDbEntity
  8
0
100
AcDbLine
 10
-17.14071691093212
 20
-16.2716944663303
 30
0.0
 11
-17.14071691093212
 21
-16.48741628804033
 31
0.0
  0
ARC
  5
63
330
2
100
AcDbEntity
  8
0
100
AcDbCircle
 10
-17.27571691093213
 20
-16.1416944663303
 30
0.0
 40
0.01
100
AcDbArc
 50
0.0
 51
90.0
  0
LINE
  5
64
330
2
100
AcDbEntity
  8
0
100
AcDbLine
 10
-17.26571691093213
 20
-16.1416944663303
 30
0.0
 11
-17.26571691093213
 21
-16.2466944663303
 31
0.0
  0
ARC
  5
65
330
2
100
AcDbEntity
  8
0
100
AcDbCircle
 10
-17.25571691093213
 20
-16.2466944663303
 30
0.0
 40
0.01
100
AcDbArc
 50
180.0
 51
270.0
  0
LINE
  5
66
330
2
100
AcDbEntity
  8
0
100
AcDbLine
 10
-17.90621691093213
 20
-16.1316944663303
 30
0.0
 11
-17.72621691093213
 21
-16.1316944663303
 31
0.0
  0
LINE
  5
67
330
2
100
AcDbEntity
  8
0
100
AcDbLine
 10
-18.55447306471458
 20
-16.2566944663303
 30
0.0
 11
-18.65447306471459
 21
-16.2566944663303
 31
0.0
  0
ARC
  5
68
330
2
100
AcDbEntity
  8
0
100
AcDbCircle
 10
-18.65447306471459
 20
-16.2716944663303
 30
0.0
 40
0.0150000000000006
100
AcDbArc
 50
90.0
 51
180.0
  0
ARC
  5
69
330
2
100
AcDbEntity
  8
0
100
AcDbCircle
 10
-18.55447306471458
 20
-16.2466944663303
 30
0.0
 40
0.01
100
AcDbArc
 50
270.0
 51
0.000000000000007
  0
LINE
  5
6A
330
2
100
AcDbEntity
  8
0
100
AcDbLine
 10
-18.54447306471458
 20
-16.1416944663303
 30
0.0
 11
-18.54447306471458
 21
-16.2466944663303
 31
0.0
  0
ARC
  5
6B
330
2
100
AcDbEntity
  8
0
100
AcDbCircle
 10
-18.53447306471458
 20
-16.1416944663303
 30
0.0
 40
0.01
100
AcDbArc
 50
90.0
 51
180.0
  0
ARC
  5
6C
330
2
100
AcDbEntity
  8
0
100
AcDbCircle
 10
-19.24614157235931
 20
-16.0639372692101
 30
0.0
 40
0.031
100
AcDbArc
 50
102.858553429785
 51
196.2050326530363
  0
ARC
  5
6D
330
2
100
AcDbEntity
  8
0
100
AcDbCircle
 10
-18.68447306471458
 20
-16.48741628804033
 30
0.0
 40
0.0149999999999988
100
AcDbArc
 50
255.7716723370217
 51
0.0000000000033911
  0
LINE
  5
6E
330
2
100
AcDbEntity
  8
0
100
AcDbLine
 10
-18.68815986461926
 20
-16.50195614727153
 30
0.0
 11
-19.18795707565144
 21
-16.37522505031337
 31
0.0
  0
LINE
  5
6F
330
2
100
AcDbEntity
  8
0
100
AcDbLine
 10
-19.27590991682794
 20
-16.07258860827388
 30
0.0
 11
-19.18795707565144
 21
-16.37522505031337
 31
0.0
  0
LINE
  5
70
330
2
100
AcDbEntity
  8
0
100
AcDbLine
 10
-18.66947306471459
 20
-16.2716944663303
 30
0.0
 11
-18.66947306471459
 21
-16.48741628804033
 31
0.0
  0
LINE
  5
71
330
2
100
AcDbEntity
  8
0
100
AcDbLine
 10
-17.90397306471459
 20
-16.1316944663303
 30
0.0
 11
-18.08621691093213
 21
-16.1316944663303
 31
0.0
  0
ARC
  5
72
330
2
100
AcDbEntity
  8
0
100
AcDbCircle
 10
-17.90397306471459
 20
-21.9436944663303
 30
0.0
 40
6.062
100
AcDbArc
 50
90.01060400188672
 51
102.8585534297832
  0
DIMENSION
  5
73
330
2
100
AcDbEntity
  8
ADPDIM
100
AcDbDimension
  2
*D1
 10
-16.53732917290834
 20
-15.66629336529083
 30
0.0
 11
-17.90505052469997
 21
-15.66629336529083
 31
0.0
 70
    32
  3
STANDARD
100
AcDbAlignedDimension
 13
-19.2727718764916
 23
-15.95981248123236
 33
0.0
 14
-16.53732917290834
 24
-16.04821840385822
 34
0.0
100
AcDbRotatedDimension
1001
ACAD
1000
DSTYLE
1002
{
1070
   270
1070
     7
1070
   270
1070
     7
1070
   270
1070
     7
1070
   270
1070
     7
1070
   270
1070
     7
1070
    41
1040
0.125
1070
    73
1070
     0
1070
    74
1070
     0
1070
    78
1070
     2
1070
   140
1040
0.125
1070
   141
1040
0.1875
1070
   142
1040
0.125
1070
   147
1040
0.125
1070
   171
1070
     1
1070
   271
1070
     2
1070
   276
1070
     2
1070
   277
1070
     5
1002
}
  0
DIMENSION
  5
81
330
2
100
AcDbEntity
  8
ADPDIM
100
AcDbDimension
  2
*D2
 10
-17.13509997108948
 20
-16.74657010992544
 30
0.0
 11
-17.90214696034788
 21
-16.74657010992544
 31
0.0
 70
    32
  3
STANDARD
100
AcDbAlignedDimension
 13
-18.66919394960627
 23
-16.55805384280362
 33
0.0
 14
-17.13509997108948
 24
-16.55805384280362
 34
0.0
100
AcDbRotatedDimension
1001
ACAD
1000
DSTYLE
1002
{
1070
   270
1070
     7
1070
   270
1070
     7
1070
   270
1070
     7
1070
   270
1070
     7
1070
   270
1070
     7
1070
    41
1040
0.125
1070
    73
1070
     0
1070
    74
1070
     0
1070
    78
1070
     2
1070
   140
1040
0.125
1070
   141
1040
0.1875
1070
   142
1040
0.125
1070
   147
1040
0.125
1070
   171
1070
     1
1070
   271
1070
     2
1070
   276
1070
     2
1070
   277
1070
     5
1002
}
  0
ARC
  5
8F
330
2
100
AcDbEntity
  8
0
100
AcDbCircle
 10
-17.90621691093212
 20
-21.9436944663303
 30
0.0
 40
6.062
100
AcDbArc
 50
77.14144657021674
 51
89.98939599811327
  0
LINE
  5
90
330
2
100
AcDbEntity
  8
0
100
AcDbLine
 10
-17.25571691093213
 20
-16.2566944663303
 30
0.0
 11
-17.15571691093212
 21
-16.2566944663303
 31
0.0
  0
TEXT
  5
9B
330
2
100
AcDbEntity
  8
ADPDIM
100
AcDbText
 10
-21.91873634321913
 20
-17.70863336924566
 30
0.0
 40
0.125
  1
J U L I U S  B L U M  &  C O . ,  I N C .      ( 8 0 0 )  5 2 6 - 6 2 9 3        W W W . J U L I U S B L U M . C O M        P A R T  N o .  5 5 7 4 - N
 41
1.25
  7
ARIAL_WIDE
 72
     1
 11
-15.21719942302814
 21
-17.58363336924566
 31
0.0
100
AcDbText
 73
     3
  0
ENDSEC
  0
SECTION
  2
OBJECTS
  0
DICTIONARY
  5
1B
330
0
100
AcDbDictionary
  3
ACAD_GROUP
350
19
  3
ACAD_LAYOUT
350
94
  3
ACAD_MLINESTYLE
350
1A
  3
ACAD_PLOTSETTINGS
350
95
  3
ACAD_PLOTSTYLENAME
350
92
  3
ACDBHEADERROUNDTRIPXREC
350
2CA
  3
ACDBVARIABLEDICTIONARY
350
145
  0
DICTIONARY
  5
116
330
2
100
AcDbDictionary
280
     1
  3
ACAD_LAYOUTSELFREF
360
2EB
  0
DICTIONARY
  5
118
330
8
100
AcDbDictionary
280
     1
  3
ACAD_LAYOUTSELFREF
360
2EC
  0
DICTIONARY
  5
19
102
{ACAD_REACTORS
330
1B
102
}
330
1B
100
AcDbDictionary
  0
DICTIONARY
  5
94
102
{ACAD_REACTORS
330
1B
102
}
330
1B
100
AcDbDictionary
  0
DICTIONARY
  5
1A
102
{ACAD_REACTORS
330
1B
102
}
330
1B
100
AcDbDictionary
  3
STANDARD
350
1D
  0
DICTIONARY
  5
95
102
{ACAD_REACTORS
330
1B
102
}
330
1B
100
AcDbDictionary
  0
ACDBDICTIONARYWDFLT
  5
92
102
{ACAD_REACTORS
330
1B
102
}
330
1B
100
AcDbDictionary
281
     1
  3
Normal
350
93
100
AcDbDictionaryWithDefault
340
93
  0
DICTIONARY
  5
2CA
102
{ACAD_REACTORS
330
1B
102
}
330
1B
100
AcDbDictionary
  3
CEPSNTYPE
350
2D4
  3
DIMSTYLEDATA
350
2D8
  3
FINGERPRINTGUID
350
2D5
  3
HYPERLINKBASE
350
2CD
  3
INSUNITS
350
2D3
  3
LAYOUTDICT
350
2CF
  3
LWETCUNION
350
2D2
  3
PLOTSETDICT
350
2D0
  3
PLOTSTYLNAMDICT
350
2D1
  3
PSVPSCALE
350
2D7
  3
PUCSBASE
350
2DB
  3
PUCSORGBACK
350
2E1
  3
PUCSORGBOTTOM
350
2DD
  3
PUCSORGFRONT
350
2E0
  3
PUCSORGLEFT
350
2DE
  3
PUCSORGRIGHT
350
2DF
  3
PUCSORGTOP
350
2DC
  3
PUCSORTHOREF
350
2D9
  3
PUCSORTHOVIEW
350
2DA
  3
STYLESHEET
350
2CE
  3
TSTACKALIGN
350
2CB
  3
TSTACKSIZE
350
2CC
  3
UCSBASE
350
2E4
  3
UCSORGBACK
350
2EA
  3
UCSORGBOTTOM
350
2E6
  3
UCSORGFRONT
350
2E9
  3
UCSORGLEFT
350
2E7
  3
UCSORGRIGHT
350
2E8
  3
UCSORGTOP
350
2E5
  3
UCSORTHOREF
350
2E2
  3
UCSORTHOVIEW
350
2E3
  3
VERSIONGUID
350
2D6
  0
DICTIONARY
  5
145
102
{ACAD_REACTORS
330
1B
102
}
330
1B
100
AcDbDictionary
  3
DIMASSOC
350
146
  0
XRECORD
  5
2EB
102
{ACAD_REACTORS
330
116
102
}
330
116
100
AcDbXrecord
340
2
  0
XRECORD
  5
2EC
102
{ACAD_REACTORS
330
118
102
}
330
118
100
AcDbXrecord
340
8
  0
MLINESTYLE
  5
1D
102
{ACAD_REACTORS
330
1A
102
}
330
1A
100
AcDbMlineStyle
  2
STANDARD
 70
     0
  3

 62
     0
 51
90.0
 52
90.0
 71
     2
 49
0.5
 62
   256
  6
BYLAYER
 49
-0.5
 62
   256
  6
BYLAYER
  0
ACDBPLACEHOLDER
  5
93
102
{ACAD_REACTORS
330
92
102
}
330
92
100
AcDbPlaceHolder
280
     0
  0
XRECORD
  5
2D4
102
{ACAD_REACTORS
330
2CA
102
}
330
2CA
100
AcDbXrecord
 90
        0
  0
XRECORD
  5
2D8
102
{ACAD_REACTORS
330
2CA
102
}
330
2CA
100
AcDbXrecord
1000
DSTYLE
1002
{
1070
   276
 70
     2
1070
   277
 70
     5
1002
}
  0
XRECORD
  5
2D5
102
{ACAD_REACTORS
330
2CA
102
}
330
2CA
100
AcDbXrecord
  1
{F498ECB7-22C2-4900-87FA-228EE342DB07}
  0
XRECORD
  5
2CD
102
{ACAD_REACTORS
330
2CA
102
}
330
2CA
100
AcDbXrecord
  1

  0
XRECORD
  5
2D3
102
{ACAD_REACTORS
330
2CA
102
}
330
2CA
100
AcDbXrecord
 90
        0
  0
XRECORD
  5
2CF
102
{ACAD_REACTORS
330
2CA
102
}
330
2CA
100
AcDbXrecord
340
94
  0
XRECORD
  5
2D2
102
{ACAD_REACTORS
330
2CA
102
}
330
2CA
100
AcDbXrecord
 90
    14877
  0
XRECORD
  5
2D0
102
{ACAD_REACTORS
330
2CA
102
}
330
2CA
100
AcDbXrecord
340
95
  0
XRECORD
  5
2D1
102
{ACAD_REACTORS
330
2CA
102
}
330
2CA
100
AcDbXrecord
340
92
  0
XRECORD
  5
2D7
102
{ACAD_REACTORS
330
2CA
102
}
330
2CA
100
AcDbXrecord
 40
0.0
  0
XRECORD
  5
2DB
102
{ACAD_REACTORS
330
2CA
102
}
330
2CA
100
AcDbXrecord
340
0
  0
XRECORD
  5
2E1
102
{ACAD_REACTORS
330
2CA
102
}
330
2CA
100
AcDbXrecord
 10
0.0
 20
0.0
 30
0.0
  0
XRECORD
  5
2DD
102
{ACAD_REACTORS
330
2CA
102
}
330
2CA
100
AcDbXrecord
 10
0.0
 20
0.0
 30
0.0
  0
XRECORD
  5
2E0
102
{ACAD_REACTORS
330
2CA
102
}
330
2CA
100
AcDbXrecord
 10
0.0
 20
0.0
 30
0.0
  0
XRECORD
  5
2DE
102
{ACAD_REACTORS
330
2CA
102
}
330
2CA
100
AcDbXrecord
 10
0.0
 20
0.0
 30
0.0
  0
XRECORD
  5
2DF
102
{ACAD_REACTORS
330
2CA
102
}
330
2CA
100
AcDbXrecord
 10
0.0
 20
0.0
 30
0.0
  0
XRECORD
  5
2DC
102
{ACAD_REACTORS
330
2CA
102
}
330
2CA
100
AcDbXrecord
 10
0.0
 20
0.0
 30
0.0
  0
XRECORD
  5
2D9
102
{ACAD_REACTORS
330
2CA
102
}
330
2CA
100
AcDbXrecord
340
0
  0
XRECORD
  5
2DA
102
{ACAD_REACTORS
330
2CA
102
}
330
2CA
100
AcDbXrecord
 70
     0
  0
XRECORD
  5
2CE
102
{ACAD_REACTORS
330
2CA
102
}
330
2CA
100
AcDbXrecord
  1

  0
XRECORD
  5
2CB
102
{ACAD_REACTORS
330
2CA
102
}
330
2CA
100
AcDbXrecord
 90
        1
  0
XRECORD
  5
2CC
102
{ACAD_REACTORS
330
2CA
102
}
330
2CA
100
AcDbXrecord
 90
       70
  0
XRECORD
  5
2E4
102
{ACAD_REACTORS
330
2CA
102
}
330
2CA
100
AcDbXrecord
340
0
  0
XRECORD
  5
2EA
102
{ACAD_REACTORS
330
2CA
102
}
330
2CA
100
AcDbXrecord
 10
0.0
 20
0.0
 30
0.0
  0
XRECORD
  5
2E6
102
{ACAD_REACTORS
330
2CA
102
}
330
2CA
100
AcDbXrecord
 10
0.0
 20
0.0
 30
0.0
  0
XRECORD
  5
2E9
102
{ACAD_REACTORS
330
2CA
102
}
330
2CA
100
AcDbXrecord
 10
0.0
 20
0.0
 30
0.0
  0
XRECORD
  5
2E7
102
{ACAD_REACTORS
330
2CA
102
}
330
2CA
100
AcDbXrecord
 10
0.0
 20
0.0
 30
0.0
  0
XRECORD
  5
2E8
102
{ACAD_REACTORS
330
2CA
102
}
330
2CA
100
AcDbXrecord
 10
0.0
 20
0.0
 30
0.0
  0
XRECORD
  5
2E5
102
{ACAD_REACTORS
330
2CA
102
}
330
2CA
100
AcDbXrecord
 10
0.0
 20
0.0
 30
0.0
  0
XRECORD
  5
2E2
102
{ACAD_REACTORS
330
2CA
102
}
330
2CA
100
AcDbXrecord
340
0
  0
XRECORD
  5
2E3
102
{ACAD_REACTORS
330
2CA
102
}
330
2CA
100
AcDbXrecord
 70
     0
  0
XRECORD
  5
2D6
102
{ACAD_REACTORS
330
2CA
102
}
330
2CA
100
AcDbXrecord
  1
{D0E0660E-5C04-4187-8744-65E8C7EB9A09}
  0
DICTIONARYVAR
  5
146
102
{ACAD_REACTORS
330
145
102
}
330
145
100
DictionaryVariables
280
     0
  1
1
  0
ENDSEC
  0
EOF
