  0
SECTION
  2
HEADER
  9
$ACADVER
  1
AC1015
  9
$ACADMAINTVER
 70
    20
  9
$DWGCODEPAGE
  3
ANSI_1252
  9
$INSBASE
 10
-8.849810364320717
 20
-18.34306239152606
 30
0.0
  9
$EXTMIN
 10
-16.46776939319743
 20
-19.53535195339749
 30
-0.0015258207003583
  9
$EXTMAX
 10
-3.062221504119264
 20
-13.9892737153162
 30
0.0000000349246037
  9
$LIMMIN
 10
0.0
 20
0.0
  9
$LIMMAX
 10
36.0
 20
36.0
  9
$ORTHOMODE
 70
     1
  9
$REGENMODE
 70
     1
  9
$FILLMODE
 70
     1
  9
$QTEXTMODE
 70
     0
  9
$MIRRTEXT
 70
     1
  9
$LTSCALE
 40
1.0
  9
$ATTMODE
 70
     1
  9
$TEXTSIZE
 40
0.2
  9
$TRACEWID
 40
0.05
  9
$TEXTSTYLE
  7
STANDARD
  9
$CLAYER
  8
ADPDIM
  9
$CELTYPE
  6
BYLAYER
  9
$CECOLOR
 62
   256
  9
$CELTSCALE
 40
1.0
  9
$DISPSILH
 70
     0
  9
$DIMSCALE
 40
1.0
  9
$DIMASZ
 40
0.125
  9
$DIMEXO
 40
0.0625
  9
$DIMDLI
 40
0.38
  9
$DIMRND
 40
0.0
  9
$DIMDLE
 40
0.0
  9
$DIMEXE
 40
0.18
  9
$DIMTP
 40
0.0
  9
$DIMTM
 40
0.0
  9
$DIMTXT
 40
0.125
  9
$DIMCEN
 40
0.1875
  9
$DIMTSZ
 40
0.125
  9
$DIMTOL
 70
     0
  9
$DIMLIM
 70
     0
  9
$DIMTIH
 70
     0
  9
$DIMTOH
 70
     0
  9
$DIMSE1
 70
     0
  9
$DIMSE2
 70
     0
  9
$DIMTAD
 70
     0
  9
$DIMZIN
 70
     2
  9
$DIMBLK
  1

  9
$DIMASO
 70
     1
  9
$DIMSHO
 70
     1
  9
$DIMPOST
  1

  9
$DIMAPOST
  1

  9
$DIMALT
 70
     0
  9
$DIMALTD
 70
     1
  9
$DIMALTF
 40
25.4
  9
$DIMLFAC
 40
1.0
  9
$DIMTOFL
 70
     0
  9
$DIMTVP
 40
0.0
  9
$DIMTIX
 70
     0
  9
$DIMSOXD
 70
     0
  9
$DIMSAH
 70
     0
  9
$DIMBLK1
  1

  9
$DIMBLK2
  1

  9
$DIMSTYLE
  2
STANDARD
  9
$DIMCLRD
 70
     0
  9
$DIMCLRE
 70
     0
  9
$DIMCLRT
 70
     0
  9
$DIMTFAC
 40
1.0
  9
$DIMGAP
 40
0.125
  9
$DIMJUST
 70
     0
  9
$DIMSD1
 70
     0
  9
$DIMSD2
 70
     0
  9
$DIMTOLJ
 70
     1
  9
$DIMTZIN
 70
     0
  9
$DIMALTZ
 70
     0
  9
$DIMALTTZ
 70
     0
  9
$DIMUPT
 70
     0
  9
$DIMDEC
 70
     2
  9
$DIMTDEC
 70
     4
  9
$DIMALTU
 70
     2
  9
$DIMALTTD
 70
     2
  9
$DIMTXSTY
  7
STANDARD
  9
$DIMAUNIT
 70
     0
  9
$DIMADEC
 70
     0
  9
$DIMALTRND
 40
0.0
  9
$DIMAZIN
 70
     0
  9
$DIMDSEP
 70
    46
  9
$DIMATFIT
 70
     3
  9
$DIMFRAC
 70
     2
  9
$DIMLDRBLK
  1

  9
$DIMLUNIT
 70
     5
  9
$DIMLWD
 70
    -2
  9
$DIMLWE
 70
    -2
  9
$DIMTMOVE
 70
     0
  9
$LUNITS
 70
     5
  9
$LUPREC
 70
     4
  9
$SKETCHINC
 40
0.1
  9
$FILLETRAD
 40
0.062
  9
$AUNITS
 70
     0
  9
$AUPREC
 70
     0
  9
$MENU
  1
acad
  9
$ELEVATION
 40
0.0
  9
$PELEVATION
 40
0.0
  9
$THICKNESS
 40
0.0
  9
$LIMCHECK
 70
     0
  9
$CHAMFERA
 40
0.0
  9
$CHAMFERB
 40
0.0
  9
$CHAMFERC
 40
0.0
  9
$CHAMFERD
 40
0.0
  9
$SKPOLY
 70
     0
  9
$TDCREATE
 40
2450406.661392546
  9
$TDUCREATE
 40
2450406.828059213
  9
$TDUPDATE
 40
2453963.031080220
  9
$TDUUPDATE
 40
2453963.197746887
  9
$TDINDWG
 40
0.0470887153
  9
$TDUSRTIMER
 40
0.0470887153
  9
$USRTIMER
 70
     1
  9
$ANGBASE
 50
0.0
  9
$ANGDIR
 70
     0
  9
$PDMODE
 70
     0
  9
$PDSIZE
 40
0.0
  9
$PLINEWID
 40
0.0
  9
$SPLFRAME
 70
     0
  9
$SPLINETYPE
 70
     6
  9
$SPLINESEGS
 70
     8
  9
$HANDSEED
  5
34D
  9
$SURFTAB1
 70
     6
  9
$SURFTAB2
 70
     6
  9
$SURFTYPE
 70
     6
  9
$SURFU
 70
     6
  9
$SURFV
 70
     6
  9
$UCSBASE
  2

  9
$UCSNAME
  2

  9
$UCSORG
 10
0.0
 20
0.0
 30
0.0
  9
$UCSXDIR
 10
1.0
 20
0.0
 30
0.0
  9
$UCSYDIR
 10
0.0
 20
1.0
 30
0.0
  9
$UCSORTHOREF
  2

  9
$UCSORTHOVIEW
 70
     0
  9
$UCSORGTOP
 10
0.0
 20
0.0
 30
0.0
  9
$UCSORGBOTTOM
 10
0.0
 20
0.0
 30
0.0
  9
$UCSORGLEFT
 10
0.0
 20
0.0
 30
0.0
  9
$UCSORGRIGHT
 10
0.0
 20
0.0
 30
0.0
  9
$UCSORGFRONT
 10
0.0
 20
0.0
 30
0.0
  9
$UCSORGBACK
 10
0.0
 20
0.0
 30
0.0
  9
$PUCSBASE
  2

  9
$PUCSNAME
  2

  9
$PUCSORG
 10
0.0
 20
0.0
 30
0.0
  9
$PUCSXDIR
 10
1.0
 20
0.0
 30
0.0
  9
$PUCSYDIR
 10
0.0
 20
1.0
 30
0.0
  9
$PUCSORTHOREF
  2

  9
$PUCSORTHOVIEW
 70
     0
  9
$PUCSORGTOP
 10
0.0
 20
0.0
 30
0.0
  9
$PUCSORGBOTTOM
 10
0.0
 20
0.0
 30
0.0
  9
$PUCSORGLEFT
 10
0.0
 20
0.0
 30
0.0
  9
$PUCSORGRIGHT
 10
0.0
 20
0.0
 30
0.0
  9
$PUCSORGFRONT
 10
0.0
 20
0.0
 30
0.0
  9
$PUCSORGBACK
 10
0.0
 20
0.0
 30
0.0
  9
$USERI1
 70
     0
  9
$USERI2
 70
     0
  9
$USERI3
 70
     0
  9
$USERI4
 70
     0
  9
$USERI5
 70
     0
  9
$USERR1
 40
0.0
  9
$USERR2
 40
0.0
  9
$USERR3
 40
0.0
  9
$USERR4
 40
0.0
  9
$USERR5
 40
0.0
  9
$WORLDVIEW
 70
     1
  9
$SHADEDGE
 70
     3
  9
$SHADEDIF
 70
    70
  9
$TILEMODE
 70
     1
  9
$MAXACTVP
 70
    15
  9
$PINSBASE
 10
0.0008545028977096
 20
1.250283272183907
 30
0.0
  9
$PLIMCHECK
 70
     0
  9
$PEXTMIN
 10
1.000000000000000E+20
 20
1.000000000000000E+20
 30
1.000000000000000E+20
  9
$PEXTMAX
 10
-1.000000000000000E+20
 20
-1.000000000000000E+20
 30
-1.000000000000000E+20
  9
$PLIMMIN
 10
0.0
 20
0.0
  9
$PLIMMAX
 10
12.0
 20
9.0
  9
$UNITMODE
 70
     0
  9
$VISRETAIN
 70
     0
  9
$PLINEGEN
 70
     0
  9
$PSLTSCALE
 70
     1
  9
$TREEDEPTH
 70
  3020
  9
$CMLSTYLE
  2
STANDARD
  9
$CMLJUST
 70
     0
  9
$CMLSCALE
 40
1.0
  9
$PROXYGRAPHICS
 70
     1
  9
$MEASUREMENT
 70
     0
  9
$CELWEIGHT
370
    -1
  9
$ENDCAPS
280
     0
  9
$JOINSTYLE
280
     0
  9
$LWDISPLAY
290
     0
  9
$INSUNITS
 70
     0
  9
$HYPERLINKBASE
  1

  9
$STYLESHEET
  1

  9
$XEDIT
290
     1
  9
$CEPSNTYPE
380
     0
  9
$PSTYLEMODE
290
     1
  9
$FINGERPRINTGUID
  2
{857D33FB-017B-49CD-9DF4-E8E83358B36E}
  9
$VERSIONGUID
  2
{EE6CF262-FFF0-4604-BABA-7D69D7BAABBA}
  9
$EXTNAMES
290
     1
  9
$PSVPSCALE
 40
0.0
  9
$OLESTARTUP
290
     0
  0
ENDSEC
  0
SECTION
  2
CLASSES
  0
CLASS
  1
ACDBDICTIONARYWDFLT
  2
AcDbDictionaryWithDefault
  3
ObjectDBX Classes
 90
        0
280
     0
281
     0
  0
CLASS
  1
ACDBPLACEHOLDER
  2
AcDbPlaceHolder
  3
ObjectDBX Classes
 90
        0
280
     0
281
     0
  0
CLASS
  1
LAYOUT
  2
AcDbLayout
  3
ObjectDBX Classes
 90
        0
280
     0
281
     0
  0
CLASS
  1
DICTIONARYVAR
  2
AcDbDictionaryVar
  3
ObjectDBX Classes
 90
        0
280
     0
281
     0
  0
CLASS
  1
MATERIAL
  2
AcDbMaterial
  3
ObjectDBX Classes
 90
     1024
280
     0
281
     0
  0
CLASS
  1
VISUALSTYLE
  2
AcDbVisualStyle
  3
ObjectDBX Classes
 90
     4095
280
     0
281
     0
  0
CLASS
  1
TABLESTYLE
  2
AcDbTableStyle
  3
ObjectDBX Classes
 90
     4095
280
     0
281
     0
  0
ENDSEC
  0
SECTION
  2
TABLES
  0
TABLE
  2
VPORT
  5
13
330
0
100
AcDbSymbolTable
 70
     1
  0
VPORT
  5
25F
330
13
100
AcDbSymbolTableRecord
100
AcDbViewportTableRecord
  2
*Active
 70
     0
 10
0.0
 20
0.0
 11
1.0
 21
1.0
 12
-9.453557441080793
 22
-16.65617253858741
 13
0.0
 23
0.0
 14
0.5740882589684922
 24
0.5740882589684922
 15
0.5
 25
0.5
 16
0.0
 26
0.0
 36
1.0
 17
0.0
 27
0.0
 37
0.0
 40
8.016093935910969
 41
1.726930320150659
 42
50.0
 43
0.0
 44
0.0
 50
0.0
 51
0.0
 71
     0
 72
   100
 73
     1
 74
     0
 75
     0
 76
     0
 77
     0
 78
     0
281
     0
 65
     1
110
0.0
120
0.0
130
0.0
111
1.0
121
0.0
131
0.0
112
0.0
122
1.0
132
0.0
 79
     0
146
0.0
  0
ENDTAB
  0
TABLE
  2
LTYPE
  5
F
330
0
100
AcDbSymbolTable
 70
     3
  0
LTYPE
  5
10
330
F
100
AcDbSymbolTableRecord
100
AcDbLinetypeTableRecord
  2
BYBLOCK
 70
     0
  3

 72
    65
 73
     0
 40
0.0
  0
LTYPE
  5
6
330
F
100
AcDbSymbolTableRecord
100
AcDbLinetypeTableRecord
  2
BYLAYER
 70
     0
  3

 72
    65
 73
     0
 40
0.0
  0
LTYPE
  5
5
330
F
100
AcDbSymbolTableRecord
100
AcDbLinetypeTableRecord
  2
CONTINUOUS
 70
     0
  3
Solid line
 72
    65
 73
     0
 40
0.0
  0
LTYPE
  5
59
330
F
100
AcDbSymbolTableRecord
100
AcDbLinetypeTableRecord
  2
HIDDEN2
 70
     0
  3
_ _ _ _ _ _ _ _ _ _ _ _ _ _ _ _ _ _ _ _ _ _ _ _
 72
    65
 73
     2
 40
0.1875
 49
0.125
 74
     0
 49
-0.0625
 74
     0
  0
ENDTAB
  0
TABLE
  2
LAYER
  5
B
330
0
100
AcDbSymbolTable
 70
     5
  0
LAYER
  5
C
330
B
100
AcDbSymbolTableRecord
100
AcDbLayerTableRecord
  2
0
 70
     0
 62
     7
  6
CONTINUOUS
370
    -3
390
77
  0
LAYER
  5
4
330
B
100
AcDbSymbolTableRecord
100
AcDbLayerTableRecord
  2
ADP1DETAIL
 70
     0
 62
     7
  6
CONTINUOUS
370
    -3
390
77
  0
LAYER
  5
29
330
B
100
AcDbSymbolTableRecord
100
AcDbLayerTableRecord
  2
DEFPOINTS
 70
     0
 62
     7
  6
CONTINUOUS
290
     0
370
    -3
390
77
  0
LAYER
  5
1C
330
B
100
AcDbSymbolTableRecord
100
AcDbLayerTableRecord
  2
ADPDIM
 70
     0
 62
     3
  6
CONTINUOUS
370
    -3
390
77
  0
LAYER
  5
58
330
B
100
AcDbSymbolTableRecord
100
AcDbLayerTableRecord
  2
ADP2DETAIL
 70
     0
 62
     5
  6
CONTINUOUS
370
    -3
390
77
  0
ENDTAB
  0
TABLE
  2
STYLE
  5
D
330
0
100
AcDbSymbolTable
 70
     2
  0
STYLE
  5
E
330
D
100
AcDbSymbolTableRecord
100
AcDbTextStyleTableRecord
  2
STANDARD
 70
     0
 40
0.0
 41
1.0
 50
0.0
 71
     0
 42
0.2
  3
txt
  4

  0
STYLE
  5
7E
330
D
100
AcDbSymbolTableRecord
100
AcDbTextStyleTableRecord
  2
ARIAL_WIDE
 70
     0
 40
0.0
 41
1.25
 50
0.0
 71
     0
 42
0.2
  3
ARIAL.TTF
  4

1001
ACAD
1000
Arial
1071
       34
  0
ENDTAB
  0
TABLE
  2
VIEW
  5
11
330
0
100
AcDbSymbolTable
 70
     0
  0
ENDTAB
  0
TABLE
  2
UCS
  5
12
330
0
100
AcDbSymbolTable
 70
     0
  0
ENDTAB
  0
TABLE
  2
APPID
  5
15
330
0
100
AcDbSymbolTable
 70
     2
  0
APPID
  5
16
330
15
100
AcDbSymbolTableRecord
100
AcDbRegAppTableRecord
  2
ACAD
 70
     0
  0
APPID
  5
31F
330
15
100
AcDbSymbolTableRecord
100
AcDbRegAppTableRecord
  2
DCO15
 70
     0
  0
ENDTAB
  0
TABLE
  2
DIMSTYLE
  5
17
330
0
100
AcDbSymbolTable
 70
     2
100
AcDbDimStyleTable
 71
     1
340
1E
  0
DIMSTYLE
105
1E
102
{ACAD_REACTORS
330
1F
330
5B
330
2C5
330
2DD
102
}
330
17
100
AcDbSymbolTableRecord
100
AcDbDimStyleTableRecord
  2
STANDARD
 70
     0
340
E
  0
ENDTAB
  0
TABLE
  2
BLOCK_RECORD
  5
1
330
0
100
AcDbSymbolTable
 70
     8
  0
BLOCK_RECORD
  5
2
102
{ACAD_XDICTIONARY
360
FA
102
}
330
1
100
AcDbSymbolTableRecord
100
AcDbBlockTableRecord
  2
*MODEL_SPACE
340
7A
  0
BLOCK_RECORD
  5
8
102
{ACAD_XDICTIONARY
360
FC
102
}
330
1
100
AcDbSymbolTableRecord
100
AcDbBlockTableRecord
  2
*PAPER_SPACE
340
7B
  0
BLOCK_RECORD
  5
2F
330
1
100
AcDbSymbolTableRecord
100
AcDbBlockTableRecord
  2
4572
340
0
102
{BLKREFS
331
2E
102
}
  0
BLOCK_RECORD
  5
FE
330
1
100
AcDbSymbolTableRecord
100
AcDbBlockTableRecord
  2
*D1
340
0
  0
BLOCK_RECORD
  5
10D
330
1
100
AcDbSymbolTableRecord
100
AcDbBlockTableRecord
  2
*D2
340
0
  0
BLOCK_RECORD
  5
11A
330
1
100
AcDbSymbolTableRecord
100
AcDbBlockTableRecord
  2
*D3
340
0
  0
BLOCK_RECORD
  5
2C6
330
1
100
AcDbSymbolTableRecord
100
AcDbBlockTableRecord
  2
*D4
340
0
  0
BLOCK_RECORD
  5
2DE
330
1
100
AcDbSymbolTableRecord
100
AcDbBlockTableRecord
  2
*D5
340
0
  0
BLOCK_RECORD
  5
306
330
1
100
AcDbSymbolTableRecord
100
AcDbBlockTableRecord
  2
*D7
340
0
  0
ENDTAB
  0
ENDSEC
  0
SECTION
  2
BLOCKS
  0
BLOCK
  5
3
330
2
100
AcDbEntity
  8
0
100
AcDbBlockBegin
  2
*MODEL_SPACE
 70
     0
 10
0.0
 20
0.0
 30
0.0
  3
*MODEL_SPACE
  1

  0
ENDBLK
  5
7
330
2
100
AcDbEntity
  8
0
100
AcDbBlockEnd
  0
BLOCK
  5
9
330
8
100
AcDbEntity
 67
     1
  8
0
100
AcDbBlockBegin
  2
*PAPER_SPACE
 70
     0
 10
0.0
 20
0.0
 30
0.0
  3
*PAPER_SPACE
  1

  0
ENDBLK
  5
A
330
8
100
AcDbEntity
 67
     1
  8
0
100
AcDbBlockEnd
  0
BLOCK
  5
42
330
2F
100
AcDbEntity
  8
0
100
AcDbBlockBegin
  2
4572
 70
     0
 10
0.0
 20
0.0
 30
0.0
  3
4572
  1

  0
ARC
  5
30
330
2F
100
AcDbEntity
  8
0
100
AcDbCircle
 10
1.125
 20
4.465749999999998
 30
0.0
 40
4.684999999999998
100
AcDbArc
 50
274.9144644009105
 51
283.5179193007772
  0
ARC
  5
31
330
2F
100
AcDbEntity
  8
0
100
AcDbCircle
 10
1.125
 20
-4.904249999999999
 30
0.0
 40
5.122999999999999
100
AcDbArc
 50
77.66593018287675
 51
90.0
  0
ARC
  5
32
330
2F
100
AcDbEntity
  8
0
100
AcDbCircle
 10
0.0390000000000015
 20
-0.0515412237313076
 30
0.0
 40
0.039
100
AcDbArc
 50
180.0
 51
256.4820806992196
  0
ARC
  5
33
330
2F
100
AcDbEntity
  8
0
100
AcDbCircle
 10
0.0390000000000015
 20
0.062404809829248
 30
0.0
 40
0.039
100
AcDbArc
 50
102.33406981712
 51
180.0
  0
ARC
  5
34
330
2F
100
AcDbEntity
  8
0
100
AcDbCircle
 10
1.125
 20
-4.904249999999999
 30
0.0
 40
5.122999999999999
100
AcDbArc
 50
90.0
 51
102.3340698171232
  0
LINE
  5
35
330
2F
100
AcDbEntity
  8
0
100
AcDbLine
 10
0.7445000000000022
 20
-0.0627499999999994
 30
0.0
 11
1.125
 21
-0.0627499999999994
 31
0.0
  0
LINE
  5
36
330
2F
100
AcDbEntity
  8
0
100
AcDbLine
 10
0.0
 20
0.062404809829248
 30
0.0
 11
0.0
 21
-0.0515412237313076
 31
0.0
  0
ARC
  5
37
330
2F
100
AcDbEntity
  8
0
100
AcDbCircle
 10
1.125
 20
4.465749999999998
 30
0.0
 40
4.684999999999998
100
AcDbArc
 50
256.4820806992227
 51
265.0855355990895
  0
LINE
  5
38
330
2F
100
AcDbEntity
  8
0
100
AcDbLine
 10
0.7345000000000006
 20
-0.1920633013249802
 30
0.0
 11
0.7345000000000006
 21
-0.072750000000001
 31
0.0
  0
ARC
  5
39
330
2F
100
AcDbEntity
  8
0
100
AcDbCircle
 10
0.7445000000000022
 20
-0.072750000000001
 30
0.0
 40
0.01
100
AcDbArc
 50
90.0
 51
180.0
  0
ARC
  5
3A
330
2F
100
AcDbEntity
  8
0
100
AcDbCircle
 10
0.7244999999999991
 20
-0.1920633013249802
 30
0.0
 40
0.01
100
AcDbArc
 50
265.0855355990762
 51
0.0
  0
LINE
  5
3B
330
2F
100
AcDbEntity
  8
0
100
AcDbLine
 10
1.505499999999997
 20
-0.0627499999999994
 30
0.0
 11
1.125
 21
-0.0627499999999994
 31
0.0
  0
LINE
  5
3C
330
2F
100
AcDbEntity
  8
0
100
AcDbLine
 10
1.515499999999999
 20
-0.1920633013249802
 30
0.0
 11
1.515499999999999
 21
-0.072750000000001
 31
0.0
  0
ARC
  5
3D
330
2F
100
AcDbEntity
  8
0
100
AcDbCircle
 10
1.505499999999997
 20
-0.072750000000001
 30
0.0
 40
0.01
100
AcDbArc
 50
0.0
 51
90.0
  0
ARC
  5
3E
330
2F
100
AcDbEntity
  8
0
100
AcDbCircle
 10
1.5255
 20
-0.1920633013249802
 30
0.0
 40
0.01
100
AcDbArc
 50
180.0
 51
274.9144644009035
  0
LINE
  5
3F
330
2F
100
AcDbEntity
  8
0
100
AcDbLine
 10
2.25
 20
0.0624048098292516
 30
0.0
 11
2.25
 21
-0.0515412237313076
 31
0.0
  0
ARC
  5
40
330
2F
100
AcDbEntity
  8
0
100
AcDbCircle
 10
2.210999999999998
 20
-0.0515412237313076
 30
0.0
 40
0.039
100
AcDbArc
 50
283.5179193007753
 51
0.0
  0
ARC
  5
41
330
2F
100
AcDbEntity
  8
0
100
AcDbCircle
 10
2.210999999999998
 20
0.0624048098292516
 30
0.0
 40
0.039
100
AcDbArc
 50
0.0
 51
77.66593018287879
  0
ENDBLK
  5
43
330
2F
100
AcDbEntity
  8
0
100
AcDbBlockEnd
  0
BLOCK
  5
109
330
FE
100
AcDbEntity
  8
0
100
AcDbBlockBegin
  2
*D1
 70
     1
 10
0.0
 20
0.0
 30
0.0
  3
*D1
  1

  0
LINE
  5
287
330
FE
100
AcDbEntity
  8
ADPDIM
 62
     0
100
AcDbLine
 10
-11.88963145476959
 20
-18.07459216477916
 30
0.0
 11
-11.88963145476959
 21
-17.50778207378953
 31
0.0
  0
LINE
  5
288
330
FE
100
AcDbEntity
  8
ADPDIM
 62
     0
100
AcDbLine
 10
-9.63963145476959
 20
-18.07459216477915
 30
0.0
 11
-9.63963145476959
 21
-17.50778207378953
 31
0.0
  0
LINE
  5
289
330
FE
100
AcDbEntity
  8
ADPDIM
 62
     0
100
AcDbLine
 10
-11.88963145476959
 20
-17.68778207378953
 30
0.0
 11
-11.16046478810292
 21
-17.68778207378953
 31
0.0
  0
LINE
  5
28A
330
FE
100
AcDbEntity
  8
ADPDIM
 62
     0
100
AcDbLine
 10
-9.63963145476959
 20
-17.68778207378953
 30
0.0
 11
-10.36879812143626
 21
-17.68778207378953
 31
0.0
  0
LINE
  5
28B
330
FE
100
AcDbEntity
  8
ADPDIM
 62
     0
100
AcDbLine
 10
-9.76463145476959
 20
-17.81278207378953
 30
0.0
 11
-9.51463145476959
 21
-17.56278207378953
 31
0.0
  0
LINE
  5
28C
330
FE
100
AcDbEntity
  8
ADPDIM
 62
     0
100
AcDbLine
 10
-12.01463145476959
 20
-17.81278207378953
 30
0.0
 11
-11.76463145476959
 21
-17.56278207378953
 31
0.0
  0
MTEXT
  5
28D
330
FE
100
AcDbEntity
  8
ADPDIM
 62
     0
100
AcDbMText
 10
-10.76463145476959
 20
-17.68778207378953
 30
0.0
 40
0.125
 41
0.0
 71
     5
 72
     1
  1
\A1;2 1/4
 73
     1
 44
1.0
1001
ACAD
1000
MTEXTBEGIN
1070
    73
1070
     1
1070
    44
1040
1.0
1070
    74
1070
     0
1000
MTEXTEND
  0
POINT
  5
28E
330
FE
100
AcDbEntity
  8
DEFPOINTS
 62
     0
100
AcDbPoint
 10
-11.88963145476959
 20
-18.13709216477916
 30
0.0
  0
POINT
  5
28F
330
FE
100
AcDbEntity
  8
DEFPOINTS
 62
     0
100
AcDbPoint
 10
-9.63963145476959
 20
-18.13709216477915
 30
0.0
  0
POINT
  5
290
330
FE
100
AcDbEntity
  8
DEFPOINTS
 62
     0
100
AcDbPoint
 10
-9.63963145476959
 20
-17.68778207378953
 30
0.0
  0
ENDBLK
  5
10A
330
FE
100
AcDbEntity
  8
0
100
AcDbBlockEnd
  0
BLOCK
  5
118
330
10D
100
AcDbEntity
  8
0
100
AcDbBlockBegin
  2
*D2
 70
     1
 10
0.0
 20
0.0
 30
0.0
  3
*D2
  1

  0
LINE
  5
293
330
10D
100
AcDbEntity
  8
ADPDIM
 62
     0
100
AcDbLine
 10
-11.95213145476959
 20
-16.98790141038343
 30
0.0
 11
-12.40342650314175
 21
-16.98790141038343
 31
0.0
  0
LINE
  5
294
330
10D
100
AcDbEntity
  8
ADPDIM
 62
     0
100
AcDbLine
 10
-11.95213145476959
 20
-13.98790141038343
 30
0.0
 11
-12.40342650314175
 21
-13.98790141038342
 31
0.0
  0
LINE
  5
295
330
10D
100
AcDbEntity
  8
ADPDIM
 62
     0
100
AcDbLine
 10
-12.22342650314175
 20
-16.98790141038343
 30
0.0
 11
-12.22342650314175
 21
-15.65456807705009
 31
0.0
  0
LINE
  5
296
330
10D
100
AcDbEntity
  8
ADPDIM
 62
     0
100
AcDbLine
 10
-12.22342650314175
 20
-13.98790141038342
 30
0.0
 11
-12.22342650314175
 21
-15.32123474371676
 31
0.0
  0
LINE
  5
297
330
10D
100
AcDbEntity
  8
ADPDIM
 62
     0
100
AcDbLine
 10
-12.09842650314175
 20
-14.11290141038343
 30
0.0
 11
-12.34842650314175
 21
-13.86290141038343
 31
0.0
  0
LINE
  5
298
330
10D
100
AcDbEntity
  8
ADPDIM
 62
     0
100
AcDbLine
 10
-12.09842650314175
 20
-17.11290141038343
 30
0.0
 11
-12.34842650314175
 21
-16.86290141038343
 31
0.0
  0
MTEXT
  5
299
330
10D
100
AcDbEntity
  8
ADPDIM
 62
     0
100
AcDbMText
 10
-12.22342650314175
 20
-15.48790141038343
 30
0.0
 40
0.125
 41
0.0
 71
     5
 72
     1
  1
\A1;3
 11
0.0000000000000001
 21
1.0
 31
0.0
 73
     1
 44
1.0
1001
ACAD
1000
MTEXTBEGIN
1070
    73
1070
     1
1070
    44
1040
1.0
1070
    74
1070
     0
1000
MTEXTEND
  0
POINT
  5
29A
330
10D
100
AcDbEntity
  8
DEFPOINTS
 62
     0
100
AcDbPoint
 10
-11.88963145476959
 20
-16.98790141038343
 30
0.0
  0
POINT
  5
29B
330
10D
100
AcDbEntity
  8
DEFPOINTS
 62
     0
100
AcDbPoint
 10
-11.88963145476959
 20
-13.98790141038343
 30
0.0
  0
POINT
  5
29C
330
10D
100
AcDbEntity
  8
DEFPOINTS
 62
     0
100
AcDbPoint
 10
-12.22342650314175
 20
-13.98790141038342
 30
0.0
  0
ENDBLK
  5
119
330
10D
100
AcDbEntity
  8
0
100
AcDbBlockEnd
  0
BLOCK
  5
125
330
11A
100
AcDbEntity
  8
0
100
AcDbBlockBegin
  2
*D3
 70
     1
 10
0.0
 20
0.0
 30
0.0
  3
*D3
  1

  0
LINE
  5
29D
330
11A
100
AcDbEntity
  8
ADPDIM
 62
     0
100
AcDbLine
 10
-11.15026462338339
 20
-18.4568811815387
 30
0.0
 11
-11.15026462338339
 21
-18.83830388638628
 31
0.0
  0
LINE
  5
29E
330
11A
100
AcDbEntity
  8
ADPDIM
 62
     0
100
AcDbLine
 10
-10.37064324381515
 20
-18.4568811815387
 30
0.0
 11
-10.37064324381515
 21
-18.83830388638628
 31
0.0
  0
LINE
  5
29F
330
11A
100
AcDbEntity
  8
ADPDIM
 62
     0
100
AcDbLine
 10
-11.15026462338339
 20
-18.65830388638628
 30
0.0
 11
-11.40026462338338
 21
-18.65830388638628
 31
0.0
  0
LINE
  5
2A0
330
11A
100
AcDbEntity
  8
ADPDIM
 62
     0
100
AcDbLine
 10
-10.37064324381515
 20
-18.65830388638628
 30
0.0
 11
-10.12064324381515
 21
-18.65830388638628
 31
0.0
  0
LINE
  5
2A1
330
11A
100
AcDbEntity
  8
ADPDIM
 62
     0
100
AcDbLine
 10
-10.49564324381515
 20
-18.78330388638628
 30
0.0
 11
-10.24564324381515
 21
-18.53330388638628
 31
0.0
  0
LINE
  5
2A2
330
11A
100
AcDbEntity
  8
ADPDIM
 62
     0
100
AcDbLine
 10
-11.27526462338338
 20
-18.78330388638628
 30
0.0
 11
-11.02526462338339
 21
-18.53330388638628
 31
0.0
  0
MTEXT
  5
2A3
330
11A
100
AcDbEntity
  8
ADPDIM
 62
     0
100
AcDbMText
 10
-10.76045393359927
 20
-18.65830388638628
 30
0.0
 40
0.125
 41
0.0
 71
     5
 72
     1
  1
\A1;3/4
 73
     1
 44
1.0
1001
ACAD
1000
MTEXTBEGIN
1070
    73
1070
     1
1070
    44
1040
1.0
1070
    74
1070
     0
1000
MTEXTEND
  0
POINT
  5
2A4
330
11A
100
AcDbEntity
  8
DEFPOINTS
 62
     0
100
AcDbPoint
 10
-11.15026462338339
 20
-18.3943811815387
 30
0.0
  0
POINT
  5
2A5
330
11A
100
AcDbEntity
  8
DEFPOINTS
 62
     0
100
AcDbPoint
 10
-10.37064324381515
 20
-18.3943811815387
 30
0.0
  0
POINT
  5
2A6
330
11A
100
AcDbEntity
  8
DEFPOINTS
 62
     0
100
AcDbPoint
 10
-10.37064324381515
 20
-18.65830388638628
 30
0.0
  0
ENDBLK
  5
126
330
11A
100
AcDbEntity
  8
0
100
AcDbBlockEnd
  0
BLOCK
  5
2D1
330
2C6
100
AcDbEntity
  8
0
 62
     3
100
AcDbBlockBegin
  2
*D4
 70
     1
 10
0.0
 20
0.0
 30
0.0
  3
*D4
  1

  0
LINE
  5
2D3
330
2C6
100
AcDbEntity
  8
ADPDIM
 62
     0
370
    -2
100
AcDbLine
 10
-9.699716493959478
 20
-16.98983677078844
 30
0.0
 11
-9.044111414514532
 21
-16.98983677078844
 31
0.0
  0
LINE
  5
2D4
330
2C6
100
AcDbEntity
  8
ADPDIM
 62
     0
370
    -2
100
AcDbLine
 10
-9.699716493959478
 20
-14.11483677078845
 30
0.0
 11
-9.044111414514532
 21
-14.11483677078845
 31
0.0
  0
LINE
  5
2D5
330
2C6
100
AcDbEntity
  8
ADPDIM
 62
     0
370
    -2
100
AcDbLine
 10
-9.224111414514531
 20
-16.98983677078844
 30
0.0
 11
-9.224111414514531
 21
-15.96900343745511
 31
0.0
  0
LINE
  5
2D6
330
2C6
100
AcDbEntity
  8
ADPDIM
 62
     0
370
    -2
100
AcDbLine
 10
-9.224111414514531
 20
-14.11483677078845
 30
0.0
 11
-9.224111414514531
 21
-15.13567010412178
 31
0.0
  0
LINE
  5
2D7
330
2C6
100
AcDbEntity
  8
ADPDIM
 62
     0
370
    -2
100
AcDbLine
 10
-9.099111414514531
 20
-14.23983677078845
 30
0.0
 11
-9.349111414514531
 21
-13.98983677078845
 31
0.0
  0
LINE
  5
2D8
330
2C6
100
AcDbEntity
  8
ADPDIM
 62
     0
370
    -2
100
AcDbLine
 10
-9.099111414514531
 20
-17.11483677078845
 30
0.0
 11
-9.349111414514531
 21
-16.86483677078844
 31
0.0
  0
MTEXT
  5
2D9
330
2C6
100
AcDbEntity
  8
ADPDIM
 62
     0
100
AcDbMText
 10
-9.224111414514529
 20
-15.55233677078845
 30
0.0
 40
0.125
 41
0.0
 71
     5
 72
     1
  1
\A1;2 7/8
 11
0.0000000000000001
 21
1.0
 31
0.0
 73
     1
 44
1.0
1001
ACAD
1000
MTEXTBEGIN
1070
    73
1070
     1
1070
    44
1040
1.0
1070
    74
1070
     0
1000
MTEXTEND
  0
POINT
  5
2DA
330
2C6
100
AcDbEntity
  8
DEFPOINTS
 62
     0
100
AcDbPoint
 10
-9.762216493959478
 20
-16.98983677078844
 30
0.0
  0
POINT
  5
2DB
330
2C6
100
AcDbEntity
  8
DEFPOINTS
 62
     0
100
AcDbPoint
 10
-9.762216493959478
 20
-14.11483677078845
 30
0.0
  0
POINT
  5
2DC
330
2C6
100
AcDbEntity
  8
DEFPOINTS
 62
     0
100
AcDbPoint
 10
-9.224111414514531
 20
-14.11483677078845
 30
0.0
  0
ENDBLK
  5
2D2
330
2C6
100
AcDbEntity
  8
0
 62
     3
100
AcDbBlockEnd
  0
BLOCK
  5
2E9
330
2DE
100
AcDbEntity
  8
0
 62
     3
100
AcDbBlockBegin
  2
*D5
 70
     1
 10
0.0
 20
0.0
 30
0.0
  3
*D5
  1

  0
LINE
  5
2F5
330
2DE
100
AcDbEntity
  8
ADPDIM
 62
     0
370
    -2
100
AcDbLine
 10
-10.79598316841736
 20
-17.93258230381959
 30
0.0
 11
-12.88293102863056
 21
-17.93258230381959
 31
0.0
  0
LINE
  5
2F6
330
2DE
100
AcDbEntity
  8
ADPDIM
 62
     0
370
    -2
100
AcDbLine
 10
-10.79598316841736
 20
-18.37008230381959
 30
0.0
 11
-12.88293102863056
 21
-18.37008230381959
 31
0.0
  0
LINE
  5
2F7
330
2DE
100
AcDbEntity
  8
ADPDIM
 62
     0
370
    -2
100
AcDbLine
 10
-12.70293102863056
 20
-18.37008230381959
 30
0.0
 11
-12.70293102863056
 21
-17.93258230381959
 31
0.0
  0
LINE
  5
2F8
330
2DE
100
AcDbEntity
  8
ADPDIM
 62
     0
370
    -2
100
AcDbLine
 10
-12.70293102863056
 20
-17.93258230381959
 30
0.0
 11
-12.70293102863056
 21
-17.68258230381959
 31
0.0
  0
LINE
  5
2F9
330
2DE
100
AcDbEntity
  8
ADPDIM
 62
     0
370
    -2
100
AcDbLine
 10
-12.57793102863056
 20
-18.05758230381959
 30
0.0
 11
-12.82793102863056
 21
-17.80758230381959
 31
0.0
  0
LINE
  5
2FA
330
2DE
100
AcDbEntity
  8
ADPDIM
 62
     0
370
    -2
100
AcDbLine
 10
-12.57793102863056
 20
-18.49508230381959
 30
0.0
 11
-12.82793102863056
 21
-18.24508230381959
 31
0.0
  0
MTEXT
  5
2FB
330
2DE
100
AcDbEntity
  8
ADPDIM
 62
     0
100
AcDbMText
 10
-12.70293102863055
 20
-17.34924897048626
 30
0.0
 40
0.125
 41
0.0
 71
     5
 72
     1
  1
\A1;7/16
 11
0.0000000000000001
 21
1.0
 31
0.0
 73
     1
 44
1.0
1001
ACAD
1000
MTEXTBEGIN
1070
    73
1070
     1
1070
    44
1040
1.0
1070
    74
1070
     0
1000
MTEXTEND
  0
POINT
  5
2FC
330
2DE
100
AcDbEntity
  8
DEFPOINTS
 62
     0
100
AcDbPoint
 10
-10.73348316841736
 20
-17.93258230381959
 30
0.0
  0
POINT
  5
2FD
330
2DE
100
AcDbEntity
  8
DEFPOINTS
 62
     0
100
AcDbPoint
 10
-10.73348316841736
 20
-18.37008230381959
 30
0.0
  0
POINT
  5
2FE
330
2DE
100
AcDbEntity
  8
DEFPOINTS
 62
     0
100
AcDbPoint
 10
-12.70293102863056
 20
-18.37008230381959
 30
0.0
  0
ENDBLK
  5
2EA
330
2DE
100
AcDbEntity
  8
0
 62
     3
100
AcDbBlockEnd
  0
BLOCK
  5
311
330
306
100
AcDbEntity
  8
0
 62
     3
100
AcDbBlockBegin
  2
*D7
 70
     1
 10
0.0
 20
0.0
 30
0.0
  3
*D7
  1

  0
LINE
  5
313
330
306
100
AcDbEntity
  8
ADPDIM
 62
     0
370
    -2
100
AcDbLine
 10
-8.728171680700988
 20
-17.85467792163319
 30
0.0
 11
-8.728171680700988
 21
-17.35527898532972
 31
0.0
  0
LINE
  5
314
330
306
100
AcDbEntity
  8
ADPDIM
 62
     0
370
    -2
100
AcDbLine
 10
-5.853171680700988
 20
-17.85467792163319
 30
0.0
 11
-5.853171680700988
 21
-17.35527898532972
 31
0.0
  0
LINE
  5
315
330
306
100
AcDbEntity
  8
ADPDIM
 62
     0
370
    -2
100
AcDbLine
 10
-8.728171680700988
 20
-17.53527898532972
 30
0.0
 11
-7.457338347367655
 21
-17.53527898532972
 31
0.0
  0
LINE
  5
316
330
306
100
AcDbEntity
  8
ADPDIM
 62
     0
370
    -2
100
AcDbLine
 10
-5.853171680700988
 20
-17.53527898532972
 30
0.0
 11
-7.124005014034321
 21
-17.53527898532972
 31
0.0
  0
LINE
  5
317
330
306
100
AcDbEntity
  8
ADPDIM
 62
     0
370
    -2
100
AcDbLine
 10
-5.978171680700988
 20
-17.66027898532972
 30
0.0
 11
-5.728171680700988
 21
-17.41027898532972
 31
0.0
  0
LINE
  5
318
330
306
100
AcDbEntity
  8
ADPDIM
 62
     0
370
    -2
100
AcDbLine
 10
-8.853171680700988
 20
-17.66027898532972
 30
0.0
 11
-8.603171680700988
 21
-17.41027898532972
 31
0.0
  0
MTEXT
  5
319
330
306
100
AcDbEntity
  8
ADPDIM
 62
     0
100
AcDbMText
 10
-7.290671680700988
 20
-17.53527898532972
 30
0.0
 40
0.125
 41
0.0
 71
     5
 72
     1
  1
\A1;3
 73
     1
 44
1.0
1001
ACAD
1000
MTEXTBEGIN
1070
    73
1070
     1
1070
    44
1040
1.0
1070
    74
1070
     0
1000
MTEXTEND
  0
POINT
  5
31A
330
306
100
AcDbEntity
  8
DEFPOINTS
 62
     0
100
AcDbPoint
 10
-8.728171680700988
 20
-17.91717792163319
 30
0.0
  0
POINT
  5
31B
330
306
100
AcDbEntity
  8
DEFPOINTS
 62
     0
100
AcDbPoint
 10
-5.853171680700988
 20
-17.91717792163319
 30
0.0
  0
POINT
  5
31C
330
306
100
AcDbEntity
  8
DEFPOINTS
 62
     0
100
AcDbPoint
 10
-5.853171680700988
 20
-17.53527898532972
 30
0.0
  0
ENDBLK
  5
312
330
306
100
AcDbEntity
  8
0
 62
     3
100
AcDbBlockEnd
  0
ENDSEC
  0
SECTION
  2
ENTITIES
  0
DIMENSION
  5
1F
330
2
100
AcDbEntity
  8
ADPDIM
100
AcDbDimension
  2
*D1
 10
-9.63963145476959
 20
-17.68778207378953
 30
0.0
 11
-10.76463145476959
 21
-17.68778207378953
 31
0.0
 70
    32
 71
     5
 42
-1.0
  3
STANDARD
100
AcDbAlignedDimension
 13
-11.88963145476959
 23
-18.13709216477916
 33
0.0
 14
-9.63963145476959
 24
-18.13709216477915
 34
0.0
100
AcDbRotatedDimension
1001
ACAD
1000
DSTYLE
1002
{
1070
   270
1070
     7
1070
   270
1070
     7
1070
   270
1070
     7
1070
   270
1070
     7
1070
    41
1040
0.125
1070
    73
1070
     0
1070
    74
1070
     0
1070
    78
1070
     2
1070
   140
1040
0.125
1070
   141
1040
0.1875
1070
   142
1040
0.125
1070
   147
1040
0.125
1070
   171
1070
     1
1070
   271
1070
     2
1070
   276
1070
     2
1070
   277
1070
     5
1002
}
  0
INSERT
  5
2E
330
2
100
AcDbEntity
  8
ADP1DETAIL
100
AcDbBlockReference
  2
4572
 10
-11.88963145476959
 20
-18.14252395782813
 30
0.0
  0
LINE
  5
44
330
2
100
AcDbEntity
  8
ADP1DETAIL
100
AcDbLine
 10
-11.88963145476959
 20
-14.12149535039527
 30
0.0
 11
-9.76463145476959
 21
-14.12149535039527
 31
0.0
  0
LINE
  5
45
330
2
100
AcDbEntity
  8
ADP1DETAIL
100
AcDbLine
 10
-9.76463145476959
 20
-16.98790141038343
 30
0.0
 11
-11.88963145476959
 21
-16.98790141038343
 31
0.0
  0
LINE
  5
54
330
2
100
AcDbEntity
  8
ADP1DETAIL
100
AcDbLine
 10
-11.88963145476959
 20
-16.98790141038343
 30
0.0
 11
-11.88963145476959
 21
-14.12149535039527
 31
0.0
  0
LINE
  5
55
330
2
100
AcDbEntity
  8
ADP1DETAIL
100
AcDbLine
 10
-6.849810364320717
 20
-18.34306239152606
 30
0.0
 11
-5.849810364320717
 21
-18.1839676619532
 31
0.0
  0
LINE
  5
56
330
2
100
AcDbEntity
  8
ADP1DETAIL
100
AcDbLine
 10
-8.722633281635282
 20
-18.34306239152606
 30
0.0
 11
-8.722633281635282
 21
-17.91791384308227
 31
0.0
  0
LINE
  5
57
330
2
100
AcDbEntity
  8
ADP2DETAIL
  6
HIDDEN2
100
AcDbLine
 10
-6.849810364320717
 20
-18.34306239152606
 30
0.0
 11
-6.849810364320717
 21
-18.09306239152606
 31
0.0
  0
LINE
  5
5A
330
2
100
AcDbEntity
  8
ADP1DETAIL
100
AcDbLine
 10
-6.849810364320717
 20
-18.34306239152606
 30
0.0
 11
-8.722633281635282
 21
-18.34306239152606
 31
0.0
  0
DIMENSION
  5
5B
330
2
100
AcDbEntity
  8
ADPDIM
100
AcDbDimension
  2
*D3
 10
-10.37064324381515
 20
-18.65830388638628
 30
0.0
 11
-10.76045393359927
 21
-18.65830388638628
 31
0.0
 70
    32
 71
     5
 42
-1.0
  3
STANDARD
100
AcDbAlignedDimension
 13
-11.15026462338339
 23
-18.3943811815387
 33
0.0
 14
-10.37064324381515
 24
-18.3943811815387
 34
0.0
100
AcDbRotatedDimension
1001
ACAD
1000
DSTYLE
1002
{
1070
   270
1070
     7
1070
   270
1070
     7
1070
   270
1070
     7
1070
   270
1070
     7
1070
    41
1040
0.125
1070
    73
1070
     0
1070
    74
1070
     0
1070
    78
1070
     2
1070
   140
1040
0.125
1070
   141
1040
0.1875
1070
   142
1040
0.125
1070
   147
1040
0.125
1070
   171
1070
     1
1070
   271
1070
     2
1070
   276
1070
     2
1070
   277
1070
     5
1002
}
  0
LINE
  5
69
330
2
100
AcDbEntity
  8
ADP2DETAIL
  6
HIDDEN2
100
AcDbLine
 10
-8.726126950213206
 20
-18.09306239152606
 30
0.0
 11
-6.849810364320717
 21
-18.09306239152606
 31
0.0
  0
LINE
  5
6A
330
2
100
AcDbEntity
  8
ADP1DETAIL
100
AcDbLine
 10
-8.723521217872551
 20
-18.03629422428044
 30
0.0
 11
-6.849810364320717
 21
-18.03629422428044
 31
0.0
  0
LINE
  5
6B
330
2
100
AcDbEntity
  8
ADP1DETAIL
100
AcDbLine
 10
-8.722633281635282
 20
-17.91791384308227
 30
0.0
 11
-6.844147810401068
 21
-17.91791384308227
 31
0.0
  0
LINE
  5
6C
330
2
100
AcDbEntity
  8
ADP1DETAIL
100
AcDbLine
 10
-6.849810364320717
 20
-18.2339676619532
 30
0.0
 11
-8.723521217872551
 21
-18.2339676619532
 31
0.0
  0
LINE
  5
6D
330
2
100
AcDbEntity
  8
ADP2DETAIL
  6
HIDDEN2
100
AcDbLine
 10
-11.20213145476959
 20
-16.98790141038343
 30
0.0
 11
-11.20213145476959
 21
-14.98790141038343
 31
0.0
  0
LINE
  5
6E
330
2
100
AcDbEntity
  8
ADP1DETAIL
100
AcDbLine
 10
-9.76463145476959
 20
-14.12149535039527
 30
0.0
 11
-9.76463145476959
 21
-16.98790141038343
 31
0.0
  0
LINE
  5
6F
330
2
100
AcDbEntity
  8
ADP2DETAIL
  6
HIDDEN2
100
AcDbLine
 10
-10.45213145476959
 20
-16.98790141038343
 30
0.0
 11
-10.45213145476959
 21
-14.98790141038343
 31
0.0
  0
LINE
  5
70
330
2
100
AcDbEntity
  8
ADP2DETAIL
  6
HIDDEN2
100
AcDbLine
 10
-11.20213145476959
 20
-14.98790141038343
 30
0.0
 11
-10.45213145476959
 21
-14.98790141038343
 31
0.0
  0
LINE
  5
71
330
2
100
AcDbEntity
  8
ADP1DETAIL
100
AcDbLine
 10
-6.849810364320717
 20
-18.03629422428044
 30
0.0
 11
-5.849810364320717
 21
-18.08629422428044
 31
0.0
  0
LINE
  5
72
330
2
100
AcDbEntity
  8
ADP1DETAIL
100
AcDbLine
 10
-6.849810364320717
 20
-18.2339676619532
 30
0.0
 11
-5.849810364320717
 21
-18.1839676619532
 31
0.0
  0
LINE
  5
73
330
2
100
AcDbEntity
  8
ADP1DETAIL
100
AcDbLine
 10
-6.844147810401068
 20
-17.91791384308227
 30
0.0
 11
-5.849810364320717
 21
-18.08629422428044
 31
0.0
  0
LINE
  5
74
330
2
100
AcDbEntity
  8
ADP1DETAIL
100
AcDbLine
 10
-5.849810364320717
 20
-18.08629422428044
 30
0.0
 11
-5.849810364320717
 21
-18.1839676619532
 31
0.0
  0
TEXT
  5
7F
330
2
100
AcDbEntity
  8
ADPDIM
100
AcDbText
 10
-16.46616837496059
 20
-19.49665187294281
 30
0.0
 40
0.125
  1
J U L I U S  B L U M  &  C O . ,  I N C .      ( 8 0 0 )  5 2 6 - 6 2 9 3        W W W . J U L I U S B L U M . C O M        P A R T  N o .  5 5 7 2 - N
 41
1.25
  7
ARIAL_WIDE
 72
     1
 11
-9.76463145476959
 21
-19.37165187294281
 31
0.0
100
AcDbText
 73
     3
  0
DIMENSION
  5
2C5
330
2
100
AcDbEntity
  8
ADPDIM
 62
     3
100
AcDbDimension
  2
*D4
 10
-9.224111414514531
 20
-14.11483677078845
 30
0.0
 11
-9.224111414514529
 21
-15.55233677078845
 31
0.0
 70
    32
 71
     5
 42
2.875000000000001
  3
STANDARD
100
AcDbAlignedDimension
 13
-9.762216493959478
 23
-16.98983677078844
 33
0.0
 14
-9.762216493959478
 24
-14.11483677078845
 34
0.0
 50
90.0
100
AcDbRotatedDimension
1001
ACAD
1000
DSTYLE
1002
{
1070
    41
1040
0.125
1070
    73
1070
     0
1070
    74
1070
     0
1070
    78
1070
     2
1070
   140
1040
0.125
1070
   141
1040
0.1875
1070
   142
1040
0.125
1070
   147
1040
0.125
1070
   171
1070
     1
1070
   271
1070
     3
1070
   276
1070
     2
1070
   277
1070
     5
1002
}
  0
DIMENSION
  5
2DD
330
2
100
AcDbEntity
  8
ADPDIM
 62
     3
100
AcDbDimension
  2
*D5
 10
-12.70293102863056
 20
-18.37008230381959
 30
0.0
 11
-12.70293102863055
 21
-17.34924897048626
 31
0.0
 70
   160
 71
     5
 42
0.4375
  3
STANDARD
100
AcDbAlignedDimension
 13
-10.73348316841736
 23
-17.93258230381959
 33
0.0
 14
-10.73348316841736
 24
-18.37008230381959
 34
0.0
 50
90.0
100
AcDbRotatedDimension
1001
ACAD
1000
DSTYLE
1002
{
1070
    41
1040
0.125
1070
    73
1070
     0
1070
    74
1070
     0
1070
    78
1070
     2
1070
   140
1040
0.125
1070
   141
1040
0.1875
1070
   142
1040
0.125
1070
   147
1040
0.125
1070
   171
1070
     1
1070
   271
1070
     4
1070
   276
1070
     2
1070
   277
1070
     5
1002
}
  0
ENDSEC
  0
SECTION
  2
OBJECTS
  0
DICTIONARY
  5
1B
330
0
100
AcDbDictionary
281
     1
  3
ACAD_COLOR
350
2BF
  3
ACAD_GROUP
350
19
  3
ACAD_LAYOUT
350
78
  3
ACAD_MATERIAL
350
2AA
  3
ACAD_MLINESTYLE
350
1A
  3
ACAD_PLOTSETTINGS
350
79
  3
ACAD_PLOTSTYLENAME
350
76
  3
ACAD_TABLESTYLE
350
2C0
  3
ACAD_VISUALSTYLE
350
2AE
  3
AcDbVariableDictionary
350
129
  3
ASE_INDEX_DICTIONARY
350
31E
  3
DWGPROPS
350
340
  0
DICTIONARY
  5
FA
330
2
100
AcDbDictionary
280
     1
281
     1
  3
ACAD_LAYOUTSELFREF
360
283
  0
DICTIONARY
  5
FC
330
8
100
AcDbDictionary
280
     1
281
     1
  3
ACAD_LAYOUTSELFREF
360
284
  0
DICTIONARY
  5
2BF
102
{ACAD_REACTORS
330
1B
102
}
330
1B
100
AcDbDictionary
281
     1
  0
DICTIONARY
  5
19
102
{ACAD_REACTORS
330
1B
102
}
330
1B
100
AcDbDictionary
281
     1
  0
DICTIONARY
  5
78
102
{ACAD_REACTORS
330
1B
102
}
330
1B
100
AcDbDictionary
281
     1
  3
Layout1
350
7B
  3
Model
350
7A
  0
DICTIONARY
  5
2AA
102
{ACAD_REACTORS
330
1B
102
}
330
1B
100
AcDbDictionary
281
     1
  3
ByBlock
350
2AC
  3
ByLayer
350
2AB
  3
Global
350
2AD
  0
DICTIONARY
  5
1A
102
{ACAD_REACTORS
330
1B
102
}
330
1B
100
AcDbDictionary
281
     1
  3
STANDARD
350
1D
  0
DICTIONARY
  5
79
102
{ACAD_REACTORS
330
1B
102
}
330
1B
100
AcDbDictionary
281
     1
  0
ACDBDICTIONARYWDFLT
  5
76
102
{ACAD_REACTORS
330
1B
102
}
330
1B
100
AcDbDictionary
281
     1
  3
Normal
350
77
100
AcDbDictionaryWithDefault
340
77
  0
DICTIONARY
  5
2C0
102
{ACAD_REACTORS
330
1B
102
}
330
1B
100
AcDbDictionary
281
     1
  3
Standard
350
2C1
  0
DICTIONARY
  5
2AE
102
{ACAD_REACTORS
330
1B
102
}
330
1B
100
AcDbDictionary
281
     1
  3
2dWireframe
350
2B4
  3
3D Hidden
350
2B6
  3
3dWireframe
350
2B5
  3
Basic
350
2B3
  3
Brighten
350
2BA
  3
ColorChange
350
2BE
  3
Conceptual
350
2B7
  3
Dim
350
2B9
  3
Facepattern
350
2BD
  3
Flat
350
2AF
  3
FlatWithEdges
350
2B0
  3
Gouraud
350
2B1
  3
GouraudWithEdges
350
2B2
  3
Linepattern
350
2BC
  3
Realistic
350
2B8
  3
Thicken
350
2BB
  0
DICTIONARY
  5
129
102
{ACAD_REACTORS
330
1B
102
}
330
1B
100
AcDbDictionary
281
     1
  3
CTABLESTYLE
350
33D
  3
DIMASSOC
350
12A
  3
INDEXCTL
350
33F
  3
SORTENTS
350
33E
  0
DICTIONARY
  5
31E
102
{ACAD_REACTORS
330
1B
102
}
330
1B
100
AcDbDictionary
281
     1
  3
ASEBlockHierarchyIndexRecord
350
320
1001
DCO15
1040
1569008381.331
  0
XRECORD
  5
340
102
{ACAD_REACTORS
330
1B
102
}
330
1B
100
AcDbXrecord
280
     1
  1
DWGPROPS COOKIE
  2

  3

  4

  6

  7

  8
Yu Hu
  9

300
=
301
=
302
=
303
=
304
=
305
=
306
=
307
=
308
=
309
=
 40
0.0470887152777778
 41
2450406.661392546
 42
2453963.03108022
  1

 90
        0
  0
XRECORD
  5
283
102
{ACAD_REACTORS
330
FA
102
}
330
FA
100
AcDbXrecord
280
     1
340
2
  0
XRECORD
  5
284
102
{ACAD_REACTORS
330
FC
102
}
330
FC
100
AcDbXrecord
280
     1
340
8
  0
LAYOUT
  5
7B
102
{ACAD_XDICTIONARY
360
343
102
}
102
{ACAD_REACTORS
330
78
102
}
330
78
100
AcDbPlotSettings
  1

  2
Fax
  4

  6

 40
0.0
 41
0.0
 42
0.0
 43
0.0
 44
0.0
 45
0.0
 46
0.0
 47
0.0
 48
0.0
 49
0.0
140
0.0
141
0.0
142
1.0
143
1.0
 70
   688
 72
     0
 73
     0
 74
     5
  7
Default R14 pen assignments.ctb
 75
    16
147
1.0
148
0.0
149
0.0
100
AcDbLayout
  1
Layout1
 70
     1
 71
     1
 10
0.0
 20
0.0
 11
12.0
 21
9.0
 12
0.0008545028977096
 22
1.250283272183907
 32
0.0
 14
1.000000000000000E+20
 24
1.000000000000000E+20
 34
1.000000000000000E+20
 15
-1.000000000000000E+20
 25
-1.000000000000000E+20
 35
-1.000000000000000E+20
146
0.0
 13
0.0
 23
0.0
 33
0.0
 16
1.0
 26
0.0
 36
0.0
 17
0.0
 27
1.0
 37
0.0
 76
     0
330
8
  0
LAYOUT
  5
7A
102
{ACAD_XDICTIONARY
360
341
102
}
102
{ACAD_REACTORS
330
78
102
}
330
78
100
AcDbPlotSettings
  1

  2
Fax
  4

  6

 40
0.0
 41
0.0
 42
0.0
 43
0.0
 44
0.0
 45
0.0
 46
0.0
 47
0.0
 48
0.0
 49
0.0
140
0.0
141
0.0
142
1.0
143
1.0
 70
  1712
 72
     0
 73
     0
 74
     0
  7
Default R14 pen assignments.ctb
 75
     0
147
1.0
148
0.0
149
0.0
100
AcDbLayout
  1
Model
 70
     1
 71
     0
 10
0.0
 20
0.0
 11
12.0
 21
9.0
 12
0.0
 22
0.0
 32
0.0
 14
0.0
 24
0.0
 34
0.0
 15
0.0
 25
0.0
 35
0.0
146
0.0
 13
0.0
 23
0.0
 33
0.0
 16
1.0
 26
0.0
 36
0.0
 17
0.0
 27
1.0
 37
0.0
 76
     0
330
2
331
25F
  0
MATERIAL
  5
2AC
102
{ACAD_XDICTIONARY
360
347
102
}
102
{ACAD_REACTORS
330
2AA
102
}
330
2AA
100
AcDbMaterial
  1
ByBlock
  0
MATERIAL
  5
2AB
102
{ACAD_XDICTIONARY
360
345
102
}
102
{ACAD_REACTORS
330
2AA
102
}
330
2AA
100
AcDbMaterial
  1
ByLayer
  0
MATERIAL
  5
2AD
102
{ACAD_XDICTIONARY
360
349
102
}
102
{ACAD_REACTORS
330
2AA
102
}
330
2AA
100
AcDbMaterial
  1
Global
  0
MLINESTYLE
  5
1D
102
{ACAD_REACTORS
330
1A
102
}
330
1A
100
AcDbMlineStyle
  2
STANDARD
 70
     0
  3

 62
     0
 51
90.0
 52
90.0
 71
     2
 49
0.5
 62
   256
  6
BYLAYER
 49
-0.5
 62
   256
  6
BYLAYER
  0
ACDBPLACEHOLDER
  5
77
102
{ACAD_REACTORS
330
76
102
}
330
76
  0
TABLESTYLE
  5
2C1
102
{ACAD_XDICTIONARY
360
34B
102
}
102
{ACAD_REACTORS
330
2C0
102
}
330
2C0
100
AcDbTableStyle
  3
Standard
 70
     0
 71
     0
 40
0.06
 41
0.06
280
     0
281
     0
  7
STANDARD
140
0.18
170
     2
 62
     0
 63
     7
283
     0
274
    -2
284
     1
 64
     0
275
    -2
285
     1
 65
     0
276
    -2
286
     1
 66
     0
277
    -2
287
     1
 67
     0
278
    -2
288
     1
 68
     0
279
    -2
289
     1
 69
     0
  7
STANDARD
140
0.25
170
     5
 62
     0
 63
     7
283
     0
274
    -2
284
     1
 64
     0
275
    -2
285
     1
 65
     0
276
    -2
286
     1
 66
     0
277
    -2
287
     1
 67
     0
278
    -2
288
     1
 68
     0
279
    -2
289
     1
 69
     0
  7
STANDARD
140
0.18
170
     5
 62
     0
 63
     7
283
     0
274
    -2
284
     1
 64
     0
275
    -2
285
     1
 65
     0
276
    -2
286
     1
 66
     0
277
    -2
287
     1
 67
     0
278
    -2
288
     1
 68
     0
279
    -2
289
     1
 69
     0
  0
VISUALSTYLE
  5
2B4
102
{ACAD_REACTORS
330
2AE
102
}
330
2AE
100
AcDbVisualStyle
  2
2dWireframe
 70
     4
 71
     0
 72
     2
 73
     0
 90
        0
 40
-0.6
 41
-30.0
 62
     5
 63
     7
 74
     1
 91
        4
 64
     7
 65
   257
 75
     1
175
     1
 42
1.0
 92
        0
 66
   257
 43
1.0
 76
     1
 77
     6
 78
     2
 67
     7
 79
     5
170
     0
171
     0
290
     0
174
     0
 93
        1
 44
0.0
173
     0
291
     0
 45
0.0
1001
ACAD
1000
AcDbSavedByObjectVersion
1070
     0
  0
VISUALSTYLE
  5
2B6
102
{ACAD_REACTORS
330
2AE
102
}
330
2AE
100
AcDbVisualStyle
  2
3D Hidden
 70
     6
 71
     1
 72
     2
 73
     2
 90
        0
 40
-0.6
 41
-30.0
 62
     5
 63
     7
 74
     2
 91
        2
 64
     7
 65
   257
 75
     2
175
     1
 42
40.0
 92
        0
 66
   257
 43
1.0
 76
     1
 77
     6
 78
     2
 67
     7
 79
     3
170
     0
171
     0
290
     0
174
     0
 93
        1
 44
0.0
173
     0
291
     0
 45
0.0
1001
ACAD
1000
AcDbSavedByObjectVersion
1070
     0
  0
VISUALSTYLE
  5
2B5
102
{ACAD_REACTORS
330
2AE
102
}
330
2AE
100
AcDbVisualStyle
  2
3dWireframe
 70
     5
 71
     0
 72
     2
 73
     0
 90
        0
 40
-0.6
 41
-30.0
 62
     5
 63
     7
 74
     1
 91
        4
 64
     7
 65
   257
 75
     1
175
     1
 42
1.0
 92
        0
 66
   257
 43
1.0
 76
     1
 77
     6
 78
     2
 67
     7
 79
     5
170
     0
171
     0
290
     0
174
     0
 93
        1
 44
0.0
173
     0
291
     0
 45
0.0
1001
ACAD
1000
AcDbSavedByObjectVersion
1070
     0
  0
VISUALSTYLE
  5
2B3
102
{ACAD_REACTORS
330
2AE
102
}
330
2AE
100
AcDbVisualStyle
  2
Basic
 70
     7
 71
     1
 72
     0
 73
     1
 90
        0
 40
-0.6
 41
-30.0
 62
     5
 63
     7
 74
     0
 91
        4
 64
     7
 65
   257
 75
     1
175
     1
 42
1.0
 92
        8
 66
     7
 43
1.0
 76
     1
 77
     6
 78
     2
 67
     7
 79
     5
170
     0
171
     0
290
     0
174
     0
 93
        1
 44
0.0
173
     0
291
     1
 45
0.0
1001
ACAD
1000
AcDbSavedByObjectVersion
1070
     0
  0
VISUALSTYLE
  5
2BA
102
{ACAD_REACTORS
330
2AE
102
}
330
2AE
100
AcDbVisualStyle
  2
Brighten
 70
    12
 71
     2
 72
     2
 73
     0
 90
        0
 40
-0.6
 41
-30.0
 62
     5
 63
     7
 74
     1
 91
        4
 64
     7
 65
   257
 75
     1
175
     1
 42
1.0
 92
        8
 66
     7
 43
1.0
 76
     1
 77
     6
 78
     2
 67
     7
 79
     5
170
     0
171
     0
290
     0
174
     0
 93
        1
 44
50.0
173
     0
291
     1
 45
0.0
1001
ACAD
1000
AcDbSavedByObjectVersion
1070
     0
  0
VISUALSTYLE
  5
2BE
102
{ACAD_REACTORS
330
2AE
102
}
330
2AE
100
AcDbVisualStyle
  2
ColorChange
 70
    16
 71
     2
 72
     2
 73
     3
 90
        0
 40
-0.6
 41
-30.0
 62
     5
 63
     8
 74
     1
 91
        4
 64
     7
 65
   257
 75
     1
175
     1
 42
1.0
 92
        8
 66
     8
 43
1.0
 76
     1
 77
     6
 78
     2
 67
     7
 79
     5
170
     0
171
     0
290
     0
174
     0
 93
        1
 44
0.0
173
     0
291
     1
 45
0.0
1001
ACAD
1000
AcDbSavedByObjectVersion
1070
     0
  0
VISUALSTYLE
  5
2B7
102
{ACAD_REACTORS
330
2AE
102
}
330
2AE
100
AcDbVisualStyle
  2
Conceptual
 70
     9
 71
     3
 72
     2
 73
     0
 90
        0
 40
-0.6
 41
-30.0
 62
     5
 63
     7
 74
     2
 91
        2
 64
     7
 65
   257
 75
     1
175
     1
 42
40.0
 92
        8
 66
     7
 43
1.0
 76
     1
 77
     6
 78
     2
 67
     7
 79
     3
170
     0
171
     0
290
     0
174
     0
 93
        1
 44
0.0
173
     0
291
     0
 45
0.0
1001
ACAD
1000
AcDbSavedByObjectVersion
1070
     0
  0
VISUALSTYLE
  5
2B9
102
{ACAD_REACTORS
330
2AE
102
}
330
2AE
100
AcDbVisualStyle
  2
Dim
 70
    11
 71
     2
 72
     2
 73
     0
 90
        0
 40
-0.6
 41
-30.0
 62
     5
 63
     7
 74
     1
 91
        4
 64
     7
 65
   257
 75
     1
175
     1
 42
1.0
 92
        8
 66
     7
 43
1.0
 76
     1
 77
     6
 78
     2
 67
     7
 79
     5
170
     0
171
     0
290
     0
174
     0
 93
        1
 44
-50.0
173
     0
291
     1
 45
0.0
1001
ACAD
1000
AcDbSavedByObjectVersion
1070
     0
  0
VISUALSTYLE
  5
2BD
102
{ACAD_REACTORS
330
2AE
102
}
330
2AE
100
AcDbVisualStyle
  2
Facepattern
 70
    15
 71
     2
 72
     2
 73
     0
 90
        0
 40
-0.6
 41
-30.0
 62
     5
 63
     7
 74
     1
 91
        4
 64
     7
 65
   257
 75
     1
175
     1
 42
1.0
 92
        8
 66
     7
 43
1.0
 76
     1
 77
     6
 78
     2
 67
     7
 79
     5
170
     0
171
     0
290
     0
174
     0
 93
        1
 44
0.0
173
     0
291
     1
 45
0.0
1001
ACAD
1000
AcDbSavedByObjectVersion
1070
     0
  0
VISUALSTYLE
  5
2AF
102
{ACAD_REACTORS
330
2AE
102
}
330
2AE
100
AcDbVisualStyle
  2
Flat
 70
     0
 71
     2
 72
     1
 73
     1
 90
        2
 40
-0.6
 41
30.0
 62
     5
 63
     7
 74
     0
 91
        4
 64
     7
 65
   257
 75
     1
175
     1
 42
1.0
 92
        8
 66
     7
 43
1.0
 76
     1
 77
     6
 78
     2
 67
     7
 79
     5
170
     0
171
     0
290
     0
174
     0
 93
       13
 44
0.0
173
     0
291
     1
 45
0.0
1001
ACAD
1000
AcDbSavedByObjectVersion
1070
     0
  0
VISUALSTYLE
  5
2B0
102
{ACAD_REACTORS
330
2AE
102
}
330
2AE
100
AcDbVisualStyle
  2
FlatWithEdges
 70
     1
 71
     2
 72
     1
 73
     1
 90
        2
 40
-0.6
 41
30.0
 62
     5
 63
     7
 74
     1
 91
        4
 64
     7
 65
   257
 75
     1
175
     1
 42
1.0
 92
        0
 66
   257
 43
1.0
 76
     1
 77
     6
 78
     2
 67
     7
 79
     5
170
     0
171
     0
290
     0
174
     0
 93
       13
 44
0.0
173
     0
291
     1
 45
0.0
1001
ACAD
1000
AcDbSavedByObjectVersion
1070
     0
  0
VISUALSTYLE
  5
2B1
102
{ACAD_REACTORS
330
2AE
102
}
330
2AE
100
AcDbVisualStyle
  2
Gouraud
 70
     2
 71
     2
 72
     2
 73
     1
 90
        2
 40
-0.6
 41
30.0
 62
     5
 63
     7
 74
     0
 91
        4
 64
     7
 65
   257
 75
     1
175
     1
 42
1.0
 92
        0
 66
     7
 43
1.0
 76
     1
 77
     6
 78
     2
 67
     7
 79
     5
170
     0
171
     0
290
     0
174
     0
 93
       13
 44
0.0
173
     0
291
     1
 45
0.0
1001
ACAD
1000
AcDbSavedByObjectVersion
1070
     0
  0
VISUALSTYLE
  5
2B2
102
{ACAD_REACTORS
330
2AE
102
}
330
2AE
100
AcDbVisualStyle
  2
GouraudWithEdges
 70
     3
 71
     2
 72
     2
 73
     1
 90
        2
 40
-0.6
 41
30.0
 62
     5
 63
     7
 74
     1
 91
        4
 64
     7
 65
   257
 75
     1
175
     1
 42
1.0
 92
        0
 66
   257
 43
1.0
 76
     1
 77
     6
 78
     2
 67
     7
 79
     5
170
     0
171
     0
290
     0
174
     0
 93
       13
 44
0.0
173
     0
291
     1
 45
0.0
1001
ACAD
1000
AcDbSavedByObjectVersion
1070
     0
  0
VISUALSTYLE
  5
2BC
102
{ACAD_REACTORS
330
2AE
102
}
330
2AE
100
AcDbVisualStyle
  2
Linepattern
 70
    14
 71
     2
 72
     2
 73
     0
 90
        0
 40
-0.6
 41
-30.0
 62
     5
 63
     7
 74
     1
 91
        4
 64
     7
 65
   257
 75
     7
175
     7
 42
1.0
 92
        8
 66
     7
 43
1.0
 76
     1
 77
     6
 78
     2
 67
     7
 79
     5
170
     0
171
     0
290
     0
174
     0
 93
        1
 44
0.0
173
     0
291
     1
 45
0.0
1001
ACAD
1000
AcDbSavedByObjectVersion
1070
     0
  0
VISUALSTYLE
  5
2B8
102
{ACAD_REACTORS
330
2AE
102
}
330
2AE
100
AcDbVisualStyle
  2
Realistic
 70
     8
 71
     2
 72
     2
 73
     0
 90
        0
 40
-0.6
 41
-30.0
 62
     5
 63
     7
 74
     1
 91
        0
 64
     7
 65
   257
 75
     1
175
     1
 42
1.0
 92
        8
 66
     8
 43
1.0
 76
     1
 77
     6
 78
     2
 67
     7
 79
     5
170
     0
171
     0
290
     0
174
     0
 93
       13
 44
0.0
173
     0
291
     0
 45
0.0
1001
ACAD
1000
AcDbSavedByObjectVersion
1070
     0
  0
VISUALSTYLE
  5
2BB
102
{ACAD_REACTORS
330
2AE
102
}
330
2AE
100
AcDbVisualStyle
  2
Thicken
 70
    13
 71
     2
 72
     2
 73
     0
 90
        0
 40
-0.6
 41
-30.0
 62
     5
 63
     7
 74
     1
 91
        4
 64
     7
 65
   257
 75
     1
175
     1
 42
1.0
 92
       12
 66
     7
 43
1.0
 76
     1
 77
     6
 78
     2
 67
     7
 79
     5
170
     0
171
     0
290
     0
174
     0
 93
        1
 44
0.0
173
     0
291
     1
 45
0.0
1001
ACAD
1000
AcDbSavedByObjectVersion
1070
     0
  0
DICTIONARYVAR
  5
33D
102
{ACAD_REACTORS
330
129
102
}
330
129
100
DictionaryVariables
280
     0
  1
STANDARD
  0
DICTIONARYVAR
  5
12A
102
{ACAD_REACTORS
330
129
102
}
330
129
100
DictionaryVariables
280
     0
  1
1
  0
DICTIONARYVAR
  5
33F
102
{ACAD_REACTORS
330
129
102
}
330
129
100
DictionaryVariables
280
     0
  1
0
  0
DICTIONARYVAR
  5
33E
102
{ACAD_REACTORS
330
129
102
}
330
129
100
DictionaryVariables
280
     0
  1
127
  0
XRECORD
  5
320
102
{ACAD_REACTORS
330
31E
102
}
330
31E
100
AcDbXrecord
280
     1
330
2E
  0
DICTIONARY
  5
343
330
7B
100
AcDbDictionary
280
     1
281
     1
  3
ACAD_XREC_ROUNDTRIP
360
344
  0
DICTIONARY
  5
341
330
7A
100
AcDbDictionary
280
     1
281
     1
  3
ACAD_XREC_ROUNDTRIP
360
342
  0
DICTIONARY
  5
347
330
2AC
100
AcDbDictionary
280
     1
281
     1
  3
ACAD_XREC_ROUNDTRIP
360
348
  0
DICTIONARY
  5
345
330
2AB
100
AcDbDictionary
280
     1
281
     1
  3
ACAD_XREC_ROUNDTRIP
360
346
  0
DICTIONARY
  5
349
330
2AD
100
AcDbDictionary
280
     1
281
     1
  3
ACAD_XREC_ROUNDTRIP
360
34A
  0
DICTIONARY
  5
34B
330
2C1
100
AcDbDictionary
280
     1
281
     1
  3
ACAD_XREC_ROUNDTRIP
360
34C
  0
XRECORD
  5
344
102
{ACAD_REACTORS
330
343
102
}
330
343
100
AcDbXrecord
280
     1
102
SHADEPLOT
 70
     0
102
SHADEPLOTRESLEVEL
 70
     2
102
SHADEPLOTCUSTOMDPI
 70
   300
  0
XRECORD
  5
342
102
{ACAD_REACTORS
330
341
102
}
330
341
100
AcDbXrecord
280
     1
102
SHADEPLOT
 70
     0
102
SHADEPLOTRESLEVEL
 70
     2
102
SHADEPLOTCUSTOMDPI
 70
   300
  0
XRECORD
  5
348
102
{ACAD_REACTORS
330
347
102
}
330
347
100
AcDbXrecord
280
     1
102
MATERIAL
148
0.0
149
0.0
149
0.0
 93
        0
 94
       63
282
     0
 72
     1
 77
     1
171
     1
175
     1
179
     1
273
     0
  0
XRECORD
  5
346
102
{ACAD_REACTORS
330
345
102
}
330
345
100
AcDbXrecord
280
     1
102
MATERIAL
148
0.0
149
0.0
149
0.0
 93
        0
 94
       63
282
     0
 72
     1
 77
     1
171
     1
175
     1
179
     1
273
     0
  0
XRECORD
  5
34A
102
{ACAD_REACTORS
330
349
102
}
330
349
100
AcDbXrecord
280
     1
102
MATERIAL
148
0.0
149
0.0
149
0.0
 93
        0
 94
       63
282
     0
 72
     1
 77
     1
171
     1
175
     1
179
     1
273
     0
  0
XRECORD
  5
34C
102
{ACAD_REACTORS
330
34B
102
}
330
34B
100
AcDbXrecord
280
     1
102
ACAD_ROUNDTRIP_PRE2007_TABLESTYLE
 90
      512
 91
        0
  1

 92
      512
 93
        0
  2

 94
      512
 95
        0
  3

  0
ENDSEC
  0
EOF
