  0
SECTION
  2
HEADER
  9
$ACADVER
  1
AC1014
  9
$ACADMAINTVER
 70
     9
  9
$DWGCODEPAGE
  3
ANSI_1252
  9
$INSBASE
 10
-9.63963145476959
 20
-16.63709216477915
 30
0.0
  9
$EXTMIN
 10
-18.34753983621354
 20
-19.44693293434445
 30
0.0
  9
$EXTMAX
 10
1.75707092435945
 20
-9.761330082977924
 30
0.0
  9
$LIMMIN
 10
0.0
 20
0.0
  9
$LIMMAX
 10
36.0
 20
36.0
  9
$ORTHOMODE
 70
     1
  9
$REGENMODE
 70
     1
  9
$FILLMODE
 70
     1
  9
$QTEXTMODE
 70
     0
  9
$MIRRTEXT
 70
     1
  9
$DRAGMODE
 70
     0
  9
$LTSCALE
 40
1.0
  9
$OSMODE
 70
    37
  9
$ATTMODE
 70
     1
  9
$TEXTSIZE
 40
0.2
  9
$TRACEWID
 40
0.05
  9
$TEXTSTYLE
  7
STANDARD
  9
$CLAYER
  8
ADP1DETAIL
  9
$CELTYPE
  6
BYLAYER
  9
$CECOLOR
 62
   256
  9
$CELTSCALE
 40
1.0
  9
$DELOBJ
 70
     1
  9
$DISPSILH
 70
     0
  9
$DIMSCALE
 40
1.0
  9
$DIMASZ
 40
0.125
  9
$DIMEXO
 40
0.0625
  9
$DIMDLI
 40
0.38
  9
$DIMRND
 40
0.0
  9
$DIMDLE
 40
0.0
  9
$DIMEXE
 40
0.18
  9
$DIMTP
 40
0.0
  9
$DIMTM
 40
0.0
  9
$DIMTXT
 40
0.125
  9
$DIMCEN
 40
0.1875
  9
$DIMTSZ
 40
0.125
  9
$DIMTOL
 70
     0
  9
$DIMLIM
 70
     0
  9
$DIMTIH
 70
     0
  9
$DIMTOH
 70
     0
  9
$DIMSE1
 70
     0
  9
$DIMSE2
 70
     0
  9
$DIMTAD
 70
     0
  9
$DIMZIN
 70
     3
  9
$DIMBLK
  1

  9
$DIMASO
 70
     1
  9
$DIMSHO
 70
     1
  9
$DIMPOST
  1

  9
$DIMAPOST
  1

  9
$DIMALT
 70
     0
  9
$DIMALTD
 70
     1
  9
$DIMALTF
 40
25.4
  9
$DIMLFAC
 40
1.0
  9
$DIMTOFL
 70
     0
  9
$DIMTVP
 40
0.0
  9
$DIMTIX
 70
     0
  9
$DIMSOXD
 70
     0
  9
$DIMSAH
 70
     0
  9
$DIMBLK1
  1

  9
$DIMBLK2
  1

  9
$DIMSTYLE
  2
STANDARD
  9
$DIMCLRD
 70
     0
  9
$DIMCLRE
 70
     0
  9
$DIMCLRT
 70
     0
  9
$DIMTFAC
 40
1.0
  9
$DIMGAP
 40
0.125
  9
$DIMJUST
 70
     0
  9
$DIMSD1
 70
     0
  9
$DIMSD2
 70
     0
  9
$DIMTOLJ
 70
     1
  9
$DIMTZIN
 70
     3
  9
$DIMALTZ
 70
     3
  9
$DIMALTTZ
 70
     3
  9
$DIMFIT
 70
     5
  9
$DIMUPT
 70
     0
  9
$DIMUNIT
 70
     5
  9
$DIMDEC
 70
     4
  9
$DIMTDEC
 70
     4
  9
$DIMALTU
 70
     5
  9
$DIMALTTD
 70
     1
  9
$DIMTXSTY
  7
STANDARD
  9
$DIMAUNIT
 70
     0
  9
$LUNITS
 70
     5
  9
$LUPREC
 70
     4
  9
$SKETCHINC
 40
0.1
  9
$FILLETRAD
 40
0.062
  9
$AUNITS
 70
     0
  9
$AUPREC
 70
     0
  9
$MENU
  1
acad
  9
$ELEVATION
 40
0.0
  9
$PELEVATION
 40
0.0
  9
$THICKNESS
 40
0.0
  9
$LIMCHECK
 70
     0
  9
$BLIPMODE
 70
     0
  9
$CHAMFERA
 40
0.0
  9
$CHAMFERB
 40
0.0
  9
$CHAMFERC
 40
0.0
  9
$CHAMFERD
 40
0.0
  9
$SKPOLY
 70
     0
  9
$TDCREATE
 40
2450406.661822141
  9
$TDUPDATE
 40
2452297.091357592
  9
$TDINDWG
 40
0.0449909491
  9
$TDUSRTIMER
 40
0.0449909491
  9
$USRTIMER
 70
     1
  9
$ANGBASE
 50
0.0
  9
$ANGDIR
 70
     0
  9
$PDMODE
 70
     0
  9
$PDSIZE
 40
0.0
  9
$PLINEWID
 40
0.0
  9
$COORDS
 70
     2
  9
$SPLFRAME
 70
     0
  9
$SPLINETYPE
 70
     6
  9
$SPLINESEGS
 70
     8
  9
$ATTDIA
 70
     0
  9
$ATTREQ
 70
     1
  9
$HANDLING
 70
 22529
  9
$HANDSEED
  5
364
  9
$SURFTAB1
 70
     6
  9
$SURFTAB2
 70
     6
  9
$SURFTYPE
 70
     6
  9
$SURFU
 70
     6
  9
$SURFV
 70
     6
  9
$UCSNAME
  2

  9
$UCSORG
 10
0.0
 20
0.0
 30
0.0
  9
$UCSXDIR
 10
1.0
 20
0.0
 30
0.0
  9
$UCSYDIR
 10
0.0
 20
1.0
 30
0.0
  9
$PUCSNAME
  2

  9
$PUCSORG
 10
0.0
 20
0.0
 30
0.0
  9
$PUCSXDIR
 10
1.0
 20
0.0
 30
0.0
  9
$PUCSYDIR
 10
0.0
 20
1.0
 30
0.0
  9
$USERI1
 70
     0
  9
$USERI2
 70
     0
  9
$USERI3
 70
     0
  9
$USERI4
 70
     0
  9
$USERI5
 70
     0
  9
$USERR1
 40
0.0
  9
$USERR2
 40
0.0
  9
$USERR3
 40
0.0
  9
$USERR4
 40
0.0
  9
$USERR5
 40
0.0
  9
$WORLDVIEW
 70
     1
  9
$SHADEDGE
 70
     3
  9
$SHADEDIF
 70
    70
  9
$TILEMODE
 70
     1
  9
$MAXACTVP
 70
    15
  9
$PINSBASE
 10
0.0008545028977096
 20
1.250283272183907
 30
0.0
  9
$PLIMCHECK
 70
     0
  9
$PEXTMIN
 10
1.000000000000000E+20
 20
1.000000000000000E+20
 30
1.000000000000000E+20
  9
$PEXTMAX
 10
-1.000000000000000E+20
 20
-1.000000000000000E+20
 30
-1.000000000000000E+20
  9
$PLIMMIN
 10
0.0
 20
0.0
  9
$PLIMMAX
 10
12.0
 20
9.0
  9
$UNITMODE
 70
     0
  9
$VISRETAIN
 70
     0
  9
$PLINEGEN
 70
     0
  9
$PSLTSCALE
 70
     1
  9
$TREEDEPTH
 70
  3020
  9
$PICKSTYLE
 70
     1
  9
$CMLSTYLE
  2
STANDARD
  9
$CMLJUST
 70
     0
  9
$CMLSCALE
 40
1.0
  9
$PROXYGRAPHICS
 70
     1
  9
$MEASUREMENT
 70
     0
  0
ENDSEC
  0
SECTION
  2
CLASSES
  0
CLASS
  1
ACDBDICTIONARYWDFLT
  2
AcDbDictionaryWithDefault
  3
AutoCAD 2000
 90
        0
280
     0
281
     0
  0
CLASS
  1
ACDBPLACEHOLDER
  2
AcDbPlaceHolder
  3
AutoCAD 2000
 90
        0
280
     0
281
     0
  0
CLASS
  1
LAYOUT
  2
AcDbLayout
  3
AutoCAD 2000
 90
        0
280
     0
281
     0
  0
CLASS
  1
DICTIONARYVAR
  2
AcDbDictionaryVar
  3
AutoCAD 2000
 90
        0
280
     0
281
     0
  0
CLASS
  1
LONG_TRANSACTION
  2
AcDbLongTransaction
  3
AutoCAD 2000
 90
        0
280
     0
281
     0
  0
CLASS
  1
LWPOLYLINE
  2
AcDbPolyline
  3
AutoCAD 2000
 90
        0
280
     0
281
     1
  0
CLASS
  1
HATCH
  2
AcDbHatch
  3
AutoCAD 2000
 90
        0
280
     0
281
     1
  0
CLASS
  1
XRECORD
  2
AcDbXrecord
  3
AutoCAD 2000
 90
        0
280
     0
281
     0
  0
CLASS
  1
LONG_TRANSACTION
  2
AcDbLongTransaction
  3
AutoCAD 2000
 90
        0
280
     0
281
     0
  0
CLASS
  1
LWPOLYLINE
  2
AcDbPolyline
  3
AutoCAD 2000
 90
        0
280
     0
281
     1
  0
CLASS
  1
HATCH
  2
AcDbHatch
  3
AutoCAD 2000
 90
        0
280
     0
281
     1
  0
CLASS
  1
XRECORD
  2
AcDbXrecord
  3
AutoCAD 2000
 90
        0
280
     0
281
     0
  0
CLASS
  1
LONG_TRANSACTION
  2
AcDbLongTransaction
  3
AutoCAD 2000
 90
        0
280
     0
281
     0
  0
CLASS
  1
LWPOLYLINE
  2
AcDbPolyline
  3
AutoCAD 2000
 90
        0
280
     0
281
     1
  0
CLASS
  1
HATCH
  2
AcDbHatch
  3
AutoCAD 2000
 90
        0
280
     0
281
     1
  0
CLASS
  1
XRECORD
  2
AcDbXrecord
  3
AutoCAD 2000
 90
        0
280
     0
281
     0
  0
CLASS
  1
LONG_TRANSACTION
  2
AcDbLongTransaction
  3
AutoCAD 2000
 90
        0
280
     0
281
     0
  0
CLASS
  1
LWPOLYLINE
  2
AcDbPolyline
  3
AutoCAD 2000
 90
        0
280
     0
281
     1
  0
CLASS
  1
HATCH
  2
AcDbHatch
  3
AutoCAD 2000
 90
        0
280
     0
281
     1
  0
CLASS
  1
XRECORD
  2
AcDbXrecord
  3
AutoCAD 2000
 90
        0
280
     0
281
     0
  0
CLASS
  1
LONG_TRANSACTION
  2
AcDbLongTransaction
  3
AutoCAD 2000
 90
        0
280
     0
281
     0
  0
CLASS
  1
LWPOLYLINE
  2
AcDbPolyline
  3
AutoCAD 2000
 90
        0
280
     0
281
     1
  0
CLASS
  1
HATCH
  2
AcDbHatch
  3
AutoCAD 2000
 90
        0
280
     0
281
     1
  0
CLASS
  1
XRECORD
  2
AcDbXrecord
  3
AutoCAD 2000
 90
        0
280
     0
281
     0
  0
ENDSEC
  0
SECTION
  2
TABLES
  0
TABLE
  2
VPORT
  5
8
330
0
100
AcDbSymbolTable
 70
     2
  0
VPORT
  5
340
330
8
100
AcDbSymbolTableRecord
100
AcDbViewportTableRecord
  2
*ACTIVE
 70
     0
 10
0.0
 20
0.0
 11
1.0
 21
1.0
 12
-8.27944788917277
 22
-14.60375729058571
 13
0.0
 23
0.0
 14
0.5740882589684922
 24
0.5740882589684922
 15
0.5
 25
0.5
 16
0.0
 26
0.0
 36
1.0
 17
0.0
 27
0.0
 37
0.0
 40
12.88732028566955
 41
1.570528967254408
 42
50.0
 43
0.0
 44
0.0
 50
0.0
 51
0.0
 71
     0
 72
   100
 73
     1
 74
     0
 75
     0
 76
     0
 77
     0
 78
     0
  0
ENDTAB
  0
TABLE
  2
LTYPE
  5
5
330
0
100
AcDbSymbolTable
 70
     2
  0
LTYPE
  5
13
330
5
100
AcDbSymbolTableRecord
100
AcDbLinetypeTableRecord
  2
BYBLOCK
 70
     0
  3

 72
    65
 73
     0
 40
0.0
  0
LTYPE
  5
14
330
5
100
AcDbSymbolTableRecord
100
AcDbLinetypeTableRecord
  2
BYLAYER
 70
     0
  3

 72
    65
 73
     0
 40
0.0
  0
LTYPE
  5
15
330
5
100
AcDbSymbolTableRecord
100
AcDbLinetypeTableRecord
  2
CONTINUOUS
 70
     0
  3
Solid line
 72
    65
 73
     0
 40
0.0
  0
LTYPE
  5
14C
330
5
100
AcDbSymbolTableRecord
100
AcDbLinetypeTableRecord
  2
HIDDEN2
 70
     0
  3
_ _ _ _ _ _ _ _ _ _ _ _ _ _ _ _ _ _ _ _ _ _ _ _
 72
    65
 73
     2
 40
0.1875
 49
0.125
 74
     0
 49
-0.0625
 74
     0
  0
ENDTAB
  0
TABLE
  2
LAYER
  5
2
330
0
100
AcDbSymbolTable
 70
     5
  0
LAYER
  5
10
330
2
100
AcDbSymbolTableRecord
100
AcDbLayerTableRecord
  2
0
 70
     0
 62
     7
  6
CONTINUOUS
  0
LAYER
  5
150
330
2
100
AcDbSymbolTableRecord
100
AcDbLayerTableRecord
  2
ADP1DETAIL
 70
     0
 62
     7
  6
CONTINUOUS
  0
LAYER
  5
151
330
2
100
AcDbSymbolTableRecord
100
AcDbLayerTableRecord
  2
ADP3DETAIL
 70
     0
 62
     1
  6
CONTINUOUS
  0
LAYER
  5
152
330
2
100
AcDbSymbolTableRecord
100
AcDbLayerTableRecord
  2
DEFPOINTS
 70
     0
 62
     7
  6
CONTINUOUS
  0
LAYER
  5
155
330
2
100
AcDbSymbolTableRecord
100
AcDbLayerTableRecord
  2
ADPDIM
 70
     0
 62
     3
  6
CONTINUOUS
  0
ENDTAB
  0
TABLE
  2
STYLE
  5
3
330
0
100
AcDbSymbolTable
 70
     2
  0
STYLE
  5
11
330
3
100
AcDbSymbolTableRecord
100
AcDbTextStyleTableRecord
  2
STANDARD
 70
     0
 40
0.0
 41
1.0
 50
0.0
 71
     0
 42
0.2
  3
txt
  4

  0
STYLE
  5
1AD
330
3
100
AcDbSymbolTableRecord
100
AcDbTextStyleTableRecord
  2
ARIAL_WIDE
 70
     0
 40
0.0
 41
1.25
 50
0.0
 71
     0
 42
0.2
  3
ARIAL.TTF
  4

1001
ACAD
1000
Arial
1071
       34
  0
ENDTAB
  0
TABLE
  2
VIEW
  5
6
330
0
100
AcDbSymbolTable
 70
     0
  0
ENDTAB
  0
TABLE
  2
UCS
  5
7
330
0
100
AcDbSymbolTable
 70
     0
  0
ENDTAB
  0
TABLE
  2
APPID
  5
9
330
0
100
AcDbSymbolTable
 70
     1
  0
APPID
  5
12
330
9
100
AcDbSymbolTableRecord
100
AcDbRegAppTableRecord
  2
ACAD
 70
     0
  0
ENDTAB
  0
TABLE
  2
DIMSTYLE
  5
A
330
0
100
AcDbSymbolTable
 70
     1
  0
DIMSTYLE
105
1AB
330
A
100
AcDbSymbolTableRecord
100
AcDbDimStyleTableRecord
  2
STANDARD
 70
     0
  3

  4

  5

  6

  7

 40
1.0
 41
0.18
 42
0.0625
 43
0.38
 44
0.18
 45
0.0
 46
0.0
 47
0.0
 48
0.0
140
0.18
141
0.09
142
0.0
143
25.4
144
1.0
145
0.0
146
1.0
147
0.09
 71
     0
 72
     0
 73
     1
 74
     1
 75
     0
 76
     0
 77
     0
 78
     0
170
     0
171
     2
172
     0
173
     0
174
     0
175
     0
176
     0
177
     0
178
     0
270
     2
271
     4
272
     4
273
     2
274
     2
340
11
275
     0
280
     0
281
     0
282
     0
283
     1
284
     0
285
     0
286
     0
287
     3
288
     0
  0
ENDTAB
  0
TABLE
  2
BLOCK_RECORD
  5
1
330
0
100
AcDbSymbolTable
 70
     5
  0
BLOCK_RECORD
  5
1E
102
{ACAD_XDICTIONARY
360
1EA
102
}
330
1
100
AcDbSymbolTableRecord
100
AcDbBlockTableRecord
  2
*MODEL_SPACE
  0
BLOCK_RECORD
  5
1A
102
{ACAD_XDICTIONARY
360
1EC
102
}
330
1
100
AcDbSymbolTableRecord
100
AcDbBlockTableRecord
  2
*PAPER_SPACE
  0
BLOCK_RECORD
  5
E8
330
1
100
AcDbSymbolTableRecord
100
AcDbBlockTableRecord
  2
4572
  0
BLOCK_RECORD
  5
110
330
1
100
AcDbSymbolTableRecord
100
AcDbBlockTableRecord
  2
*D1
  0
BLOCK_RECORD
  5
111
330
1
100
AcDbSymbolTableRecord
100
AcDbBlockTableRecord
  2
*D2
  0
BLOCK_RECORD
  5
149
330
1
100
AcDbSymbolTableRecord
100
AcDbBlockTableRecord
  2
*D3
  0
BLOCK_RECORD
  5
14A
330
1
100
AcDbSymbolTableRecord
100
AcDbBlockTableRecord
  2
*D4
  0
ENDTAB
  0
ENDSEC
  0
SECTION
  2
BLOCKS
  0
BLOCK
  5
158
330
1E
100
AcDbEntity
  8
0
100
AcDbBlockBegin
  2
*MODEL_SPACE
 70
     0
 10
0.0
 20
0.0
 30
0.0
  3
*MODEL_SPACE
  1

  0
ENDBLK
  5
159
330
1E
100
AcDbEntity
  8
0
100
AcDbBlockEnd
  0
BLOCK
  5
156
330
1A
100
AcDbEntity
 67
     1
  8
0
100
AcDbBlockBegin
  2
*PAPER_SPACE
 70
     0
 10
0.0
 20
0.0
 30
0.0
  3
*PAPER_SPACE
  1

  0
ENDBLK
  5
157
330
1A
100
AcDbEntity
 67
     1
  8
0
100
AcDbBlockEnd
  0
BLOCK
  5
15B
330
E8
100
AcDbEntity
  8
0
100
AcDbBlockBegin
  2
4572
 70
     0
 10
0.0
 20
0.0
 30
0.0
  3
4572
  1

  0
ARC
  5
15C
330
E8
100
AcDbEntity
  8
0
100
AcDbCircle
 10
1.125
 20
4.465749999999998
 30
0.0
 40
4.684999999999998
100
AcDbArc
 50
274.9144644009104
 51
283.5179193007771
  0
ARC
  5
15D
330
E8
100
AcDbEntity
  8
0
100
AcDbCircle
 10
1.125
 20
-4.904249999999999
 30
0.0
 40
5.122999999999999
100
AcDbArc
 50
77.66593018287675
 51
90.0
  0
ARC
  5
15E
330
E8
100
AcDbEntity
  8
0
100
AcDbCircle
 10
0.0390000000000015
 20
-0.0515412237313076
 30
0.0
 40
0.039
100
AcDbArc
 50
180.0
 51
256.4820806992196
  0
ARC
  5
15F
330
E8
100
AcDbEntity
  8
0
100
AcDbCircle
 10
0.0390000000000015
 20
0.062404809829248
 30
0.0
 40
0.039
100
AcDbArc
 50
102.33406981712
 51
180.0
  0
ARC
  5
160
330
E8
100
AcDbEntity
  8
0
100
AcDbCircle
 10
1.125
 20
-4.904249999999999
 30
0.0
 40
5.122999999999999
100
AcDbArc
 50
90.0
 51
102.3340698171232
  0
LINE
  5
161
330
E8
100
AcDbEntity
  8
0
100
AcDbLine
 10
0.7445000000000022
 20
-0.0627499999999994
 30
0.0
 11
1.125
 21
-0.0627499999999994
 31
0.0
  0
LINE
  5
162
330
E8
100
AcDbEntity
  8
0
100
AcDbLine
 10
0.0
 20
0.062404809829248
 30
0.0
 11
0.0
 21
-0.0515412237313076
 31
0.0
  0
ARC
  5
163
330
E8
100
AcDbEntity
  8
0
100
AcDbCircle
 10
1.125
 20
4.465749999999998
 30
0.0
 40
4.684999999999998
100
AcDbArc
 50
256.4820806992226
 51
265.0855355990894
  0
LINE
  5
164
330
E8
100
AcDbEntity
  8
0
100
AcDbLine
 10
0.7345000000000006
 20
-0.1920633013249802
 30
0.0
 11
0.7345000000000006
 21
-0.072750000000001
 31
0.0
  0
ARC
  5
165
330
E8
100
AcDbEntity
  8
0
100
AcDbCircle
 10
0.7445000000000022
 20
-0.072750000000001
 30
0.0
 40
0.01
100
AcDbArc
 50
90.0
 51
180.0
  0
ARC
  5
166
330
E8
100
AcDbEntity
  8
0
100
AcDbCircle
 10
0.7244999999999991
 20
-0.1920633013249802
 30
0.0
 40
0.01
100
AcDbArc
 50
265.0855355990762
 51
0.0
  0
LINE
  5
167
330
E8
100
AcDbEntity
  8
0
100
AcDbLine
 10
1.505499999999997
 20
-0.0627499999999994
 30
0.0
 11
1.125
 21
-0.0627499999999994
 31
0.0
  0
LINE
  5
168
330
E8
100
AcDbEntity
  8
0
100
AcDbLine
 10
1.515499999999999
 20
-0.1920633013249802
 30
0.0
 11
1.515499999999999
 21
-0.072750000000001
 31
0.0
  0
ARC
  5
169
330
E8
100
AcDbEntity
  8
0
100
AcDbCircle
 10
1.505499999999997
 20
-0.072750000000001
 30
0.0
 40
0.01
100
AcDbArc
 50
0.0
 51
90.0
  0
ARC
  5
16A
330
E8
100
AcDbEntity
  8
0
100
AcDbCircle
 10
1.5255
 20
-0.1920633013249802
 30
0.0
 40
0.01
100
AcDbArc
 50
180.0
 51
274.9144644009035
  0
LINE
  5
16B
330
E8
100
AcDbEntity
  8
0
100
AcDbLine
 10
2.25
 20
0.0624048098292516
 30
0.0
 11
2.25
 21
-0.0515412237313076
 31
0.0
  0
ARC
  5
16C
330
E8
100
AcDbEntity
  8
0
100
AcDbCircle
 10
2.210999999999998
 20
-0.0515412237313076
 30
0.0
 40
0.039
100
AcDbArc
 50
283.5179193007753
 51
0.0
  0
ARC
  5
16D
330
E8
100
AcDbEntity
  8
0
100
AcDbCircle
 10
2.210999999999998
 20
0.0624048098292516
 30
0.0
 40
0.039
100
AcDbArc
 50
0.0
 51
77.66593018287879
  0
ENDBLK
  5
16E
330
E8
100
AcDbEntity
  8
0
100
AcDbBlockEnd
  0
BLOCK
  5
16F
330
110
100
AcDbEntity
  8
0
100
AcDbBlockBegin
  2
*D1
 70
     1
 10
0.0
 20
0.0
 30
0.0
  3
*D1
  1

  0
LINE
  5
170
330
110
100
AcDbEntity
  8
0
  6
BYBLOCK
 62
     0
100
AcDbLine
 10
-10.03826248805653
 20
-12.37520880945693
 30
0.0
 11
-8.262336731818768
 21
-14.13937168859005
 31
0.0
  0
LINE
  5
171
330
110
100
AcDbEntity
  8
0
  6
BYBLOCK
 62
     0
100
AcDbLine
 10
-10.21503820748699
 20
-12.37579619335517
 30
0.0
 11
-9.861486768626075
 21
-12.3746214255587
 31
0.0
  0
TEXT
  5
172
330
110
100
AcDbEntity
  8
0
  6
BYBLOCK
 62
     0
100
AcDbText
 10
-8.217702264037479
 20
-14.27180663218834
 30
0.0
 40
0.125
  1
R2 1/2
 50
315.1903796209944
 72
     1
 11
-7.937171042382829
 21
-14.4623836370658
 31
0.0
100
AcDbText
 73
     2
  0
POINT
  5
174
330
110
100
AcDbEntity
  8
DEFPOINTS
  6
BYBLOCK
 62
     0
100
AcDbPoint
 10
-10.03826248805653
 20
-12.37520880945693
 30
0.0
  0
POINT
  5
175
330
110
100
AcDbEntity
  8
DEFPOINTS
  6
BYBLOCK
 62
     0
100
AcDbPoint
 10
-8.26463145476959
 20
-14.13709216477915
 30
0.0
  0
ENDBLK
  5
176
330
110
100
AcDbEntity
  8
0
100
AcDbBlockEnd
  0
BLOCK
  5
177
330
111
100
AcDbEntity
  8
0
100
AcDbBlockBegin
  2
*D2
 70
     1
 10
0.0
 20
0.0
 30
0.0
  3
*D2
  1

  0
LINE
  5
178
330
111
100
AcDbEntity
  8
0
  6
BYBLOCK
 62
     0
100
AcDbLine
 10
-8.234836731818768
 20
-14.13937168859005
 30
0.0
 11
-8.996897409112484
 21
-14.13937168859005
 31
0.0
  0
LINE
  5
179
330
111
100
AcDbEntity
  8
0
  6
BYBLOCK
 62
     0
100
AcDbLine
 10
-9.607014431941038
 20
-16.63709216477915
 30
0.0
 11
-8.636897409112487
 21
-16.63709216477915
 31
0.0
  0
LINE
  5
17A
330
111
100
AcDbEntity
  8
0
  6
BYBLOCK
 62
     0
100
AcDbLine
 10
-8.816897409112485
 20
-14.13937168859005
 30
0.0
 11
-8.816897409112486
 21
-14.99239859335127
 31
0.0
  0
LINE
  5
17B
330
111
100
AcDbEntity
  8
0
  6
BYBLOCK
 62
     0
100
AcDbLine
 10
-8.816897409112486
 20
-16.63709216477915
 30
0.0
 11
-8.816897409112486
 21
-15.78406526001794
 31
0.0
  0
LINE
  5
17C
330
111
100
AcDbEntity
  8
0
  6
BYBLOCK
 62
     0
100
AcDbLine
 10
-8.691897409112485
 20
-14.26437168859005
 30
0.0
 11
-8.941897409112485
 21
-14.01437168859005
 31
0.0
  0
LINE
  5
17D
330
111
100
AcDbEntity
  8
0
  6
BYBLOCK
 62
     0
100
AcDbLine
 10
-8.691897409112486
 20
-16.76209216477915
 30
0.0
 11
-8.941897409112486
 21
-16.51209216477916
 31
0.0
  0
TEXT
  5
17E
330
111
100
AcDbEntity
  8
0
  6
BYBLOCK
 62
     0
100
AcDbText
 10
-8.754397409112486
 20
-15.65906526001794
 30
0.0
 40
0.125
  1
2 1/2
 50
90.0
 72
     1
 11
-8.816897409112486
 21
-15.3882319266846
 31
0.0
100
AcDbText
 73
     2
  0
POINT
  5
17F
330
111
100
AcDbEntity
  8
DEFPOINTS
  6
BYBLOCK
 62
     0
100
AcDbPoint
 10
-8.172336731818768
 20
-14.13937168859005
 30
0.0
  0
POINT
  5
180
330
111
100
AcDbEntity
  8
DEFPOINTS
  6
BYBLOCK
 62
     0
100
AcDbPoint
 10
-9.669514431941038
 20
-16.63709216477915
 30
0.0
  0
POINT
  5
181
330
111
100
AcDbEntity
  8
DEFPOINTS
  6
BYBLOCK
 62
     0
100
AcDbPoint
 10
-8.816897409112486
 20
-16.63709216477915
 30
0.0
  0
ENDBLK
  5
182
330
111
100
AcDbEntity
  8
0
100
AcDbBlockEnd
  0
BLOCK
  5
183
330
149
100
AcDbEntity
  8
0
100
AcDbBlockBegin
  2
*D3
 70
     1
 10
0.0
 20
0.0
 30
0.0
  3
*D3
  1

  0
LINE
  5
184
330
149
100
AcDbEntity
  8
0
  6
BYBLOCK
 62
     0
100
AcDbLine
 10
-11.15026462338338
 20
-18.4568811815387
 30
0.0
 11
-11.15026462338338
 21
-18.83830388638628
 31
0.0
  0
LINE
  5
185
330
149
100
AcDbEntity
  8
0
  6
BYBLOCK
 62
     0
100
AcDbLine
 10
-10.37064324381515
 20
-18.4568811815387
 30
0.0
 11
-10.37064324381515
 21
-18.83830388638628
 31
0.0
  0
LINE
  5
186
330
149
100
AcDbEntity
  8
0
  6
BYBLOCK
 62
     0
100
AcDbLine
 10
-11.15026462338338
 20
-18.65830388638628
 30
0.0
 11
-11.40026462338338
 21
-18.65830388638628
 31
0.0
  0
LINE
  5
187
330
149
100
AcDbEntity
  8
0
  6
BYBLOCK
 62
     0
100
AcDbLine
 10
-10.37064324381515
 20
-18.65830388638628
 30
0.0
 11
-10.12064324381515
 21
-18.65830388638628
 31
0.0
  0
LINE
  5
188
330
149
100
AcDbEntity
  8
0
  6
BYBLOCK
 62
     0
100
AcDbLine
 10
-11.27526462338338
 20
-18.78330388638628
 30
0.0
 11
-11.02526462338338
 21
-18.53330388638628
 31
0.0
  0
LINE
  5
189
330
149
100
AcDbEntity
  8
0
  6
BYBLOCK
 62
     0
100
AcDbLine
 10
-10.49564324381515
 20
-18.78330388638628
 30
0.0
 11
-10.24564324381515
 21
-18.53330388638628
 31
0.0
  0
TEXT
  5
18A
330
149
100
AcDbEntity
  8
0
  6
BYBLOCK
 62
     0
100
AcDbText
 10
-9.99564324381515
 20
-18.72080388638628
 30
0.0
 40
0.125
  1
3/4
 72
     1
 11
-9.828976577148484
 21
-18.65830388638628
 31
0.0
100
AcDbText
 73
     2
  0
POINT
  5
18B
330
149
100
AcDbEntity
  8
DEFPOINTS
  6
BYBLOCK
 62
     0
100
AcDbPoint
 10
-11.15026462338338
 20
-18.3943811815387
 30
0.0
  0
POINT
  5
18C
330
149
100
AcDbEntity
  8
DEFPOINTS
  6
BYBLOCK
 62
     0
100
AcDbPoint
 10
-10.37064324381515
 20
-18.3943811815387
 30
0.0
  0
POINT
  5
18D
330
149
100
AcDbEntity
  8
DEFPOINTS
  6
BYBLOCK
 62
     0
100
AcDbPoint
 10
-10.37064324381515
 20
-18.65830388638628
 30
0.0
  0
ENDBLK
  5
18E
330
149
100
AcDbEntity
  8
0
100
AcDbBlockEnd
  0
BLOCK
  5
18F
330
14A
100
AcDbEntity
  8
0
100
AcDbBlockBegin
  2
*D4
 70
     1
 10
0.0
 20
0.0
 30
0.0
  3
*D4
  1

  0
LINE
  5
190
330
14A
100
AcDbEntity
  8
0
  6
BYBLOCK
 62
     0
100
AcDbLine
 10
-11.88963145476959
 20
-18.07459216477916
 30
0.0
 11
-11.88963145476959
 21
-17.50778207378953
 31
0.0
  0
LINE
  5
191
330
14A
100
AcDbEntity
  8
0
  6
BYBLOCK
 62
     0
100
AcDbLine
 10
-9.63963145476959
 20
-18.07459216477915
 30
0.0
 11
-9.63963145476959
 21
-17.50778207378953
 31
0.0
  0
LINE
  5
192
330
14A
100
AcDbEntity
  8
0
  6
BYBLOCK
 62
     0
100
AcDbLine
 10
-11.88963145476959
 20
-17.68778207378953
 30
0.0
 11
-11.16046478810292
 21
-17.68778207378953
 31
0.0
  0
LINE
  5
193
330
14A
100
AcDbEntity
  8
0
  6
BYBLOCK
 62
     0
100
AcDbLine
 10
-9.63963145476959
 20
-17.68778207378953
 30
0.0
 11
-10.36879812143625
 21
-17.68778207378953
 31
0.0
  0
LINE
  5
194
330
14A
100
AcDbEntity
  8
0
  6
BYBLOCK
 62
     0
100
AcDbLine
 10
-12.01463145476959
 20
-17.81278207378953
 30
0.0
 11
-11.76463145476959
 21
-17.56278207378953
 31
0.0
  0
LINE
  5
195
330
14A
100
AcDbEntity
  8
0
  6
BYBLOCK
 62
     0
100
AcDbLine
 10
-9.76463145476959
 20
-17.81278207378953
 30
0.0
 11
-9.51463145476959
 21
-17.56278207378953
 31
0.0
  0
TEXT
  5
196
330
14A
100
AcDbEntity
  8
0
  6
BYBLOCK
 62
     0
100
AcDbText
 10
-11.03546478810292
 20
-17.75028207378953
 30
0.0
 40
0.125
  1
2 1/4
 72
     1
 11
-10.76463145476959
 21
-17.68778207378953
 31
0.0
100
AcDbText
 73
     2
  0
POINT
  5
197
330
14A
100
AcDbEntity
  8
DEFPOINTS
  6
BYBLOCK
 62
     0
100
AcDbPoint
 10
-11.88963145476959
 20
-18.13709216477915
 30
0.0
  0
POINT
  5
198
330
14A
100
AcDbEntity
  8
DEFPOINTS
  6
BYBLOCK
 62
     0
100
AcDbPoint
 10
-9.63963145476959
 20
-18.13709216477915
 30
0.0
  0
POINT
  5
199
330
14A
100
AcDbEntity
  8
DEFPOINTS
  6
BYBLOCK
 62
     0
100
AcDbPoint
 10
-9.63963145476959
 20
-17.68778207378953
 30
0.0
  0
ENDBLK
  5
19A
330
14A
100
AcDbEntity
  8
0
100
AcDbBlockEnd
  0
ENDSEC
  0
SECTION
  2
ENTITIES
  0
INSERT
  5
19B
330
1E
100
AcDbEntity
  8
ADP1DETAIL
100
AcDbBlockReference
  2
4572
 10
-11.88963145476959
 20
-18.14252395782812
 30
0.0
  0
DIMENSION
  5
19C
330
1E
100
AcDbEntity
  8
ADPDIM
100
AcDbDimension
  2
*D4
 10
-9.63963145476959
 20
-17.68778207378953
 30
0.0
 11
-10.76463145476959
 21
-17.68778207378953
 31
0.0
100
AcDbAlignedDimension
 13
-11.88963145476959
 23
-18.13709216477915
 33
0.0
 14
-9.63963145476959
 24
-18.13709216477915
 34
0.0
100
AcDbRotatedDimension
  0
DIMENSION
  5
19D
330
1E
100
AcDbEntity
  8
ADPDIM
100
AcDbDimension
  2
*D3
 10
-10.37064324381515
 20
-18.65830388638628
 30
0.0
 11
-9.828976577148484
 21
-18.65830388638628
 31
0.0
100
AcDbAlignedDimension
 13
-11.15026462338338
 23
-18.3943811815387
 33
0.0
 14
-10.37064324381515
 24
-18.3943811815387
 34
0.0
100
AcDbRotatedDimension
  0
ARC
  5
19E
330
1E
100
AcDbEntity
  8
ADP3DETAIL
  6
HIDDEN2
100
AcDbCircle
 10
-8.26463145476959
 20
-14.13709216477915
 30
0.0
 40
2.5
100
AcDbArc
 50
90.0
 51
180.0
  0
LINE
  5
19F
330
1E
100
AcDbEntity
  8
ADP1DETAIL
100
AcDbLine
 10
-9.63963145476959
 20
-16.63709216477915
 30
0.0
 11
-11.88963145476959
 21
-16.63709216477915
 31
0.0
  0
ARC
  5
1A0
330
1E
100
AcDbEntity
  8
ADP1DETAIL
100
AcDbCircle
 10
-8.26463145476959
 20
-14.13709216477915
 30
0.0
 40
3.625
100
AcDbArc
 50
90.0
 51
180.0
  0
LINE
  5
1A1
330
1E
100
AcDbEntity
  8
ADP1DETAIL
100
AcDbLine
 10
-11.88963145476959
 20
-16.63709216477915
 30
0.0
 11
-11.88963145476959
 21
-14.13709216477915
 31
0.0
  0
LINE
  5
1A2
330
1E
100
AcDbEntity
  8
ADP3DETAIL
  6
HIDDEN2
100
AcDbLine
 10
-5.120093553782671
 20
-11.63709216477915
 30
0.0
 11
-8.26463145476959
 21
-11.63709216477915
 31
0.0
  0
LINE
  5
1A3
330
1E
100
AcDbEntity
  8
ADP1DETAIL
100
AcDbLine
 10
-8.26463145476959
 20
-10.51209216477915
 30
0.0
 11
-5.76463145476959
 21
-10.51209216477915
 31
0.0
  0
LINE
  5
1A4
330
1E
100
AcDbEntity
  8
ADP1DETAIL
100
AcDbLine
 10
-5.76463145476959
 20
-12.76209216477915
 30
0.0
 11
-8.26463145476959
 21
-12.76209216477915
 31
0.0
  0
DIMENSION
  5
1A5
330
1E
100
AcDbEntity
  8
ADPDIM
100
AcDbDimension
  2
*D1
 10
-8.26463145476959
 20
-14.13709216477915
 30
0.0
 11
-7.937171042382829
 21
-14.4623836370658
 31
0.0
 70
     4
100
AcDbRadialDimension
 15
-10.03826248805653
 25
-12.37520880945693
 35
0.0
 40
-2.503234498759544
  0
ARC
  5
1A6
330
1E
100
AcDbEntity
  8
ADP1DETAIL
100
AcDbCircle
 10
-8.26463145476959
 20
-14.13709216477915
 30
0.0
 40
1.375
100
AcDbArc
 50
90.0
 51
180.0
  0
DIMENSION
  5
1A7
330
1E
100
AcDbEntity
  8
ADPDIM
100
AcDbDimension
  2
*D2
 10
-8.816897409112486
 20
-16.63709216477915
 30
0.0
 11
-8.816897409112486
 21
-15.3882319266846
 31
0.0
100
AcDbAlignedDimension
 13
-8.172336731818768
 23
-14.13937168859005
 33
0.0
 14
-9.669514431941038
 24
-16.63709216477915
 34
0.0
 50
90.0
100
AcDbRotatedDimension
  0
LINE
  5
1A8
330
1E
100
AcDbEntity
  8
ADP3DETAIL
  6
HIDDEN2
100
AcDbLine
 10
-10.76463145476959
 20
-17.18688750049409
 30
0.0
 11
-10.76463145476959
 21
-14.13709216477915
 31
0.0
  0
LINE
  5
1A9
330
1E
100
AcDbEntity
  8
ADP1DETAIL
100
AcDbLine
 10
-9.63963145476959
 20
-14.13709216477915
 30
0.0
 11
-9.63963145476959
 21
-16.63709216477915
 31
0.0
  0
LINE
  5
1AA
330
1E
100
AcDbEntity
  8
ADP1DETAIL
100
AcDbLine
 10
-5.76463145476959
 20
-10.51209216477915
 30
0.0
 11
-5.76463145476959
 21
-12.76209216477915
 31
0.0
  0
TEXT
  5
1AE
330
1E
100
AcDbEntity
  8
ADPDIM
100
AcDbText
 10
-18.34753983621354
 20
-19.39142474880558
 30
0.0
 40
0.1875
  1
J U L I U S  B L U M  &  C O . ,  I N C .      ( 8 0 0 )  5 2 6 - 6 2 9 3        W W W . J U L I U S B L U M . C O M        P A R T  N o .  5 5 7 2 - C
 41
1.25
  7
ARIAL_WIDE
 72
     1
 11
-8.295234455927044
 21
-19.20392474880557
 31
0.0
100
AcDbText
 73
     3
  0
ENDSEC
  0
SECTION
  2
OBJECTS
  0
DICTIONARY
  5
C
330
0
100
AcDbDictionary
  3
ACAD_GROUP
350
D
  3
ACAD_LAYOUT
350
19
  3
ACAD_MLINESTYLE
350
16
  3
ACAD_PLOTSETTINGS
350
18
  3
ACAD_PLOTSTYLENAME
350
E
  3
ACDBHEADERROUNDTRIPXREC
350
341
  3
ACDBVARIABLEDICTIONARY
350
21F
  0
DICTIONARY
  5
1EA
330
1E
100
AcDbDictionary
280
     1
  3
ACAD_LAYOUTSELFREF
360
363
  0
DICTIONARY
  5
1EC
330
1A
100
AcDbDictionary
280
     1
  3
ACAD_LAYOUTSELFREF
360
362
  0
DICTIONARY
  5
D
102
{ACAD_REACTORS
330
C
102
}
330
C
100
AcDbDictionary
  0
DICTIONARY
  5
19
102
{ACAD_REACTORS
330
C
102
}
330
C
100
AcDbDictionary
  0
DICTIONARY
  5
16
102
{ACAD_REACTORS
330
C
102
}
330
C
100
AcDbDictionary
  3
STANDARD
350
17
  0
DICTIONARY
  5
18
102
{ACAD_REACTORS
330
C
102
}
330
C
100
AcDbDictionary
  0
ACDBDICTIONARYWDFLT
  5
E
102
{ACAD_REACTORS
330
C
102
}
330
C
100
AcDbDictionary
281
     1
  3
Normal
350
F
100
AcDbDictionaryWithDefault
340
F
  0
DICTIONARY
  5
341
102
{ACAD_REACTORS
330
C
102
}
330
C
100
AcDbDictionary
  3
CEPSNTYPE
350
34B
  3
DIMSTYLEDATA
350
34F
  3
FINGERPRINTGUID
350
34C
  3
HYPERLINKBASE
350
344
  3
INSUNITS
350
34A
  3
LAYOUTDICT
350
346
  3
LWETCUNION
350
349
  3
PLOTSETDICT
350
347
  3
PLOTSTYLNAMDICT
350
348
  3
PSVPSCALE
350
34E
  3
PUCSBASE
350
352
  3
PUCSORGBACK
350
358
  3
PUCSORGBOTTOM
350
354
  3
PUCSORGFRONT
350
357
  3
PUCSORGLEFT
350
355
  3
PUCSORGRIGHT
350
356
  3
PUCSORGTOP
350
353
  3
PUCSORTHOREF
350
350
  3
PUCSORTHOVIEW
350
351
  3
STYLESHEET
350
345
  3
TSTACKALIGN
350
342
  3
TSTACKSIZE
350
343
  3
UCSBASE
350
35B
  3
UCSORGBACK
350
361
  3
UCSORGBOTTOM
350
35D
  3
UCSORGFRONT
350
360
  3
UCSORGLEFT
350
35E
  3
UCSORGRIGHT
350
35F
  3
UCSORGTOP
350
35C
  3
UCSORTHOREF
350
359
  3
UCSORTHOVIEW
350
35A
  3
VERSIONGUID
350
34D
  0
DICTIONARY
  5
21F
102
{ACAD_REACTORS
330
C
102
}
330
C
100
AcDbDictionary
  3
DIMASSOC
350
221
  3
HIDETEXT
350
220
  0
XRECORD
  5
363
102
{ACAD_REACTORS
330
1EA
102
}
330
1EA
100
AcDbXrecord
340
1E
  0
XRECORD
  5
362
102
{ACAD_REACTORS
330
1EC
102
}
330
1EC
100
AcDbXrecord
340
1A
  0
MLINESTYLE
  5
17
102
{ACAD_REACTORS
330
16
102
}
330
16
100
AcDbMlineStyle
  2
STANDARD
 70
     0
  3

 62
   256
 51
90.0
 52
90.0
 71
     2
 49
0.5
 62
   256
  6
BYLAYER
 49
-0.5
 62
   256
  6
BYLAYER
  0
ACDBPLACEHOLDER
  5
F
102
{ACAD_REACTORS
330
E
102
}
330
E
100
AcDbPlaceHolder
280
     0
  0
XRECORD
  5
34B
102
{ACAD_REACTORS
330
341
102
}
330
341
100
AcDbXrecord
 90
        0
  0
XRECORD
  5
34F
102
{ACAD_REACTORS
330
341
102
}
330
341
100
AcDbXrecord
1000
DSTYLE
1002
{
1070
   277
 70
     5
1070
   279
 70
     2
1002
}
  0
XRECORD
  5
34C
102
{ACAD_REACTORS
330
341
102
}
330
341
100
AcDbXrecord
  1
{B47307A4-1016-497A-B226-1D68D86E2AA2}
  0
XRECORD
  5
344
102
{ACAD_REACTORS
330
341
102
}
330
341
100
AcDbXrecord
  1

  0
XRECORD
  5
34A
102
{ACAD_REACTORS
330
341
102
}
330
341
100
AcDbXrecord
 90
        0
  0
XRECORD
  5
346
102
{ACAD_REACTORS
330
341
102
}
330
341
100
AcDbXrecord
340
19
  0
XRECORD
  5
349
102
{ACAD_REACTORS
330
341
102
}
330
341
100
AcDbXrecord
 90
    14877
  0
XRECORD
  5
347
102
{ACAD_REACTORS
330
341
102
}
330
341
100
AcDbXrecord
340
18
  0
XRECORD
  5
348
102
{ACAD_REACTORS
330
341
102
}
330
341
100
AcDbXrecord
340
E
  0
XRECORD
  5
34E
102
{ACAD_REACTORS
330
341
102
}
330
341
100
AcDbXrecord
 40
0.0
  0
XRECORD
  5
352
102
{ACAD_REACTORS
330
341
102
}
330
341
100
AcDbXrecord
340
0
  0
XRECORD
  5
358
102
{ACAD_REACTORS
330
341
102
}
330
341
100
AcDbXrecord
 10
0.0
 20
0.0
 30
0.0
  0
XRECORD
  5
354
102
{ACAD_REACTORS
330
341
102
}
330
341
100
AcDbXrecord
 10
0.0
 20
0.0
 30
0.0
  0
XRECORD
  5
357
102
{ACAD_REACTORS
330
341
102
}
330
341
100
AcDbXrecord
 10
0.0
 20
0.0
 30
0.0
  0
XRECORD
  5
355
102
{ACAD_REACTORS
330
341
102
}
330
341
100
AcDbXrecord
 10
0.0
 20
0.0
 30
0.0
  0
XRECORD
  5
356
102
{ACAD_REACTORS
330
341
102
}
330
341
100
AcDbXrecord
 10
0.0
 20
0.0
 30
0.0
  0
XRECORD
  5
353
102
{ACAD_REACTORS
330
341
102
}
330
341
100
AcDbXrecord
 10
0.0
 20
0.0
 30
0.0
  0
XRECORD
  5
350
102
{ACAD_REACTORS
330
341
102
}
330
341
100
AcDbXrecord
340
0
  0
XRECORD
  5
351
102
{ACAD_REACTORS
330
341
102
}
330
341
100
AcDbXrecord
 70
     0
  0
XRECORD
  5
345
102
{ACAD_REACTORS
330
341
102
}
330
341
100
AcDbXrecord
  1

  0
XRECORD
  5
342
102
{ACAD_REACTORS
330
341
102
}
330
341
100
AcDbXrecord
 90
        1
  0
XRECORD
  5
343
102
{ACAD_REACTORS
330
341
102
}
330
341
100
AcDbXrecord
 90
       70
  0
XRECORD
  5
35B
102
{ACAD_REACTORS
330
341
102
}
330
341
100
AcDbXrecord
340
0
  0
XRECORD
  5
361
102
{ACAD_REACTORS
330
341
102
}
330
341
100
AcDbXrecord
 10
0.0
 20
0.0
 30
0.0
  0
XRECORD
  5
35D
102
{ACAD_REACTORS
330
341
102
}
330
341
100
AcDbXrecord
 10
0.0
 20
0.0
 30
0.0
  0
XRECORD
  5
360
102
{ACAD_REACTORS
330
341
102
}
330
341
100
AcDbXrecord
 10
0.0
 20
0.0
 30
0.0
  0
XRECORD
  5
35E
102
{ACAD_REACTORS
330
341
102
}
330
341
100
AcDbXrecord
 10
0.0
 20
0.0
 30
0.0
  0
XRECORD
  5
35F
102
{ACAD_REACTORS
330
341
102
}
330
341
100
AcDbXrecord
 10
0.0
 20
0.0
 30
0.0
  0
XRECORD
  5
35C
102
{ACAD_REACTORS
330
341
102
}
330
341
100
AcDbXrecord
 10
0.0
 20
0.0
 30
0.0
  0
XRECORD
  5
359
102
{ACAD_REACTORS
330
341
102
}
330
341
100
AcDbXrecord
340
0
  0
XRECORD
  5
35A
102
{ACAD_REACTORS
330
341
102
}
330
341
100
AcDbXrecord
 70
     0
  0
XRECORD
  5
34D
102
{ACAD_REACTORS
330
341
102
}
330
341
100
AcDbXrecord
  1
{49E245B2-8B5E-46F2-8333-AF4F8E4C8FD7}
  0
DICTIONARYVAR
  5
221
102
{ACAD_REACTORS
330
21F
102
}
330
21F
100
DictionaryVariables
280
     0
  1
2
  0
DICTIONARYVAR
  5
220
102
{ACAD_REACTORS
330
21F
102
}
330
21F
100
DictionaryVariables
280
     0
  1
1
  0
ENDSEC
  0
EOF
