  0
SECTION
  2
HEADER
  9
$ACADVER
  1
AC1014
  9
$ACADMAINTVER
 70
     9
  9
$DWGCODEPAGE
  3
ANSI_1252
  9
$INSBASE
 10
-0.021559136618205
 20
3.106261855082091
 30
0.0
  9
$EXTMIN
 10
-4.012174172518301
 20
1.486183817734295
 30
0.0
  9
$EXTMAX
 10
9.039283876594931
 20
3.757834842594372
 30
0.0
  9
$LIMMIN
 10
0.0
 20
0.0
  9
$LIMMAX
 10
36.0
 20
36.0
  9
$ORTHOMODE
 70
     1
  9
$REGENMODE
 70
     1
  9
$FILLMODE
 70
     1
  9
$QTEXTMODE
 70
     0
  9
$MIRRTEXT
 70
     1
  9
$DRAGMODE
 70
     0
  9
$LTSCALE
 40
1.0
  9
$OSMODE
 70
    37
  9
$ATTMODE
 70
     1
  9
$TEXTSIZE
 40
0.2
  9
$TRACEWID
 40
0.05
  9
$TEXTSTYLE
  7
STANDARD
  9
$CLAYER
  8
ADPDIM
  9
$CELTYPE
  6
BYLAYER
  9
$CECOLOR
 62
   256
  9
$CELTSCALE
 40
1.0
  9
$DELOBJ
 70
     1
  9
$DISPSILH
 70
     0
  9
$DIMSCALE
 40
1.0
  9
$DIMASZ
 40
0.125
  9
$DIMEXO
 40
0.0625
  9
$DIMDLI
 40
0.38
  9
$DIMRND
 40
0.0
  9
$DIMDLE
 40
0.0
  9
$DIMEXE
 40
0.18
  9
$DIMTP
 40
0.0
  9
$DIMTM
 40
0.0
  9
$DIMTXT
 40
0.125
  9
$DIMCEN
 40
0.1875
  9
$DIMTSZ
 40
0.125
  9
$DIMTOL
 70
     0
  9
$DIMLIM
 70
     0
  9
$DIMTIH
 70
     0
  9
$DIMTOH
 70
     0
  9
$DIMSE1
 70
     0
  9
$DIMSE2
 70
     0
  9
$DIMTAD
 70
     0
  9
$DIMZIN
 70
     3
  9
$DIMBLK
  1

  9
$DIMASO
 70
     1
  9
$DIMSHO
 70
     1
  9
$DIMPOST
  1

  9
$DIMAPOST
  1

  9
$DIMALT
 70
     0
  9
$DIMALTD
 70
     1
  9
$DIMALTF
 40
25.4
  9
$DIMLFAC
 40
1.0
  9
$DIMTOFL
 70
     0
  9
$DIMTVP
 40
0.0
  9
$DIMTIX
 70
     0
  9
$DIMSOXD
 70
     0
  9
$DIMSAH
 70
     0
  9
$DIMBLK1
  1

  9
$DIMBLK2
  1

  9
$DIMSTYLE
  2
STANDARD
  9
$DIMCLRD
 70
     0
  9
$DIMCLRE
 70
     0
  9
$DIMCLRT
 70
     0
  9
$DIMTFAC
 40
1.0
  9
$DIMGAP
 40
0.125
  9
$DIMJUST
 70
     0
  9
$DIMSD1
 70
     0
  9
$DIMSD2
 70
     0
  9
$DIMTOLJ
 70
     1
  9
$DIMTZIN
 70
     0
  9
$DIMALTZ
 70
     0
  9
$DIMALTTZ
 70
     0
  9
$DIMFIT
 70
     3
  9
$DIMUPT
 70
     0
  9
$DIMUNIT
 70
     2
  9
$DIMDEC
 70
     4
  9
$DIMTDEC
 70
     4
  9
$DIMALTU
 70
     2
  9
$DIMALTTD
 70
     2
  9
$DIMTXSTY
  7
STANDARD
  9
$DIMAUNIT
 70
     0
  9
$LUNITS
 70
     5
  9
$LUPREC
 70
     5
  9
$SKETCHINC
 40
0.1
  9
$FILLETRAD
 40
0.0
  9
$AUNITS
 70
     0
  9
$AUPREC
 70
     0
  9
$MENU
  1
acad
  9
$ELEVATION
 40
0.0
  9
$PELEVATION
 40
0.0
  9
$THICKNESS
 40
0.0
  9
$LIMCHECK
 70
     0
  9
$BLIPMODE
 70
     0
  9
$CHAMFERA
 40
0.0
  9
$CHAMFERB
 40
0.0
  9
$CHAMFERC
 40
0.0
  9
$CHAMFERD
 40
0.0
  9
$SKPOLY
 70
     0
  9
$TDCREATE
 40
2450221.428116122
  9
$TDUPDATE
 40
2452297.091244745
  9
$TDINDWG
 40
0.0465392940
  9
$TDUSRTIMER
 40
0.0465392940
  9
$USRTIMER
 70
     1
  9
$ANGBASE
 50
0.0
  9
$ANGDIR
 70
     0
  9
$PDMODE
 70
     0
  9
$PDSIZE
 40
0.0
  9
$PLINEWID
 40
0.0
  9
$COORDS
 70
     2
  9
$SPLFRAME
 70
     0
  9
$SPLINETYPE
 70
     6
  9
$SPLINESEGS
 70
     8
  9
$ATTDIA
 70
     0
  9
$ATTREQ
 70
     1
  9
$HANDLING
 70
 22529
  9
$HANDSEED
  5
20C
  9
$SURFTAB1
 70
     6
  9
$SURFTAB2
 70
     6
  9
$SURFTYPE
 70
     6
  9
$SURFU
 70
     6
  9
$SURFV
 70
     6
  9
$UCSNAME
  2

  9
$UCSORG
 10
0.0
 20
0.0
 30
0.0
  9
$UCSXDIR
 10
1.0
 20
0.0
 30
0.0
  9
$UCSYDIR
 10
0.0
 20
1.0
 30
0.0
  9
$PUCSNAME
  2

  9
$PUCSORG
 10
0.0
 20
0.0
 30
0.0
  9
$PUCSXDIR
 10
1.0
 20
0.0
 30
0.0
  9
$PUCSYDIR
 10
0.0
 20
1.0
 30
0.0
  9
$USERI1
 70
     0
  9
$USERI2
 70
     0
  9
$USERI3
 70
     0
  9
$USERI4
 70
     0
  9
$USERI5
 70
     0
  9
$USERR1
 40
0.0
  9
$USERR2
 40
0.0
  9
$USERR3
 40
0.0
  9
$USERR4
 40
0.0
  9
$USERR5
 40
0.0
  9
$WORLDVIEW
 70
     1
  9
$SHADEDGE
 70
     3
  9
$SHADEDIF
 70
    70
  9
$TILEMODE
 70
     1
  9
$MAXACTVP
 70
    15
  9
$PINSBASE
 10
0.0004882947541773
 20
0.7501380653138911
 30
0.0
  9
$PLIMCHECK
 70
     0
  9
$PEXTMIN
 10
1.000000000000000E+20
 20
1.000000000000000E+20
 30
1.000000000000000E+20
  9
$PEXTMAX
 10
-1.000000000000000E+20
 20
-1.000000000000000E+20
 30
-1.000000000000000E+20
  9
$PLIMMIN
 10
0.0
 20
0.0
  9
$PLIMMAX
 10
12.0
 20
9.0
  9
$UNITMODE
 70
     0
  9
$VISRETAIN
 70
     0
  9
$PLINEGEN
 70
     0
  9
$PSLTSCALE
 70
     1
  9
$TREEDEPTH
 70
  3020
  9
$PICKSTYLE
 70
     1
  9
$CMLSTYLE
  2
STANDARD
  9
$CMLJUST
 70
     0
  9
$CMLSCALE
 40
1.0
  9
$PROXYGRAPHICS
 70
     1
  9
$MEASUREMENT
 70
     0
  0
ENDSEC
  0
SECTION
  2
CLASSES
  0
CLASS
  1
ACDBDICTIONARYWDFLT
  2
AcDbDictionaryWithDefault
  3
AutoCAD 2000
 90
        0
280
     0
281
     0
  0
CLASS
  1
ACDBPLACEHOLDER
  2
AcDbPlaceHolder
  3
AutoCAD 2000
 90
        0
280
     0
281
     0
  0
CLASS
  1
LAYOUT
  2
AcDbLayout
  3
AutoCAD 2000
 90
        0
280
     0
281
     0
  0
CLASS
  1
DICTIONARYVAR
  2
AcDbDictionaryVar
  3
AutoCAD 2000
 90
        0
280
     0
281
     0
  0
CLASS
  1
LONG_TRANSACTION
  2
AcDbLongTransaction
  3
AutoCAD 2000
 90
        0
280
     0
281
     0
  0
CLASS
  1
LWPOLYLINE
  2
AcDbPolyline
  3
AutoCAD 2000
 90
        0
280
     0
281
     1
  0
CLASS
  1
HATCH
  2
AcDbHatch
  3
AutoCAD 2000
 90
        0
280
     0
281
     1
  0
CLASS
  1
XRECORD
  2
AcDbXrecord
  3
AutoCAD 2000
 90
        0
280
     0
281
     0
  0
CLASS
  1
LONG_TRANSACTION
  2
AcDbLongTransaction
  3
AutoCAD 2000
 90
        0
280
     0
281
     0
  0
CLASS
  1
LWPOLYLINE
  2
AcDbPolyline
  3
AutoCAD 2000
 90
        0
280
     0
281
     1
  0
CLASS
  1
HATCH
  2
AcDbHatch
  3
AutoCAD 2000
 90
        0
280
     0
281
     1
  0
CLASS
  1
XRECORD
  2
AcDbXrecord
  3
AutoCAD 2000
 90
        0
280
     0
281
     0
  0
CLASS
  1
LONG_TRANSACTION
  2
AcDbLongTransaction
  3
AutoCAD 2000
 90
        0
280
     0
281
     0
  0
CLASS
  1
LWPOLYLINE
  2
AcDbPolyline
  3
AutoCAD 2000
 90
        0
280
     0
281
     1
  0
CLASS
  1
HATCH
  2
AcDbHatch
  3
AutoCAD 2000
 90
        0
280
     0
281
     1
  0
CLASS
  1
XRECORD
  2
AcDbXrecord
  3
AutoCAD 2000
 90
        0
280
     0
281
     0
  0
CLASS
  1
LONG_TRANSACTION
  2
AcDbLongTransaction
  3
AutoCAD 2000
 90
        0
280
     0
281
     0
  0
CLASS
  1
LWPOLYLINE
  2
AcDbPolyline
  3
AutoCAD 2000
 90
        0
280
     0
281
     1
  0
CLASS
  1
HATCH
  2
AcDbHatch
  3
AutoCAD 2000
 90
        0
280
     0
281
     1
  0
CLASS
  1
XRECORD
  2
AcDbXrecord
  3
AutoCAD 2000
 90
        0
280
     0
281
     0
  0
CLASS
  1
LONG_TRANSACTION
  2
AcDbLongTransaction
  3
AutoCAD 2000
 90
        0
280
     0
281
     0
  0
CLASS
  1
LWPOLYLINE
  2
AcDbPolyline
  3
AutoCAD 2000
 90
        0
280
     0
281
     1
  0
CLASS
  1
HATCH
  2
AcDbHatch
  3
AutoCAD 2000
 90
        0
280
     0
281
     1
  0
CLASS
  1
XRECORD
  2
AcDbXrecord
  3
AutoCAD 2000
 90
        0
280
     0
281
     0
  0
ENDSEC
  0
SECTION
  2
TABLES
  0
TABLE
  2
VPORT
  5
8
330
0
100
AcDbSymbolTable
 70
     2
  0
VPORT
  5
1E9
330
8
100
AcDbSymbolTableRecord
100
AcDbViewportTableRecord
  2
*ACTIVE
 70
     0
 10
0.0
 20
0.0
 11
1.0
 21
1.0
 12
2.524190721871597
 22
2.621887272947806
 13
0.0
 23
0.0
 14
0.5740882589684922
 24
0.5740882589684922
 15
0.5
 25
0.5
 16
0.0
 26
0.0
 36
1.0
 17
0.0
 27
0.0
 37
0.0
 40
8.363862397700795
 41
1.570528967254408
 42
50.0
 43
0.0
 44
0.0
 50
0.0
 51
0.0
 71
     0
 72
   100
 73
     1
 74
     0
 75
     0
 76
     0
 77
     0
 78
     0
  0
ENDTAB
  0
TABLE
  2
LTYPE
  5
5
330
0
100
AcDbSymbolTable
 70
     1
  0
LTYPE
  5
12
330
5
100
AcDbSymbolTableRecord
100
AcDbLinetypeTableRecord
  2
BYBLOCK
 70
     0
  3

 72
    65
 73
     0
 40
0.0
  0
LTYPE
  5
13
330
5
100
AcDbSymbolTableRecord
100
AcDbLinetypeTableRecord
  2
BYLAYER
 70
     0
  3

 72
    65
 73
     0
 40
0.0
  0
LTYPE
  5
14
330
5
100
AcDbSymbolTableRecord
100
AcDbLinetypeTableRecord
  2
CONTINUOUS
 70
     0
  3
Solid line
 72
    65
 73
     0
 40
0.0
  0
ENDTAB
  0
TABLE
  2
LAYER
  5
2
330
0
100
AcDbSymbolTable
 70
     4
  0
LAYER
  5
F
330
2
100
AcDbSymbolTableRecord
100
AcDbLayerTableRecord
  2
0
 70
     0
 62
     7
  6
CONTINUOUS
  0
LAYER
  5
2C
330
2
100
AcDbSymbolTableRecord
100
AcDbLayerTableRecord
  2
ADPDIM
 70
     0
 62
     3
  6
CONTINUOUS
  0
LAYER
  5
2D
330
2
100
AcDbSymbolTableRecord
100
AcDbLayerTableRecord
  2
ADP1DETAIL
 70
     0
 62
     7
  6
CONTINUOUS
  0
LAYER
  5
2E
330
2
100
AcDbSymbolTableRecord
100
AcDbLayerTableRecord
  2
DEFPOINTS
 70
     0
 62
     7
  6
CONTINUOUS
  0
ENDTAB
  0
TABLE
  2
STYLE
  5
3
330
0
100
AcDbSymbolTable
 70
     2
  0
STYLE
  5
10
330
3
100
AcDbSymbolTableRecord
100
AcDbTextStyleTableRecord
  2
STANDARD
 70
     0
 40
0.0
 41
1.0
 50
0.0
 71
     0
 42
0.2
  3
txt
  4

  0
STYLE
  5
A5
330
3
100
AcDbSymbolTableRecord
100
AcDbTextStyleTableRecord
  2
ARIAL_WIDE
 70
     0
 40
0.0
 41
1.25
 50
0.0
 71
     0
 42
0.2
  3
ARIAL.TTF
  4

1001
ACAD
1000
Arial
1071
       34
  0
ENDTAB
  0
TABLE
  2
VIEW
  5
6
330
0
100
AcDbSymbolTable
 70
     0
  0
ENDTAB
  0
TABLE
  2
UCS
  5
7
330
0
100
AcDbSymbolTable
 70
     0
  0
ENDTAB
  0
TABLE
  2
APPID
  5
9
330
0
100
AcDbSymbolTable
 70
     1
  0
APPID
  5
11
330
9
100
AcDbSymbolTableRecord
100
AcDbRegAppTableRecord
  2
ACAD
 70
     0
  0
ENDTAB
  0
TABLE
  2
DIMSTYLE
  5
A
330
0
100
AcDbSymbolTable
 70
     1
  0
DIMSTYLE
105
99
330
A
100
AcDbSymbolTableRecord
100
AcDbDimStyleTableRecord
  2
STANDARD
 70
     0
  3

  4

  5

  6

  7

 40
1.0
 41
0.18
 42
0.0625
 43
0.38
 44
0.18
 45
0.0
 46
0.0
 47
0.0
 48
0.0
140
0.18
141
0.09
142
0.0
143
25.4
144
1.0
145
0.0
146
1.0
147
0.09
 71
     0
 72
     0
 73
     1
 74
     1
 75
     0
 76
     0
 77
     0
 78
     0
170
     0
171
     2
172
     0
173
     0
174
     0
175
     0
176
     0
177
     0
178
     0
270
     2
271
     4
272
     4
273
     2
274
     2
340
10
275
     0
280
     0
281
     0
282
     0
283
     1
284
     0
285
     0
286
     0
287
     3
288
     0
  0
ENDTAB
  0
TABLE
  2
BLOCK_RECORD
  5
1
330
0
100
AcDbSymbolTable
 70
     5
  0
BLOCK_RECORD
  5
18
102
{ACAD_XDICTIONARY
360
FA
102
}
330
1
100
AcDbSymbolTableRecord
100
AcDbBlockTableRecord
  2
*MODEL_SPACE
  0
BLOCK_RECORD
  5
15
102
{ACAD_XDICTIONARY
360
F8
102
}
330
1
100
AcDbSymbolTableRecord
100
AcDbBlockTableRecord
  2
*PAPER_SPACE
  0
BLOCK_RECORD
  5
27
330
1
100
AcDbSymbolTableRecord
100
AcDbBlockTableRecord
  2
*D0
  0
BLOCK_RECORD
  5
28
330
1
100
AcDbSymbolTableRecord
100
AcDbBlockTableRecord
  2
*D1
  0
BLOCK_RECORD
  5
29
330
1
100
AcDbSymbolTableRecord
100
AcDbBlockTableRecord
  2
*D2
  0
BLOCK_RECORD
  5
2A
330
1
100
AcDbSymbolTableRecord
100
AcDbBlockTableRecord
  2
*D3
  0
BLOCK_RECORD
  5
2B
330
1
100
AcDbSymbolTableRecord
100
AcDbBlockTableRecord
  2
*D4
  0
ENDTAB
  0
ENDSEC
  0
SECTION
  2
BLOCKS
  0
BLOCK
  5
31
330
18
100
AcDbEntity
  8
0
100
AcDbBlockBegin
  2
*MODEL_SPACE
 70
     0
 10
0.0
 20
0.0
 30
0.0
  3
*MODEL_SPACE
  1

  0
ENDBLK
  5
32
330
18
100
AcDbEntity
  8
0
100
AcDbBlockEnd
  0
BLOCK
  5
2F
330
15
100
AcDbEntity
 67
     1
  8
0
100
AcDbBlockBegin
  2
*PAPER_SPACE
 70
     0
 10
0.0
 20
0.0
 30
0.0
  3
*PAPER_SPACE
  1

  0
ENDBLK
  5
30
330
15
100
AcDbEntity
 67
     1
  8
0
100
AcDbBlockEnd
  0
BLOCK
  5
34
330
27
100
AcDbEntity
  8
0
100
AcDbBlockBegin
  2
*D0
 70
     1
 10
0.0
 20
0.0
 30
0.0
  3
*D0
  1

  0
LINE
  5
35
330
27
100
AcDbEntity
  8
0
  6
BYBLOCK
 62
     0
100
AcDbLine
 10
-0.021559136618205
 20
3.418761855082091
 30
0.0
 11
-0.021559136618205
 21
3.757834842594372
 31
0.0
  0
LINE
  5
36
330
27
100
AcDbEntity
  8
0
  6
BYBLOCK
 62
     0
100
AcDbLine
 10
2.228440863381794
 20
2.793761855082091
 30
0.0
 11
2.228440863381794
 21
3.757834842594371
 31
0.0
  0
LINE
  5
37
330
27
100
AcDbEntity
  8
0
  6
BYBLOCK
 62
     0
100
AcDbLine
 10
-0.021559136618205
 20
3.577834842594372
 30
0.0
 11
0.7076075300484617
 21
3.577834842594372
 31
0.0
  0
LINE
  5
38
330
27
100
AcDbEntity
  8
0
  6
BYBLOCK
 62
     0
100
AcDbLine
 10
2.228440863381794
 20
3.577834842594372
 30
0.0
 11
1.499274196715128
 21
3.577834842594372
 31
0.0
  0
LINE
  5
39
330
27
100
AcDbEntity
  8
0
  6
BYBLOCK
 62
     0
100
AcDbLine
 10
-0.146559136618205
 20
3.452834842594372
 30
0.0
 11
0.103440863381795
 21
3.702834842594372
 31
0.0
  0
LINE
  5
3A
330
27
100
AcDbEntity
  8
0
  6
BYBLOCK
 62
     0
100
AcDbLine
 10
2.103440863381794
 20
3.452834842594372
 30
0.0
 11
2.353440863381794
 21
3.702834842594372
 31
0.0
  0
TEXT
  5
3B
330
27
100
AcDbEntity
  8
0
  6
BYBLOCK
 62
     0
100
AcDbText
 10
0.8326075300484616
 20
3.515334842594372
 30
0.0
 40
0.125
  1
2 1/4
 72
     1
 11
1.103440863381794
 21
3.577834842594372
 31
0.0
100
AcDbText
 73
     2
  0
POINT
  5
3C
330
27
100
AcDbEntity
  8
DEFPOINTS
  6
BYBLOCK
 62
     0
100
AcDbPoint
 10
-0.021559136618205
 20
3.356261855082091
 30
0.0
  0
POINT
  5
3D
330
27
100
AcDbEntity
  8
DEFPOINTS
  6
BYBLOCK
 62
     0
100
AcDbPoint
 10
2.228440863381794
 20
2.731261855082091
 30
0.0
  0
POINT
  5
3E
330
27
100
AcDbEntity
  8
DEFPOINTS
  6
BYBLOCK
 62
     0
100
AcDbPoint
 10
2.228440863381794
 20
3.577834842594372
 30
0.0
  0
ENDBLK
  5
3F
330
27
100
AcDbEntity
  8
0
100
AcDbBlockEnd
  0
BLOCK
  5
40
330
28
100
AcDbEntity
  8
0
100
AcDbBlockBegin
  2
*D1
 70
     1
 10
0.0
 20
0.0
 30
0.0
  3
*D1
  1

  0
LINE
  5
41
330
28
100
AcDbEntity
  8
0
  6
BYBLOCK
 62
     0
100
AcDbLine
 10
-0.084059136618205
 20
3.356261855082091
 30
0.0
 11
-0.4063425789569547
 21
3.356261855082091
 31
0.0
  0
LINE
  5
42
330
28
100
AcDbEntity
  8
0
  6
BYBLOCK
 62
     0
100
AcDbLine
 10
-0.084059136618205
 20
3.106261855082091
 30
0.0
 11
-0.4063425789569548
 21
3.106261855082091
 31
0.0
  0
LINE
  5
43
330
28
100
AcDbEntity
  8
0
  6
BYBLOCK
 62
     0
100
AcDbLine
 10
-0.2263425789569546
 20
3.356261855082091
 30
0.0
 11
-0.2263425789569546
 21
3.606261855082091
 31
0.0
  0
LINE
  5
44
330
28
100
AcDbEntity
  8
0
  6
BYBLOCK
 62
     0
100
AcDbLine
 10
-0.2263425789569546
 20
3.106261855082091
 30
0.0
 11
-0.2263425789569547
 21
2.856261855082091
 31
0.0
  0
LINE
  5
45
330
28
100
AcDbEntity
  8
0
  6
BYBLOCK
 62
     0
100
AcDbLine
 10
-0.1013425789569546
 20
3.231261855082091
 30
0.0
 11
-0.3513425789569546
 21
3.481261855082091
 31
0.0
  0
LINE
  5
46
330
28
100
AcDbEntity
  8
0
  6
BYBLOCK
 62
     0
100
AcDbLine
 10
-0.1013425789569547
 20
2.981261855082091
 30
0.0
 11
-0.3513425789569546
 21
3.231261855082091
 31
0.0
  0
TEXT
  5
47
330
28
100
AcDbEntity
  8
0
  6
BYBLOCK
 62
     0
100
AcDbText
 10
-0.1638425789569547
 20
2.439595188415424
 30
0.0
 40
0.125
  1
1/4
 50
90.0
 72
     1
 11
-0.2263425789569547
 21
2.585428521748758
 31
0.0
100
AcDbText
 73
     2
  0
POINT
  5
48
330
28
100
AcDbEntity
  8
DEFPOINTS
  6
BYBLOCK
 62
     0
100
AcDbPoint
 10
-0.021559136618205
 20
3.356261855082091
 30
0.0
  0
POINT
  5
49
330
28
100
AcDbEntity
  8
DEFPOINTS
  6
BYBLOCK
 62
     0
100
AcDbPoint
 10
-0.021559136618205
 20
3.106261855082091
 30
0.0
  0
POINT
  5
4A
330
28
100
AcDbEntity
  8
DEFPOINTS
  6
BYBLOCK
 62
     0
100
AcDbPoint
 10
-0.2263425789569546
 20
3.106261855082091
 30
0.0
  0
ENDBLK
  5
4B
330
28
100
AcDbEntity
  8
0
100
AcDbBlockEnd
  0
BLOCK
  5
4C
330
29
100
AcDbEntity
  8
0
100
AcDbBlockBegin
  2
*D2
 70
     1
 10
0.0
 20
0.0
 30
0.0
  3
*D2
  1

  0
LINE
  5
4D
330
29
100
AcDbEntity
  8
0
  6
BYBLOCK
 62
     0
100
AcDbLine
 10
4.915940863381795
 20
3.356261855082091
 30
0.0
 11
5.283996233965196
 21
3.356261855082091
 31
0.0
  0
LINE
  5
4E
330
29
100
AcDbEntity
  8
0
  6
BYBLOCK
 62
     0
100
AcDbLine
 10
4.103440863381795
 20
2.606261855082091
 30
0.0
 11
5.283996233965196
 21
2.606261855082091
 31
0.0
  0
LINE
  5
4F
330
29
100
AcDbEntity
  8
0
  6
BYBLOCK
 62
     0
100
AcDbLine
 10
5.103996233965196
 20
3.356261855082091
 30
0.0
 11
5.103996233965196
 21
3.606261855082091
 31
0.0
  0
LINE
  5
50
330
29
100
AcDbEntity
  8
0
  6
BYBLOCK
 62
     0
100
AcDbLine
 10
5.103996233965196
 20
2.606261855082091
 30
0.0
 11
5.103996233965196
 21
2.356261855082091
 31
0.0
  0
LINE
  5
51
330
29
100
AcDbEntity
  8
0
  6
BYBLOCK
 62
     0
100
AcDbLine
 10
5.228996233965196
 20
3.231261855082091
 30
0.0
 11
4.978996233965196
 21
3.481261855082091
 31
0.0
  0
LINE
  5
52
330
29
100
AcDbEntity
  8
0
  6
BYBLOCK
 62
     0
100
AcDbLine
 10
5.228996233965196
 20
2.481261855082091
 30
0.0
 11
4.978996233965196
 21
2.731261855082091
 31
0.0
  0
TEXT
  5
53
330
29
100
AcDbEntity
  8
0
  6
BYBLOCK
 62
     0
100
AcDbText
 10
5.166496233965196
 20
1.897928521748758
 30
0.0
 40
0.125
  1
3/4
 50
90.0
 72
     1
 11
5.103996233965196
 21
2.064595188415425
 31
0.0
100
AcDbText
 73
     2
  0
POINT
  5
54
330
29
100
AcDbEntity
  8
DEFPOINTS
  6
BYBLOCK
 62
     0
100
AcDbPoint
 10
4.853440863381795
 20
3.356261855082091
 30
0.0
  0
POINT
  5
55
330
29
100
AcDbEntity
  8
DEFPOINTS
  6
BYBLOCK
 62
     0
100
AcDbPoint
 10
4.040940863381795
 20
2.606261855082091
 30
0.0
  0
POINT
  5
56
330
29
100
AcDbEntity
  8
DEFPOINTS
  6
BYBLOCK
 62
     0
100
AcDbPoint
 10
5.103996233965196
 20
2.606261855082091
 30
0.0
  0
ENDBLK
  5
57
330
29
100
AcDbEntity
  8
0
100
AcDbBlockEnd
  0
BLOCK
  5
58
330
2A
100
AcDbEntity
  8
0
100
AcDbBlockBegin
  2
*D3
 70
     1
 10
0.0
 20
0.0
 30
0.0
  3
*D3
  1

  0
LINE
  5
59
330
2A
100
AcDbEntity
  8
0
  6
BYBLOCK
 62
     0
100
AcDbLine
 10
3.728440863381794
 20
2.793761855082091
 30
0.0
 11
3.728440863381794
 21
3.757834842594371
 31
0.0
  0
LINE
  5
5A
330
2A
100
AcDbEntity
  8
0
  6
BYBLOCK
 62
     0
100
AcDbLine
 10
4.853440863381795
 20
3.418761855082091
 30
0.0
 11
4.853440863381795
 21
3.757834842594372
 31
0.0
  0
LINE
  5
5B
330
2A
100
AcDbEntity
  8
0
  6
BYBLOCK
 62
     0
100
AcDbLine
 10
3.728440863381794
 20
3.577834842594372
 30
0.0
 11
3.478440863381794
 21
3.577834842594372
 31
0.0
  0
LINE
  5
5C
330
2A
100
AcDbEntity
  8
0
  6
BYBLOCK
 62
     0
100
AcDbLine
 10
4.853440863381795
 20
3.577834842594372
 30
0.0
 11
5.103440863381795
 21
3.577834842594372
 31
0.0
  0
LINE
  5
5D
330
2A
100
AcDbEntity
  8
0
  6
BYBLOCK
 62
     0
100
AcDbLine
 10
3.603440863381794
 20
3.452834842594372
 30
0.0
 11
3.853440863381795
 21
3.702834842594372
 31
0.0
  0
LINE
  5
5E
330
2A
100
AcDbEntity
  8
0
  6
BYBLOCK
 62
     0
100
AcDbLine
 10
4.728440863381795
 20
3.452834842594372
 30
0.0
 11
4.978440863381795
 21
3.702834842594372
 31
0.0
  0
TEXT
  5
5F
330
2A
100
AcDbEntity
  8
0
  6
BYBLOCK
 62
     0
100
AcDbText
 10
5.228440863381795
 20
3.515334842594372
 30
0.0
 40
0.125
  1
1 1/8
 72
     1
 11
5.478440863381795
 21
3.577834842594372
 31
0.0
100
AcDbText
 73
     2
  0
POINT
  5
60
330
2A
100
AcDbEntity
  8
DEFPOINTS
  6
BYBLOCK
 62
     0
100
AcDbPoint
 10
3.728440863381794
 20
2.731261855082091
 30
0.0
  0
POINT
  5
61
330
2A
100
AcDbEntity
  8
DEFPOINTS
  6
BYBLOCK
 62
     0
100
AcDbPoint
 10
4.853440863381795
 20
3.356261855082091
 30
0.0
  0
POINT
  5
62
330
2A
100
AcDbEntity
  8
DEFPOINTS
  6
BYBLOCK
 62
     0
100
AcDbPoint
 10
4.853440863381795
 20
3.577834842594372
 30
0.0
  0
ENDBLK
  5
63
330
2A
100
AcDbEntity
  8
0
100
AcDbBlockEnd
  0
BLOCK
  5
64
330
2B
100
AcDbEntity
  8
0
100
AcDbBlockBegin
  2
*D4
 70
     1
 10
0.0
 20
0.0
 30
0.0
  3
*D4
  1

  0
LINE
  5
65
330
2B
100
AcDbEntity
  8
0
  6
BYBLOCK
 62
     0
100
AcDbLine
 10
2.228440863381794
 20
2.793761855082091
 30
0.0
 11
2.228440863381794
 21
3.757834842594371
 31
0.0
  0
LINE
  5
66
330
2B
100
AcDbEntity
  8
0
  6
BYBLOCK
 62
     0
100
AcDbLine
 10
3.728440863381794
 20
2.793761855082091
 30
0.0
 11
3.728440863381794
 21
3.757834842594371
 31
0.0
  0
LINE
  5
67
330
2B
100
AcDbEntity
  8
0
  6
BYBLOCK
 62
     0
100
AcDbLine
 10
2.228440863381794
 20
3.577834842594372
 30
0.0
 11
2.603440863381794
 21
3.577834842594372
 31
0.0
  0
LINE
  5
68
330
2B
100
AcDbEntity
  8
0
  6
BYBLOCK
 62
     0
100
AcDbLine
 10
3.728440863381794
 20
3.577834842594372
 30
0.0
 11
3.353440863381794
 21
3.577834842594372
 31
0.0
  0
LINE
  5
69
330
2B
100
AcDbEntity
  8
0
  6
BYBLOCK
 62
     0
100
AcDbLine
 10
2.103440863381794
 20
3.452834842594372
 30
0.0
 11
2.353440863381794
 21
3.702834842594372
 31
0.0
  0
LINE
  5
6A
330
2B
100
AcDbEntity
  8
0
  6
BYBLOCK
 62
     0
100
AcDbLine
 10
3.603440863381794
 20
3.452834842594372
 30
0.0
 11
3.853440863381795
 21
3.702834842594372
 31
0.0
  0
TEXT
  5
6B
330
2B
100
AcDbEntity
  8
0
  6
BYBLOCK
 62
     0
100
AcDbText
 10
2.728440863381794
 20
3.515334842594372
 30
0.0
 40
0.125
  1
1 1/2
 72
     1
 11
2.978440863381795
 21
3.577834842594372
 31
0.0
100
AcDbText
 73
     2
  0
POINT
  5
6C
330
2B
100
AcDbEntity
  8
DEFPOINTS
  6
BYBLOCK
 62
     0
100
AcDbPoint
 10
2.228440863381794
 20
2.731261855082091
 30
0.0
  0
POINT
  5
6D
330
2B
100
AcDbEntity
  8
DEFPOINTS
  6
BYBLOCK
 62
     0
100
AcDbPoint
 10
3.728440863381794
 20
2.731261855082091
 30
0.0
  0
POINT
  5
6E
330
2B
100
AcDbEntity
  8
DEFPOINTS
  6
BYBLOCK
 62
     0
100
AcDbPoint
 10
3.728440863381794
 20
3.577834842594372
 30
0.0
  0
ENDBLK
  5
6F
330
2B
100
AcDbEntity
  8
0
100
AcDbBlockEnd
  0
ENDSEC
  0
SECTION
  2
ENTITIES
  0
LINE
  5
70
330
18
100
AcDbEntity
  8
ADP1DETAIL
100
AcDbLine
 10
-0.021559136618205
 20
3.356261855082091
 30
0.0
 11
0.3534408633817949
 21
3.356261855082092
 31
0.0
  0
LINE
  5
71
330
18
100
AcDbEntity
  8
ADP1DETAIL
100
AcDbLine
 10
1.853440863381795
 20
3.106261855082091
 30
0.0
 11
-0.021559136618205
 21
3.106261855082091
 31
0.0
  0
DIMENSION
  5
72
330
18
100
AcDbEntity
  8
ADPDIM
100
AcDbDimension
  2
*D0
 10
2.228440863381794
 20
3.577834842594372
 30
0.0
 11
1.103440863381794
 21
3.577834842594372
 31
0.0
100
AcDbAlignedDimension
 13
-0.021559136618205
 23
3.356261855082091
 33
0.0
 14
2.228440863381794
 24
2.731261855082091
 34
0.0
100
AcDbRotatedDimension
  0
DIMENSION
  5
73
330
18
100
AcDbEntity
  8
ADPDIM
100
AcDbDimension
  2
*D1
 10
-0.2263425789569546
 20
3.106261855082091
 30
0.0
 11
-0.2263425789569547
 21
2.585428521748758
 31
0.0
100
AcDbAlignedDimension
 13
-0.021559136618205
 23
3.356261855082091
 33
0.0
 14
-0.021559136618205
 24
3.106261855082091
 34
0.0
 50
90.0
100
AcDbRotatedDimension
  0
LINE
  5
74
330
18
100
AcDbEntity
  8
ADP1DETAIL
100
AcDbLine
 10
-0.021559136618205
 20
3.106261855082091
 30
0.0
 11
-0.021559136618205
 21
3.356261855082091
 31
0.0
  0
ARC
  5
75
330
18
100
AcDbEntity
  8
ADP1DETAIL
100
AcDbCircle
 10
2.978440863381795
 20
3.356261855082092
 30
0.0
 40
0.1250000000000001
100
AcDbArc
 50
180.0
 51
0.0
  0
ARC
  5
76
330
18
100
AcDbEntity
  8
ADP1DETAIL
100
AcDbCircle
 10
2.977940863381794
 20
2.731761855082091
 30
0.0
 40
0.3745
100
AcDbArc
 50
90.0
 51
180.0
  0
DIMENSION
  5
77
330
18
100
AcDbEntity
  8
ADPDIM
100
AcDbDimension
  2
*D4
 10
3.728440863381794
 20
3.577834842594372
 30
0.0
 11
2.978440863381795
 21
3.577834842594372
 31
0.0
100
AcDbAlignedDimension
 13
2.228440863381794
 23
2.731261855082091
 33
0.0
 14
3.728440863381794
 24
2.731261855082091
 34
0.0
100
AcDbRotatedDimension
  0
ARC
  5
78
330
18
100
AcDbEntity
  8
ADP1DETAIL
100
AcDbCircle
 10
1.478440863381794
 20
3.356261855082092
 30
0.0
 40
0.1250000000000001
100
AcDbArc
 50
180.0
 51
0.0
  0
LINE
  5
79
330
18
100
AcDbEntity
  8
ADP1DETAIL
100
AcDbLine
 10
0.6034408633817952
 20
3.356261855082092
 30
0.0
 11
0.853440863381795
 21
3.356261855082092
 31
0.0
  0
ARC
  5
7A
330
18
100
AcDbEntity
  8
ADP1DETAIL
100
AcDbCircle
 10
0.4784408633817951
 20
3.356261855082092
 30
0.0
 40
0.1250000000000001
100
AcDbArc
 50
180.0
 51
0.0
  0
LINE
  5
7B
330
18
100
AcDbEntity
  8
ADP1DETAIL
100
AcDbLine
 10
1.103440863381795
 20
3.356261855082092
 30
0.0
 11
1.353440863381794
 21
3.356261855082092
 31
0.0
  0
ARC
  5
7C
330
18
100
AcDbEntity
  8
ADP1DETAIL
100
AcDbCircle
 10
0.978440863381795
 20
3.356261855082092
 30
0.0
 40
0.1250000000000001
100
AcDbArc
 50
180.0
 51
0.0
  0
LINE
  5
7D
330
18
100
AcDbEntity
  8
ADP1DETAIL
100
AcDbLine
 10
1.978440863381795
 20
2.731261855082091
 30
0.0
 11
2.478440863381794
 21
2.731261855082091
 31
0.0
  0
LINE
  5
7E
330
18
100
AcDbEntity
  8
ADP1DETAIL
100
AcDbLine
 10
1.915940863381795
 20
2.606261855082091
 30
0.0
 11
2.540940863381794
 21
2.606261855082091
 31
0.0
  0
LINE
  5
7F
330
18
100
AcDbEntity
  8
ADP1DETAIL
100
AcDbLine
 10
1.978440863381795
 20
3.356261855082091
 30
0.0
 11
1.978440863381795
 21
2.731261855082091
 31
0.0
  0
LINE
  5
80
330
18
100
AcDbEntity
  8
ADP1DETAIL
100
AcDbLine
 10
1.853440863381795
 20
3.106261855082091
 30
0.0
 11
1.853440863381795
 21
2.668761855082091
 31
0.0
  0
ARC
  5
81
330
18
100
AcDbEntity
  8
ADP1DETAIL
100
AcDbCircle
 10
1.915940863381795
 20
2.668761855082091
 30
0.0
 40
0.0625
100
AcDbArc
 50
180.0
 51
270.0
  0
LINE
  5
82
330
18
100
AcDbEntity
  8
ADP1DETAIL
100
AcDbLine
 10
1.603440863381794
 20
3.356261855082092
 30
0.0
 11
1.978440863381795
 21
3.356261855082091
 31
0.0
  0
LINE
  5
83
330
18
100
AcDbEntity
  8
ADP1DETAIL
100
AcDbLine
 10
2.478440863381794
 20
2.731261855082091
 30
0.0
 11
2.478440863381794
 21
3.356261855082091
 31
0.0
  0
ARC
  5
84
330
18
100
AcDbEntity
  8
ADP1DETAIL
100
AcDbCircle
 10
2.540940863381794
 20
2.668761855082091
 30
0.0
 40
0.0625
100
AcDbArc
 50
270.0
 51
0.0
  0
LINE
  5
85
330
18
100
AcDbEntity
  8
ADP1DETAIL
100
AcDbLine
 10
2.603440863381794
 20
2.668761855082091
 30
0.0
 11
2.603440863381794
 21
2.731761855082091
 31
0.0
  0
LINE
  5
86
330
18
100
AcDbEntity
  8
ADP1DETAIL
100
AcDbLine
 10
2.478440863381794
 20
3.356261855082091
 30
0.0
 11
2.853440863381795
 21
3.356261855082091
 31
0.0
  0
DIMENSION
  5
87
330
18
100
AcDbEntity
  8
ADPDIM
100
AcDbDimension
  2
*D3
 10
4.853440863381795
 20
3.577834842594372
 30
0.0
 11
5.478440863381795
 21
3.577834842594372
 31
0.0
100
AcDbAlignedDimension
 13
3.728440863381794
 23
2.731261855082091
 33
0.0
 14
4.853440863381795
 24
3.356261855082091
 34
0.0
100
AcDbRotatedDimension
  0
DIMENSION
  5
88
330
18
100
AcDbEntity
  8
ADPDIM
100
AcDbDimension
  2
*D2
 10
5.103996233965196
 20
2.606261855082091
 30
0.0
 11
5.103996233965196
 21
2.064595188415425
 31
0.0
100
AcDbAlignedDimension
 13
4.853440863381795
 23
3.356261855082091
 33
0.0
 14
4.040940863381795
 24
2.606261855082091
 34
0.0
 50
90.0
100
AcDbRotatedDimension
  0
ARC
  5
89
330
18
100
AcDbEntity
  8
ADP1DETAIL
100
AcDbCircle
 10
4.478440863381795
 20
3.356261855082092
 30
0.0
 40
0.1250000000000001
100
AcDbArc
 50
180.0
 51
0.0
  0
LINE
  5
8A
330
18
100
AcDbEntity
  8
ADP1DETAIL
100
AcDbLine
 10
4.853440863381795
 20
3.106261855082091
 30
0.0
 11
4.103440863381795
 21
3.106261855082091
 31
0.0
  0
LINE
  5
8B
330
18
100
AcDbEntity
  8
ADP1DETAIL
100
AcDbLine
 10
3.415940863381794
 20
2.606261855082091
 30
0.0
 11
4.040940863381795
 21
2.606261855082091
 31
0.0
  0
LINE
  5
8C
330
18
100
AcDbEntity
  8
ADP1DETAIL
100
AcDbLine
 10
3.478440863381794
 20
2.731261855082091
 30
0.0
 11
3.978440863381795
 21
2.731261855082091
 31
0.0
  0
LINE
  5
8D
330
18
100
AcDbEntity
  8
ADP1DETAIL
100
AcDbLine
 10
3.478440863381794
 20
3.356261855082091
 30
0.0
 11
3.478440863381794
 21
2.731261855082091
 31
0.0
  0
ARC
  5
8E
330
18
100
AcDbEntity
  8
ADP1DETAIL
100
AcDbCircle
 10
2.978940863381795
 20
2.731761855082091
 30
0.0
 40
0.3745
100
AcDbArc
 50
0.0
 51
90.0
  0
LINE
  5
8F
330
18
100
AcDbEntity
  8
ADP1DETAIL
100
AcDbLine
 10
3.353440863381795
 20
2.731761855082091
 30
0.0
 11
3.353440863381794
 21
2.668761855082091
 31
0.0
  0
ARC
  5
90
330
18
100
AcDbEntity
  8
ADP1DETAIL
100
AcDbCircle
 10
3.415940863381794
 20
2.668761855082091
 30
0.0
 40
0.0625
100
AcDbArc
 50
180.0
 51
270.0
  0
LINE
  5
91
330
18
100
AcDbEntity
  8
ADP1DETAIL
100
AcDbLine
 10
3.103440863381794
 20
3.356261855082091
 30
0.0
 11
3.478440863381794
 21
3.356261855082091
 31
0.0
  0
LINE
  5
92
330
18
100
AcDbEntity
  8
ADP1DETAIL
100
AcDbLine
 10
2.978940863381795
 20
3.106261855082091
 30
0.0
 11
2.977940863381794
 21
3.106261855082091
 31
0.0
  0
LINE
  5
93
330
18
100
AcDbEntity
  8
ADP1DETAIL
100
AcDbLine
 10
4.103440863381795
 20
2.668761855082091
 30
0.0
 11
4.103440863381795
 21
3.106261855082091
 31
0.0
  0
LINE
  5
94
330
18
100
AcDbEntity
  8
ADP1DETAIL
100
AcDbLine
 10
3.978440863381795
 20
2.731261855082091
 30
0.0
 11
3.978440863381795
 21
3.356261855082091
 31
0.0
  0
ARC
  5
95
330
18
100
AcDbEntity
  8
ADP1DETAIL
100
AcDbCircle
 10
4.040940863381795
 20
2.668761855082091
 30
0.0
 40
0.0625
100
AcDbArc
 50
270.0
 51
0.0
  0
LINE
  5
96
330
18
100
AcDbEntity
  8
ADP1DETAIL
100
AcDbLine
 10
3.978440863381795
 20
3.356261855082091
 30
0.0
 11
4.353440863381795
 21
3.356261855082091
 31
0.0
  0
LINE
  5
97
330
18
100
AcDbEntity
  8
ADP1DETAIL
100
AcDbLine
 10
4.603440863381795
 20
3.356261855082091
 30
0.0
 11
4.853440863381795
 21
3.356261855082091
 31
0.0
  0
LINE
  5
98
330
18
100
AcDbEntity
  8
ADP1DETAIL
100
AcDbLine
 10
4.853440863381795
 20
3.356261855082091
 30
0.0
 11
4.853440863381795
 21
3.106261855082091
 31
0.0
  0
TEXT
  5
A6
330
18
100
AcDbEntity
  8
ADPDIM
100
AcDbText
 10
-4.012174172518301
 20
1.523189274760216
 30
0.0
 40
0.125
  1
J U L I U S  B L U M  &  C O . ,  I N C .      ( 8 0 0 )  5 2 6 - 6 2 9 3        W W W . J U L I U S B L U M . C O M        P A R T  N o .  5 5 6 4
 41
1.25
  7
ARIAL_WIDE
 72
     1
 11
2.513554852038314
 21
1.648189274760216
 31
0.0
100
AcDbText
 73
     3
  0
ENDSEC
  0
SECTION
  2
OBJECTS
  0
DICTIONARY
  5
C
330
0
100
AcDbDictionary
  3
ACAD_GROUP
350
D
  3
ACAD_LAYOUT
350
9F
  3
ACAD_MLINESTYLE
350
E
  3
ACAD_PLOTSETTINGS
350
A0
  3
ACAD_PLOTSTYLENAME
350
9D
  3
ACDBHEADERROUNDTRIPXREC
350
1EA
  3
ACDBVARIABLEDICTIONARY
350
100
  0
DICTIONARY
  5
FA
330
18
100
AcDbDictionary
280
     1
  3
ACAD_LAYOUTSELFREF
360
20B
  0
DICTIONARY
  5
F8
330
15
100
AcDbDictionary
280
     1
  3
ACAD_LAYOUTSELFREF
360
20A
  0
DICTIONARY
  5
D
102
{ACAD_REACTORS
330
C
102
}
330
C
100
AcDbDictionary
  0
DICTIONARY
  5
9F
102
{ACAD_REACTORS
330
C
102
}
330
C
100
AcDbDictionary
  0
DICTIONARY
  5
E
102
{ACAD_REACTORS
330
C
102
}
330
C
100
AcDbDictionary
  3
STANDARD
350
1B
  0
DICTIONARY
  5
A0
102
{ACAD_REACTORS
330
C
102
}
330
C
100
AcDbDictionary
  0
ACDBDICTIONARYWDFLT
  5
9D
102
{ACAD_REACTORS
330
C
102
}
330
C
100
AcDbDictionary
281
     1
  3
Normal
350
9E
100
AcDbDictionaryWithDefault
340
9E
  0
DICTIONARY
  5
1EA
102
{ACAD_REACTORS
330
C
102
}
330
C
100
AcDbDictionary
  3
CEPSNTYPE
350
1F4
  3
FINGERPRINTGUID
350
1F5
  3
HYPERLINKBASE
350
1ED
  3
INSUNITS
350
1F3
  3
LAYOUTDICT
350
1EF
  3
LWETCUNION
350
1F2
  3
PLOTSETDICT
350
1F0
  3
PLOTSTYLNAMDICT
350
1F1
  3
PSVPSCALE
350
1F7
  3
PUCSBASE
350
1FA
  3
PUCSORGBACK
350
200
  3
PUCSORGBOTTOM
350
1FC
  3
PUCSORGFRONT
350
1FF
  3
PUCSORGLEFT
350
1FD
  3
PUCSORGRIGHT
350
1FE
  3
PUCSORGTOP
350
1FB
  3
PUCSORTHOREF
350
1F8
  3
PUCSORTHOVIEW
350
1F9
  3
STYLESHEET
350
1EE
  3
TSTACKALIGN
350
1EB
  3
TSTACKSIZE
350
1EC
  3
UCSBASE
350
203
  3
UCSORGBACK
350
209
  3
UCSORGBOTTOM
350
205
  3
UCSORGFRONT
350
208
  3
UCSORGLEFT
350
206
  3
UCSORGRIGHT
350
207
  3
UCSORGTOP
350
204
  3
UCSORTHOREF
350
201
  3
UCSORTHOVIEW
350
202
  3
VERSIONGUID
350
1F6
  0
DICTIONARY
  5
100
102
{ACAD_REACTORS
330
C
102
}
330
C
100
AcDbDictionary
  3
DIMASSOC
350
101
  0
XRECORD
  5
20B
102
{ACAD_REACTORS
330
FA
102
}
330
FA
100
AcDbXrecord
340
18
  0
XRECORD
  5
20A
102
{ACAD_REACTORS
330
F8
102
}
330
F8
100
AcDbXrecord
340
15
  0
MLINESTYLE
  5
1B
102
{ACAD_REACTORS
330
E
102
}
330
E
100
AcDbMlineStyle
  2
STANDARD
 70
     0
  3

 62
     0
 51
90.0
 52
90.0
 71
     2
 49
0.5
 62
   256
  6
BYLAYER
 49
-0.5
 62
   256
  6
BYLAYER
  0
ACDBPLACEHOLDER
  5
9E
102
{ACAD_REACTORS
330
9D
102
}
330
9D
100
AcDbPlaceHolder
280
     0
  0
XRECORD
  5
1F4
102
{ACAD_REACTORS
330
1EA
102
}
330
1EA
100
AcDbXrecord
 90
        0
  0
XRECORD
  5
1F5
102
{ACAD_REACTORS
330
1EA
102
}
330
1EA
100
AcDbXrecord
  1
{CAF2ED01-0739-43A1-8135-BFF7836956A2}
  0
XRECORD
  5
1ED
102
{ACAD_REACTORS
330
1EA
102
}
330
1EA
100
AcDbXrecord
  1

  0
XRECORD
  5
1F3
102
{ACAD_REACTORS
330
1EA
102
}
330
1EA
100
AcDbXrecord
 90
        0
  0
XRECORD
  5
1EF
102
{ACAD_REACTORS
330
1EA
102
}
330
1EA
100
AcDbXrecord
340
9F
  0
XRECORD
  5
1F2
102
{ACAD_REACTORS
330
1EA
102
}
330
1EA
100
AcDbXrecord
 90
    14877
  0
XRECORD
  5
1F0
102
{ACAD_REACTORS
330
1EA
102
}
330
1EA
100
AcDbXrecord
340
A0
  0
XRECORD
  5
1F1
102
{ACAD_REACTORS
330
1EA
102
}
330
1EA
100
AcDbXrecord
340
9D
  0
XRECORD
  5
1F7
102
{ACAD_REACTORS
330
1EA
102
}
330
1EA
100
AcDbXrecord
 40
0.0
  0
XRECORD
  5
1FA
102
{ACAD_REACTORS
330
1EA
102
}
330
1EA
100
AcDbXrecord
340
0
  0
XRECORD
  5
200
102
{ACAD_REACTORS
330
1EA
102
}
330
1EA
100
AcDbXrecord
 10
0.0
 20
0.0
 30
0.0
  0
XRECORD
  5
1FC
102
{ACAD_REACTORS
330
1EA
102
}
330
1EA
100
AcDbXrecord
 10
0.0
 20
0.0
 30
0.0
  0
XRECORD
  5
1FF
102
{ACAD_REACTORS
330
1EA
102
}
330
1EA
100
AcDbXrecord
 10
0.0
 20
0.0
 30
0.0
  0
XRECORD
  5
1FD
102
{ACAD_REACTORS
330
1EA
102
}
330
1EA
100
AcDbXrecord
 10
0.0
 20
0.0
 30
0.0
  0
XRECORD
  5
1FE
102
{ACAD_REACTORS
330
1EA
102
}
330
1EA
100
AcDbXrecord
 10
0.0
 20
0.0
 30
0.0
  0
XRECORD
  5
1FB
102
{ACAD_REACTORS
330
1EA
102
}
330
1EA
100
AcDbXrecord
 10
0.0
 20
0.0
 30
0.0
  0
XRECORD
  5
1F8
102
{ACAD_REACTORS
330
1EA
102
}
330
1EA
100
AcDbXrecord
340
0
  0
XRECORD
  5
1F9
102
{ACAD_REACTORS
330
1EA
102
}
330
1EA
100
AcDbXrecord
 70
     0
  0
XRECORD
  5
1EE
102
{ACAD_REACTORS
330
1EA
102
}
330
1EA
100
AcDbXrecord
  1

  0
XRECORD
  5
1EB
102
{ACAD_REACTORS
330
1EA
102
}
330
1EA
100
AcDbXrecord
 90
        1
  0
XRECORD
  5
1EC
102
{ACAD_REACTORS
330
1EA
102
}
330
1EA
100
AcDbXrecord
 90
       70
  0
XRECORD
  5
203
102
{ACAD_REACTORS
330
1EA
102
}
330
1EA
100
AcDbXrecord
340
0
  0
XRECORD
  5
209
102
{ACAD_REACTORS
330
1EA
102
}
330
1EA
100
AcDbXrecord
 10
0.0
 20
0.0
 30
0.0
  0
XRECORD
  5
205
102
{ACAD_REACTORS
330
1EA
102
}
330
1EA
100
AcDbXrecord
 10
0.0
 20
0.0
 30
0.0
  0
XRECORD
  5
208
102
{ACAD_REACTORS
330
1EA
102
}
330
1EA
100
AcDbXrecord
 10
0.0
 20
0.0
 30
0.0
  0
XRECORD
  5
206
102
{ACAD_REACTORS
330
1EA
102
}
330
1EA
100
AcDbXrecord
 10
0.0
 20
0.0
 30
0.0
  0
XRECORD
  5
207
102
{ACAD_REACTORS
330
1EA
102
}
330
1EA
100
AcDbXrecord
 10
0.0
 20
0.0
 30
0.0
  0
XRECORD
  5
204
102
{ACAD_REACTORS
330
1EA
102
}
330
1EA
100
AcDbXrecord
 10
0.0
 20
0.0
 30
0.0
  0
XRECORD
  5
201
102
{ACAD_REACTORS
330
1EA
102
}
330
1EA
100
AcDbXrecord
340
0
  0
XRECORD
  5
202
102
{ACAD_REACTORS
330
1EA
102
}
330
1EA
100
AcDbXrecord
 70
     0
  0
XRECORD
  5
1F6
102
{ACAD_REACTORS
330
1EA
102
}
330
1EA
100
AcDbXrecord
  1
{A9CF41D0-03F1-4304-B6CE-FE05DA6BF1A3}
  0
DICTIONARYVAR
  5
101
102
{ACAD_REACTORS
330
100
102
}
330
100
100
DictionaryVariables
280
     0
  1
1
  0
ENDSEC
  0
EOF
