  0
SECTION
  2
HEADER
  9
$ACADVER
  1
AC1015
  9
$ACADMAINTVER
 70
    20
  9
$DWGCODEPAGE
  3
ANSI_1252
  9
$INSBASE
 10
13.26459726300685
 20
26.05146156993524
 30
0.0
  9
$EXTMIN
 10
6.558953708657483
 20
24.75793894500711
 30
-0.0015258207003583
  9
$EXTMAX
 10
19.964632392141
 20
29.55887741122615
 30
0.0000000349246037
  9
$LIMMIN
 10
-23.61579290080726
 20
-21.96805058542325
  9
$LIMMAX
 10
-4.61579290080726
 20
2.031949414576754
  9
$ORTHOMODE
 70
     1
  9
$REGENMODE
 70
     1
  9
$FILLMODE
 70
     1
  9
$QTEXTMODE
 70
     0
  9
$MIRRTEXT
 70
     1
  9
$LTSCALE
 40
1.0
  9
$ATTMODE
 70
     1
  9
$TEXTSIZE
 40
0.2
  9
$TRACEWID
 40
0.125
  9
$TEXTSTYLE
  7
STANDARD
  9
$CLAYER
  8
ADP1DETAIL
  9
$CELTYPE
  6
BYLAYER
  9
$CECOLOR
 62
   256
  9
$CELTSCALE
 40
1.0
  9
$DISPSILH
 70
     0
  9
$DIMSCALE
 40
1.0
  9
$DIMASZ
 40
0.1875
  9
$DIMEXO
 40
0.0625
  9
$DIMDLI
 40
0.375
  9
$DIMRND
 40
0.0
  9
$DIMDLE
 40
0.0
  9
$DIMEXE
 40
0.1875
  9
$DIMTP
 40
0.0
  9
$DIMTM
 40
0.0
  9
$DIMTXT
 40
0.18
  9
$DIMCEN
 40
0.09375
  9
$DIMTSZ
 40
0.0
  9
$DIMTOL
 70
     0
  9
$DIMLIM
 70
     0
  9
$DIMTIH
 70
     1
  9
$DIMTOH
 70
     1
  9
$DIMSE1
 70
     0
  9
$DIMSE2
 70
     0
  9
$DIMTAD
 70
     0
  9
$DIMZIN
 70
     0
  9
$DIMBLK
  1

  9
$DIMASO
 70
     1
  9
$DIMSHO
 70
     1
  9
$DIMPOST
  1

  9
$DIMAPOST
  1

  9
$DIMALT
 70
     0
  9
$DIMALTD
 70
     2
  9
$DIMALTF
 40
25.4
  9
$DIMLFAC
 40
1.0
  9
$DIMTOFL
 70
     0
  9
$DIMTVP
 40
0.0
  9
$DIMTIX
 70
     0
  9
$DIMSOXD
 70
     0
  9
$DIMSAH
 70
     1
  9
$DIMBLK1
  1
OBLIQUE
  9
$DIMBLK2
  1
OBLIQUE
  9
$DIMSTYLE
  2
STANDARD
  9
$DIMCLRD
 70
     0
  9
$DIMCLRE
 70
     0
  9
$DIMCLRT
 70
     0
  9
$DIMTFAC
 40
1.0
  9
$DIMGAP
 40
0.09375
  9
$DIMJUST
 70
     0
  9
$DIMSD1
 70
     0
  9
$DIMSD2
 70
     0
  9
$DIMTOLJ
 70
     1
  9
$DIMTZIN
 70
     0
  9
$DIMALTZ
 70
     0
  9
$DIMALTTZ
 70
     0
  9
$DIMUPT
 70
     0
  9
$DIMDEC
 70
     2
  9
$DIMTDEC
 70
     4
  9
$DIMALTU
 70
     2
  9
$DIMALTTD
 70
     2
  9
$DIMTXSTY
  7
STANDARD
  9
$DIMAUNIT
 70
     0
  9
$DIMADEC
 70
     0
  9
$DIMALTRND
 40
0.0
  9
$DIMAZIN
 70
     0
  9
$DIMDSEP
 70
    46
  9
$DIMATFIT
 70
     3
  9
$DIMFRAC
 70
     2
  9
$DIMLDRBLK
  1
OBLIQUE
  9
$DIMLUNIT
 70
     5
  9
$DIMLWD
 70
    -2
  9
$DIMLWE
 70
    -2
  9
$DIMTMOVE
 70
     0
  9
$LUNITS
 70
     5
  9
$LUPREC
 70
     5
  9
$SKETCHINC
 40
0.1
  9
$FILLETRAD
 40
0.0
  9
$AUNITS
 70
     0
  9
$AUPREC
 70
     0
  9
$MENU
  1
acad
  9
$ELEVATION
 40
0.0
  9
$PELEVATION
 40
0.0
  9
$THICKNESS
 40
0.0
  9
$LIMCHECK
 70
     0
  9
$CHAMFERA
 40
0.0
  9
$CHAMFERB
 40
0.0
  9
$CHAMFERC
 40
0.0
  9
$CHAMFERD
 40
0.0
  9
$SKPOLY
 70
     0
  9
$TDCREATE
 40
2450359.953075810
  9
$TDUCREATE
 40
2450360.119742477
  9
$TDUPDATE
 40
2453961.991830637
  9
$TDUUPDATE
 40
2453962.158497303
  9
$TDINDWG
 40
0.1000230440
  9
$TDUSRTIMER
 40
0.1000230440
  9
$USRTIMER
 70
     1
  9
$ANGBASE
 50
0.0
  9
$ANGDIR
 70
     0
  9
$PDMODE
 70
    34
  9
$PDSIZE
 40
0.0
  9
$PLINEWID
 40
0.0
  9
$SPLFRAME
 70
     0
  9
$SPLINETYPE
 70
     6
  9
$SPLINESEGS
 70
     8
  9
$HANDSEED
  5
3EA
  9
$SURFTAB1
 70
     6
  9
$SURFTAB2
 70
     6
  9
$SURFTYPE
 70
     6
  9
$SURFU
 70
     6
  9
$SURFV
 70
     6
  9
$UCSBASE
  2

  9
$UCSNAME
  2

  9
$UCSORG
 10
0.0
 20
0.0
 30
0.0
  9
$UCSXDIR
 10
1.0
 20
0.0
 30
0.0
  9
$UCSYDIR
 10
0.0
 20
1.0
 30
0.0
  9
$UCSORTHOREF
  2

  9
$UCSORTHOVIEW
 70
     0
  9
$UCSORGTOP
 10
0.0
 20
0.0
 30
0.0
  9
$UCSORGBOTTOM
 10
0.0
 20
0.0
 30
0.0
  9
$UCSORGLEFT
 10
0.0
 20
0.0
 30
0.0
  9
$UCSORGRIGHT
 10
0.0
 20
0.0
 30
0.0
  9
$UCSORGFRONT
 10
0.0
 20
0.0
 30
0.0
  9
$UCSORGBACK
 10
0.0
 20
0.0
 30
0.0
  9
$PUCSBASE
  2

  9
$PUCSNAME
  2

  9
$PUCSORG
 10
0.0
 20
0.0
 30
0.0
  9
$PUCSXDIR
 10
1.0
 20
0.0
 30
0.0
  9
$PUCSYDIR
 10
0.0
 20
1.0
 30
0.0
  9
$PUCSORTHOREF
  2

  9
$PUCSORTHOVIEW
 70
     0
  9
$PUCSORGTOP
 10
0.0
 20
0.0
 30
0.0
  9
$PUCSORGBOTTOM
 10
0.0
 20
0.0
 30
0.0
  9
$PUCSORGLEFT
 10
0.0
 20
0.0
 30
0.0
  9
$PUCSORGRIGHT
 10
0.0
 20
0.0
 30
0.0
  9
$PUCSORGFRONT
 10
0.0
 20
0.0
 30
0.0
  9
$PUCSORGBACK
 10
0.0
 20
0.0
 30
0.0
  9
$USERI1
 70
     0
  9
$USERI2
 70
     0
  9
$USERI3
 70
     0
  9
$USERI4
 70
     0
  9
$USERI5
 70
     0
  9
$USERR1
 40
0.0
  9
$USERR2
 40
0.0
  9
$USERR3
 40
0.0
  9
$USERR4
 40
0.0
  9
$USERR5
 40
0.0
  9
$WORLDVIEW
 70
     1
  9
$SHADEDGE
 70
     3
  9
$SHADEDIF
 70
    70
  9
$TILEMODE
 70
     1
  9
$MAXACTVP
 70
    15
  9
$PINSBASE
 10
0.0
 20
-0.0000000000727758
 30
0.0
  9
$PLIMCHECK
 70
     0
  9
$PEXTMIN
 10
1.000000000000000E+20
 20
1.000000000000000E+20
 30
1.000000000000000E+20
  9
$PEXTMAX
 10
-1.000000000000000E+20
 20
-1.000000000000000E+20
 30
-1.000000000000000E+20
  9
$PLIMMIN
 10
-21.61579290080726
 20
-19.96805058542324
  9
$PLIMMAX
 10
-9.61579290080726
 20
-10.96805058542324
  9
$UNITMODE
 70
     0
  9
$VISRETAIN
 70
     0
  9
$PLINEGEN
 70
     0
  9
$PSLTSCALE
 70
     1
  9
$TREEDEPTH
 70
  3020
  9
$CMLSTYLE
  2
STANDARD
  9
$CMLJUST
 70
     0
  9
$CMLSCALE
 40
1.0
  9
$PROXYGRAPHICS
 70
     1
  9
$MEASUREMENT
 70
     0
  9
$CELWEIGHT
370
    -1
  9
$ENDCAPS
280
     0
  9
$JOINSTYLE
280
     0
  9
$LWDISPLAY
290
     0
  9
$INSUNITS
 70
     0
  9
$HYPERLINKBASE
  1

  9
$STYLESHEET
  1

  9
$XEDIT
290
     1
  9
$CEPSNTYPE
380
     0
  9
$PSTYLEMODE
290
     1
  9
$FINGERPRINTGUID
  2
{6DA77B46-CF50-4E97-92F8-AE478EBC014C}
  9
$VERSIONGUID
  2
{1494CC96-2302-4B9E-BA29-E1139EE99277}
  9
$EXTNAMES
290
     1
  9
$PSVPSCALE
 40
0.0
  9
$OLESTARTUP
290
     0
  0
ENDSEC
  0
SECTION
  2
CLASSES
  0
CLASS
  1
ACDBDICTIONARYWDFLT
  2
AcDbDictionaryWithDefault
  3
ObjectDBX Classes
 90
        0
280
     0
281
     0
  0
CLASS
  1
ACDBPLACEHOLDER
  2
AcDbPlaceHolder
  3
ObjectDBX Classes
 90
        0
280
     0
281
     0
  0
CLASS
  1
LAYOUT
  2
AcDbLayout
  3
ObjectDBX Classes
 90
        0
280
     0
281
     0
  0
CLASS
  1
DICTIONARYVAR
  2
AcDbDictionaryVar
  3
ObjectDBX Classes
 90
        0
280
     0
281
     0
  0
CLASS
  1
MATERIAL
  2
AcDbMaterial
  3
ObjectDBX Classes
 90
     1024
280
     0
281
     0
  0
CLASS
  1
VISUALSTYLE
  2
AcDbVisualStyle
  3
ObjectDBX Classes
 90
     4095
280
     0
281
     0
  0
CLASS
  1
TABLESTYLE
  2
AcDbTableStyle
  3
ObjectDBX Classes
 90
     4095
280
     0
281
     0
  0
ENDSEC
  0
SECTION
  2
TABLES
  0
TABLE
  2
VPORT
  5
13
330
0
100
AcDbSymbolTable
 70
     1
  0
VPORT
  5
27F
330
13
100
AcDbSymbolTableRecord
100
AcDbViewportTableRecord
  2
*Active
 70
     0
 10
0.0
 20
0.0
 11
1.0
 21
1.0
 12
34.8775859512065
 22
47.12645876353987
 13
0.0
 23
0.0
 14
1.0
 24
1.0
 15
1.0
 25
1.0
 16
0.0
 26
0.0
 36
1.0
 17
-21.61579290080726
 27
-19.96805058542324
 37
0.0
 40
7.813417839593478
 41
1.726930320150659
 42
50.0
 43
0.0
 44
0.0
 50
0.0
 51
0.0
 71
     0
 72
   100
 73
     1
 74
     3
 75
     0
 76
     0
 77
     0
 78
     0
281
     0
 65
     1
110
0.0
120
0.0
130
0.0
111
1.0
121
0.0
131
0.0
112
0.0
122
1.0
132
0.0
 79
     0
146
0.0
  0
ENDTAB
  0
TABLE
  2
LTYPE
  5
F
330
0
100
AcDbSymbolTable
 70
     2
  0
LTYPE
  5
10
330
F
100
AcDbSymbolTableRecord
100
AcDbLinetypeTableRecord
  2
BYBLOCK
 70
     0
  3

 72
    65
 73
     0
 40
0.0
  0
LTYPE
  5
6
330
F
100
AcDbSymbolTableRecord
100
AcDbLinetypeTableRecord
  2
BYLAYER
 70
     0
  3

 72
    65
 73
     0
 40
0.0
  0
LTYPE
  5
5
330
F
100
AcDbSymbolTableRecord
100
AcDbLinetypeTableRecord
  2
CONTINUOUS
 70
     0
  3
Solid line
 72
    65
 73
     0
 40
0.0
  0
LTYPE
  5
34
330
F
100
AcDbSymbolTableRecord
100
AcDbLinetypeTableRecord
  2
HIDDEN2
 70
     0
  3
_ _ _ _ _ _ _ _ _ _ _ _ _ _ _ _ _ _ _ _ _ _ _ _
 72
    65
 73
     2
 40
0.1875
 49
0.125
 74
     0
 49
-0.0625
 74
     0
  0
ENDTAB
  0
TABLE
  2
LAYER
  5
B
330
0
100
AcDbSymbolTable
 70
     5
  0
LAYER
  5
C
330
B
100
AcDbSymbolTableRecord
100
AcDbLayerTableRecord
  2
0
 70
     0
 62
     7
  6
CONTINUOUS
370
    -3
390
97
  0
LAYER
  5
2D
330
B
100
AcDbSymbolTableRecord
100
AcDbLayerTableRecord
  2
DEFPOINTS
 70
     0
 62
    -7
  6
CONTINUOUS
290
     0
370
    -3
390
97
  0
LAYER
  5
4
330
B
100
AcDbSymbolTableRecord
100
AcDbLayerTableRecord
  2
ADPDIM
 70
     0
 62
     3
  6
CONTINUOUS
370
    -3
390
97
  0
LAYER
  5
33
330
B
100
AcDbSymbolTableRecord
100
AcDbLayerTableRecord
  2
ADP2DETAIL
 70
     0
 62
     5
  6
CONTINUOUS
370
    -3
390
97
  0
LAYER
  5
1C
330
B
100
AcDbSymbolTableRecord
100
AcDbLayerTableRecord
  2
ADP1DETAIL
 70
     0
 62
     7
  6
CONTINUOUS
370
    -3
390
97
  0
ENDTAB
  0
TABLE
  2
STYLE
  5
D
330
0
100
AcDbSymbolTable
 70
     2
  0
STYLE
  5
E
330
D
100
AcDbSymbolTableRecord
100
AcDbTextStyleTableRecord
  2
STANDARD
 70
     0
 40
0.0
 41
1.0
 50
0.0
 71
     0
 42
0.2
  3
txt
  4

  0
STYLE
  5
9E
330
D
100
AcDbSymbolTableRecord
100
AcDbTextStyleTableRecord
  2
ARIAL_WIDE
 70
     0
 40
0.0
 41
1.25
 50
0.0
 71
     0
 42
0.2
  3
ARIAL.TTF
  4

1001
ACAD
1000
Arial
1071
       34
  0
ENDTAB
  0
TABLE
  2
VIEW
  5
11
330
0
100
AcDbSymbolTable
 70
     0
  0
ENDTAB
  0
TABLE
  2
UCS
  5
12
330
0
100
AcDbSymbolTable
 70
     0
  0
ENDTAB
  0
TABLE
  2
APPID
  5
15
330
0
100
AcDbSymbolTable
 70
     2
  0
APPID
  5
16
330
15
100
AcDbSymbolTableRecord
100
AcDbRegAppTableRecord
  2
ACAD
 70
     0
  0
APPID
  5
3BC
330
15
100
AcDbSymbolTableRecord
100
AcDbRegAppTableRecord
  2
DCO15
 70
     0
  0
ENDTAB
  0
TABLE
  2
DIMSTYLE
  5
17
330
0
100
AcDbSymbolTable
 70
     1
100
AcDbDimStyleTable
 71
     0
  0
DIMSTYLE
105
1E
102
{ACAD_REACTORS
330
1F
330
336
330
337
330
356
102
}
330
17
100
AcDbSymbolTableRecord
100
AcDbDimStyleTableRecord
  2
STANDARD
 70
     0
340
E
  0
ENDTAB
  0
TABLE
  2
BLOCK_RECORD
  5
1
330
0
100
AcDbSymbolTable
 70
    11
  0
BLOCK_RECORD
  5
2
102
{ACAD_XDICTIONARY
360
11A
102
}
330
1
100
AcDbSymbolTableRecord
100
AcDbBlockTableRecord
  2
*MODEL_SPACE
340
9A
  0
BLOCK_RECORD
  5
8
102
{ACAD_XDICTIONARY
360
11C
102
}
330
1
100
AcDbSymbolTableRecord
100
AcDbBlockTableRecord
  2
*PAPER_SPACE
340
9B
  0
BLOCK_RECORD
  5
26
330
1
100
AcDbSymbolTableRecord
100
AcDbBlockTableRecord
  2
_OBLIQUE
340
0
102
{BLKREFS
331
2AB
331
2AC
331
2B7
331
2B8
331
2C1
331
2C2
102
}
  0
BLOCK_RECORD
  5
11E
330
1
100
AcDbSymbolTableRecord
100
AcDbBlockTableRecord
  2
*D1
340
0
  0
BLOCK_RECORD
  5
12D
330
1
100
AcDbSymbolTableRecord
100
AcDbBlockTableRecord
  2
*D2
340
0
  0
BLOCK_RECORD
  5
13A
330
1
100
AcDbSymbolTableRecord
100
AcDbBlockTableRecord
  2
*D3
340
0
  0
BLOCK_RECORD
  5
2E5
330
1
100
AcDbSymbolTableRecord
100
AcDbBlockTableRecord
  2
*D4
340
0
  0
BLOCK_RECORD
  5
2F2
330
1
100
AcDbSymbolTableRecord
100
AcDbBlockTableRecord
  2
*D5
340
0
  0
BLOCK_RECORD
  5
2FF
330
1
100
AcDbSymbolTableRecord
100
AcDbBlockTableRecord
  2
*D6
340
0
  0
BLOCK_RECORD
  5
357
330
1
100
AcDbSymbolTableRecord
100
AcDbBlockTableRecord
  2
*D8
340
0
  0
BLOCK_RECORD
  5
364
330
1
100
AcDbSymbolTableRecord
100
AcDbBlockTableRecord
  2
*D9
340
0
  0
BLOCK_RECORD
  5
371
330
1
100
AcDbSymbolTableRecord
100
AcDbBlockTableRecord
  2
*D10
340
0
  0
ENDTAB
  0
ENDSEC
  0
SECTION
  2
BLOCKS
  0
BLOCK
  5
3
330
2
100
AcDbEntity
  8
0
100
AcDbBlockBegin
  2
*MODEL_SPACE
 70
     0
 10
0.0
 20
0.0
 30
0.0
  3
*MODEL_SPACE
  1

  0
ENDBLK
  5
7
330
2
100
AcDbEntity
  8
0
100
AcDbBlockEnd
  0
BLOCK
  5
9
330
8
100
AcDbEntity
 67
     1
  8
0
100
AcDbBlockBegin
  2
*PAPER_SPACE
 70
     0
 10
0.0
 20
0.0
 30
0.0
  3
*PAPER_SPACE
  1

  0
ENDBLK
  5
A
330
8
100
AcDbEntity
 67
     1
  8
0
100
AcDbBlockEnd
  0
BLOCK
  5
28
330
26
100
AcDbEntity
  8
0
100
AcDbBlockBegin
  2
_OBLIQUE
 70
     0
 10
0.0
 20
0.0
 30
0.0
  3
_OBLIQUE
  1

  0
LINE
  5
27
330
26
100
AcDbEntity
  8
0
  6
ByBlock
 62
     0
100
AcDbLine
 10
-0.5
 20
-0.5
 30
0.0
 11
0.5
 21
0.5
 31
0.0
  0
ENDBLK
  5
29
330
26
100
AcDbEntity
  8
0
100
AcDbBlockEnd
  0
BLOCK
  5
129
330
11E
100
AcDbEntity
  8
0
100
AcDbBlockBegin
  2
*D1
 70
     1
 10
0.0
 20
0.0
 30
0.0
  3
*D1
  1

  0
LINE
  5
2A7
330
11E
100
AcDbEntity
  8
ADPDIM
 62
     0
100
AcDbLine
 10
13.26459726300685
 20
25.98896156993524
 30
0.0
 11
13.26459726300685
 21
25.54728304275177
 31
0.0
  0
LINE
  5
2A8
330
11E
100
AcDbEntity
  8
ADPDIM
 62
     0
100
AcDbLine
 10
16.38529485496237
 20
26.29522890618989
 30
0.0
 11
16.38529485496237
 21
25.54728304275177
 31
0.0
  0
LINE
  5
2A9
330
11E
100
AcDbEntity
  8
ADPDIM
 62
     0
100
AcDbLine
 10
13.26459726300685
 20
25.73478304275177
 30
0.0
 11
14.67119605898461
 21
25.73478304275177
 31
0.0
  0
LINE
  5
2AA
330
11E
100
AcDbEntity
  8
ADPDIM
 62
     0
100
AcDbLine
 10
16.38529485496237
 20
25.73478304275177
 30
0.0
 11
14.97869605898461
 21
25.73478304275177
 31
0.0
  0
INSERT
  5
2AB
330
11E
100
AcDbEntity
  8
ADPDIM
 62
     0
100
AcDbBlockReference
  2
_OBLIQUE
 10
13.26459726300685
 20
25.73478304275177
 30
0.0
 41
0.1875
 42
0.1875
 43
0.1875
 50
180.0
  0
INSERT
  5
2AC
330
11E
100
AcDbEntity
  8
ADPDIM
 62
     0
100
AcDbBlockReference
  2
_OBLIQUE
 10
16.38529485496237
 20
25.73478304275177
 30
0.0
 41
0.1875
 42
0.1875
 43
0.1875
  0
MTEXT
  5
2AD
330
11E
100
AcDbEntity
  8
ADPDIM
 62
     0
100
AcDbMText
 10
14.82494605898461
 20
25.73478304275177
 30
0.0
 40
0.18
 41
0.0
 71
     5
 72
     1
  1
\A1;3
 73
     1
 44
1.0
1001
ACAD
1000
MTEXTBEGIN
1070
    73
1070
     1
1070
    44
1040
1.0
1070
    74
1070
     0
1000
MTEXTEND
  0
POINT
  5
2AE
330
11E
100
AcDbEntity
  8
DEFPOINTS
 62
     0
100
AcDbPoint
 10
13.26459726300685
 20
26.05146156993524
 30
0.0
  0
POINT
  5
2AF
330
11E
100
AcDbEntity
  8
DEFPOINTS
 62
     0
100
AcDbPoint
 10
16.38529485496237
 20
26.35772890618989
 30
0.0
  0
POINT
  5
2B0
330
11E
100
AcDbEntity
  8
DEFPOINTS
 62
     0
100
AcDbPoint
 10
16.38529485496237
 20
25.73478304275177
 30
0.0
  0
ENDBLK
  5
12A
330
11E
100
AcDbEntity
  8
0
100
AcDbBlockEnd
  0
BLOCK
  5
138
330
12D
100
AcDbEntity
  8
0
100
AcDbBlockBegin
  2
*D2
 70
     1
 10
0.0
 20
0.0
 30
0.0
  3
*D2
  1

  0
LINE
  5
2B3
330
12D
100
AcDbEntity
  8
ADPDIM
 62
     0
100
AcDbLine
 10
10.46169449450996
 20
26.50457896863871
 30
0.0
 11
10.46169449450996
 21
27.16311950814644
 31
0.0
  0
LINE
  5
2B4
330
12D
100
AcDbEntity
  8
ADPDIM
 62
     0
100
AcDbLine
 10
12.39919449450997
 20
26.50457896863871
 30
0.0
 11
12.39919449450997
 21
27.16311950814644
 31
0.0
  0
LINE
  5
2B5
330
12D
100
AcDbEntity
  8
ADPDIM
 62
     0
100
AcDbLine
 10
10.46169449450996
 20
26.97561950814644
 30
0.0
 11
11.27669449450996
 21
26.97561950814644
 31
0.0
  0
LINE
  5
2B6
330
12D
100
AcDbEntity
  8
ADPDIM
 62
     0
100
AcDbLine
 10
12.39919449450997
 20
26.97561950814644
 30
0.0
 11
11.58419449450996
 21
26.97561950814644
 31
0.0
  0
INSERT
  5
2B7
330
12D
100
AcDbEntity
  8
ADPDIM
 62
     0
100
AcDbBlockReference
  2
_OBLIQUE
 10
10.46169449450996
 20
26.97561950814644
 30
0.0
 41
0.1875
 42
0.1875
 43
0.1875
 50
180.0
  0
INSERT
  5
2B8
330
12D
100
AcDbEntity
  8
ADPDIM
 62
     0
100
AcDbBlockReference
  2
_OBLIQUE
 10
12.39919449450997
 20
26.97561950814644
 30
0.0
 41
0.1875
 42
0.1875
 43
0.1875
  0
MTEXT
  5
2B9
330
12D
100
AcDbEntity
  8
ADPDIM
 62
     0
100
AcDbMText
 10
11.43044449450997
 20
26.97561950814644
 30
0.0
 40
0.18
 41
0.0
 71
     5
 72
     1
  1
\A1;2
 73
     1
 44
1.0
1001
ACAD
1000
MTEXTBEGIN
1070
    73
1070
     1
1070
    44
1040
1.0
1070
    74
1070
     0
1000
MTEXTEND
  0
POINT
  5
2BA
330
12D
100
AcDbEntity
  8
DEFPOINTS
 62
     0
100
AcDbPoint
 10
10.46169449450996
 20
26.44207896863871
 30
0.0
  0
POINT
  5
2BB
330
12D
100
AcDbEntity
  8
DEFPOINTS
 62
     0
100
AcDbPoint
 10
12.39919449450997
 20
26.44207896863871
 30
0.0
  0
POINT
  5
2BC
330
12D
100
AcDbEntity
  8
DEFPOINTS
 62
     0
100
AcDbPoint
 10
12.39919449450997
 20
26.97561950814644
 30
0.0
  0
ENDBLK
  5
139
330
12D
100
AcDbEntity
  8
0
100
AcDbBlockEnd
  0
BLOCK
  5
145
330
13A
100
AcDbEntity
  8
0
100
AcDbBlockBegin
  2
*D3
 70
     1
 10
0.0
 20
0.0
 30
0.0
  3
*D3
  1

  0
LINE
  5
2BD
330
13A
100
AcDbEntity
  8
ADPDIM
 62
     0
100
AcDbLine
 10
10.76662202537158
 20
26.00089427911652
 30
0.0
 11
10.76662202537158
 21
25.67125113411587
 31
0.0
  0
LINE
  5
2BE
330
13A
100
AcDbEntity
  8
ADPDIM
 62
     0
100
AcDbLine
 10
12.07962202537158
 20
26.00089427911652
 30
0.0
 11
12.07962202537158
 21
25.67125113411587
 31
0.0
  0
LINE
  5
2BF
330
13A
100
AcDbEntity
  8
ADPDIM
 62
     0
100
AcDbLine
 10
10.76662202537158
 20
25.85875113411587
 30
0.0
 11
10.96937202537158
 21
25.85875113411587
 31
0.0
  0
LINE
  5
2C0
330
13A
100
AcDbEntity
  8
ADPDIM
 62
     0
100
AcDbLine
 10
12.07962202537158
 20
25.85875113411587
 30
0.0
 11
11.87687202537158
 21
25.85875113411587
 31
0.0
  0
INSERT
  5
2C1
330
13A
100
AcDbEntity
  8
ADPDIM
 62
     0
100
AcDbBlockReference
  2
_OBLIQUE
 10
10.76662202537158
 20
25.85875113411587
 30
0.0
 41
0.1875
 42
0.1875
 43
0.1875
 50
180.0
  0
INSERT
  5
2C2
330
13A
100
AcDbEntity
  8
ADPDIM
 62
     0
100
AcDbBlockReference
  2
_OBLIQUE
 10
12.07962202537158
 20
25.85875113411587
 30
0.0
 41
0.1875
 42
0.1875
 43
0.1875
  0
MTEXT
  5
2C3
330
13A
100
AcDbEntity
  8
ADPDIM
 62
     0
100
AcDbMText
 10
11.42312202537158
 20
25.85875113411587
 30
0.0
 40
0.18
 41
0.0
 71
     5
 72
     1
  1
\A1;1 1/4
 73
     1
 44
1.0
1001
ACAD
1000
MTEXTBEGIN
1070
    73
1070
     1
1070
    44
1040
1.0
1070
    74
1070
     0
1000
MTEXTEND
  0
POINT
  5
2C4
330
13A
100
AcDbEntity
  8
DEFPOINTS
 62
     0
100
AcDbPoint
 10
10.76662202537158
 20
26.06339427911652
 30
0.0
  0
POINT
  5
2C5
330
13A
100
AcDbEntity
  8
DEFPOINTS
 62
     0
100
AcDbPoint
 10
12.07962202537158
 20
26.06339427911652
 30
0.0
  0
POINT
  5
2C6
330
13A
100
AcDbEntity
  8
DEFPOINTS
 62
     0
100
AcDbPoint
 10
12.07962202537158
 20
25.85875113411587
 30
0.0
  0
ENDBLK
  5
146
330
13A
100
AcDbEntity
  8
0
100
AcDbBlockEnd
  0
BLOCK
  5
2E6
330
2E5
100
AcDbEntity
  8
0
100
AcDbBlockBegin
  2
*D4
 70
     1
 10
0.0
 20
0.0
 30
0.0
  3
*D4
  1

  0
LINE
  5
2E7
330
2E5
100
AcDbEntity
  8
0
  6
ByBlock
 62
     0
100
AcDbLine
 10
-5.570875322096235
 20
16.34418086125946
 30
0.0
 11
-5.570875322096235
 21
16.98468491484248
 31
0.0
  0
LINE
  5
2E8
330
2E5
100
AcDbEntity
  8
0
  6
ByBlock
 62
     0
100
AcDbLine
 10
-3.633375322096235
 20
16.34418086125946
 30
0.0
 11
-3.633375322096235
 21
16.98468491484248
 31
0.0
  0
LINE
  5
2E9
330
2E5
100
AcDbEntity
  8
0
  6
ByBlock
 62
     0
100
AcDbLine
 10
-5.570875322096235
 20
16.80468491484248
 30
0.0
 11
-5.081291988762902
 21
16.80468491484248
 31
0.0
  0
LINE
  5
2EA
330
2E5
100
AcDbEntity
  8
0
  6
ByBlock
 62
     0
100
AcDbLine
 10
-3.633375322096235
 20
16.80468491484248
 30
0.0
 11
-4.122958655429568
 21
16.80468491484248
 31
0.0
  0
LINE
  5
2EB
330
2E5
100
AcDbEntity
  8
0
  6
ByBlock
 62
     0
100
AcDbLine
 10
-5.695875322096235
 20
16.67968491484248
 30
0.0
 11
-5.445875322096235
 21
16.92968491484248
 31
0.0
  0
LINE
  5
2EC
330
2E5
100
AcDbEntity
  8
0
  6
ByBlock
 62
     0
100
AcDbLine
 10
-3.758375322096235
 20
16.67968491484248
 30
0.0
 11
-3.508375322096235
 21
16.92968491484248
 31
0.0
  0
TEXT
  5
2ED
330
2E5
100
AcDbEntity
  8
0
  6
ByBlock
 62
     0
100
AcDbText
 10
-4.956291988762902
 20
16.7527214007672
 30
0.0
 40
0.125
  1
1 15/16
 72
     1
 11
-4.602125322096235
 21
16.8152214007672
 31
0.0
100
AcDbText
 73
     2
  0
POINT
  5
2EE
330
2E5
100
AcDbEntity
  8
DEFPOINTS
  6
ByBlock
 62
     0
100
AcDbPoint
 10
-5.570875322096235
 20
16.28168086125947
 30
0.0
  0
POINT
  5
2EF
330
2E5
100
AcDbEntity
  8
DEFPOINTS
  6
ByBlock
 62
     0
100
AcDbPoint
 10
-3.633375322096235
 20
16.28168086125947
 30
0.0
  0
POINT
  5
2F0
330
2E5
100
AcDbEntity
  8
DEFPOINTS
  6
ByBlock
 62
     0
100
AcDbPoint
 10
-3.633375322096235
 20
16.80468491484248
 30
0.0
  0
ENDBLK
  5
2F1
330
2E5
100
AcDbEntity
  8
0
100
AcDbBlockEnd
  0
BLOCK
  5
2F3
330
2F2
100
AcDbEntity
  8
0
100
AcDbBlockBegin
  2
*D5
 70
     1
 10
0.0
 20
0.0
 30
0.0
  3
*D5
  1

  0
LINE
  5
2F4
330
2F2
100
AcDbEntity
  8
ADPDIM
 62
     0
370
    -2
100
AcDbLine
 10
-5.265947791234616
 20
15.84049617173728
 30
0.0
 11
-5.265947791234616
 21
15.32809385277579
 31
0.0
  0
LINE
  5
2F5
330
2F2
100
AcDbEntity
  8
ADPDIM
 62
     0
370
    -2
100
AcDbLine
 10
-3.95294779123462
 20
15.84049617173728
 30
0.0
 11
-3.95294779123462
 21
15.32809385277579
 31
0.0
  0
LINE
  5
2F6
330
2F2
100
AcDbEntity
  8
ADPDIM
 62
     0
370
    -2
100
AcDbLine
 10
-5.265947791234616
 20
15.50809385277579
 30
0.0
 11
-5.064937090113353
 21
15.50809385277579
 31
0.0
  0
LINE
  5
2F7
330
2F2
100
AcDbEntity
  8
ADPDIM
 62
     0
370
    -2
100
AcDbLine
 10
-3.95294779123462
 20
15.50809385277579
 30
0.0
 11
-4.189937090113353
 21
15.50809385277579
 31
0.0
  0
LINE
  5
2F8
330
2F2
100
AcDbEntity
  8
ADPDIM
 62
     0
370
    -2
100
AcDbLine
 10
-4.07794779123462
 20
15.38309385277579
 30
0.0
 11
-3.82794779123462
 21
15.63309385277579
 31
0.0
  0
LINE
  5
2F9
330
2F2
100
AcDbEntity
  8
ADPDIM
 62
     0
370
    -2
100
AcDbLine
 10
-5.390947791234616
 20
15.38309385277579
 30
0.0
 11
-5.140947791234616
 21
15.63309385277579
 31
0.0
  0
MTEXT
  5
2FA
330
2F2
100
AcDbEntity
  8
ADPDIM
 62
     0
100
AcDbMText
 10
-4.627437090113353
 20
15.50809385277579
 30
0.0
 40
0.125
 41
0.0
 71
     5
 72
     1
  1
\A1;1 5/16
 73
     1
 44
1.0
1001
ACAD
1000
MTEXTBEGIN
1070
    73
1070
     1
1070
    44
1040
1.0
1070
    74
1070
     0
1000
MTEXTEND
  0
POINT
  5
2FB
330
2F2
100
AcDbEntity
  8
DEFPOINTS
 62
     0
100
AcDbPoint
 10
-5.265947791234616
 20
15.90299617173728
 30
0.0
  0
POINT
  5
2FC
330
2F2
100
AcDbEntity
  8
DEFPOINTS
 62
     0
100
AcDbPoint
 10
-3.95294779123462
 20
15.90299617173728
 30
0.0
  0
POINT
  5
2FD
330
2F2
100
AcDbEntity
  8
DEFPOINTS
 62
     0
100
AcDbPoint
 10
-3.95294779123462
 20
15.50809385277579
 30
0.0
  0
ENDBLK
  5
2FE
330
2F2
100
AcDbEntity
  8
0
100
AcDbBlockEnd
  0
BLOCK
  5
300
330
2FF
100
AcDbEntity
  8
0
100
AcDbBlockBegin
  2
*D6
 70
     1
 10
0.0
 20
0.0
 30
0.0
  3
*D6
  1

  0
LINE
  5
301
330
2FF
100
AcDbEntity
  8
ADPDIM
 62
     0
370
    -2
100
AcDbLine
 10
-5.144793915370303
 20
16.01302392359524
 30
0.0
 11
-5.144793915370303
 21
15.7214102646498
 31
0.0
  0
LINE
  5
302
330
2FF
100
AcDbEntity
  8
ADPDIM
 62
     0
370
    -2
100
AcDbLine
 10
-4.082293915370303
 20
16.01302392359524
 30
0.0
 11
-4.082293915370303
 21
15.7214102646498
 31
0.0
  0
LINE
  5
303
330
2FF
100
AcDbEntity
  8
ADPDIM
 62
     0
370
    -2
100
AcDbLine
 10
-5.144793915370303
 20
15.9014102646498
 30
0.0
 11
-5.03021058203697
 21
15.9014102646498
 31
0.0
  0
LINE
  5
304
330
2FF
100
AcDbEntity
  8
ADPDIM
 62
     0
370
    -2
100
AcDbLine
 10
-4.082293915370303
 20
15.9014102646498
 30
0.0
 11
-4.196877248703636
 21
15.9014102646498
 31
0.0
  0
LINE
  5
305
330
2FF
100
AcDbEntity
  8
ADPDIM
 62
     0
370
    -2
100
AcDbLine
 10
-4.207293915370303
 20
15.7764102646498
 30
0.0
 11
-3.957293915370303
 21
16.0264102646498
 31
0.0
  0
LINE
  5
306
330
2FF
100
AcDbEntity
  8
ADPDIM
 62
     0
370
    -2
100
AcDbLine
 10
-5.269793915370303
 20
15.7764102646498
 30
0.0
 11
-5.019793915370303
 21
16.0264102646498
 31
0.0
  0
MTEXT
  5
307
330
2FF
100
AcDbEntity
  8
ADPDIM
 62
     0
100
AcDbMText
 10
-4.613543915370303
 20
15.9014102646498
 30
0.0
 40
0.125
 41
0.0
 71
     5
 72
     1
  1
\A1;1 1/16
 73
     1
 44
1.0
1001
ACAD
1000
MTEXTBEGIN
1070
    73
1070
     1
1070
    44
1040
1.0
1070
    74
1070
     0
1000
MTEXTEND
  0
POINT
  5
308
330
2FF
100
AcDbEntity
  8
DEFPOINTS
 62
     0
100
AcDbPoint
 10
-5.144793915370303
 20
16.07552392359524
 30
0.0
  0
POINT
  5
309
330
2FF
100
AcDbEntity
  8
DEFPOINTS
 62
     0
100
AcDbPoint
 10
-4.082293915370303
 20
16.07552392359524
 30
0.0
  0
POINT
  5
30A
330
2FF
100
AcDbEntity
  8
DEFPOINTS
 62
     0
100
AcDbPoint
 10
-4.082293915370303
 20
15.9014102646498
 30
0.0
  0
ENDBLK
  5
30B
330
2FF
100
AcDbEntity
  8
0
100
AcDbBlockEnd
  0
BLOCK
  5
362
330
357
100
AcDbEntity
  8
0
100
AcDbBlockBegin
  2
*D8
 70
     1
 10
0.0
 20
0.0
 30
0.0
  3
*D8
  1

  0
LINE
  5
39C
330
357
100
AcDbEntity
  8
ADPDIM
 62
     0
370
    -2
100
AcDbLine
 10
10.7667777037993
 20
26.02747860107331
 30
0.0
 11
10.7667777037993
 21
25.51507628211182
 31
0.0
  0
LINE
  5
39D
330
357
100
AcDbEntity
  8
ADPDIM
 62
     0
370
    -2
100
AcDbLine
 10
12.0797777037993
 20
26.02747860107331
 30
0.0
 11
12.0797777037993
 21
25.51507628211182
 31
0.0
  0
LINE
  5
39E
330
357
100
AcDbEntity
  8
ADPDIM
 62
     0
370
    -2
100
AcDbLine
 10
10.7667777037993
 20
25.69507628211181
 30
0.0
 11
10.96778840492057
 21
25.69507628211181
 31
0.0
  0
LINE
  5
39F
330
357
100
AcDbEntity
  8
ADPDIM
 62
     0
370
    -2
100
AcDbLine
 10
12.0797777037993
 20
25.69507628211181
 30
0.0
 11
11.84278840492057
 21
25.69507628211181
 31
0.0
  0
LINE
  5
3A0
330
357
100
AcDbEntity
  8
ADPDIM
 62
     0
370
    -2
100
AcDbLine
 10
11.9547777037993
 20
25.57007628211181
 30
0.0
 11
12.2047777037993
 21
25.82007628211182
 31
0.0
  0
LINE
  5
3A1
330
357
100
AcDbEntity
  8
ADPDIM
 62
     0
370
    -2
100
AcDbLine
 10
10.6417777037993
 20
25.57007628211181
 30
0.0
 11
10.8917777037993
 21
25.82007628211182
 31
0.0
  0
MTEXT
  5
3A2
330
357
100
AcDbEntity
  8
ADPDIM
 62
     0
100
AcDbMText
 10
11.40528840492057
 20
25.69507628211181
 30
0.0
 40
0.125
 41
0.0
 71
     5
 72
     1
  1
\A1;1 5/16
 73
     1
 44
1.0
1001
ACAD
1000
MTEXTBEGIN
1070
    73
1070
     1
1070
    44
1040
1.0
1070
    74
1070
     0
1000
MTEXTEND
  0
POINT
  5
3A3
330
357
100
AcDbEntity
  8
DEFPOINTS
 62
     0
100
AcDbPoint
 10
10.7667777037993
 20
26.08997860107331
 30
0.0
  0
POINT
  5
3A4
330
357
100
AcDbEntity
  8
DEFPOINTS
 62
     0
100
AcDbPoint
 10
12.0797777037993
 20
26.08997860107331
 30
0.0
  0
POINT
  5
3A5
330
357
100
AcDbEntity
  8
DEFPOINTS
 62
     0
100
AcDbPoint
 10
12.0797777037993
 20
25.69507628211181
 30
0.0
  0
ENDBLK
  5
363
330
357
100
AcDbEntity
  8
0
100
AcDbBlockEnd
  0
BLOCK
  5
36F
330
364
100
AcDbEntity
  8
0
100
AcDbBlockBegin
  2
*D9
 70
     1
 10
0.0
 20
0.0
 30
0.0
  3
*D9
  1

  0
LINE
  5
3A6
330
364
100
AcDbEntity
  8
ADPDIM
 62
     0
370
    -2
100
AcDbLine
 10
10.46185017293769
 20
26.5311632905955
 30
0.0
 11
10.46185017293769
 21
27.18220383010323
 31
0.0
  0
LINE
  5
3A7
330
364
100
AcDbEntity
  8
ADPDIM
 62
     0
370
    -2
100
AcDbLine
 10
12.39935017293769
 20
26.5311632905955
 30
0.0
 11
12.39935017293769
 21
27.18220383010323
 31
0.0
  0
LINE
  5
3A8
330
364
100
AcDbEntity
  8
ADPDIM
 62
     0
370
    -2
100
AcDbLine
 10
10.64185017293769
 20
27.00220383010323
 30
0.0
 11
10.92060017293769
 21
27.00220383010323
 31
0.0
  0
LINE
  5
3A9
330
364
100
AcDbEntity
  8
ADPDIM
 62
     0
370
    -2
100
AcDbLine
 10
12.21935017293769
 20
27.00220383010323
 30
0.0
 11
11.94060017293768
 21
27.00220383010323
 31
0.0
  0
SOLID
  5
3AA
330
364
100
AcDbEntity
  8
ADPDIM
 62
     0
100
AcDbTrace
 10
10.64185017293769
 20
27.03220383010323
 30
0.0
 11
10.64185017293769
 21
26.97220383010323
 31
0.0
 12
10.46185017293769
 22
27.00220383010323
 32
0.0
 13
10.46185017293769
 23
27.00220383010323
 33
0.0
  0
SOLID
  5
3AB
330
364
100
AcDbEntity
  8
ADPDIM
 62
     0
100
AcDbTrace
 10
12.21935017293769
 20
27.03220383010323
 30
0.0
 11
12.21935017293769
 21
26.97220383010323
 31
0.0
 12
12.39935017293769
 22
27.00220383010323
 32
0.0
 13
12.39935017293769
 23
27.00220383010323
 33
0.0
  0
MTEXT
  5
3AC
330
364
100
AcDbEntity
  8
ADPDIM
 62
     0
100
AcDbMText
 10
11.43060017293769
 20
27.00220383010323
 30
0.0
 40
0.18
 41
0.0
 71
     5
 72
     1
  1
\A1;1.9375
 73
     1
 44
1.0
1001
ACAD
1000
MTEXTBEGIN
1070
    73
1070
     1
1070
    44
1040
1.0
1070
    74
1070
     0
1000
MTEXTEND
  0
POINT
  5
3AD
330
364
100
AcDbEntity
  8
DEFPOINTS
 62
     0
100
AcDbPoint
 10
10.46185017293769
 20
26.46866329059549
 30
0.0
  0
POINT
  5
3AE
330
364
100
AcDbEntity
  8
DEFPOINTS
 62
     0
100
AcDbPoint
 10
12.39935017293769
 20
26.46866329059549
 30
0.0
  0
POINT
  5
3AF
330
364
100
AcDbEntity
  8
DEFPOINTS
 62
     0
100
AcDbPoint
 10
12.39935017293769
 20
27.00220383010323
 30
0.0
  0
ENDBLK
  5
370
330
364
100
AcDbEntity
  8
0
100
AcDbBlockEnd
  0
BLOCK
  5
37C
330
371
100
AcDbEntity
  8
0
100
AcDbBlockBegin
  2
*D10
 70
     1
 10
0.0
 20
0.0
 30
0.0
  3
*D10
  1

  0
LINE
  5
3B0
330
371
100
AcDbEntity
  8
ADPDIM
 62
     0
370
    -2
100
AcDbLine
 10
10.88793157966362
 20
26.20000635293127
 30
0.0
 11
10.88793157966362
 21
25.90839269398583
 31
0.0
  0
LINE
  5
3B1
330
371
100
AcDbEntity
  8
ADPDIM
 62
     0
370
    -2
100
AcDbLine
 10
11.95043157966362
 20
26.20000635293127
 30
0.0
 11
11.95043157966362
 21
25.90839269398583
 31
0.0
  0
LINE
  5
3B2
330
371
100
AcDbEntity
  8
ADPDIM
 62
     0
370
    -2
100
AcDbLine
 10
10.88793157966362
 20
26.08839269398583
 30
0.0
 11
11.00251491299695
 21
26.08839269398583
 31
0.0
  0
LINE
  5
3B3
330
371
100
AcDbEntity
  8
ADPDIM
 62
     0
370
    -2
100
AcDbLine
 10
11.95043157966362
 20
26.08839269398583
 30
0.0
 11
11.83584824633028
 21
26.08839269398583
 31
0.0
  0
LINE
  5
3B4
330
371
100
AcDbEntity
  8
ADPDIM
 62
     0
370
    -2
100
AcDbLine
 10
11.82543157966362
 20
25.96339269398583
 30
0.0
 11
12.07543157966362
 21
26.21339269398583
 31
0.0
  0
LINE
  5
3B5
330
371
100
AcDbEntity
  8
ADPDIM
 62
     0
370
    -2
100
AcDbLine
 10
10.76293157966362
 20
25.96339269398583
 30
0.0
 11
11.01293157966362
 21
26.21339269398583
 31
0.0
  0
MTEXT
  5
3B6
330
371
100
AcDbEntity
  8
ADPDIM
 62
     0
100
AcDbMText
 10
11.41918157966362
 20
26.08839269398583
 30
0.0
 40
0.125
 41
0.0
 71
     5
 72
     1
  1
\A1;1 1/16
 73
     1
 44
1.0
1001
ACAD
1000
MTEXTBEGIN
1070
    73
1070
     1
1070
    44
1040
1.0
1070
    74
1070
     0
1000
MTEXTEND
  0
POINT
  5
3B7
330
371
100
AcDbEntity
  8
DEFPOINTS
 62
     0
100
AcDbPoint
 10
10.88793157966362
 20
26.26250635293127
 30
0.0
  0
POINT
  5
3B8
330
371
100
AcDbEntity
  8
DEFPOINTS
 62
     0
100
AcDbPoint
 10
11.95043157966362
 20
26.26250635293127
 30
0.0
  0
POINT
  5
3B9
330
371
100
AcDbEntity
  8
DEFPOINTS
 62
     0
100
AcDbPoint
 10
11.95043157966362
 20
26.08839269398583
 30
0.0
  0
ENDBLK
  5
37D
330
371
100
AcDbEntity
  8
0
100
AcDbBlockEnd
  0
ENDSEC
  0
SECTION
  2
ENTITIES
  0
DIMENSION
  5
1F
330
2
100
AcDbEntity
  8
ADPDIM
100
AcDbDimension
  2
*D1
 10
16.38529485496237
 20
25.73478304275177
 30
0.0
 11
14.82494605898461
 21
25.73478304275177
 31
0.0
 70
    32
 71
     5
 42
-1.0
  3
STANDARD
100
AcDbAlignedDimension
 13
13.26459726300685
 23
26.05146156993524
 33
0.0
 14
16.38529485496237
 24
26.35772890618989
 34
0.0
100
AcDbRotatedDimension
1001
ACAD
1000
DSTYLE
1002
{
1070
   270
1070
     7
1070
   270
1070
     7
1070
   270
1070
     7
1070
   270
1070
     7
1070
    41
1040
0.1875
1070
    43
1040
0.375
1070
    44
1040
0.1875
1070
   141
1040
0.09375
1070
   147
1040
0.09375
1070
   173
1070
     1
1070
   271
1070
     2
1070
   276
1070
     2
1070
   277
1070
     5
1070
     6
1000
OBLIQUE
1070
     7
1000
OBLIQUE
1002
}
  0
LINE
  5
32
330
2
100
AcDbEntity
  8
ADP2DETAIL
  6
HIDDEN2
100
AcDbLine
 10
15.73959726300685
 20
26.22865252757315
 30
0.0
 11
13.26459726300685
 21
26.22865252757315
 31
0.0
  0
LINE
  5
35
330
2
100
AcDbEntity
  8
ADP1DETAIL
100
AcDbLine
 10
15.76459726300685
 20
26.77974671527963
 30
0.0
 11
13.26459726300685
 21
26.77974671527964
 31
0.0
  0
LINE
  5
36
330
2
100
AcDbEntity
  8
ADP1DETAIL
100
AcDbLine
 10
13.26459726300685
 20
26.05146156993524
 30
0.0
 11
16.2094494735832
 21
26.04839427911652
 31
0.0
  0
LINE
  5
37
330
2
100
AcDbEntity
  8
ADP1DETAIL
100
AcDbLine
 10
16.16801544203866
 20
27.85856934205664
 30
0.0
 11
13.26176544203866
 21
27.85856934205664
 31
0.0
  0
LINE
  5
38
330
2
100
AcDbEntity
  8
ADP1DETAIL
100
AcDbLine
 10
16.32676544203866
 20
27.59580337190194
 30
0.0
 11
13.26176544203866
 21
27.59580337190194
 31
0.0
  0
LINE
  5
39
330
2
100
AcDbEntity
  8
ADP2DETAIL
  6
HIDDEN2
100
AcDbLine
 10
15.73676544203866
 20
28.77358118505302
 30
0.0
 11
13.26176544203866
 21
28.77358118505302
 31
0.0
  0
LINE
  5
3A
330
2
100
AcDbEntity
  8
ADP2DETAIL
  6
HIDDEN2
100
AcDbLine
 10
15.73676544203866
 20
28.37889619993046
 30
0.0
 11
13.26176544203866
 21
28.37889619993046
 31
0.0
  0
LINE
  5
3B
330
2
100
AcDbEntity
  8
ADP2DETAIL
  6
HIDDEN2
100
AcDbLine
 10
15.91147763773156
 20
26.44214622443857
 30
0.0
 11
13.26459726300685
 21
26.43661259410557
 31
0.0
  0
LINE
  5
3C
330
2
100
AcDbEntity
  8
ADP2DETAIL
  6
HIDDEN2
100
AcDbLine
 10
15.91853511363775
 20
28.04522077638978
 30
0.0
 11
13.26176544203866
 21
28.04522077638979
 31
0.0
  0
LINE
  5
3D
330
2
100
AcDbEntity
  8
ADP2DETAIL
  6
HIDDEN2
100
AcDbLine
 10
16.05378560470587
 20
27.91905144993662
 30
0.0
 11
13.26176544203866
 21
27.91905144993662
 31
0.0
  0
LINE
  5
3E
330
2
100
AcDbEntity
  8
ADP2DETAIL
  6
HIDDEN2
100
AcDbLine
 10
16.20594239056491
 20
27.79392316257667
 30
0.0
 11
13.26176544203866
 21
27.79392316257667
 31
0.0
  0
LINE
  5
3F
330
2
100
AcDbEntity
  8
ADP1DETAIL
100
AcDbLine
 10
16.17212976779787
 20
26.59218893980646
 30
0.0
 11
13.26459726300685
 21
26.59297635856292
 31
0.0
  0
LINE
  5
40
330
2
100
AcDbEntity
  8
ADP1DETAIL
100
AcDbLine
 10
16.19042612384312
 20
26.53019462715305
 30
0.0
 11
13.26459726300685
 21
26.53019462715305
 31
0.0
  0
LINE
  5
41
330
2
100
AcDbEntity
  8
ADP1DETAIL
100
AcDbLine
 10
16.16801544203865
 20
29.29390804292685
 30
0.0
 11
13.26176544203866
 21
29.29390804292685
 31
0.0
  0
LINE
  5
42
330
2
100
AcDbEntity
  8
ADP1DETAIL
100
AcDbLine
 10
16.32676544203866
 20
29.55667401308154
 30
0.0
 11
13.26176544203866
 21
29.55667401308154
 31
0.0
  0
LINE
  5
43
330
2
100
AcDbEntity
  8
ADP2DETAIL
  6
HIDDEN2
100
AcDbLine
 10
15.91853511363777
 20
29.1072566085937
 30
0.0
 11
13.26176544203866
 21
29.1072566085937
 31
0.0
  0
LINE
  5
44
330
2
100
AcDbEntity
  8
ADP2DETAIL
  6
HIDDEN2
100
AcDbLine
 10
16.05378560470587
 20
29.23342593504686
 30
0.0
 11
13.26176544203866
 21
29.23342593504686
 31
0.0
  0
LINE
  5
45
330
2
100
AcDbEntity
  8
ADP2DETAIL
  6
HIDDEN2
100
AcDbLine
 10
16.20594239056489
 20
29.35855422240681
 30
0.0
 11
13.26176544203866
 21
29.35855422240681
 31
0.0
  0
LINE
  5
46
330
2
100
AcDbEntity
  8
ADP1DETAIL
100
AcDbLine
 10
13.26176544203866
 20
27.59580337190194
 30
0.0
 11
13.26176544203866
 21
29.55667401308154
 31
0.0
  0
ARC
  5
63
330
2
100
AcDbEntity
  8
0
100
AcDbCircle
 10
12.14096332030706
 20
27.3469058946097
 30
0.0
 40
0.75
100
AcDbArc
 50
237.1983482620581
 51
268.8764813422996
  0
ARC
  5
64
330
2
100
AcDbEntity
  8
0
100
AcDbCircle
 10
12.09462202537158
 20
26.06339427911652
 30
0.0
 40
0.015
100
AcDbArc
 50
179.9999999999997
 51
270.0
  0
ARC
  5
65
330
2
100
AcDbEntity
  8
0
100
AcDbCircle
 10
10.60365877903754
 20
26.37740948651171
 30
0.0
 40
0.1559999999999998
100
AcDbArc
 50
80.65678061822479
 51
230.3615138867189
  0
ARC
  5
66
330
2
100
AcDbEntity
  8
0
100
AcDbCircle
 10
10.41738651203333
 20
26.05543317344523
 30
0.0
 40
0.2196970135271751
100
AcDbArc
 50
358.1639806528344
 51
66.74166570965842
  0
LINE
  5
67
330
2
100
AcDbEntity
  8
ADP1DETAIL
100
AcDbLine
 10
11.22312202537158
 20
26.43478926435009
 30
0.0
 11
11.62312202537158
 21
26.43478926435009
 31
0.0
  0
ARC
  5
68
330
2
100
AcDbEntity
  8
0
100
AcDbCircle
 10
11.4242807304361
 20
26.03479015941558
 30
0.0
 40
0.7499999999999986
100
AcDbArc
 50
90.08851858174335
 51
114.6411830056756
  0
ARC
  5
69
330
2
100
AcDbEntity
  8
0
100
AcDbCircle
 10
10.7052807304361
 20
27.3469058946097
 30
0.0
 40
0.7499999999999969
100
AcDbArc
 50
271.1235186577002
 51
302.801651737942
  0
ARC
  5
6A
330
2
100
AcDbEntity
  8
ADP1DETAIL
100
AcDbCircle
 10
11.20885958620584
 20
26.20199298564505
 30
0.0
 40
0.3331017566613407
100
AcDbArc
 50
87.54601274726551
 51
174.812765792333
  0
ARC
  5
6B
330
2
100
AcDbEntity
  8
0
100
AcDbCircle
 10
10.75162202537158
 20
26.06339427911652
 30
0.0
 40
0.015
100
AcDbArc
 50
270.0
 51
0.0000000000002926
  0
LINE
  5
6C
330
2
100
AcDbEntity
  8
0
100
AcDbLine
 10
10.636970736693
 20
26.04839427911652
 30
0.0
 11
10.75162202537158
 21
26.04839427911652
 31
0.0
  0
LINE
  5
6D
330
2
100
AcDbEntity
  8
0
100
AcDbLine
 10
10.6902807304361
 20
26.53133991790636
 30
0.0
 11
10.6289850952059
 21
26.53133991790636
 31
0.0
  0
LINE
  5
6E
330
2
100
AcDbEntity
  8
0
100
AcDbLine
 10
10.7052807304361
 20
26.54633991790635
 30
0.0
 11
10.7052807304361
 21
26.58205296757078
 31
0.0
  0
ARC
  5
6F
330
2
100
AcDbEntity
  8
0
100
AcDbCircle
 10
10.7202807304361
 20
26.58205296757078
 30
0.0
 40
0.015
100
AcDbArc
 50
91.1235186577027
 51
180.0
  0
ARC
  5
70
330
2
100
AcDbEntity
  8
0
100
AcDbCircle
 10
10.6902807304361
 20
26.54633991790635
 30
0.0
 40
0.015
100
AcDbArc
 50
270.0
 51
0.0
  0
LINE
  5
71
330
2
100
AcDbEntity
  8
0
100
AcDbLine
 10
10.78162202537158
 20
26.23210894524479
 30
0.0
 11
10.87712202537158
 21
26.23210894524479
 31
0.0
  0
LINE
  5
72
330
2
100
AcDbEntity
  8
0
100
AcDbLine
 10
10.76662202537158
 20
26.06339427911652
 30
0.0
 11
10.76662202537158
 21
26.2171089452448
 31
0.0
  0
ARC
  5
73
330
2
100
AcDbEntity
  8
0
100
AcDbCircle
 10
10.78162202537158
 20
26.2171089452448
 30
0.0
 40
0.015
100
AcDbArc
 50
90.0
 51
180.0
  0
LINE
  5
74
330
2
100
AcDbEntity
  8
ADP1DETAIL
100
AcDbLine
 10
11.22312202537158
 20
26.53478926435009
 30
0.0
 11
11.22312202537158
 21
26.43478926435009
 31
0.0
  0
ARC
  5
75
330
2
100
AcDbEntity
  8
ADP1DETAIL
100
AcDbCircle
 10
11.63738446453733
 20
26.20199298564505
 30
0.0
 40
0.3331017566613407
100
AcDbArc
 50
5.187234207667021
 51
92.45398725273448
  0
ARC
  5
76
330
2
100
AcDbEntity
  8
0
100
AcDbCircle
 10
11.42196332030706
 20
26.03479015941557
 30
0.0
 40
0.7500000000000019
100
AcDbArc
 50
65.35881699432443
 51
89.91148141825666
  0
LINE
  5
77
330
2
100
AcDbEntity
  8
ADP1DETAIL
100
AcDbLine
 10
11.62312202537158
 20
26.53478926435009
 30
0.0
 11
11.62312202537158
 21
26.43478926435009
 31
0.0
  0
LINE
  5
78
330
2
100
AcDbEntity
  8
0
100
AcDbLine
 10
12.06462202537158
 20
26.23210894524479
 30
0.0
 11
11.96912202537158
 21
26.23210894524479
 31
0.0
  0
LINE
  5
79
330
2
100
AcDbEntity
  8
0
100
AcDbLine
 10
12.07962202537158
 20
26.06339427911652
 30
0.0
 11
12.07962202537158
 21
26.2171089452448
 31
0.0
  0
ARC
  5
7A
330
2
100
AcDbEntity
  8
0
100
AcDbCircle
 10
12.06462202537158
 20
26.2171089452448
 30
0.0
 40
0.015
100
AcDbArc
 50
0.000000000000007
 51
90.0
  0
LINE
  5
7B
330
2
100
AcDbEntity
  8
0
100
AcDbLine
 10
12.20927331405016
 20
26.04839427911652
 30
0.0
 11
12.09462202537158
 21
26.04839427911652
 31
0.0
  0
LINE
  5
7C
330
2
100
AcDbEntity
  8
0
100
AcDbLine
 10
12.15596332030706
 20
26.53133991790636
 30
0.0
 11
12.21725895553726
 21
26.53133991790636
 31
0.0
  0
ARC
  5
7D
330
2
100
AcDbEntity
  8
0
100
AcDbCircle
 10
12.42885753870984
 20
26.05543317344522
 30
0.0
 40
0.2196970135271803
100
AcDbArc
 50
113.2583342903419
 51
181.8360193471644
  0
LINE
  5
7E
330
2
100
AcDbEntity
  8
0
100
AcDbLine
 10
12.14096332030706
 20
26.54633991790635
 30
0.0
 11
12.14096332030706
 21
26.58205296757078
 31
0.0
  0
ARC
  5
7F
330
2
100
AcDbEntity
  8
0
100
AcDbCircle
 10
12.15596332030706
 20
26.54633991790635
 30
0.0
 40
0.015
100
AcDbArc
 50
180.0
 51
270.0
  0
ARC
  5
80
330
2
100
AcDbEntity
  8
0
100
AcDbCircle
 10
12.12596332030706
 20
26.58205296757078
 30
0.0
 40
0.015
100
AcDbArc
 50
0.000000000000007
 51
88.87648134229731
  0
ARC
  5
81
330
2
100
AcDbEntity
  8
0
100
AcDbCircle
 10
12.24258527170563
 20
26.37740948651171
 30
0.0
 40
0.1559999999999996
100
AcDbArc
 50
309.6384861132802
 51
99.34321938177591
  0
LINE
  5
82
330
2
100
AcDbEntity
  8
ADP1DETAIL
100
AcDbLine
 10
13.26459726300685
 20
26.77974671527964
 30
0.0
 11
13.26459726300685
 21
26.05146156993524
 31
0.0
  0
LINE
  5
83
330
2
100
AcDbEntity
  8
ADP1DETAIL
100
AcDbLine
 10
16.38676544203866
 20
29.49667401308154
 30
0.0
 11
16.38676544203866
 21
27.65580337190194
 31
0.0
  0
LINE
  5
84
330
2
100
AcDbEntity
  8
ADP1DETAIL
100
AcDbLine
 10
16.16801544203865
 20
29.29390804292685
 30
0.0
 11
16.16801544203866
 21
27.85856934205664
 31
0.0
  0
LINE
  5
85
330
2
100
AcDbEntity
  8
ADP2DETAIL
  6
HIDDEN2
100
AcDbLine
 10
16.05378560470587
 20
29.23342593504686
 30
0.0
 11
16.05378560470587
 21
27.91905144993662
 31
0.0
  0
LINE
  5
86
330
2
100
AcDbEntity
  8
ADP2DETAIL
  6
HIDDEN2
100
AcDbLine
 10
16.20594239056489
 20
29.35855422240681
 30
0.0
 11
16.20594239056491
 21
27.79392316257667
 31
0.0
  0
ARC
  5
87
330
2
100
AcDbEntity
  8
ADP1DETAIL
100
AcDbCircle
 10
16.26160598641224
 20
27.3231359663753
 30
0.0
 40
0.7364031160630403
100
AcDbArc
 50
227.5525330279799
 51
263.021066282778
  0
LINE
  5
88
330
2
100
AcDbEntity
  8
ADP2DETAIL
  6
HIDDEN2
100
AcDbLine
 10
16.06147763773156
 20
26.20370374030835
 30
0.0
 11
15.91147763773156
 21
26.20370374030835
 31
0.0
  0
LINE
  5
89
330
2
100
AcDbEntity
  8
ADP2DETAIL
  6
HIDDEN2
100
AcDbLine
 10
15.73959726300685
 20
26.44214622443857
 30
0.0
 11
15.73959726300685
 21
26.35383421886797
 31
0.0
  0
LINE
  5
8A
330
2
100
AcDbEntity
  8
ADP2DETAIL
  6
HIDDEN2
100
AcDbLine
 10
15.91147763773156
 20
26.44214622443857
 30
0.0
 11
15.91147763773156
 21
26.20370374030835
 31
0.0
  0
ARC
  5
8B
330
2
100
AcDbEntity
  8
0
100
AcDbCircle
 10
16.24384764562283
 20
26.37716000517616
 30
0.0
 40
0.1551164158443008
100
AcDbArc
 50
309.3883007124249
 51
105.7143596898623
  0
ARC
  5
8C
330
2
100
AcDbEntity
  8
0
100
AcDbCircle
 10
16.42903369824287
 20
26.05543317344522
 30
0.0
 40
0.2196970135271803
100
AcDbArc
 50
113.2583342903419
 51
181.8360193471644
  0
LINE
  5
8D
330
2
100
AcDbEntity
  8
ADP2DETAIL
  6
HIDDEN2
100
AcDbLine
 10
16.06147763773156
 20
26.20370374030835
 30
0.0
 11
16.06147763773156
 21
26.05146156993524
 31
0.0
  0
LINE
  5
8E
330
2
100
AcDbEntity
  8
0
100
AcDbLine
 10
16.18683565015081
 20
26.54147877392558
 30
0.0
 11
16.18683565015081
 21
26.57719182359001
 31
0.0
  0
ARC
  5
8F
330
2
100
AcDbEntity
  8
0
100
AcDbCircle
 10
16.20183565015081
 20
26.54147877392558
 30
0.0
 40
0.015
100
AcDbArc
 50
180.0
 51
270.0
  0
ARC
  5
90
330
2
100
AcDbEntity
  8
0
100
AcDbCircle
 10
16.17183565015081
 20
26.57719182359001
 30
0.0
 40
0.015
100
AcDbArc
 50
0.000000000000007
 51
88.87648134229731
  0
ARC
  5
91
330
2
100
AcDbEntity
  8
ADP1DETAIL
100
AcDbCircle
 10
16.32676544203866
 20
27.65580337190194
 30
0.0
 40
0.06
100
AcDbArc
 50
270.0
 51
0.0
  0
LINE
  5
92
330
2
100
AcDbEntity
  8
ADP2DETAIL
  6
HIDDEN2
100
AcDbLine
 10
15.91853511363777
 20
29.1072566085937
 30
0.0
 11
15.91853511363775
 21
28.04522077638978
 31
0.0
  0
LINE
  5
93
330
2
100
AcDbEntity
  8
ADP2DETAIL
  6
HIDDEN2
100
AcDbLine
 10
15.73676544203866
 20
28.71623869249174
 30
0.0
 11
15.73676544203866
 21
28.43623869249174
 31
0.0
  0
ARC
  5
94
330
2
100
AcDbEntity
  8
ADP1DETAIL
100
AcDbCircle
 10
16.32676544203866
 20
29.49667401308154
 30
0.0
 40
0.06
100
AcDbArc
 50
0.0
 51
89.99999999999994
  0
TEXT
  5
9F
330
2
100
AcDbEntity
  8
ADPDIM
100
AcDbText
 10
6.560228521847665
 20
24.7965340669917
 30
0.0
 40
0.125
  1
J U L I U S  B L U M  &  C O . ,  I N C .      ( 8 0 0 )  5 2 6 - 6 2 9 3        W W W . J U L I U S B L U M . C O M        P A R T  N o .  5 5 3 4 - N
 41
1.25
  7
ARIAL_WIDE
 72
     1
 11
13.26176544203866
 21
24.9215340669917
 31
0.0
100
AcDbText
 73
     3
  0
DIMENSION
  5
336
330
2
100
AcDbEntity
  8
ADPDIM
100
AcDbDimension
  2
*D8
 10
12.0797777037993
 20
25.69507628211181
 30
0.0
 11
11.40528840492057
 21
25.69507628211181
 31
0.0
 70
   160
 71
     5
 42
1.312999999999995
  3
STANDARD
100
AcDbAlignedDimension
 13
10.7667777037993
 23
26.08997860107331
 33
0.0
 14
12.0797777037993
 24
26.08997860107331
 34
0.0
100
AcDbRotatedDimension
1001
ACAD
1000
DSTYLE
1002
{
1070
   276
1070
     2
1070
   277
1070
     5
1070
    41
1040
0.125
1070
    73
1070
     0
1070
    74
1070
     0
1070
    78
1070
     3
1070
   140
1040
0.125
1070
   141
1040
0.1875
1070
   142
1040
0.125
1070
   147
1040
0.125
1070
   171
1070
     1
1002
}
  0
DIMENSION
  5
337
330
2
100
AcDbEntity
  8
ADPDIM
100
AcDbDimension
  2
*D9
 10
12.39935017293769
 20
27.00220383010323
 30
0.0
 11
11.43060017293769
 21
27.00220383010323
 31
0.0
 70
   160
 71
     5
 42
1.9375
  3
STANDARD
100
AcDbAlignedDimension
 13
10.46185017293769
 23
26.46866329059549
 33
0.0
 14
12.39935017293769
 24
26.46866329059549
 34
0.0
100
AcDbRotatedDimension
  0
DIMENSION
  5
356
330
2
100
AcDbEntity
  8
ADPDIM
100
AcDbDimension
  2
*D10
 10
11.95043157966362
 20
26.08839269398583
 30
0.0
 11
11.41918157966362
 21
26.08839269398583
 31
0.0
 70
   160
 71
     5
 42
1.0625
  3
STANDARD
100
AcDbAlignedDimension
 13
10.88793157966362
 23
26.26250635293127
 33
0.0
 14
11.95043157966362
 24
26.26250635293127
 34
0.0
100
AcDbRotatedDimension
1001
ACAD
1000
DSTYLE
1002
{
1070
   276
1070
     2
1070
   277
1070
     5
1070
    41
1040
0.125
1070
    73
1070
     0
1070
    74
1070
     0
1070
    78
1070
     3
1070
   140
1040
0.125
1070
   141
1040
0.1875
1070
   142
1040
0.125
1070
   147
1040
0.125
1070
   171
1070
     1
1002
}
  0
ENDSEC
  0
SECTION
  2
OBJECTS
  0
DICTIONARY
  5
1B
330
0
100
AcDbDictionary
281
     1
  3
ACAD_COLOR
350
2DF
  3
ACAD_GROUP
350
19
  3
ACAD_LAYOUT
350
98
  3
ACAD_MATERIAL
350
2CA
  3
ACAD_MLINESTYLE
350
1A
  3
ACAD_PLOTSETTINGS
350
99
  3
ACAD_PLOTSTYLENAME
350
96
  3
ACAD_TABLESTYLE
350
2E0
  3
ACAD_VISUALSTYLE
350
2CE
  3
AcDbVariableDictionary
350
149
  3
ASE_INDEX_DICTIONARY
350
3BB
  3
DWGPROPS
350
3DD
  0
DICTIONARY
  5
11A
330
2
100
AcDbDictionary
280
     1
281
     1
  3
ACAD_LAYOUTSELFREF
360
2A3
  0
DICTIONARY
  5
11C
330
8
100
AcDbDictionary
280
     1
281
     1
  3
ACAD_LAYOUTSELFREF
360
2A4
  0
DICTIONARY
  5
2DF
102
{ACAD_REACTORS
330
1B
102
}
330
1B
100
AcDbDictionary
281
     1
  0
DICTIONARY
  5
19
102
{ACAD_REACTORS
330
1B
102
}
330
1B
100
AcDbDictionary
281
     1
  0
DICTIONARY
  5
98
102
{ACAD_REACTORS
330
1B
102
}
330
1B
100
AcDbDictionary
281
     1
  3
Layout1
350
9B
  3
Model
350
9A
  0
DICTIONARY
  5
2CA
102
{ACAD_REACTORS
330
1B
102
}
330
1B
100
AcDbDictionary
281
     1
  3
ByBlock
350
2CC
  3
ByLayer
350
2CB
  3
Global
350
2CD
  0
DICTIONARY
  5
1A
102
{ACAD_REACTORS
330
1B
102
}
330
1B
100
AcDbDictionary
281
     1
  3
STANDARD
350
1D
  0
DICTIONARY
  5
99
102
{ACAD_REACTORS
330
1B
102
}
330
1B
100
AcDbDictionary
281
     1
  0
ACDBDICTIONARYWDFLT
  5
96
102
{ACAD_REACTORS
330
1B
102
}
330
1B
100
AcDbDictionary
281
     1
  3
Normal
350
97
100
AcDbDictionaryWithDefault
340
97
  0
DICTIONARY
  5
2E0
102
{ACAD_REACTORS
330
1B
102
}
330
1B
100
AcDbDictionary
281
     1
  3
Standard
350
2E1
  0
DICTIONARY
  5
2CE
102
{ACAD_REACTORS
330
1B
102
}
330
1B
100
AcDbDictionary
281
     1
  3
2dWireframe
350
2D4
  3
3D Hidden
350
2D6
  3
3dWireframe
350
2D5
  3
Basic
350
2D3
  3
Brighten
350
2DA
  3
ColorChange
350
2DE
  3
Conceptual
350
2D7
  3
Dim
350
2D9
  3
Facepattern
350
2DD
  3
Flat
350
2CF
  3
FlatWithEdges
350
2D0
  3
Gouraud
350
2D1
  3
GouraudWithEdges
350
2D2
  3
Linepattern
350
2DC
  3
Realistic
350
2D8
  3
Thicken
350
2DB
  0
DICTIONARY
  5
149
102
{ACAD_REACTORS
330
1B
102
}
330
1B
100
AcDbDictionary
281
     1
  3
CTABLESTYLE
350
3DA
  3
DIMASSOC
350
14A
  3
INDEXCTL
350
3DC
  3
SORTENTS
350
3DB
  0
DICTIONARY
  5
3BB
102
{ACAD_REACTORS
330
1B
102
}
330
1B
100
AcDbDictionary
281
     1
  3
ASEBlockHierarchyIndexRecord
350
3BD
1001
DCO15
1040
1568918590.167
  0
XRECORD
  5
3DD
102
{ACAD_REACTORS
330
1B
102
}
330
1B
100
AcDbXrecord
280
     1
  1
DWGPROPS COOKIE
  2

  3

  4

  6

  7

  8
Yu Hu
  9

300
=
301
=
302
=
303
=
304
=
305
=
306
=
307
=
308
=
309
=
 40
0.1000229282407407
 41
2450359.95307581
 42
2453961.991830637
  1

 90
        0
  0
XRECORD
  5
2A3
102
{ACAD_REACTORS
330
11A
102
}
330
11A
100
AcDbXrecord
280
     1
340
2
  0
XRECORD
  5
2A4
102
{ACAD_REACTORS
330
11C
102
}
330
11C
100
AcDbXrecord
280
     1
340
8
  0
LAYOUT
  5
9B
102
{ACAD_XDICTIONARY
360
3E0
102
}
102
{ACAD_REACTORS
330
98
102
}
330
98
100
AcDbPlotSettings
  1

  2
Fax
  4

  6

 40
0.0
 41
0.0
 42
0.0
 43
0.0
 44
0.0
 45
0.0
 46
0.0
 47
0.0
 48
0.0
 49
0.0
140
0.0
141
0.0
142
1.0
143
1.0
 70
   688
 72
     0
 73
     0
 74
     5
  7
Default R14 pen assignments.ctb
 75
    16
147
1.0
148
0.0
149
0.0
100
AcDbLayout
  1
Layout1
 70
     1
 71
     1
 10
-21.61579290080726
 20
-19.96805058542324
 11
-9.61579290080726
 21
-10.96805058542324
 12
0.0
 22
-0.0000000000727758
 32
0.0
 14
1.000000000000000E+20
 24
1.000000000000000E+20
 34
1.000000000000000E+20
 15
-1.000000000000000E+20
 25
-1.000000000000000E+20
 35
-1.000000000000000E+20
146
0.0
 13
0.0
 23
0.0
 33
0.0
 16
1.0
 26
0.0
 36
0.0
 17
0.0
 27
1.0
 37
0.0
 76
     0
330
8
  0
LAYOUT
  5
9A
102
{ACAD_XDICTIONARY
360
3DE
102
}
102
{ACAD_REACTORS
330
98
102
}
330
98
100
AcDbPlotSettings
  1

  2
Fax
  4

  6

 40
0.0
 41
0.0
 42
0.0
 43
0.0
 44
0.0
 45
0.0
 46
0.0
 47
0.0
 48
0.0
 49
0.0
140
0.0
141
0.0
142
1.0
143
1.0
 70
  1712
 72
     0
 73
     0
 74
     0
  7
Default R14 pen assignments.ctb
 75
     0
147
1.0
148
0.0
149
0.0
100
AcDbLayout
  1
Model
 70
     1
 71
     0
 10
0.0
 20
0.0
 11
12.0
 21
9.0
 12
0.0
 22
0.0
 32
0.0
 14
0.0
 24
0.0
 34
0.0
 15
0.0
 25
0.0
 35
0.0
146
0.0
 13
0.0
 23
0.0
 33
0.0
 16
1.0
 26
0.0
 36
0.0
 17
0.0
 27
1.0
 37
0.0
 76
     0
330
2
331
27F
  0
MATERIAL
  5
2CC
102
{ACAD_XDICTIONARY
360
3E4
102
}
102
{ACAD_REACTORS
330
2CA
102
}
330
2CA
100
AcDbMaterial
  1
ByBlock
  0
MATERIAL
  5
2CB
102
{ACAD_XDICTIONARY
360
3E2
102
}
102
{ACAD_REACTORS
330
2CA
102
}
330
2CA
100
AcDbMaterial
  1
ByLayer
  0
MATERIAL
  5
2CD
102
{ACAD_XDICTIONARY
360
3E6
102
}
102
{ACAD_REACTORS
330
2CA
102
}
330
2CA
100
AcDbMaterial
  1
Global
  0
MLINESTYLE
  5
1D
102
{ACAD_REACTORS
330
1A
102
}
330
1A
100
AcDbMlineStyle
  2
STANDARD
 70
     0
  3

 62
     0
 51
90.0
 52
90.0
 71
     2
 49
0.5
 62
   256
  6
BYLAYER
 49
-0.5
 62
   256
  6
BYLAYER
  0
ACDBPLACEHOLDER
  5
97
102
{ACAD_REACTORS
330
96
102
}
330
96
  0
TABLESTYLE
  5
2E1
102
{ACAD_XDICTIONARY
360
3E8
102
}
102
{ACAD_REACTORS
330
2E0
102
}
330
2E0
100
AcDbTableStyle
  3
Standard
 70
     0
 71
     0
 40
0.06
 41
0.06
280
     0
281
     0
  7
STANDARD
140
0.18
170
     2
 62
     0
 63
     7
283
     0
274
    -2
284
     1
 64
     0
275
    -2
285
     1
 65
     0
276
    -2
286
     1
 66
     0
277
    -2
287
     1
 67
     0
278
    -2
288
     1
 68
     0
279
    -2
289
     1
 69
     0
  7
STANDARD
140
0.25
170
     5
 62
     0
 63
     7
283
     0
274
    -2
284
     1
 64
     0
275
    -2
285
     1
 65
     0
276
    -2
286
     1
 66
     0
277
    -2
287
     1
 67
     0
278
    -2
288
     1
 68
     0
279
    -2
289
     1
 69
     0
  7
STANDARD
140
0.18
170
     5
 62
     0
 63
     7
283
     0
274
    -2
284
     1
 64
     0
275
    -2
285
     1
 65
     0
276
    -2
286
     1
 66
     0
277
    -2
287
     1
 67
     0
278
    -2
288
     1
 68
     0
279
    -2
289
     1
 69
     0
  0
VISUALSTYLE
  5
2D4
102
{ACAD_REACTORS
330
2CE
102
}
330
2CE
100
AcDbVisualStyle
  2
2dWireframe
 70
     4
 71
     0
 72
     2
 73
     0
 90
        0
 40
-0.6
 41
-30.0
 62
     5
 63
     7
 74
     1
 91
        4
 64
     7
 65
   257
 75
     1
175
     1
 42
1.0
 92
        0
 66
   257
 43
1.0
 76
     1
 77
     6
 78
     2
 67
     7
 79
     5
170
     0
171
     0
290
     0
174
     0
 93
        1
 44
0.0
173
     0
291
     0
 45
0.0
1001
ACAD
1000
AcDbSavedByObjectVersion
1070
     0
  0
VISUALSTYLE
  5
2D6
102
{ACAD_REACTORS
330
2CE
102
}
330
2CE
100
AcDbVisualStyle
  2
3D Hidden
 70
     6
 71
     1
 72
     2
 73
     2
 90
        0
 40
-0.6
 41
-30.0
 62
     5
 63
     7
 74
     2
 91
        2
 64
     7
 65
   257
 75
     2
175
     1
 42
40.0
 92
        0
 66
   257
 43
1.0
 76
     1
 77
     6
 78
     2
 67
     7
 79
     3
170
     0
171
     0
290
     0
174
     0
 93
        1
 44
0.0
173
     0
291
     0
 45
0.0
1001
ACAD
1000
AcDbSavedByObjectVersion
1070
     0
  0
VISUALSTYLE
  5
2D5
102
{ACAD_REACTORS
330
2CE
102
}
330
2CE
100
AcDbVisualStyle
  2
3dWireframe
 70
     5
 71
     0
 72
     2
 73
     0
 90
        0
 40
-0.6
 41
-30.0
 62
     5
 63
     7
 74
     1
 91
        4
 64
     7
 65
   257
 75
     1
175
     1
 42
1.0
 92
        0
 66
   257
 43
1.0
 76
     1
 77
     6
 78
     2
 67
     7
 79
     5
170
     0
171
     0
290
     0
174
     0
 93
        1
 44
0.0
173
     0
291
     0
 45
0.0
1001
ACAD
1000
AcDbSavedByObjectVersion
1070
     0
  0
VISUALSTYLE
  5
2D3
102
{ACAD_REACTORS
330
2CE
102
}
330
2CE
100
AcDbVisualStyle
  2
Basic
 70
     7
 71
     1
 72
     0
 73
     1
 90
        0
 40
-0.6
 41
-30.0
 62
     5
 63
     7
 74
     0
 91
        4
 64
     7
 65
   257
 75
     1
175
     1
 42
1.0
 92
        8
 66
     7
 43
1.0
 76
     1
 77
     6
 78
     2
 67
     7
 79
     5
170
     0
171
     0
290
     0
174
     0
 93
        1
 44
0.0
173
     0
291
     1
 45
0.0
1001
ACAD
1000
AcDbSavedByObjectVersion
1070
     0
  0
VISUALSTYLE
  5
2DA
102
{ACAD_REACTORS
330
2CE
102
}
330
2CE
100
AcDbVisualStyle
  2
Brighten
 70
    12
 71
     2
 72
     2
 73
     0
 90
        0
 40
-0.6
 41
-30.0
 62
     5
 63
     7
 74
     1
 91
        4
 64
     7
 65
   257
 75
     1
175
     1
 42
1.0
 92
        8
 66
     7
 43
1.0
 76
     1
 77
     6
 78
     2
 67
     7
 79
     5
170
     0
171
     0
290
     0
174
     0
 93
        1
 44
50.0
173
     0
291
     1
 45
0.0
1001
ACAD
1000
AcDbSavedByObjectVersion
1070
     0
  0
VISUALSTYLE
  5
2DE
102
{ACAD_REACTORS
330
2CE
102
}
330
2CE
100
AcDbVisualStyle
  2
ColorChange
 70
    16
 71
     2
 72
     2
 73
     3
 90
        0
 40
-0.6
 41
-30.0
 62
     5
 63
     8
 74
     1
 91
        4
 64
     7
 65
   257
 75
     1
175
     1
 42
1.0
 92
        8
 66
     8
 43
1.0
 76
     1
 77
     6
 78
     2
 67
     7
 79
     5
170
     0
171
     0
290
     0
174
     0
 93
        1
 44
0.0
173
     0
291
     1
 45
0.0
1001
ACAD
1000
AcDbSavedByObjectVersion
1070
     0
  0
VISUALSTYLE
  5
2D7
102
{ACAD_REACTORS
330
2CE
102
}
330
2CE
100
AcDbVisualStyle
  2
Conceptual
 70
     9
 71
     3
 72
     2
 73
     0
 90
        0
 40
-0.6
 41
-30.0
 62
     5
 63
     7
 74
     2
 91
        2
 64
     7
 65
   257
 75
     1
175
     1
 42
40.0
 92
        8
 66
     7
 43
1.0
 76
     1
 77
     6
 78
     2
 67
     7
 79
     3
170
     0
171
     0
290
     0
174
     0
 93
        1
 44
0.0
173
     0
291
     0
 45
0.0
1001
ACAD
1000
AcDbSavedByObjectVersion
1070
     0
  0
VISUALSTYLE
  5
2D9
102
{ACAD_REACTORS
330
2CE
102
}
330
2CE
100
AcDbVisualStyle
  2
Dim
 70
    11
 71
     2
 72
     2
 73
     0
 90
        0
 40
-0.6
 41
-30.0
 62
     5
 63
     7
 74
     1
 91
        4
 64
     7
 65
   257
 75
     1
175
     1
 42
1.0
 92
        8
 66
     7
 43
1.0
 76
     1
 77
     6
 78
     2
 67
     7
 79
     5
170
     0
171
     0
290
     0
174
     0
 93
        1
 44
-50.0
173
     0
291
     1
 45
0.0
1001
ACAD
1000
AcDbSavedByObjectVersion
1070
     0
  0
VISUALSTYLE
  5
2DD
102
{ACAD_REACTORS
330
2CE
102
}
330
2CE
100
AcDbVisualStyle
  2
Facepattern
 70
    15
 71
     2
 72
     2
 73
     0
 90
        0
 40
-0.6
 41
-30.0
 62
     5
 63
     7
 74
     1
 91
        4
 64
     7
 65
   257
 75
     1
175
     1
 42
1.0
 92
        8
 66
     7
 43
1.0
 76
     1
 77
     6
 78
     2
 67
     7
 79
     5
170
     0
171
     0
290
     0
174
     0
 93
        1
 44
0.0
173
     0
291
     1
 45
0.0
1001
ACAD
1000
AcDbSavedByObjectVersion
1070
     0
  0
VISUALSTYLE
  5
2CF
102
{ACAD_REACTORS
330
2CE
102
}
330
2CE
100
AcDbVisualStyle
  2
Flat
 70
     0
 71
     2
 72
     1
 73
     1
 90
        2
 40
-0.6
 41
30.0
 62
     5
 63
     7
 74
     0
 91
        4
 64
     7
 65
   257
 75
     1
175
     1
 42
1.0
 92
        8
 66
     7
 43
1.0
 76
     1
 77
     6
 78
     2
 67
     7
 79
     5
170
     0
171
     0
290
     0
174
     0
 93
       13
 44
0.0
173
     0
291
     1
 45
0.0
1001
ACAD
1000
AcDbSavedByObjectVersion
1070
     0
  0
VISUALSTYLE
  5
2D0
102
{ACAD_REACTORS
330
2CE
102
}
330
2CE
100
AcDbVisualStyle
  2
FlatWithEdges
 70
     1
 71
     2
 72
     1
 73
     1
 90
        2
 40
-0.6
 41
30.0
 62
     5
 63
     7
 74
     1
 91
        4
 64
     7
 65
   257
 75
     1
175
     1
 42
1.0
 92
        0
 66
   257
 43
1.0
 76
     1
 77
     6
 78
     2
 67
     7
 79
     5
170
     0
171
     0
290
     0
174
     0
 93
       13
 44
0.0
173
     0
291
     1
 45
0.0
1001
ACAD
1000
AcDbSavedByObjectVersion
1070
     0
  0
VISUALSTYLE
  5
2D1
102
{ACAD_REACTORS
330
2CE
102
}
330
2CE
100
AcDbVisualStyle
  2
Gouraud
 70
     2
 71
     2
 72
     2
 73
     1
 90
        2
 40
-0.6
 41
30.0
 62
     5
 63
     7
 74
     0
 91
        4
 64
     7
 65
   257
 75
     1
175
     1
 42
1.0
 92
        0
 66
     7
 43
1.0
 76
     1
 77
     6
 78
     2
 67
     7
 79
     5
170
     0
171
     0
290
     0
174
     0
 93
       13
 44
0.0
173
     0
291
     1
 45
0.0
1001
ACAD
1000
AcDbSavedByObjectVersion
1070
     0
  0
VISUALSTYLE
  5
2D2
102
{ACAD_REACTORS
330
2CE
102
}
330
2CE
100
AcDbVisualStyle
  2
GouraudWithEdges
 70
     3
 71
     2
 72
     2
 73
     1
 90
        2
 40
-0.6
 41
30.0
 62
     5
 63
     7
 74
     1
 91
        4
 64
     7
 65
   257
 75
     1
175
     1
 42
1.0
 92
        0
 66
   257
 43
1.0
 76
     1
 77
     6
 78
     2
 67
     7
 79
     5
170
     0
171
     0
290
     0
174
     0
 93
       13
 44
0.0
173
     0
291
     1
 45
0.0
1001
ACAD
1000
AcDbSavedByObjectVersion
1070
     0
  0
VISUALSTYLE
  5
2DC
102
{ACAD_REACTORS
330
2CE
102
}
330
2CE
100
AcDbVisualStyle
  2
Linepattern
 70
    14
 71
     2
 72
     2
 73
     0
 90
        0
 40
-0.6
 41
-30.0
 62
     5
 63
     7
 74
     1
 91
        4
 64
     7
 65
   257
 75
     7
175
     7
 42
1.0
 92
        8
 66
     7
 43
1.0
 76
     1
 77
     6
 78
     2
 67
     7
 79
     5
170
     0
171
     0
290
     0
174
     0
 93
        1
 44
0.0
173
     0
291
     1
 45
0.0
1001
ACAD
1000
AcDbSavedByObjectVersion
1070
     0
  0
VISUALSTYLE
  5
2D8
102
{ACAD_REACTORS
330
2CE
102
}
330
2CE
100
AcDbVisualStyle
  2
Realistic
 70
     8
 71
     2
 72
     2
 73
     0
 90
        0
 40
-0.6
 41
-30.0
 62
     5
 63
     7
 74
     1
 91
        0
 64
     7
 65
   257
 75
     1
175
     1
 42
1.0
 92
        8
 66
     8
 43
1.0
 76
     1
 77
     6
 78
     2
 67
     7
 79
     5
170
     0
171
     0
290
     0
174
     0
 93
       13
 44
0.0
173
     0
291
     0
 45
0.0
1001
ACAD
1000
AcDbSavedByObjectVersion
1070
     0
  0
VISUALSTYLE
  5
2DB
102
{ACAD_REACTORS
330
2CE
102
}
330
2CE
100
AcDbVisualStyle
  2
Thicken
 70
    13
 71
     2
 72
     2
 73
     0
 90
        0
 40
-0.6
 41
-30.0
 62
     5
 63
     7
 74
     1
 91
        4
 64
     7
 65
   257
 75
     1
175
     1
 42
1.0
 92
       12
 66
     7
 43
1.0
 76
     1
 77
     6
 78
     2
 67
     7
 79
     5
170
     0
171
     0
290
     0
174
     0
 93
        1
 44
0.0
173
     0
291
     1
 45
0.0
1001
ACAD
1000
AcDbSavedByObjectVersion
1070
     0
  0
DICTIONARYVAR
  5
3DA
102
{ACAD_REACTORS
330
149
102
}
330
149
100
DictionaryVariables
280
     0
  1
STANDARD
  0
DICTIONARYVAR
  5
14A
102
{ACAD_REACTORS
330
149
102
}
330
149
100
DictionaryVariables
280
     0
  1
1
  0
DICTIONARYVAR
  5
3DC
102
{ACAD_REACTORS
330
149
102
}
330
149
100
DictionaryVariables
280
     0
  1
0
  0
DICTIONARYVAR
  5
3DB
102
{ACAD_REACTORS
330
149
102
}
330
149
100
DictionaryVariables
280
     0
  1
127
  0
XRECORD
  5
3BD
102
{ACAD_REACTORS
330
3BB
102
}
330
3BB
100
AcDbXrecord
280
     1
330
2AB
330
2AC
330
2B7
330
2B8
330
2C1
330
2C2
  0
DICTIONARY
  5
3E0
330
9B
100
AcDbDictionary
280
     1
281
     1
  3
ACAD_XREC_ROUNDTRIP
360
3E1
  0
DICTIONARY
  5
3DE
330
9A
100
AcDbDictionary
280
     1
281
     1
  3
ACAD_XREC_ROUNDTRIP
360
3DF
  0
DICTIONARY
  5
3E4
330
2CC
100
AcDbDictionary
280
     1
281
     1
  3
ACAD_XREC_ROUNDTRIP
360
3E5
  0
DICTIONARY
  5
3E2
330
2CB
100
AcDbDictionary
280
     1
281
     1
  3
ACAD_XREC_ROUNDTRIP
360
3E3
  0
DICTIONARY
  5
3E6
330
2CD
100
AcDbDictionary
280
     1
281
     1
  3
ACAD_XREC_ROUNDTRIP
360
3E7
  0
DICTIONARY
  5
3E8
330
2E1
100
AcDbDictionary
280
     1
281
     1
  3
ACAD_XREC_ROUNDTRIP
360
3E9
  0
XRECORD
  5
3E1
102
{ACAD_REACTORS
330
3E0
102
}
330
3E0
100
AcDbXrecord
280
     1
102
SHADEPLOT
 70
     0
102
SHADEPLOTRESLEVEL
 70
     2
102
SHADEPLOTCUSTOMDPI
 70
   300
  0
XRECORD
  5
3DF
102
{ACAD_REACTORS
330
3DE
102
}
330
3DE
100
AcDbXrecord
280
     1
102
SHADEPLOT
 70
     0
102
SHADEPLOTRESLEVEL
 70
     2
102
SHADEPLOTCUSTOMDPI
 70
   300
  0
XRECORD
  5
3E5
102
{ACAD_REACTORS
330
3E4
102
}
330
3E4
100
AcDbXrecord
280
     1
102
MATERIAL
148
0.0
149
0.0
149
0.0
 93
        0
 94
       63
282
     0
 72
     1
 77
     1
171
     1
175
     1
179
     1
273
     0
  0
XRECORD
  5
3E3
102
{ACAD_REACTORS
330
3E2
102
}
330
3E2
100
AcDbXrecord
280
     1
102
MATERIAL
148
0.0
149
0.0
149
0.0
 93
        0
 94
       63
282
     0
 72
     1
 77
     1
171
     1
175
     1
179
     1
273
     0
  0
XRECORD
  5
3E7
102
{ACAD_REACTORS
330
3E6
102
}
330
3E6
100
AcDbXrecord
280
     1
102
MATERIAL
148
0.0
149
0.0
149
0.0
 93
        0
 94
       63
282
     0
 72
     1
 77
     1
171
     1
175
     1
179
     1
273
     0
  0
XRECORD
  5
3E9
102
{ACAD_REACTORS
330
3E8
102
}
330
3E8
100
AcDbXrecord
280
     1
102
ACAD_ROUNDTRIP_PRE2007_TABLESTYLE
 90
      512
 91
        0
  1

 92
      512
 93
        0
  2

 94
      512
 95
        0
  3

  0
ENDSEC
  0
EOF
