  0
SECTION
  2
HEADER
  9
$ACADVER
  1
AC1015
  9
$ACADMAINTVER
 70
    20
  9
$DWGCODEPAGE
  3
ANSI_1252
  9
$INSBASE
 10
-3.640697791234618
 20
17.64013765206088
 30
0.0
  9
$EXTMIN
 10
-12.16511241223781
 20
14.617602306381
 30
0.0
  9
$EXTMAX
 10
7.93949834833517
 20
23.60888765206089
 30
0.0
  9
$LIMMIN
 10
0.0
 20
0.0
  9
$LIMMAX
 10
36.0
 20
36.0
  9
$ORTHOMODE
 70
     1
  9
$REGENMODE
 70
     1
  9
$FILLMODE
 70
     1
  9
$QTEXTMODE
 70
     0
  9
$MIRRTEXT
 70
     1
  9
$LTSCALE
 40
1.0
  9
$ATTMODE
 70
     1
  9
$TEXTSIZE
 40
0.2
  9
$TRACEWID
 40
0.05
  9
$TEXTSTYLE
  7
STANDARD
  9
$CLAYER
  8
ADP1DETAIL
  9
$CELTYPE
  6
ByLayer
  9
$CECOLOR
 62
   256
  9
$CELTSCALE
 40
1.0
  9
$DISPSILH
 70
     0
  9
$DIMSCALE
 40
1.0
  9
$DIMASZ
 40
0.125
  9
$DIMEXO
 40
0.0625
  9
$DIMDLI
 40
0.38
  9
$DIMRND
 40
0.0
  9
$DIMDLE
 40
0.0
  9
$DIMEXE
 40
0.18
  9
$DIMTP
 40
0.0
  9
$DIMTM
 40
0.0
  9
$DIMTXT
 40
0.125
  9
$DIMCEN
 40
0.1875
  9
$DIMTSZ
 40
0.125
  9
$DIMTOL
 70
     0
  9
$DIMLIM
 70
     0
  9
$DIMTIH
 70
     0
  9
$DIMTOH
 70
     0
  9
$DIMSE1
 70
     0
  9
$DIMSE2
 70
     0
  9
$DIMTAD
 70
     0
  9
$DIMZIN
 70
     3
  9
$DIMBLK
  1

  9
$DIMASO
 70
     1
  9
$DIMSHO
 70
     1
  9
$DIMPOST
  1

  9
$DIMAPOST
  1

  9
$DIMALT
 70
     0
  9
$DIMALTD
 70
     1
  9
$DIMALTF
 40
25.4
  9
$DIMLFAC
 40
1.0
  9
$DIMTOFL
 70
     0
  9
$DIMTVP
 40
0.0
  9
$DIMTIX
 70
     0
  9
$DIMSOXD
 70
     0
  9
$DIMSAH
 70
     0
  9
$DIMBLK1
  1

  9
$DIMBLK2
  1

  9
$DIMSTYLE
  2
Standard
  9
$DIMCLRD
 70
     0
  9
$DIMCLRE
 70
     0
  9
$DIMCLRT
 70
     0
  9
$DIMTFAC
 40
1.0
  9
$DIMGAP
 40
0.125
  9
$DIMJUST
 70
     0
  9
$DIMSD1
 70
     0
  9
$DIMSD2
 70
     0
  9
$DIMTOLJ
 70
     1
  9
$DIMTZIN
 70
     3
  9
$DIMALTZ
 70
     3
  9
$DIMALTTZ
 70
     3
  9
$DIMUPT
 70
     0
  9
$DIMDEC
 70
     4
  9
$DIMTDEC
 70
     4
  9
$DIMALTU
 70
     5
  9
$DIMALTTD
 70
     1
  9
$DIMTXSTY
  7
STANDARD
  9
$DIMAUNIT
 70
     0
  9
$DIMADEC
 70
     0
  9
$DIMALTRND
 40
0.0
  9
$DIMAZIN
 70
     0
  9
$DIMDSEP
 70
    46
  9
$DIMATFIT
 70
     3
  9
$DIMFRAC
 70
     0
  9
$DIMLDRBLK
  1

  9
$DIMLUNIT
 70
     5
  9
$DIMLWD
 70
    -2
  9
$DIMLWE
 70
    -2
  9
$DIMTMOVE
 70
     2
  9
$LUNITS
 70
     5
  9
$LUPREC
 70
     4
  9
$SKETCHINC
 40
0.1
  9
$FILLETRAD
 40
0.062
  9
$AUNITS
 70
     0
  9
$AUPREC
 70
     0
  9
$MENU
  1
acad
  9
$ELEVATION
 40
0.0
  9
$PELEVATION
 40
0.0
  9
$THICKNESS
 40
0.0
  9
$LIMCHECK
 70
     0
  9
$CHAMFERA
 40
0.0
  9
$CHAMFERB
 40
0.0
  9
$CHAMFERC
 40
0.0
  9
$CHAMFERD
 40
0.0
  9
$SKPOLY
 70
     0
  9
$TDCREATE
 40
2450406.656284525
  9
$TDUCREATE
 40
2450406.822951192
  9
$TDUPDATE
 40
2453961.988326516
  9
$TDUUPDATE
 40
2453962.154993183
  9
$TDINDWG
 40
0.0531483565
  9
$TDUSRTIMER
 40
0.0531483565
  9
$USRTIMER
 70
     1
  9
$ANGBASE
 50
0.0
  9
$ANGDIR
 70
     0
  9
$PDMODE
 70
     0
  9
$PDSIZE
 40
0.0
  9
$PLINEWID
 40
0.0
  9
$SPLFRAME
 70
     0
  9
$SPLINETYPE
 70
     6
  9
$SPLINESEGS
 70
     8
  9
$HANDSEED
  5
440
  9
$SURFTAB1
 70
     6
  9
$SURFTAB2
 70
     6
  9
$SURFTYPE
 70
     6
  9
$SURFU
 70
     6
  9
$SURFV
 70
     6
  9
$UCSBASE
  2

  9
$UCSNAME
  2

  9
$UCSORG
 10
0.0
 20
0.0
 30
0.0
  9
$UCSXDIR
 10
1.0
 20
0.0
 30
0.0
  9
$UCSYDIR
 10
0.0
 20
1.0
 30
0.0
  9
$UCSORTHOREF
  2

  9
$UCSORTHOVIEW
 70
     0
  9
$UCSORGTOP
 10
0.0
 20
0.0
 30
0.0
  9
$UCSORGBOTTOM
 10
0.0
 20
0.0
 30
0.0
  9
$UCSORGLEFT
 10
0.0
 20
0.0
 30
0.0
  9
$UCSORGRIGHT
 10
0.0
 20
0.0
 30
0.0
  9
$UCSORGFRONT
 10
0.0
 20
0.0
 30
0.0
  9
$UCSORGBACK
 10
0.0
 20
0.0
 30
0.0
  9
$PUCSBASE
  2

  9
$PUCSNAME
  2

  9
$PUCSORG
 10
0.0
 20
0.0
 30
0.0
  9
$PUCSXDIR
 10
1.0
 20
0.0
 30
0.0
  9
$PUCSYDIR
 10
0.0
 20
1.0
 30
0.0
  9
$PUCSORTHOREF
  2

  9
$PUCSORTHOVIEW
 70
     0
  9
$PUCSORGTOP
 10
0.0
 20
0.0
 30
0.0
  9
$PUCSORGBOTTOM
 10
0.0
 20
0.0
 30
0.0
  9
$PUCSORGLEFT
 10
0.0
 20
0.0
 30
0.0
  9
$PUCSORGRIGHT
 10
0.0
 20
0.0
 30
0.0
  9
$PUCSORGFRONT
 10
0.0
 20
0.0
 30
0.0
  9
$PUCSORGBACK
 10
0.0
 20
0.0
 30
0.0
  9
$USERI1
 70
     0
  9
$USERI2
 70
     0
  9
$USERI3
 70
     0
  9
$USERI4
 70
     0
  9
$USERI5
 70
     0
  9
$USERR1
 40
0.0
  9
$USERR2
 40
0.0
  9
$USERR3
 40
0.0
  9
$USERR4
 40
0.0
  9
$USERR5
 40
0.0
  9
$WORLDVIEW
 70
     1
  9
$SHADEDGE
 70
     3
  9
$SHADEDIF
 70
    70
  9
$TILEMODE
 70
     1
  9
$MAXACTVP
 70
    15
  9
$PINSBASE
 10
0.0008545028977096
 20
1.250283272183907
 30
0.0
  9
$PLIMCHECK
 70
     0
  9
$PEXTMIN
 10
1.000000000000000E+20
 20
1.000000000000000E+20
 30
1.000000000000000E+20
  9
$PEXTMAX
 10
-1.000000000000000E+20
 20
-1.000000000000000E+20
 30
-1.000000000000000E+20
  9
$PLIMMIN
 10
0.0
 20
0.0
  9
$PLIMMAX
 10
12.0
 20
9.0
  9
$UNITMODE
 70
     0
  9
$VISRETAIN
 70
     0
  9
$PLINEGEN
 70
     0
  9
$PSLTSCALE
 70
     1
  9
$TREEDEPTH
 70
  3020
  9
$CMLSTYLE
  2
Standard
  9
$CMLJUST
 70
     0
  9
$CMLSCALE
 40
1.0
  9
$PROXYGRAPHICS
 70
     1
  9
$MEASUREMENT
 70
     0
  9
$CELWEIGHT
370
    -1
  9
$ENDCAPS
280
     0
  9
$JOINSTYLE
280
     0
  9
$LWDISPLAY
290
     0
  9
$INSUNITS
 70
     0
  9
$HYPERLINKBASE
  1

  9
$STYLESHEET
  1

  9
$XEDIT
290
     1
  9
$CEPSNTYPE
380
     0
  9
$PSTYLEMODE
290
     1
  9
$FINGERPRINTGUID
  2
{04879FE1-A562-4175-A6B2-2E63910DEC12}
  9
$VERSIONGUID
  2
{AFDFFB3E-B8D3-4E61-A860-8773F328CEAE}
  9
$EXTNAMES
290
     1
  9
$PSVPSCALE
 40
0.0
  9
$OLESTARTUP
290
     0
  0
ENDSEC
  0
SECTION
  2
CLASSES
  0
CLASS
  1
ACDBDICTIONARYWDFLT
  2
AcDbDictionaryWithDefault
  3
ObjectDBX Classes
 90
        0
280
     0
281
     0
  0
CLASS
  1
ACDBPLACEHOLDER
  2
AcDbPlaceHolder
  3
ObjectDBX Classes
 90
        0
280
     0
281
     0
  0
CLASS
  1
LAYOUT
  2
AcDbLayout
  3
ObjectDBX Classes
 90
        0
280
     0
281
     0
  0
CLASS
  1
DICTIONARYVAR
  2
AcDbDictionaryVar
  3
ObjectDBX Classes
 90
        0
280
     0
281
     0
  0
CLASS
  1
MATERIAL
  2
AcDbMaterial
  3
ObjectDBX Classes
 90
     1024
280
     0
281
     0
  0
CLASS
  1
VISUALSTYLE
  2
AcDbVisualStyle
  3
ObjectDBX Classes
 90
     4095
280
     0
281
     0
  0
CLASS
  1
TABLESTYLE
  2
AcDbTableStyle
  3
ObjectDBX Classes
 90
     4095
280
     0
281
     0
  0
ENDSEC
  0
SECTION
  2
TABLES
  0
TABLE
  2
VPORT
  5
8
330
0
100
AcDbSymbolTable
 70
     1
  0
VPORT
  5
30B
330
8
100
AcDbSymbolTableRecord
100
AcDbViewportTableRecord
  2
*Active
 70
     0
 10
0.0
 20
0.0
 11
1.0
 21
1.0
 12
-4.501861136654851
 22
17.28349570676079
 13
0.0
 23
0.0
 14
0.5740882589684922
 24
0.5740882589684922
 15
0.5
 25
0.5
 16
0.0
 26
0.0
 36
1.0
 17
0.0
 27
0.0
 37
0.0
 40
8.028390545166077
 41
1.726930320150659
 42
50.0
 43
0.0
 44
0.0
 50
0.0
 51
0.0
 71
     0
 72
   100
 73
     1
 74
     0
 75
     0
 76
     0
 77
     0
 78
     0
281
     0
 65
     1
110
0.0
120
0.0
130
0.0
111
1.0
121
0.0
131
0.0
112
0.0
122
1.0
132
0.0
 79
     0
146
0.0
  0
ENDTAB
  0
TABLE
  2
LTYPE
  5
5
330
0
100
AcDbSymbolTable
 70
     2
  0
LTYPE
  5
13
330
5
100
AcDbSymbolTableRecord
100
AcDbLinetypeTableRecord
  2
ByBlock
 70
     0
  3

 72
    65
 73
     0
 40
0.0
  0
LTYPE
  5
14
330
5
100
AcDbSymbolTableRecord
100
AcDbLinetypeTableRecord
  2
ByLayer
 70
     0
  3

 72
    65
 73
     0
 40
0.0
  0
LTYPE
  5
15
330
5
100
AcDbSymbolTableRecord
100
AcDbLinetypeTableRecord
  2
CONTINUOUS
 70
     0
  3
Solid line
 72
    65
 73
     0
 40
0.0
  0
LTYPE
  5
13D
330
5
100
AcDbSymbolTableRecord
100
AcDbLinetypeTableRecord
  2
HIDDEN2
 70
     0
  3
_ _ _ _ _ _ _ _ _ _ _ _ _ _ _ _ _ _ _ _ _ _ _ _
 72
    65
 73
     2
 40
0.1875
 49
0.125
 74
     0
 49
-0.0625
 74
     0
  0
ENDTAB
  0
TABLE
  2
LAYER
  5
2
330
0
100
AcDbSymbolTable
 70
     5
  0
LAYER
  5
10
330
2
100
AcDbSymbolTableRecord
100
AcDbLayerTableRecord
  2
0
 70
     0
 62
     7
  6
CONTINUOUS
370
    -3
390
F
  0
LAYER
  5
141
330
2
100
AcDbSymbolTableRecord
100
AcDbLayerTableRecord
  2
ADP1DETAIL
 70
     0
 62
     7
  6
CONTINUOUS
370
    -3
390
F
  0
LAYER
  5
142
330
2
100
AcDbSymbolTableRecord
100
AcDbLayerTableRecord
  2
ADP3DETAIL
 70
     0
 62
     1
  6
CONTINUOUS
370
    -3
390
F
  0
LAYER
  5
143
330
2
100
AcDbSymbolTableRecord
100
AcDbLayerTableRecord
  2
DEFPOINTS
 70
     0
 62
     7
  6
CONTINUOUS
290
     0
370
    -3
390
F
  0
LAYER
  5
146
330
2
100
AcDbSymbolTableRecord
100
AcDbLayerTableRecord
  2
ADPDIM
 70
     0
 62
     3
  6
CONTINUOUS
370
    -3
390
F
  0
ENDTAB
  0
TABLE
  2
STYLE
  5
3
330
0
100
AcDbSymbolTable
 70
     2
  0
STYLE
  5
11
330
3
100
AcDbSymbolTableRecord
100
AcDbTextStyleTableRecord
  2
STANDARD
 70
     0
 40
0.0
 41
1.0
 50
0.0
 71
     0
 42
0.2
  3
txt
  4

  0
STYLE
  5
1B2
330
3
100
AcDbSymbolTableRecord
100
AcDbTextStyleTableRecord
  2
ARIAL_WIDE
 70
     0
 40
0.0
 41
1.25
 50
0.0
 71
     0
 42
0.2
  3
ARIAL.TTF
  4

1001
ACAD
1000
Arial
1071
       34
  0
ENDTAB
  0
TABLE
  2
VIEW
  5
6
330
0
100
AcDbSymbolTable
 70
     0
  0
ENDTAB
  0
TABLE
  2
UCS
  5
7
330
0
100
AcDbSymbolTable
 70
     0
  0
ENDTAB
  0
TABLE
  2
APPID
  5
9
330
0
100
AcDbSymbolTable
 70
     1
  0
APPID
  5
12
330
9
100
AcDbSymbolTableRecord
100
AcDbRegAppTableRecord
  2
ACAD
 70
     0
  0
ENDTAB
  0
TABLE
  2
DIMSTYLE
  5
A
330
0
100
AcDbSymbolTable
 70
     1
100
AcDbDimStyleTable
 71
     0
  0
DIMSTYLE
105
1B0
102
{ACAD_REACTORS
330
3AE
330
3CE
102
}
330
A
100
AcDbSymbolTableRecord
100
AcDbDimStyleTableRecord
  2
Standard
 70
     0
340
11
  0
ENDTAB
  0
TABLE
  2
BLOCK_RECORD
  5
1
330
0
100
AcDbSymbolTable
 70
    12
  0
BLOCK_RECORD
  5
1E
102
{ACAD_XDICTIONARY
360
1EF
102
}
330
1
100
AcDbSymbolTableRecord
100
AcDbBlockTableRecord
  2
*Model_Space
340
21
  0
BLOCK_RECORD
  5
1A
102
{ACAD_XDICTIONARY
360
1F1
102
}
330
1
100
AcDbSymbolTableRecord
100
AcDbBlockTableRecord
  2
*Paper_Space
340
1D
  0
BLOCK_RECORD
  5
A6
330
1
100
AcDbSymbolTableRecord
100
AcDbBlockTableRecord
  2
6934
340
0
  0
BLOCK_RECORD
  5
138
330
1
100
AcDbSymbolTableRecord
100
AcDbBlockTableRecord
  2
*D1
340
0
  0
BLOCK_RECORD
  5
139
330
1
100
AcDbSymbolTableRecord
100
AcDbBlockTableRecord
  2
*D2
340
0
  0
BLOCK_RECORD
  5
13A
330
1
100
AcDbSymbolTableRecord
100
AcDbBlockTableRecord
  2
*D3
340
0
  0
BLOCK_RECORD
  5
13B
330
1
100
AcDbSymbolTableRecord
100
AcDbBlockTableRecord
  2
*D4
340
0
  0
BLOCK_RECORD
  5
35D
330
1
100
AcDbSymbolTableRecord
100
AcDbBlockTableRecord
  2
*D5
340
0
  0
BLOCK_RECORD
  5
36A
330
1
100
AcDbSymbolTableRecord
100
AcDbBlockTableRecord
  2
*D6
340
0
  0
BLOCK_RECORD
  5
377
330
1
100
AcDbSymbolTableRecord
100
AcDbBlockTableRecord
  2
*D7
340
0
  0
BLOCK_RECORD
  5
3CF
330
1
100
AcDbSymbolTableRecord
100
AcDbBlockTableRecord
  2
*D9
340
0
  0
BLOCK_RECORD
  5
3DC
330
1
100
AcDbSymbolTableRecord
100
AcDbBlockTableRecord
  2
*D10
340
0
  0
BLOCK_RECORD
  5
3E9
330
1
100
AcDbSymbolTableRecord
100
AcDbBlockTableRecord
  2
*D11
340
0
  0
ENDTAB
  0
ENDSEC
  0
SECTION
  2
BLOCKS
  0
BLOCK
  5
149
330
1E
100
AcDbEntity
  8
0
100
AcDbBlockBegin
  2
*Model_Space
 70
     0
 10
0.0
 20
0.0
 30
0.0
  3
*Model_Space
  1

  0
ENDBLK
  5
14A
330
1E
100
AcDbEntity
  8
0
100
AcDbBlockEnd
  0
BLOCK
  5
147
330
1A
100
AcDbEntity
 67
     1
  8
0
100
AcDbBlockBegin
  2
*Paper_Space
 70
     0
 10
0.0
 20
0.0
 30
0.0
  3
*Paper_Space
  1

  0
ENDBLK
  5
148
330
1A
100
AcDbEntity
 67
     1
  8
0
100
AcDbBlockEnd
  0
BLOCK
  5
14C
330
A6
100
AcDbEntity
  8
0
100
AcDbBlockBegin
  2
6934
 70
     0
 10
0.0
 20
0.0
 30
0.0
  3
6934
  1

  0
ARC
  5
14D
330
A6
100
AcDbEntity
  8
0
100
AcDbCircle
 10
1.006135784061228
 20
0.1723390304323393
 30
0.0
 40
0.7499999999999986
100
AcDbArc
 50
90.08851858174335
 51
114.6411830056756
  0
LINE
  5
14E
330
A6
100
AcDbEntity
  8
0
100
AcDbLine
 10
0.4739770789967075
 20
0.5576578162615525
 30
0.0
 11
1.006135784061225
 21
0.5576578162615525
 31
0.0
  0
LINE
  5
14F
330
A6
100
AcDbEntity
  8
0
100
AcDbLine
 10
0.4739770789967058
 20
0.3846578162615524
 30
0.0
 11
0.4739770789967075
 21
0.5576578162615525
 31
0.0
  0
ARC
  5
150
330
A6
100
AcDbEntity
  8
0
100
AcDbCircle
 10
0.1855138326626644
 20
0.5149583575284753
 30
0.0
 40
0.1559999999999998
100
AcDbArc
 50
80.65678061822479
 51
230.3615138867189
  0
LINE
  5
151
330
A6
100
AcDbEntity
  8
0
100
AcDbLine
 10
0.2188257903181281
 20
0.1859431501332791
 30
0.0
 11
0.3334770789967081
 21
0.1859431501332791
 31
0.0
  0
ARC
  5
152
330
A6
100
AcDbEntity
  8
0
100
AcDbCircle
 10
-0.0007584343415434
 20
0.1929820444619832
 30
0.0
 40
0.2196970135271751
100
AcDbArc
 50
358.1639806528344
 51
66.74166570965842
  0
ARC
  5
153
330
A6
100
AcDbEntity
  8
0
100
AcDbCircle
 10
0.458977078996707
 20
0.3846578162615524
 30
0.0
 40
0.015
100
AcDbArc
 50
270.0
 51
0.0
  0
ARC
  5
154
330
A6
100
AcDbEntity
  8
0
100
AcDbCircle
 10
0.3334770789967081
 20
0.2009431501332797
 30
0.0
 40
0.015
100
AcDbArc
 50
270.0
 51
0.0000000000002926
  0
LINE
  5
155
330
A6
100
AcDbEntity
  8
0
100
AcDbLine
 10
0.3484770789967069
 20
0.2009431501332797
 30
0.0
 11
0.3484770789967051
 21
0.354657816261553
 31
0.0
  0
ARC
  5
156
330
A6
100
AcDbEntity
  8
0
100
AcDbCircle
 10
0.3634770789967057
 20
0.354657816261553
 30
0.0
 40
0.015
100
AcDbArc
 50
90.0
 51
180.0
  0
LINE
  5
157
330
A6
100
AcDbEntity
  8
0
100
AcDbLine
 10
0.3634770789967057
 20
0.3696578162615518
 30
0.0
 11
0.458977078996707
 21
0.3696578162615518
 31
0.0
  0
LINE
  5
158
330
A6
100
AcDbEntity
  8
0
100
AcDbLine
 10
0.2721357840612271
 20
0.6688887889231152
 30
0.0
 11
0.2108401488310285
 21
0.6688887889231152
 31
0.0
  0
ARC
  5
159
330
A6
100
AcDbEntity
  8
0
100
AcDbCircle
 10
0.2871357840612276
 20
1.48445476562646
 30
0.0
 40
0.7499999999999969
100
AcDbArc
 50
271.1235186577002
 51
302.801651737942
  0
ARC
  5
15A
330
A6
100
AcDbEntity
  8
0
100
AcDbCircle
 10
0.2721357840612271
 20
0.683888788923114
 30
0.0
 40
0.015
100
AcDbArc
 50
270.0
 51
0.0
  0
ARC
  5
15B
330
A6
100
AcDbEntity
  8
0
100
AcDbCircle
 10
0.3021357840612246
 20
0.7196018385875443
 30
0.0
 40
0.015
100
AcDbArc
 50
91.1235186577027
 51
180.0
  0
LINE
  5
15C
330
A6
100
AcDbEntity
  8
0
100
AcDbLine
 10
0.2871357840612258
 20
0.683888788923114
 30
0.0
 11
0.2871357840612258
 21
0.7196018385875443
 31
0.0
  0
LINE
  5
15D
330
A6
100
AcDbEntity
  8
0
100
AcDbLine
 10
1.535977078996706
 20
0.3846578162615524
 30
0.0
 11
1.535977078996705
 21
0.5576578162615525
 31
0.0
  0
ARC
  5
15E
330
A6
100
AcDbEntity
  8
0
100
AcDbCircle
 10
1.824440325330749
 20
0.5149583575284753
 30
0.0
 40
0.1559999999999996
100
AcDbArc
 50
309.6384861132802
 51
99.34321938177591
  0
ARC
  5
15F
330
A6
100
AcDbEntity
  8
0
100
AcDbCircle
 10
1.676477078996704
 20
0.2009431501332797
 30
0.0
 40
0.015
100
AcDbArc
 50
179.9999999999997
 51
270.0
  0
ARC
  5
160
330
A6
100
AcDbEntity
  8
0
100
AcDbCircle
 10
1.646477078996706
 20
0.354657816261553
 30
0.0
 40
0.015
100
AcDbArc
 50
0.000000000000007
 51
90.0
  0
ARC
  5
161
330
A6
100
AcDbEntity
  8
0
100
AcDbCircle
 10
1.550977078996705
 20
0.3846578162615524
 30
0.0
 40
0.015
100
AcDbArc
 50
180.0
 51
270.0
  0
LINE
  5
162
330
A6
100
AcDbEntity
  8
0
100
AcDbLine
 10
1.646477078996706
 20
0.3696578162615518
 30
0.0
 11
1.550977078996705
 21
0.3696578162615518
 31
0.0
  0
LINE
  5
163
330
A6
100
AcDbEntity
  8
0
100
AcDbLine
 10
1.661477078996705
 20
0.2009431501332797
 30
0.0
 11
1.661477078996707
 21
0.354657816261553
 31
0.0
  0
LINE
  5
164
330
A6
100
AcDbEntity
  8
0
100
AcDbLine
 10
1.791128367675284
 20
0.1859431501332791
 30
0.0
 11
1.676477078996704
 21
0.1859431501332791
 31
0.0
  0
ARC
  5
165
330
A6
100
AcDbEntity
  8
0
100
AcDbCircle
 10
2.010712592334961
 20
0.1929820444619787
 30
0.0
 40
0.2196970135271803
100
AcDbArc
 50
113.2583342903419
 51
181.8360193471644
  0
LINE
  5
166
330
A6
100
AcDbEntity
  8
0
100
AcDbLine
 10
1.535977078996705
 20
0.5576578162615525
 30
0.0
 11
1.003818373932187
 21
0.5576578162615525
 31
0.0
  0
ARC
  5
167
330
A6
100
AcDbEntity
  8
0
100
AcDbCircle
 10
1.722818373932186
 20
1.484454765626462
 30
0.0
 40
0.75
100
AcDbArc
 50
237.1983482620581
 51
268.8764813422996
  0
ARC
  5
168
330
A6
100
AcDbEntity
  8
0
100
AcDbCircle
 10
1.003818373932183
 20
0.1723390304323358
 30
0.0
 40
0.7500000000000019
100
AcDbArc
 50
65.35881699432443
 51
89.91148141825666
  0
ARC
  5
169
330
A6
100
AcDbEntity
  8
0
100
AcDbCircle
 10
1.707818373932187
 20
0.7196018385875443
 30
0.0
 40
0.015
100
AcDbArc
 50
0.000000000000007
 51
88.87648134229731
  0
ARC
  5
16A
330
A6
100
AcDbEntity
  8
0
100
AcDbCircle
 10
1.737818373932185
 20
0.683888788923114
 30
0.0
 40
0.015
100
AcDbArc
 50
180.0
 51
270.0
  0
LINE
  5
16B
330
A6
100
AcDbEntity
  8
0
100
AcDbLine
 10
1.722818373932186
 20
0.683888788923114
 30
0.0
 11
1.722818373932186
 21
0.7196018385875443
 31
0.0
  0
LINE
  5
16C
330
A6
100
AcDbEntity
  8
0
100
AcDbLine
 10
1.737818373932185
 20
0.6688887889231152
 30
0.0
 11
1.799114009162384
 21
0.6688887889231152
 31
0.0
  0
ENDBLK
  5
16D
330
A6
100
AcDbEntity
  8
0
100
AcDbBlockEnd
  0
BLOCK
  5
16E
330
138
100
AcDbEntity
  8
0
100
AcDbBlockBegin
  2
*D1
 70
     1
 10
0.0
 20
0.0
 30
0.0
  3
*D1
  1

  0
LINE
  5
16F
330
138
100
AcDbEntity
  8
0
  6
ByBlock
 62
     0
100
AcDbLine
 10
-5.265947791234616
 20
15.84049617173728
 30
0.0
 11
-5.265947791234616
 21
15.51835302673663
 31
0.0
  0
LINE
  5
170
330
138
100
AcDbEntity
  8
0
  6
ByBlock
 62
     0
100
AcDbLine
 10
-3.95294779123462
 20
15.84049617173728
 30
0.0
 11
-3.95294779123462
 21
15.51835302673663
 31
0.0
  0
LINE
  5
171
330
138
100
AcDbEntity
  8
0
  6
ByBlock
 62
     0
100
AcDbLine
 10
-5.265947791234616
 20
15.69835302673663
 30
0.0
 11
-5.515947791234616
 21
15.69835302673663
 31
0.0
  0
LINE
  5
172
330
138
100
AcDbEntity
  8
0
  6
ByBlock
 62
     0
100
AcDbLine
 10
-3.95294779123462
 20
15.69835302673663
 30
0.0
 11
-3.70294779123462
 21
15.69835302673663
 31
0.0
  0
LINE
  5
173
330
138
100
AcDbEntity
  8
0
  6
ByBlock
 62
     0
100
AcDbLine
 10
-5.390947791234616
 20
15.57335302673663
 30
0.0
 11
-5.140947791234616
 21
15.82335302673663
 31
0.0
  0
LINE
  5
174
330
138
100
AcDbEntity
  8
0
  6
ByBlock
 62
     0
100
AcDbLine
 10
-4.07794779123462
 20
15.57335302673663
 30
0.0
 11
-3.82794779123462
 21
15.82335302673663
 31
0.0
  0
TEXT
  5
175
330
138
100
AcDbEntity
  8
0
  6
ByBlock
 62
     0
100
AcDbText
 10
-3.57794779123462
 20
15.63585302673663
 30
0.0
 40
0.125
  1
1 5/16
 72
     1
 11
-3.26544779123462
 21
15.69835302673663
 31
0.0
100
AcDbText
 73
     2
  0
POINT
  5
177
330
138
100
AcDbEntity
  8
DEFPOINTS
  6
ByBlock
 62
     0
100
AcDbPoint
 10
-5.265947791234616
 20
15.90299617173728
 30
0.0
  0
POINT
  5
178
330
138
100
AcDbEntity
  8
DEFPOINTS
  6
ByBlock
 62
     0
100
AcDbPoint
 10
-3.95294779123462
 20
15.90299617173728
 30
0.0
  0
POINT
  5
179
330
138
100
AcDbEntity
  8
DEFPOINTS
  6
ByBlock
 62
     0
100
AcDbPoint
 10
-3.95294779123462
 20
15.69835302673663
 30
0.0
  0
ENDBLK
  5
17A
330
138
100
AcDbEntity
  8
0
100
AcDbBlockEnd
  0
BLOCK
  5
17B
330
139
100
AcDbEntity
  8
0
100
AcDbBlockBegin
  2
*D2
 70
     1
 10
0.0
 20
0.0
 30
0.0
  3
*D2
  1

  0
LINE
  5
17C
330
139
100
AcDbEntity
  8
0
  6
ByBlock
 62
     0
100
AcDbLine
 10
-2.170556191928483
 20
20.13875235049593
 30
0.0
 11
-2.935801736919372
 21
20.13875235049593
 31
0.0
  0
LINE
  5
17D
330
139
100
AcDbEntity
  8
0
  6
ByBlock
 62
     0
100
AcDbLine
 10
-3.671947791234618
 20
17.64013765206088
 30
0.0
 11
-2.575801736919373
 21
17.64013765206088
 31
0.0
  0
LINE
  5
17E
330
139
100
AcDbEntity
  8
0
  6
ByBlock
 62
     0
100
AcDbLine
 10
-2.755801736919373
 20
20.13875235049593
 30
0.0
 11
-2.755801736919373
 21
19.28527833461174
 31
0.0
  0
LINE
  5
17F
330
139
100
AcDbEntity
  8
0
  6
ByBlock
 62
     0
100
AcDbLine
 10
-2.755801736919373
 20
17.64013765206088
 30
0.0
 11
-2.755801736919373
 21
18.49361166794508
 31
0.0
  0
LINE
  5
180
330
139
100
AcDbEntity
  8
0
  6
ByBlock
 62
     0
100
AcDbLine
 10
-2.630801736919373
 20
20.01375235049593
 30
0.0
 11
-2.880801736919373
 21
20.26375235049593
 31
0.0
  0
LINE
  5
181
330
139
100
AcDbEntity
  8
0
  6
ByBlock
 62
     0
100
AcDbLine
 10
-2.630801736919373
 20
17.51513765206088
 30
0.0
 11
-2.880801736919373
 21
17.76513765206088
 31
0.0
  0
TEXT
  5
182
330
139
100
AcDbEntity
  8
0
  6
ByBlock
 62
     0
100
AcDbText
 10
-2.693301736919373
 20
18.61861166794508
 30
0.0
 40
0.125
  1
2 1/2
 50
90.0
 72
     1
 11
-2.755801736919373
 21
18.88944500127841
 31
0.0
100
AcDbText
 73
     2
  0
POINT
  5
183
330
139
100
AcDbEntity
  8
DEFPOINTS
  6
ByBlock
 62
     0
100
AcDbPoint
 10
-2.108056191928483
 20
20.13875235049593
 30
0.0
  0
POINT
  5
184
330
139
100
AcDbEntity
  8
DEFPOINTS
  6
ByBlock
 62
     0
100
AcDbPoint
 10
-3.734447791234618
 20
17.64013765206088
 30
0.0
  0
POINT
  5
185
330
139
100
AcDbEntity
  8
DEFPOINTS
  6
ByBlock
 62
     0
100
AcDbPoint
 10
-2.755801736919373
 20
17.64013765206088
 30
0.0
  0
ENDBLK
  5
186
330
139
100
AcDbEntity
  8
0
100
AcDbBlockEnd
  0
BLOCK
  5
187
330
13A
100
AcDbEntity
  8
0
100
AcDbBlockBegin
  2
*D3
 70
     1
 10
0.0
 20
0.0
 30
0.0
  3
*D3
  1

  0
LINE
  5
188
330
13A
100
AcDbEntity
  8
0
  6
ByBlock
 62
     0
100
AcDbLine
 10
-3.88121931132585
 20
21.90389094563502
 30
0.0
 11
-2.108056191928484
 21
20.13875235049593
 31
0.0
  0
LINE
  5
189
330
13A
100
AcDbEntity
  8
0
  6
ByBlock
 62
     0
100
AcDbLine
 10
-4.057995552009118
 20
21.90349003430917
 30
0.0
 11
-3.704443070642581
 21
21.90429185696087
 31
0.0
  0
TEXT
  5
18A
330
13A
100
AcDbEntity
  8
0
  6
ByBlock
 62
     0
100
AcDbText
 10
-2.063561448263275
 20
20.00627039781494
 30
0.0
 40
0.125
  1
R2 1/2
 50
315.1299410342688
 72
     1
 11
-1.783231413245091
 21
19.81539758000733
 31
0.0
100
AcDbText
 73
     2
  0
POINT
  5
18B
330
13A
100
AcDbEntity
  8
DEFPOINTS
  6
ByBlock
 62
     0
100
AcDbPoint
 10
-3.88121931132585
 20
21.90389094563502
 30
0.0
  0
POINT
  5
18C
330
13A
100
AcDbEntity
  8
DEFPOINTS
  6
ByBlock
 62
     0
100
AcDbPoint
 10
-2.109447791234615
 20
20.14013765206088
 30
0.0
  0
ENDBLK
  5
18D
330
13A
100
AcDbEntity
  8
0
100
AcDbBlockEnd
  0
BLOCK
  5
18E
330
13B
100
AcDbEntity
  8
0
100
AcDbBlockBegin
  2
*D4
 70
     1
 10
0.0
 20
0.0
 30
0.0
  3
*D4
  1

  0
LINE
  5
18F
330
13B
100
AcDbEntity
  8
0
  6
ByBlock
 62
     0
100
AcDbLine
 10
-5.570875322096235
 20
16.34418086125946
 30
0.0
 11
-5.570875322096235
 21
16.98468491484248
 31
0.0
  0
LINE
  5
190
330
13B
100
AcDbEntity
  8
0
  6
ByBlock
 62
     0
100
AcDbLine
 10
-3.633375322096235
 20
16.34418086125946
 30
0.0
 11
-3.633375322096235
 21
16.98468491484248
 31
0.0
  0
LINE
  5
191
330
13B
100
AcDbEntity
  8
0
  6
ByBlock
 62
     0
100
AcDbLine
 10
-5.570875322096235
 20
16.80468491484248
 30
0.0
 11
-5.081291988762902
 21
16.80468491484248
 31
0.0
  0
LINE
  5
192
330
13B
100
AcDbEntity
  8
0
  6
ByBlock
 62
     0
100
AcDbLine
 10
-3.633375322096235
 20
16.80468491484248
 30
0.0
 11
-4.122958655429568
 21
16.80468491484248
 31
0.0
  0
LINE
  5
193
330
13B
100
AcDbEntity
  8
0
  6
ByBlock
 62
     0
100
AcDbLine
 10
-5.695875322096235
 20
16.67968491484248
 30
0.0
 11
-5.445875322096235
 21
16.92968491484248
 31
0.0
  0
LINE
  5
194
330
13B
100
AcDbEntity
  8
0
  6
ByBlock
 62
     0
100
AcDbLine
 10
-3.758375322096235
 20
16.67968491484248
 30
0.0
 11
-3.508375322096235
 21
16.92968491484248
 31
0.0
  0
TEXT
  5
195
330
13B
100
AcDbEntity
  8
0
  6
ByBlock
 62
     0
100
AcDbText
 10
-4.956291988762902
 20
16.7527214007672
 30
0.0
 40
0.125
  1
1 15/16
 72
     1
 11
-4.602125322096235
 21
16.8152214007672
 31
0.0
100
AcDbText
 73
     2
  0
POINT
  5
196
330
13B
100
AcDbEntity
  8
DEFPOINTS
  6
ByBlock
 62
     0
100
AcDbPoint
 10
-5.570875322096235
 20
16.28168086125947
 30
0.0
  0
POINT
  5
197
330
13B
100
AcDbEntity
  8
DEFPOINTS
  6
ByBlock
 62
     0
100
AcDbPoint
 10
-3.633375322096235
 20
16.28168086125947
 30
0.0
  0
POINT
  5
198
330
13B
100
AcDbEntity
  8
DEFPOINTS
  6
ByBlock
 62
     0
100
AcDbPoint
 10
-3.633375322096235
 20
16.80468491484248
 30
0.0
  0
ENDBLK
  5
199
330
13B
100
AcDbEntity
  8
0
100
AcDbBlockEnd
  0
BLOCK
  5
35E
330
35D
100
AcDbEntity
  8
0
100
AcDbBlockBegin
  2
*D5
 70
     1
 10
0.0
 20
0.0
 30
0.0
  3
*D5
  1

  0
LINE
  5
35F
330
35D
100
AcDbEntity
  8
0
  6
ByBlock
 62
     0
100
AcDbLine
 10
-5.570875322096235
 20
16.34418086125946
 30
0.0
 11
-5.570875322096235
 21
16.98468491484248
 31
0.0
  0
LINE
  5
360
330
35D
100
AcDbEntity
  8
0
  6
ByBlock
 62
     0
100
AcDbLine
 10
-3.633375322096235
 20
16.34418086125946
 30
0.0
 11
-3.633375322096235
 21
16.98468491484248
 31
0.0
  0
LINE
  5
361
330
35D
100
AcDbEntity
  8
0
  6
ByBlock
 62
     0
100
AcDbLine
 10
-5.570875322096235
 20
16.80468491484248
 30
0.0
 11
-5.081291988762902
 21
16.80468491484248
 31
0.0
  0
LINE
  5
362
330
35D
100
AcDbEntity
  8
0
  6
ByBlock
 62
     0
100
AcDbLine
 10
-3.633375322096235
 20
16.80468491484248
 30
0.0
 11
-4.122958655429568
 21
16.80468491484248
 31
0.0
  0
LINE
  5
363
330
35D
100
AcDbEntity
  8
0
  6
ByBlock
 62
     0
100
AcDbLine
 10
-5.695875322096235
 20
16.67968491484248
 30
0.0
 11
-5.445875322096235
 21
16.92968491484248
 31
0.0
  0
LINE
  5
364
330
35D
100
AcDbEntity
  8
0
  6
ByBlock
 62
     0
100
AcDbLine
 10
-3.758375322096235
 20
16.67968491484248
 30
0.0
 11
-3.508375322096235
 21
16.92968491484248
 31
0.0
  0
TEXT
  5
365
330
35D
100
AcDbEntity
  8
0
  6
ByBlock
 62
     0
100
AcDbText
 10
-4.956291988762902
 20
16.7527214007672
 30
0.0
 40
0.125
  1
1 15/16
 72
     1
 11
-4.602125322096235
 21
16.8152214007672
 31
0.0
100
AcDbText
 73
     2
  0
POINT
  5
366
330
35D
100
AcDbEntity
  8
DEFPOINTS
  6
ByBlock
 62
     0
100
AcDbPoint
 10
-5.570875322096235
 20
16.28168086125947
 30
0.0
  0
POINT
  5
367
330
35D
100
AcDbEntity
  8
DEFPOINTS
  6
ByBlock
 62
     0
100
AcDbPoint
 10
-3.633375322096235
 20
16.28168086125947
 30
0.0
  0
POINT
  5
368
330
35D
100
AcDbEntity
  8
DEFPOINTS
  6
ByBlock
 62
     0
100
AcDbPoint
 10
-3.633375322096235
 20
16.80468491484248
 30
0.0
  0
ENDBLK
  5
369
330
35D
100
AcDbEntity
  8
0
100
AcDbBlockEnd
  0
BLOCK
  5
36B
330
36A
100
AcDbEntity
  8
0
100
AcDbBlockBegin
  2
*D6
 70
     1
 10
0.0
 20
0.0
 30
0.0
  3
*D6
  1

  0
LINE
  5
36C
330
36A
100
AcDbEntity
  8
ADPDIM
 62
     0
370
    -2
100
AcDbLine
 10
-5.265947791234616
 20
15.84049617173728
 30
0.0
 11
-5.265947791234616
 21
15.32809385277579
 31
0.0
  0
LINE
  5
36D
330
36A
100
AcDbEntity
  8
ADPDIM
 62
     0
370
    -2
100
AcDbLine
 10
-3.95294779123462
 20
15.84049617173728
 30
0.0
 11
-3.95294779123462
 21
15.32809385277579
 31
0.0
  0
LINE
  5
36E
330
36A
100
AcDbEntity
  8
ADPDIM
 62
     0
370
    -2
100
AcDbLine
 10
-5.265947791234616
 20
15.50809385277579
 30
0.0
 11
-5.064937090113353
 21
15.50809385277579
 31
0.0
  0
LINE
  5
36F
330
36A
100
AcDbEntity
  8
ADPDIM
 62
     0
370
    -2
100
AcDbLine
 10
-3.95294779123462
 20
15.50809385277579
 30
0.0
 11
-4.189937090113353
 21
15.50809385277579
 31
0.0
  0
LINE
  5
370
330
36A
100
AcDbEntity
  8
ADPDIM
 62
     0
370
    -2
100
AcDbLine
 10
-4.07794779123462
 20
15.38309385277579
 30
0.0
 11
-3.82794779123462
 21
15.63309385277579
 31
0.0
  0
LINE
  5
371
330
36A
100
AcDbEntity
  8
ADPDIM
 62
     0
370
    -2
100
AcDbLine
 10
-5.390947791234616
 20
15.38309385277579
 30
0.0
 11
-5.140947791234616
 21
15.63309385277579
 31
0.0
  0
MTEXT
  5
372
330
36A
100
AcDbEntity
  8
ADPDIM
 62
     0
100
AcDbMText
 10
-4.627437090113353
 20
15.50809385277579
 30
0.0
 40
0.125
 41
0.0
 71
     5
 72
     1
  1
\A1;1 5/16
 73
     1
 44
1.0
1001
ACAD
1000
MTEXTBEGIN
1070
    73
1070
     1
1070
    44
1040
1.0
1070
    74
1070
     0
1000
MTEXTEND
  0
POINT
  5
373
330
36A
100
AcDbEntity
  8
DEFPOINTS
 62
     0
100
AcDbPoint
 10
-5.265947791234616
 20
15.90299617173728
 30
0.0
  0
POINT
  5
374
330
36A
100
AcDbEntity
  8
DEFPOINTS
 62
     0
100
AcDbPoint
 10
-3.95294779123462
 20
15.90299617173728
 30
0.0
  0
POINT
  5
375
330
36A
100
AcDbEntity
  8
DEFPOINTS
 62
     0
100
AcDbPoint
 10
-3.95294779123462
 20
15.50809385277579
 30
0.0
  0
ENDBLK
  5
376
330
36A
100
AcDbEntity
  8
0
100
AcDbBlockEnd
  0
BLOCK
  5
378
330
377
100
AcDbEntity
  8
0
100
AcDbBlockBegin
  2
*D7
 70
     1
 10
0.0
 20
0.0
 30
0.0
  3
*D7
  1

  0
LINE
  5
379
330
377
100
AcDbEntity
  8
ADPDIM
 62
     0
370
    -2
100
AcDbLine
 10
-5.144793915370303
 20
16.01302392359524
 30
0.0
 11
-5.144793915370303
 21
15.7214102646498
 31
0.0
  0
LINE
  5
37A
330
377
100
AcDbEntity
  8
ADPDIM
 62
     0
370
    -2
100
AcDbLine
 10
-4.082293915370303
 20
16.01302392359524
 30
0.0
 11
-4.082293915370303
 21
15.7214102646498
 31
0.0
  0
LINE
  5
37B
330
377
100
AcDbEntity
  8
ADPDIM
 62
     0
370
    -2
100
AcDbLine
 10
-5.144793915370303
 20
15.9014102646498
 30
0.0
 11
-5.03021058203697
 21
15.9014102646498
 31
0.0
  0
LINE
  5
37C
330
377
100
AcDbEntity
  8
ADPDIM
 62
     0
370
    -2
100
AcDbLine
 10
-4.082293915370303
 20
15.9014102646498
 30
0.0
 11
-4.196877248703636
 21
15.9014102646498
 31
0.0
  0
LINE
  5
37D
330
377
100
AcDbEntity
  8
ADPDIM
 62
     0
370
    -2
100
AcDbLine
 10
-4.207293915370303
 20
15.7764102646498
 30
0.0
 11
-3.957293915370303
 21
16.0264102646498
 31
0.0
  0
LINE
  5
37E
330
377
100
AcDbEntity
  8
ADPDIM
 62
     0
370
    -2
100
AcDbLine
 10
-5.269793915370303
 20
15.7764102646498
 30
0.0
 11
-5.019793915370303
 21
16.0264102646498
 31
0.0
  0
MTEXT
  5
37F
330
377
100
AcDbEntity
  8
ADPDIM
 62
     0
100
AcDbMText
 10
-4.613543915370303
 20
15.9014102646498
 30
0.0
 40
0.125
 41
0.0
 71
     5
 72
     1
  1
\A1;1 1/16
 73
     1
 44
1.0
1001
ACAD
1000
MTEXTBEGIN
1070
    73
1070
     1
1070
    44
1040
1.0
1070
    74
1070
     0
1000
MTEXTEND
  0
POINT
  5
380
330
377
100
AcDbEntity
  8
DEFPOINTS
 62
     0
100
AcDbPoint
 10
-5.144793915370303
 20
16.07552392359524
 30
0.0
  0
POINT
  5
381
330
377
100
AcDbEntity
  8
DEFPOINTS
 62
     0
100
AcDbPoint
 10
-4.082293915370303
 20
16.07552392359524
 30
0.0
  0
POINT
  5
382
330
377
100
AcDbEntity
  8
DEFPOINTS
 62
     0
100
AcDbPoint
 10
-4.082293915370303
 20
15.9014102646498
 30
0.0
  0
ENDBLK
  5
383
330
377
100
AcDbEntity
  8
0
100
AcDbBlockEnd
  0
BLOCK
  5
3DA
330
3CF
100
AcDbEntity
  8
0
100
AcDbBlockBegin
  2
*D9
 70
     1
 10
0.0
 20
0.0
 30
0.0
  3
*D9
  1

  0
LINE
  5
3F6
330
3CF
100
AcDbEntity
  8
ADPDIM
 62
     0
370
    -2
100
AcDbLine
 10
-5.27083828320044
 20
15.85495284717427
 30
0.0
 11
-5.27083828320044
 21
15.34255052821279
 31
0.0
  0
LINE
  5
3F7
330
3CF
100
AcDbEntity
  8
ADPDIM
 62
     0
370
    -2
100
AcDbLine
 10
-3.957838283200445
 20
15.85495284717427
 30
0.0
 11
-3.957838283200445
 21
15.34255052821279
 31
0.0
  0
LINE
  5
3F8
330
3CF
100
AcDbEntity
  8
ADPDIM
 62
     0
370
    -2
100
AcDbLine
 10
-5.27083828320044
 20
15.52255052821278
 30
0.0
 11
-5.069827582079177
 21
15.52255052821278
 31
0.0
  0
LINE
  5
3F9
330
3CF
100
AcDbEntity
  8
ADPDIM
 62
     0
370
    -2
100
AcDbLine
 10
-3.957838283200445
 20
15.52255052821278
 30
0.0
 11
-4.194827582079177
 21
15.52255052821278
 31
0.0
  0
LINE
  5
3FA
330
3CF
100
AcDbEntity
  8
ADPDIM
 62
     0
370
    -2
100
AcDbLine
 10
-4.082838283200445
 20
15.39755052821278
 30
0.0
 11
-3.832838283200445
 21
15.64755052821278
 31
0.0
  0
LINE
  5
3FB
330
3CF
100
AcDbEntity
  8
ADPDIM
 62
     0
370
    -2
100
AcDbLine
 10
-5.39583828320044
 20
15.39755052821278
 30
0.0
 11
-5.14583828320044
 21
15.64755052821278
 31
0.0
  0
MTEXT
  5
3FC
330
3CF
100
AcDbEntity
  8
ADPDIM
 62
     0
100
AcDbMText
 10
-4.632327582079177
 20
15.52255052821278
 30
0.0
 40
0.125
 41
0.0
 71
     5
 72
     1
  1
\A1;1 5/16
 73
     1
 44
1.0
1001
ACAD
1000
MTEXTBEGIN
1070
    73
1070
     1
1070
    44
1040
1.0
1070
    74
1070
     0
1000
MTEXTEND
  0
POINT
  5
3FD
330
3CF
100
AcDbEntity
  8
DEFPOINTS
 62
     0
100
AcDbPoint
 10
-5.27083828320044
 20
15.91745284717427
 30
0.0
  0
POINT
  5
3FE
330
3CF
100
AcDbEntity
  8
DEFPOINTS
 62
     0
100
AcDbPoint
 10
-3.957838283200445
 20
15.91745284717427
 30
0.0
  0
POINT
  5
3FF
330
3CF
100
AcDbEntity
  8
DEFPOINTS
 62
     0
100
AcDbPoint
 10
-3.957838283200445
 20
15.52255052821278
 30
0.0
  0
ENDBLK
  5
3DB
330
3CF
100
AcDbEntity
  8
0
100
AcDbBlockEnd
  0
BLOCK
  5
3E7
330
3DC
100
AcDbEntity
  8
0
100
AcDbBlockBegin
  2
*D10
 70
     1
 10
0.0
 20
0.0
 30
0.0
  3
*D10
  1

  0
LINE
  5
400
330
3DC
100
AcDbEntity
  8
ADPDIM
 62
     0
370
    -2
100
AcDbLine
 10
-5.575765814062059
 20
16.35863753669646
 30
0.0
 11
-5.575765814062059
 21
17.00967807620419
 31
0.0
  0
LINE
  5
401
330
3DC
100
AcDbEntity
  8
ADPDIM
 62
     0
370
    -2
100
AcDbLine
 10
-3.638265814062059
 20
16.35863753669646
 30
0.0
 11
-3.638265814062059
 21
17.00967807620419
 31
0.0
  0
LINE
  5
402
330
3DC
100
AcDbEntity
  8
ADPDIM
 62
     0
370
    -2
100
AcDbLine
 10
-5.395765814062059
 20
16.82967807620419
 30
0.0
 11
-5.117015814062058
 21
16.82967807620419
 31
0.0
  0
LINE
  5
403
330
3DC
100
AcDbEntity
  8
ADPDIM
 62
     0
370
    -2
100
AcDbLine
 10
-3.818265814062059
 20
16.82967807620419
 30
0.0
 11
-4.097015814062059
 21
16.82967807620419
 31
0.0
  0
SOLID
  5
404
330
3DC
100
AcDbEntity
  8
ADPDIM
 62
     0
100
AcDbTrace
 10
-5.395765814062059
 20
16.8596780762042
 30
0.0
 11
-5.395765814062059
 21
16.79967807620419
 31
0.0
 12
-5.575765814062059
 22
16.82967807620419
 32
0.0
 13
-5.575765814062059
 23
16.82967807620419
 33
0.0
  0
SOLID
  5
405
330
3DC
100
AcDbEntity
  8
ADPDIM
 62
     0
100
AcDbTrace
 10
-3.818265814062059
 20
16.8596780762042
 30
0.0
 11
-3.818265814062059
 21
16.79967807620419
 31
0.0
 12
-3.638265814062059
 22
16.82967807620419
 32
0.0
 13
-3.638265814062059
 23
16.82967807620419
 33
0.0
  0
MTEXT
  5
406
330
3DC
100
AcDbEntity
  8
ADPDIM
 62
     0
100
AcDbMText
 10
-4.607015814062059
 20
16.82967807620419
 30
0.0
 40
0.18
 41
0.0
 71
     5
 72
     1
  1
\A1;1.9375
 73
     1
 44
1.0
1001
ACAD
1000
MTEXTBEGIN
1070
    73
1070
     1
1070
    44
1040
1.0
1070
    74
1070
     0
1000
MTEXTEND
  0
POINT
  5
407
330
3DC
100
AcDbEntity
  8
DEFPOINTS
 62
     0
100
AcDbPoint
 10
-5.575765814062059
 20
16.29613753669646
 30
0.0
  0
POINT
  5
408
330
3DC
100
AcDbEntity
  8
DEFPOINTS
 62
     0
100
AcDbPoint
 10
-3.638265814062059
 20
16.29613753669646
 30
0.0
  0
POINT
  5
409
330
3DC
100
AcDbEntity
  8
DEFPOINTS
 62
     0
100
AcDbPoint
 10
-3.638265814062059
 20
16.82967807620419
 30
0.0
  0
ENDBLK
  5
3E8
330
3DC
100
AcDbEntity
  8
0
100
AcDbBlockEnd
  0
BLOCK
  5
3F4
330
3E9
100
AcDbEntity
  8
0
100
AcDbBlockBegin
  2
*D11
 70
     1
 10
0.0
 20
0.0
 30
0.0
  3
*D11
  1

  0
LINE
  5
40A
330
3E9
100
AcDbEntity
  8
ADPDIM
 62
     0
370
    -2
100
AcDbLine
 10
-5.149684407336128
 20
16.02748059903224
 30
0.0
 11
-5.149684407336128
 21
15.7358669400868
 31
0.0
  0
LINE
  5
40B
330
3E9
100
AcDbEntity
  8
ADPDIM
 62
     0
370
    -2
100
AcDbLine
 10
-4.087184407336128
 20
16.02748059903224
 30
0.0
 11
-4.087184407336128
 21
15.7358669400868
 31
0.0
  0
LINE
  5
40C
330
3E9
100
AcDbEntity
  8
ADPDIM
 62
     0
370
    -2
100
AcDbLine
 10
-5.149684407336128
 20
15.9158669400868
 30
0.0
 11
-5.035101074002795
 21
15.9158669400868
 31
0.0
  0
LINE
  5
40D
330
3E9
100
AcDbEntity
  8
ADPDIM
 62
     0
370
    -2
100
AcDbLine
 10
-4.087184407336128
 20
15.9158669400868
 30
0.0
 11
-4.201767740669461
 21
15.9158669400868
 31
0.0
  0
LINE
  5
40E
330
3E9
100
AcDbEntity
  8
ADPDIM
 62
     0
370
    -2
100
AcDbLine
 10
-4.212184407336128
 20
15.7908669400868
 30
0.0
 11
-3.962184407336128
 21
16.0408669400868
 31
0.0
  0
LINE
  5
40F
330
3E9
100
AcDbEntity
  8
ADPDIM
 62
     0
370
    -2
100
AcDbLine
 10
-5.274684407336128
 20
15.7908669400868
 30
0.0
 11
-5.024684407336128
 21
16.0408669400868
 31
0.0
  0
MTEXT
  5
410
330
3E9
100
AcDbEntity
  8
ADPDIM
 62
     0
100
AcDbMText
 10
-4.618434407336128
 20
15.9158669400868
 30
0.0
 40
0.125
 41
0.0
 71
     5
 72
     1
  1
\A1;1 1/16
 73
     1
 44
1.0
1001
ACAD
1000
MTEXTBEGIN
1070
    73
1070
     1
1070
    44
1040
1.0
1070
    74
1070
     0
1000
MTEXTEND
  0
POINT
  5
411
330
3E9
100
AcDbEntity
  8
DEFPOINTS
 62
     0
100
AcDbPoint
 10
-5.149684407336128
 20
16.08998059903224
 30
0.0
  0
POINT
  5
412
330
3E9
100
AcDbEntity
  8
DEFPOINTS
 62
     0
100
AcDbPoint
 10
-4.087184407336128
 20
16.08998059903224
 30
0.0
  0
POINT
  5
413
330
3E9
100
AcDbEntity
  8
DEFPOINTS
 62
     0
100
AcDbPoint
 10
-4.087184407336128
 20
15.9158669400868
 30
0.0
  0
ENDBLK
  5
3F5
330
3E9
100
AcDbEntity
  8
0
100
AcDbBlockEnd
  0
ENDSEC
  0
SECTION
  2
ENTITIES
  0
LINE
  5
19A
330
1E
100
AcDbEntity
  8
ADP3DETAIL
  6
HIDDEN2
100
AcDbLine
 10
1.101173909259586
 20
22.64013765206088
 30
0.0
 11
-2.109447791234615
 21
22.64013765206088
 31
0.0
  0
DIMENSION
  5
19B
330
1E
100
AcDbEntity
  8
ADPDIM
100
AcDbDimension
  2
*D3
 10
-2.109447791234615
 20
20.14013765206088
 30
0.0
 11
-1.783231413245091
 21
19.81539758000733
 31
0.0
 70
     4
 71
     5
 42
-1.0
100
AcDbRadialDimension
 15
-3.88121931132585
 25
21.90389094563502
 35
0.0
 40
-2.501963570486308
  0
LINE
  5
19C
330
1E
100
AcDbEntity
  8
ADP1DETAIL
100
AcDbLine
 10
-2.109447791234615
 20
23.60888765206089
 30
0.0
 11
0.390552208765385
 21
23.60888765206089
 31
0.0
  0
LINE
  5
19D
330
1E
100
AcDbEntity
  8
ADP1DETAIL
100
AcDbLine
 10
-2.109447791234615
 20
23.35849217153548
 30
0.0
 11
0.390552208765385
 21
23.35849217153548
 31
0.0
  0
LINE
  5
19E
330
1E
100
AcDbEntity
  8
ADP1DETAIL
100
AcDbLine
 10
0.390552208765385
 20
21.67138765206089
 30
0.0
 11
-2.109447791234615
 21
21.67138765206089
 31
0.0
  0
LINE
  5
19F
330
1E
100
AcDbEntity
  8
ADP1DETAIL
100
AcDbLine
 10
0.390552208765385
 20
21.92178313258629
 30
0.0
 11
-2.109447791234615
 21
21.92178313258629
 31
0.0
  0
DIMENSION
  5
1A0
330
1E
100
AcDbEntity
  8
ADPDIM
100
AcDbDimension
  2
*D4
 10
-3.633375322096235
 20
16.80468491484248
 30
0.0
 11
-4.602125322096235
 21
16.8152214007672
 31
0.0
 70
   128
 71
     5
 42
-1.0
100
AcDbAlignedDimension
 13
-5.570875322096235
 23
16.28168086125947
 33
0.0
 14
-3.633375322096235
 24
16.28168086125947
 34
0.0
100
AcDbRotatedDimension
  0
ARC
  5
1A3
330
1E
100
AcDbEntity
  8
ADP3DETAIL
  6
HIDDEN2
100
AcDbCircle
 10
-2.109447791234615
 20
20.14013765206088
 30
0.0
 40
2.5
100
AcDbArc
 50
90.0
 51
180.0
  0
ARC
  5
1A4
330
1E
100
AcDbEntity
  8
ADP1DETAIL
100
AcDbCircle
 10
-2.109447791234615
 20
20.14013765206088
 30
0.0
 40
1.53125
100
AcDbArc
 50
90.0
 51
180.0
  0
ARC
  5
1A5
330
1E
100
AcDbEntity
  8
ADP1DETAIL
100
AcDbCircle
 10
-2.109447791234615
 20
20.14013765206088
 30
0.0
 40
1.781645480525407
100
AcDbArc
 50
90.0
 51
180.0
  0
ARC
  5
1A6
330
1E
100
AcDbEntity
  8
ADP1DETAIL
100
AcDbCircle
 10
-2.109447791234615
 20
20.14013765206088
 30
0.0
 40
3.46875
100
AcDbArc
 50
90.0
 51
180.0
  0
ARC
  5
1A7
330
1E
100
AcDbEntity
  8
ADP1DETAIL
100
AcDbCircle
 10
-2.109447791234615
 20
20.14013765206088
 30
0.0
 40
3.218354519474592
100
AcDbArc
 50
90.0
 51
180.0
  0
LINE
  5
1A8
330
1E
100
AcDbEntity
  8
ADP1DETAIL
100
AcDbLine
 10
-3.640697791234618
 20
17.64013765206088
 30
0.0
 11
-5.578197791234618
 21
17.64013765206088
 31
0.0
  0
LINE
  5
1A9
330
1E
100
AcDbEntity
  8
ADP3DETAIL
  6
HIDDEN2
100
AcDbLine
 10
-4.609447791234618
 20
17.30883235932204
 30
0.0
 11
-4.609447791234615
 21
20.14013765206088
 31
0.0
  0
LINE
  5
1AA
330
1E
100
AcDbEntity
  8
ADP1DETAIL
100
AcDbLine
 10
-5.578197791234618
 20
17.64013765206088
 30
0.0
 11
-5.578197791234616
 21
20.14013765206088
 31
0.0
  0
LINE
  5
1AB
330
1E
100
AcDbEntity
  8
ADP1DETAIL
100
AcDbLine
 10
-5.327802310709211
 20
17.64013765206088
 30
0.0
 11
-5.327802310709209
 21
20.14013765206088
 31
0.0
  0
DIMENSION
  5
1AC
330
1E
100
AcDbEntity
  8
ADPDIM
100
AcDbDimension
  2
*D2
 10
-2.755801736919373
 20
17.64013765206088
 30
0.0
 11
-2.755801736919373
 21
18.88944500127841
 31
0.0
 71
     5
 42
-1.0
100
AcDbAlignedDimension
 13
-2.108056191928483
 23
20.13875235049593
 33
0.0
 14
-3.734447791234618
 24
17.64013765206088
 34
0.0
 50
90.0
100
AcDbRotatedDimension
  0
LINE
  5
1AD
330
1E
100
AcDbEntity
  8
ADP1DETAIL
100
AcDbLine
 10
-3.640697791234616
 20
20.14013765206088
 30
0.0
 11
-3.640697791234618
 21
17.64013765206088
 31
0.0
  0
LINE
  5
1AE
330
1E
100
AcDbEntity
  8
ADP1DETAIL
100
AcDbLine
 10
-3.891093271760023
 20
20.14013765206088
 30
0.0
 11
-3.891093271760025
 21
17.64013765206088
 31
0.0
  0
LINE
  5
1AF
330
1E
100
AcDbEntity
  8
ADP1DETAIL
100
AcDbLine
 10
0.390552208765385
 20
23.60022614419994
 30
0.0
 11
0.390552208765385
 21
21.67138765206089
 31
0.0
  0
TEXT
  5
1B3
330
1E
100
AcDbEntity
  8
ADPDIM
100
AcDbText
 10
-12.16511241223781
 20
14.67311049191988
 30
0.0
 40
0.1875
  1
J U L I U S  B L U M  &  C O . ,  I N C .      ( 8 0 0 )  5 2 6 - 6 2 9 3        W W W . J U L I U S B L U M . C O M        P A R T  N o .  5 5 3 4 - C
 41
1.25
  7
ARIAL_WIDE
 72
     1
 11
-2.112807031951319
 21
14.86061049191988
 31
0.0
100
AcDbText
 73
     3
  0
ARC
  5
3AC
330
1E
100
AcDbEntity
  8
0
100
AcDbCircle
 10
-3.896496988264962
 20
17.20096446266746
 30
0.0
 40
0.75
100
AcDbArc
 50
237.1983482620581
 51
268.8764813422996
  0
LINE
  5
3AD
330
1E
100
AcDbEntity
  8
0
100
AcDbLine
 10
-4.083338283200443
 20
16.27416751330255
 30
0.0
 11
-4.615496988264961
 21
16.27416751330255
 31
0.0
  0
DIMENSION
  5
3AE
330
1E
100
AcDbEntity
  8
ADPDIM
100
AcDbDimension
  2
*D9
 10
-3.957838283200445
 20
15.52255052821278
 30
0.0
 11
-4.632327582079177
 21
15.52255052821278
 31
0.0
 70
   160
 71
     5
 42
1.312999999999995
  3
Standard
100
AcDbAlignedDimension
 13
-5.27083828320044
 23
15.91745284717427
 33
0.0
 14
-3.957838283200445
 24
15.91745284717427
 34
0.0
100
AcDbRotatedDimension
1001
ACAD
1000
DSTYLE
1002
{
1070
   276
1070
     2
1070
   277
1070
     5
1070
    41
1040
0.125
1070
    73
1070
     0
1070
    74
1070
     0
1070
    78
1070
     3
1070
   140
1040
0.125
1070
   141
1040
0.1875
1070
   142
1040
0.125
1070
   147
1040
0.125
1070
   171
1070
     1
1002
}
  0
ARC
  5
3B0
330
1E
100
AcDbEntity
  8
0
100
AcDbCircle
 10
-5.332179578135921
 20
17.20096446266746
 30
0.0
 40
0.7499999999999969
100
AcDbArc
 50
271.1235186577002
 51
302.801651737942
  0
LINE
  5
3B1
330
1E
100
AcDbEntity
  8
0
100
AcDbLine
 10
-5.255838283200443
 20
16.08616751330255
 30
0.0
 11
-5.160338283200442
 21
16.08616751330255
 31
0.0
  0
LINE
  5
3B2
330
1E
100
AcDbEntity
  8
0
100
AcDbLine
 10
-5.270838283200442
 20
15.91745284717427
 30
0.0
 11
-5.270838283200443
 21
16.07116751330255
 31
0.0
  0
ARC
  5
3B3
330
1E
100
AcDbEntity
  8
0
100
AcDbCircle
 10
-5.620073796538692
 20
15.90949174150298
 30
0.0
 40
0.2196970135271751
100
AcDbArc
 50
358.1639806528344
 51
66.74166570965848
  0
ARC
  5
3B4
330
1E
100
AcDbEntity
  8
0
100
AcDbCircle
 10
-5.28583828320044
 20
15.91745284717427
 30
0.0
 40
0.015
100
AcDbArc
 50
270.0
 51
0.0000000000003053
  0
LINE
  5
3B5
330
1E
100
AcDbEntity
  8
0
100
AcDbLine
 10
-5.40048957187902
 20
15.90245284717427
 30
0.0
 11
-5.28583828320044
 21
15.90245284717427
 31
0.0
  0
LINE
  5
3B6
330
1E
100
AcDbEntity
  8
0
100
AcDbLine
 10
-5.332179578135923
 20
16.40039848596411
 30
0.0
 11
-5.332179578135923
 21
16.43611153562854
 31
0.0
  0
ARC
  5
3B7
330
1E
100
AcDbEntity
  8
0
100
AcDbCircle
 10
-5.317179578135924
 20
16.43611153562854
 30
0.0
 40
0.015
100
AcDbArc
 50
91.1235186577027
 51
180.0
  0
ARC
  5
3B8
330
1E
100
AcDbEntity
  8
0
100
AcDbCircle
 10
-5.347179578135921
 20
16.40039848596411
 30
0.0
 40
0.015
100
AcDbArc
 50
270.0
 51
0.0
  0
LINE
  5
3B9
330
1E
100
AcDbEntity
  8
0
100
AcDbLine
 10
-5.347179578135921
 20
16.38539848596411
 30
0.0
 11
-5.40847521336612
 21
16.38539848596411
 31
0.0
  0
ARC
  5
3BA
330
1E
100
AcDbEntity
  8
0
100
AcDbCircle
 10
-5.255838283200443
 20
16.07116751330255
 30
0.0
 40
0.015
100
AcDbArc
 50
90.0
 51
180.0
  0
ARC
  5
3BB
330
1E
100
AcDbEntity
  8
0
100
AcDbCircle
 10
-5.433801529534484
 20
16.23146805456947
 30
0.0
 40
0.1559999999999998
100
AcDbArc
 50
80.65678061822479
 51
230.3615138867188
  0
LINE
  5
3BC
330
1E
100
AcDbEntity
  8
0
100
AcDbLine
 10
-5.145338283200441
 20
16.27416751330255
 30
0.0
 11
-4.613179578135923
 21
16.27416751330255
 31
0.0
  0
ARC
  5
3BD
330
1E
100
AcDbEntity
  8
0
100
AcDbCircle
 10
-4.61317957813592
 20
15.88884872747333
 30
0.0
 40
0.7499999999999986
100
AcDbArc
 50
90.08851858174336
 51
114.6411830056756
  0
ARC
  5
3BE
330
1E
100
AcDbEntity
  8
0
100
AcDbCircle
 10
-5.160338283200442
 20
16.10116751330255
 30
0.0
 40
0.015
100
AcDbArc
 50
270.0
 51
0.0
  0
LINE
  5
3BF
330
1E
100
AcDbEntity
  8
0
100
AcDbLine
 10
-5.145338283200443
 20
16.10116751330255
 30
0.0
 11
-5.145338283200441
 21
16.27416751330255
 31
0.0
  0
ARC
  5
3C0
330
1E
100
AcDbEntity
  8
0
100
AcDbCircle
 10
-4.615496988264965
 20
15.88884872747333
 30
0.0
 40
0.7500000000000019
100
AcDbArc
 50
65.35881699432443
 51
89.91148141825668
  0
ARC
  5
3C1
330
1E
100
AcDbEntity
  8
0
100
AcDbCircle
 10
-3.608602769862187
 20
15.90949174150297
 30
0.0
 40
0.2196970135271803
100
AcDbArc
 50
113.2583342903419
 51
181.8360193471644
  0
LINE
  5
3C2
330
1E
100
AcDbEntity
  8
0
100
AcDbLine
 10
-3.957838283200443
 20
15.91745284717427
 30
0.0
 11
-3.957838283200441
 21
16.07116751330255
 31
0.0
  0
LINE
  5
3C3
330
1E
100
AcDbEntity
  8
0
100
AcDbLine
 10
-3.828186994521864
 20
15.90245284717427
 30
0.0
 11
-3.942838283200444
 21
15.90245284717427
 31
0.0
  0
ARC
  5
3C4
330
1E
100
AcDbEntity
  8
0
100
AcDbCircle
 10
-3.942838283200444
 20
15.91745284717427
 30
0.0
 40
0.015
100
AcDbArc
 50
179.9999999999997
 51
270.0
  0
LINE
  5
3C5
330
1E
100
AcDbEntity
  8
0
100
AcDbLine
 10
-3.881496988264963
 20
16.38539848596411
 30
0.0
 11
-3.820201353034764
 21
16.38539848596411
 31
0.0
  0
LINE
  5
3C6
330
1E
100
AcDbEntity
  8
0
100
AcDbLine
 10
-3.896496988264962
 20
16.40039848596411
 30
0.0
 11
-3.896496988264962
 21
16.43611153562854
 31
0.0
  0
ARC
  5
3C7
330
1E
100
AcDbEntity
  8
0
100
AcDbCircle
 10
-3.881496988264963
 20
16.40039848596411
 30
0.0
 40
0.015
100
AcDbArc
 50
180.0
 51
270.0
  0
ARC
  5
3C8
330
1E
100
AcDbEntity
  8
0
100
AcDbCircle
 10
-3.911496988264961
 20
16.43611153562854
 30
0.0
 40
0.015
100
AcDbArc
 50
0.0
 51
88.87648134229729
  0
LINE
  5
3C9
330
1E
100
AcDbEntity
  8
0
100
AcDbLine
 10
-3.972838283200442
 20
16.08616751330255
 30
0.0
 11
-4.068338283200443
 21
16.08616751330255
 31
0.0
  0
ARC
  5
3CA
330
1E
100
AcDbEntity
  8
0
100
AcDbCircle
 10
-4.068338283200443
 20
16.10116751330255
 30
0.0
 40
0.015
100
AcDbArc
 50
180.0
 51
270.0
  0
ARC
  5
3CB
330
1E
100
AcDbEntity
  8
0
100
AcDbCircle
 10
-3.972838283200442
 20
16.07116751330255
 30
0.0
 40
0.015
100
AcDbArc
 50
0.0
 51
90.0
  0
ARC
  5
3CC
330
1E
100
AcDbEntity
  8
0
100
AcDbCircle
 10
-3.794875036866399
 20
16.23146805456947
 30
0.0
 40
0.1559999999999996
100
AcDbArc
 50
309.6384861132801
 51
99.34321938177591
  0
LINE
  5
3CD
330
1E
100
AcDbEntity
  8
0
100
AcDbLine
 10
-4.083338283200442
 20
16.10116751330255
 30
0.0
 11
-4.083338283200443
 21
16.27416751330255
 31
0.0
  0
DIMENSION
  5
3CE
330
1E
100
AcDbEntity
  8
ADPDIM
100
AcDbDimension
  2
*D11
 10
-4.087184407336128
 20
15.9158669400868
 30
0.0
 11
-4.618434407336128
 21
15.9158669400868
 31
0.0
 70
   160
 71
     5
 42
1.0625
  3
Standard
100
AcDbAlignedDimension
 13
-5.149684407336128
 23
16.08998059903224
 33
0.0
 14
-4.087184407336128
 24
16.08998059903224
 34
0.0
100
AcDbRotatedDimension
1001
ACAD
1000
DSTYLE
1002
{
1070
   276
1070
     2
1070
   277
1070
     5
1070
    41
1040
0.125
1070
    73
1070
     0
1070
    74
1070
     0
1070
    78
1070
     3
1070
   140
1040
0.125
1070
   141
1040
0.1875
1070
   142
1040
0.125
1070
   147
1040
0.125
1070
   171
1070
     1
1002
}
  0
ENDSEC
  0
SECTION
  2
OBJECTS
  0
DICTIONARY
  5
C
330
0
100
AcDbDictionary
281
     1
  3
ACAD_COLOR
350
357
  3
ACAD_GROUP
350
D
  3
ACAD_LAYOUT
350
19
  3
ACAD_MATERIAL
350
342
  3
ACAD_MLINESTYLE
350
16
  3
ACAD_PLOTSETTINGS
350
18
  3
ACAD_PLOTSTYLENAME
350
E
  3
ACAD_TABLESTYLE
350
358
  3
ACAD_VISUALSTYLE
350
346
  3
AcDbVariableDictionary
350
224
  3
DWGPROPS
350
433
  0
DICTIONARY
  5
1EF
330
1E
100
AcDbDictionary
280
     1
281
     1
  3
ACAD_LAYOUTSELFREF
360
33E
  0
DICTIONARY
  5
1F1
330
1A
100
AcDbDictionary
280
     1
281
     1
  3
ACAD_LAYOUTSELFREF
360
33D
  0
DICTIONARY
  5
357
102
{ACAD_REACTORS
330
C
102
}
330
C
100
AcDbDictionary
281
     1
  0
DICTIONARY
  5
D
102
{ACAD_REACTORS
330
C
102
}
330
C
100
AcDbDictionary
281
     1
  0
DICTIONARY
  5
19
102
{ACAD_REACTORS
330
C
102
}
330
C
100
AcDbDictionary
281
     1
  3
Layout1
350
1D
  3
Model
350
21
  0
DICTIONARY
  5
342
102
{ACAD_REACTORS
330
C
102
}
330
C
100
AcDbDictionary
281
     1
  3
ByBlock
350
344
  3
ByLayer
350
343
  3
Global
350
345
  0
DICTIONARY
  5
16
102
{ACAD_REACTORS
330
C
102
}
330
C
100
AcDbDictionary
281
     1
  3
Standard
350
17
  0
DICTIONARY
  5
18
102
{ACAD_REACTORS
330
C
102
}
330
C
100
AcDbDictionary
281
     1
  0
ACDBDICTIONARYWDFLT
  5
E
102
{ACAD_REACTORS
330
C
102
}
330
C
100
AcDbDictionary
281
     1
  3
Normal
350
F
100
AcDbDictionaryWithDefault
340
F
  0
DICTIONARY
  5
358
102
{ACAD_REACTORS
330
C
102
}
330
C
100
AcDbDictionary
281
     1
  3
Standard
350
359
  0
DICTIONARY
  5
346
102
{ACAD_REACTORS
330
C
102
}
330
C
100
AcDbDictionary
281
     1
  3
2dWireframe
350
34C
  3
3D Hidden
350
34E
  3
3dWireframe
350
34D
  3
Basic
350
34B
  3
Brighten
350
352
  3
ColorChange
350
356
  3
Conceptual
350
34F
  3
Dim
350
351
  3
Facepattern
350
355
  3
Flat
350
347
  3
FlatWithEdges
350
348
  3
Gouraud
350
349
  3
GouraudWithEdges
350
34A
  3
Linepattern
350
354
  3
Realistic
350
350
  3
Thicken
350
353
  0
DICTIONARY
  5
224
102
{ACAD_REACTORS
330
C
102
}
330
C
100
AcDbDictionary
281
     1
  3
CTABLESTYLE
350
430
  3
DIMASSOC
350
226
  3
HIDETEXT
350
225
  3
INDEXCTL
350
432
  3
SORTENTS
350
431
  0
XRECORD
  5
433
102
{ACAD_REACTORS
330
C
102
}
330
C
100
AcDbXrecord
280
     1
  1
DWGPROPS COOKIE
  2

  3

  4

  6

  7

  8
Yu Hu
  9

300
=
301
=
302
=
303
=
304
=
305
=
306
=
307
=
308
=
309
=
 40
0.0531482407407407
 41
2450406.656284525
 42
2453961.988326516
  1

 90
        0
  0
XRECORD
  5
33E
102
{ACAD_REACTORS
330
1EF
102
}
330
1EF
100
AcDbXrecord
280
     1
340
1E
  0
XRECORD
  5
33D
102
{ACAD_REACTORS
330
1F1
102
}
330
1F1
100
AcDbXrecord
280
     1
340
1A
  0
LAYOUT
  5
1D
102
{ACAD_XDICTIONARY
360
434
102
}
102
{ACAD_REACTORS
330
19
102
}
330
19
100
AcDbPlotSettings
  1

  2
Fax
  4

  6

 40
0.0
 41
0.0
 42
0.0
 43
0.0
 44
0.0
 45
0.0
 46
0.0
 47
0.0
 48
0.0
 49
0.0
140
0.0
141
0.0
142
1.0
143
1.0
 70
   688
 72
     0
 73
     0
 74
     5
  7
Default R14 pen assignments.ctb
 75
    16
147
1.0
148
0.0
149
0.0
100
AcDbLayout
  1
Layout1
 70
     1
 71
     1
 10
0.0
 20
0.0
 11
12.0
 21
9.0
 12
0.0008545028977096
 22
1.250283272183907
 32
0.0
 14
1.000000000000000E+20
 24
1.000000000000000E+20
 34
1.000000000000000E+20
 15
-1.000000000000000E+20
 25
-1.000000000000000E+20
 35
-1.000000000000000E+20
146
0.0
 13
0.0
 23
0.0
 33
0.0
 16
1.0
 26
0.0
 36
0.0
 17
0.0
 27
1.0
 37
0.0
 76
     0
330
1A
  0
LAYOUT
  5
21
102
{ACAD_XDICTIONARY
360
436
102
}
102
{ACAD_REACTORS
330
19
102
}
330
19
100
AcDbPlotSettings
  1

  2
Fax
  4

  6

 40
0.0
 41
0.0
 42
0.0
 43
0.0
 44
0.0
 45
0.0
 46
0.0
 47
0.0
 48
0.0
 49
0.0
140
0.0
141
0.0
142
1.0
143
1.0
 70
  1712
 72
     0
 73
     0
 74
     0
  7
Default R14 pen assignments.ctb
 75
     0
147
1.0
148
0.0
149
0.0
100
AcDbLayout
  1
Model
 70
     1
 71
     0
 10
0.0
 20
0.0
 11
12.0
 21
9.0
 12
0.0
 22
0.0
 32
0.0
 14
0.0
 24
0.0
 34
0.0
 15
0.0
 25
0.0
 35
0.0
146
0.0
 13
0.0
 23
0.0
 33
0.0
 16
1.0
 26
0.0
 36
0.0
 17
0.0
 27
1.0
 37
0.0
 76
     0
330
1E
331
30B
  0
MATERIAL
  5
344
102
{ACAD_XDICTIONARY
360
43A
102
}
102
{ACAD_REACTORS
330
342
102
}
330
342
100
AcDbMaterial
  1
ByBlock
  0
MATERIAL
  5
343
102
{ACAD_XDICTIONARY
360
438
102
}
102
{ACAD_REACTORS
330
342
102
}
330
342
100
AcDbMaterial
  1
ByLayer
  0
MATERIAL
  5
345
102
{ACAD_XDICTIONARY
360
43C
102
}
102
{ACAD_REACTORS
330
342
102
}
330
342
100
AcDbMaterial
  1
Global
  0
MLINESTYLE
  5
17
102
{ACAD_REACTORS
330
16
102
}
330
16
100
AcDbMlineStyle
  2
STANDARD
 70
     0
  3

 62
   256
 51
90.0
 52
90.0
 71
     2
 49
0.5
 62
   256
  6
BYLAYER
 49
-0.5
 62
   256
  6
BYLAYER
  0
ACDBPLACEHOLDER
  5
F
102
{ACAD_REACTORS
330
E
102
}
330
E
  0
TABLESTYLE
  5
359
102
{ACAD_XDICTIONARY
360
43E
102
}
102
{ACAD_REACTORS
330
358
102
}
330
358
100
AcDbTableStyle
  3
Standard
 70
     0
 71
     0
 40
0.06
 41
0.06
280
     0
281
     0
  7
STANDARD
140
0.18
170
     2
 62
     0
 63
     7
283
     0
274
    -2
284
     1
 64
     0
275
    -2
285
     1
 65
     0
276
    -2
286
     1
 66
     0
277
    -2
287
     1
 67
     0
278
    -2
288
     1
 68
     0
279
    -2
289
     1
 69
     0
  7
STANDARD
140
0.25
170
     5
 62
     0
 63
     7
283
     0
274
    -2
284
     1
 64
     0
275
    -2
285
     1
 65
     0
276
    -2
286
     1
 66
     0
277
    -2
287
     1
 67
     0
278
    -2
288
     1
 68
     0
279
    -2
289
     1
 69
     0
  7
STANDARD
140
0.18
170
     5
 62
     0
 63
     7
283
     0
274
    -2
284
     1
 64
     0
275
    -2
285
     1
 65
     0
276
    -2
286
     1
 66
     0
277
    -2
287
     1
 67
     0
278
    -2
288
     1
 68
     0
279
    -2
289
     1
 69
     0
  0
VISUALSTYLE
  5
34C
102
{ACAD_REACTORS
330
346
102
}
330
346
100
AcDbVisualStyle
  2
2dWireframe
 70
     4
 71
     0
 72
     2
 73
     0
 90
        0
 40
-0.6
 41
-30.0
 62
     5
 63
     7
 74
     1
 91
        4
 64
     7
 65
   257
 75
     1
175
     1
 42
1.0
 92
        0
 66
   257
 43
1.0
 76
     1
 77
     6
 78
     2
 67
     7
 79
     5
170
     0
171
     0
290
     0
174
     0
 93
        1
 44
0.0
173
     0
291
     0
 45
0.0
1001
ACAD
1000
AcDbSavedByObjectVersion
1070
     0
  0
VISUALSTYLE
  5
34E
102
{ACAD_REACTORS
330
346
102
}
330
346
100
AcDbVisualStyle
  2
3D Hidden
 70
     6
 71
     1
 72
     2
 73
     2
 90
        0
 40
-0.6
 41
-30.0
 62
     5
 63
     7
 74
     2
 91
        2
 64
     7
 65
   257
 75
     2
175
     1
 42
40.0
 92
        0
 66
   257
 43
1.0
 76
     1
 77
     6
 78
     2
 67
     7
 79
     3
170
     0
171
     0
290
     0
174
     0
 93
        1
 44
0.0
173
     0
291
     0
 45
0.0
1001
ACAD
1000
AcDbSavedByObjectVersion
1070
     0
  0
VISUALSTYLE
  5
34D
102
{ACAD_REACTORS
330
346
102
}
330
346
100
AcDbVisualStyle
  2
3dWireframe
 70
     5
 71
     0
 72
     2
 73
     0
 90
        0
 40
-0.6
 41
-30.0
 62
     5
 63
     7
 74
     1
 91
        4
 64
     7
 65
   257
 75
     1
175
     1
 42
1.0
 92
        0
 66
   257
 43
1.0
 76
     1
 77
     6
 78
     2
 67
     7
 79
     5
170
     0
171
     0
290
     0
174
     0
 93
        1
 44
0.0
173
     0
291
     0
 45
0.0
1001
ACAD
1000
AcDbSavedByObjectVersion
1070
     0
  0
VISUALSTYLE
  5
34B
102
{ACAD_REACTORS
330
346
102
}
330
346
100
AcDbVisualStyle
  2
Basic
 70
     7
 71
     1
 72
     0
 73
     1
 90
        0
 40
-0.6
 41
-30.0
 62
     5
 63
     7
 74
     0
 91
        4
 64
     7
 65
   257
 75
     1
175
     1
 42
1.0
 92
        8
 66
     7
 43
1.0
 76
     1
 77
     6
 78
     2
 67
     7
 79
     5
170
     0
171
     0
290
     0
174
     0
 93
        1
 44
0.0
173
     0
291
     1
 45
0.0
1001
ACAD
1000
AcDbSavedByObjectVersion
1070
     0
  0
VISUALSTYLE
  5
352
102
{ACAD_REACTORS
330
346
102
}
330
346
100
AcDbVisualStyle
  2
Brighten
 70
    12
 71
     2
 72
     2
 73
     0
 90
        0
 40
-0.6
 41
-30.0
 62
     5
 63
     7
 74
     1
 91
        4
 64
     7
 65
   257
 75
     1
175
     1
 42
1.0
 92
        8
 66
     7
 43
1.0
 76
     1
 77
     6
 78
     2
 67
     7
 79
     5
170
     0
171
     0
290
     0
174
     0
 93
        1
 44
50.0
173
     0
291
     1
 45
0.0
1001
ACAD
1000
AcDbSavedByObjectVersion
1070
     0
  0
VISUALSTYLE
  5
356
102
{ACAD_REACTORS
330
346
102
}
330
346
100
AcDbVisualStyle
  2
ColorChange
 70
    16
 71
     2
 72
     2
 73
     3
 90
        0
 40
-0.6
 41
-30.0
 62
     5
 63
     8
 74
     1
 91
        4
 64
     7
 65
   257
 75
     1
175
     1
 42
1.0
 92
        8
 66
     8
 43
1.0
 76
     1
 77
     6
 78
     2
 67
     7
 79
     5
170
     0
171
     0
290
     0
174
     0
 93
        1
 44
0.0
173
     0
291
     1
 45
0.0
1001
ACAD
1000
AcDbSavedByObjectVersion
1070
     0
  0
VISUALSTYLE
  5
34F
102
{ACAD_REACTORS
330
346
102
}
330
346
100
AcDbVisualStyle
  2
Conceptual
 70
     9
 71
     3
 72
     2
 73
     0
 90
        0
 40
-0.6
 41
-30.0
 62
     5
 63
     7
 74
     2
 91
        2
 64
     7
 65
   257
 75
     1
175
     1
 42
40.0
 92
        8
 66
     7
 43
1.0
 76
     1
 77
     6
 78
     2
 67
     7
 79
     3
170
     0
171
     0
290
     0
174
     0
 93
        1
 44
0.0
173
     0
291
     0
 45
0.0
1001
ACAD
1000
AcDbSavedByObjectVersion
1070
     0
  0
VISUALSTYLE
  5
351
102
{ACAD_REACTORS
330
346
102
}
330
346
100
AcDbVisualStyle
  2
Dim
 70
    11
 71
     2
 72
     2
 73
     0
 90
        0
 40
-0.6
 41
-30.0
 62
     5
 63
     7
 74
     1
 91
        4
 64
     7
 65
   257
 75
     1
175
     1
 42
1.0
 92
        8
 66
     7
 43
1.0
 76
     1
 77
     6
 78
     2
 67
     7
 79
     5
170
     0
171
     0
290
     0
174
     0
 93
        1
 44
-50.0
173
     0
291
     1
 45
0.0
1001
ACAD
1000
AcDbSavedByObjectVersion
1070
     0
  0
VISUALSTYLE
  5
355
102
{ACAD_REACTORS
330
346
102
}
330
346
100
AcDbVisualStyle
  2
Facepattern
 70
    15
 71
     2
 72
     2
 73
     0
 90
        0
 40
-0.6
 41
-30.0
 62
     5
 63
     7
 74
     1
 91
        4
 64
     7
 65
   257
 75
     1
175
     1
 42
1.0
 92
        8
 66
     7
 43
1.0
 76
     1
 77
     6
 78
     2
 67
     7
 79
     5
170
     0
171
     0
290
     0
174
     0
 93
        1
 44
0.0
173
     0
291
     1
 45
0.0
1001
ACAD
1000
AcDbSavedByObjectVersion
1070
     0
  0
VISUALSTYLE
  5
347
102
{ACAD_REACTORS
330
346
102
}
330
346
100
AcDbVisualStyle
  2
Flat
 70
     0
 71
     2
 72
     1
 73
     1
 90
        2
 40
-0.6
 41
30.0
 62
     5
 63
     7
 74
     0
 91
        4
 64
     7
 65
   257
 75
     1
175
     1
 42
1.0
 92
        8
 66
     7
 43
1.0
 76
     1
 77
     6
 78
     2
 67
     7
 79
     5
170
     0
171
     0
290
     0
174
     0
 93
       13
 44
0.0
173
     0
291
     1
 45
0.0
1001
ACAD
1000
AcDbSavedByObjectVersion
1070
     0
  0
VISUALSTYLE
  5
348
102
{ACAD_REACTORS
330
346
102
}
330
346
100
AcDbVisualStyle
  2
FlatWithEdges
 70
     1
 71
     2
 72
     1
 73
     1
 90
        2
 40
-0.6
 41
30.0
 62
     5
 63
     7
 74
     1
 91
        4
 64
     7
 65
   257
 75
     1
175
     1
 42
1.0
 92
        0
 66
   257
 43
1.0
 76
     1
 77
     6
 78
     2
 67
     7
 79
     5
170
     0
171
     0
290
     0
174
     0
 93
       13
 44
0.0
173
     0
291
     1
 45
0.0
1001
ACAD
1000
AcDbSavedByObjectVersion
1070
     0
  0
VISUALSTYLE
  5
349
102
{ACAD_REACTORS
330
346
102
}
330
346
100
AcDbVisualStyle
  2
Gouraud
 70
     2
 71
     2
 72
     2
 73
     1
 90
        2
 40
-0.6
 41
30.0
 62
     5
 63
     7
 74
     0
 91
        4
 64
     7
 65
   257
 75
     1
175
     1
 42
1.0
 92
        0
 66
     7
 43
1.0
 76
     1
 77
     6
 78
     2
 67
     7
 79
     5
170
     0
171
     0
290
     0
174
     0
 93
       13
 44
0.0
173
     0
291
     1
 45
0.0
1001
ACAD
1000
AcDbSavedByObjectVersion
1070
     0
  0
VISUALSTYLE
  5
34A
102
{ACAD_REACTORS
330
346
102
}
330
346
100
AcDbVisualStyle
  2
GouraudWithEdges
 70
     3
 71
     2
 72
     2
 73
     1
 90
        2
 40
-0.6
 41
30.0
 62
     5
 63
     7
 74
     1
 91
        4
 64
     7
 65
   257
 75
     1
175
     1
 42
1.0
 92
        0
 66
   257
 43
1.0
 76
     1
 77
     6
 78
     2
 67
     7
 79
     5
170
     0
171
     0
290
     0
174
     0
 93
       13
 44
0.0
173
     0
291
     1
 45
0.0
1001
ACAD
1000
AcDbSavedByObjectVersion
1070
     0
  0
VISUALSTYLE
  5
354
102
{ACAD_REACTORS
330
346
102
}
330
346
100
AcDbVisualStyle
  2
Linepattern
 70
    14
 71
     2
 72
     2
 73
     0
 90
        0
 40
-0.6
 41
-30.0
 62
     5
 63
     7
 74
     1
 91
        4
 64
     7
 65
   257
 75
     7
175
     7
 42
1.0
 92
        8
 66
     7
 43
1.0
 76
     1
 77
     6
 78
     2
 67
     7
 79
     5
170
     0
171
     0
290
     0
174
     0
 93
        1
 44
0.0
173
     0
291
     1
 45
0.0
1001
ACAD
1000
AcDbSavedByObjectVersion
1070
     0
  0
VISUALSTYLE
  5
350
102
{ACAD_REACTORS
330
346
102
}
330
346
100
AcDbVisualStyle
  2
Realistic
 70
     8
 71
     2
 72
     2
 73
     0
 90
        0
 40
-0.6
 41
-30.0
 62
     5
 63
     7
 74
     1
 91
        0
 64
     7
 65
   257
 75
     1
175
     1
 42
1.0
 92
        8
 66
     8
 43
1.0
 76
     1
 77
     6
 78
     2
 67
     7
 79
     5
170
     0
171
     0
290
     0
174
     0
 93
       13
 44
0.0
173
     0
291
     0
 45
0.0
1001
ACAD
1000
AcDbSavedByObjectVersion
1070
     0
  0
VISUALSTYLE
  5
353
102
{ACAD_REACTORS
330
346
102
}
330
346
100
AcDbVisualStyle
  2
Thicken
 70
    13
 71
     2
 72
     2
 73
     0
 90
        0
 40
-0.6
 41
-30.0
 62
     5
 63
     7
 74
     1
 91
        4
 64
     7
 65
   257
 75
     1
175
     1
 42
1.0
 92
       12
 66
     7
 43
1.0
 76
     1
 77
     6
 78
     2
 67
     7
 79
     5
170
     0
171
     0
290
     0
174
     0
 93
        1
 44
0.0
173
     0
291
     1
 45
0.0
1001
ACAD
1000
AcDbSavedByObjectVersion
1070
     0
  0
DICTIONARYVAR
  5
430
102
{ACAD_REACTORS
330
224
102
}
330
224
100
DictionaryVariables
280
     0
  1
STANDARD
  0
DICTIONARYVAR
  5
226
102
{ACAD_REACTORS
330
224
102
}
330
224
100
DictionaryVariables
280
     0
  1
2
  0
DICTIONARYVAR
  5
225
102
{ACAD_REACTORS
330
224
102
}
330
224
100
DictionaryVariables
280
     0
  1
1
  0
DICTIONARYVAR
  5
432
102
{ACAD_REACTORS
330
224
102
}
330
224
100
DictionaryVariables
280
     0
  1
0
  0
DICTIONARYVAR
  5
431
102
{ACAD_REACTORS
330
224
102
}
330
224
100
DictionaryVariables
280
     0
  1
127
  0
DICTIONARY
  5
434
330
1D
100
AcDbDictionary
280
     1
281
     1
  3
ACAD_XREC_ROUNDTRIP
360
435
  0
DICTIONARY
  5
436
330
21
100
AcDbDictionary
280
     1
281
     1
  3
ACAD_XREC_ROUNDTRIP
360
437
  0
DICTIONARY
  5
43A
330
344
100
AcDbDictionary
280
     1
281
     1
  3
ACAD_XREC_ROUNDTRIP
360
43B
  0
DICTIONARY
  5
438
330
343
100
AcDbDictionary
280
     1
281
     1
  3
ACAD_XREC_ROUNDTRIP
360
439
  0
DICTIONARY
  5
43C
330
345
100
AcDbDictionary
280
     1
281
     1
  3
ACAD_XREC_ROUNDTRIP
360
43D
  0
DICTIONARY
  5
43E
330
359
100
AcDbDictionary
280
     1
281
     1
  3
ACAD_XREC_ROUNDTRIP
360
43F
  0
XRECORD
  5
435
102
{ACAD_REACTORS
330
434
102
}
330
434
100
AcDbXrecord
280
     1
102
SHADEPLOT
 70
     0
102
SHADEPLOTRESLEVEL
 70
     2
102
SHADEPLOTCUSTOMDPI
 70
   300
  0
XRECORD
  5
437
102
{ACAD_REACTORS
330
436
102
}
330
436
100
AcDbXrecord
280
     1
102
SHADEPLOT
 70
     0
102
SHADEPLOTRESLEVEL
 70
     2
102
SHADEPLOTCUSTOMDPI
 70
   300
  0
XRECORD
  5
43B
102
{ACAD_REACTORS
330
43A
102
}
330
43A
100
AcDbXrecord
280
     1
102
MATERIAL
148
0.0
149
0.0
149
0.0
 93
        0
 94
       63
282
     0
 72
     1
 77
     1
171
     1
175
     1
179
     1
273
     0
  0
XRECORD
  5
439
102
{ACAD_REACTORS
330
438
102
}
330
438
100
AcDbXrecord
280
     1
102
MATERIAL
148
0.0
149
0.0
149
0.0
 93
        0
 94
       63
282
     0
 72
     1
 77
     1
171
     1
175
     1
179
     1
273
     0
  0
XRECORD
  5
43D
102
{ACAD_REACTORS
330
43C
102
}
330
43C
100
AcDbXrecord
280
     1
102
MATERIAL
148
0.0
149
0.0
149
0.0
 93
        0
 94
       63
282
     0
 72
     1
 77
     1
171
     1
175
     1
179
     1
273
     0
  0
XRECORD
  5
43F
102
{ACAD_REACTORS
330
43E
102
}
330
43E
100
AcDbXrecord
280
     1
102
ACAD_ROUNDTRIP_PRE2007_TABLESTYLE
 90
      512
 91
        0
  1

 92
      512
 93
        0
  2

 94
      512
 95
        0
  3

  0
ENDSEC
  0
EOF
