  0
SECTION
  2
HEADER
  9
$ACADVER
  1
AC1015
  9
$ACADMAINTVER
 70
    20
  9
$DWGCODEPAGE
  3
ANSI_1252
  9
$INSBASE
 10
-5.393759487641484
 20
9.506813522439298
 30
0.0
  9
$EXTMIN
 10
-10.41410070185517
 20
8.257338194621826
 30
0.0
  9
$EXTMAX
 10
2.988973138526816
 20
13.37142930348707
 30
0.0
  9
$LIMMIN
 10
0.0
 20
0.0
  9
$LIMMAX
 10
36.0
 20
36.0
  9
$ORTHOMODE
 70
     1
  9
$REGENMODE
 70
     1
  9
$FILLMODE
 70
     1
  9
$QTEXTMODE
 70
     0
  9
$MIRRTEXT
 70
     1
  9
$LTSCALE
 40
1.0
  9
$ATTMODE
 70
     1
  9
$TEXTSIZE
 40
0.2
  9
$TRACEWID
 40
0.05
  9
$TEXTSTYLE
  7
STANDARD
  9
$CLAYER
  8
ADP1DETAIL
  9
$CELTYPE
  6
CONTINUOUS
  9
$CECOLOR
 62
   256
  9
$CELTSCALE
 40
1.0
  9
$DISPSILH
 70
     0
  9
$DIMSCALE
 40
1.0
  9
$DIMASZ
 40
0.125
  9
$DIMEXO
 40
0.0625
  9
$DIMDLI
 40
0.38
  9
$DIMRND
 40
0.0
  9
$DIMDLE
 40
0.0
  9
$DIMEXE
 40
0.18
  9
$DIMTP
 40
0.0
  9
$DIMTM
 40
0.0
  9
$DIMTXT
 40
0.125
  9
$DIMCEN
 40
0.1875
  9
$DIMTSZ
 40
0.125
  9
$DIMTOL
 70
     0
  9
$DIMLIM
 70
     0
  9
$DIMTIH
 70
     0
  9
$DIMTOH
 70
     0
  9
$DIMSE1
 70
     0
  9
$DIMSE2
 70
     0
  9
$DIMTAD
 70
     0
  9
$DIMZIN
 70
     2
  9
$DIMBLK
  1

  9
$DIMASO
 70
     1
  9
$DIMSHO
 70
     1
  9
$DIMPOST
  1

  9
$DIMAPOST
  1

  9
$DIMALT
 70
     0
  9
$DIMALTD
 70
     1
  9
$DIMALTF
 40
25.4
  9
$DIMLFAC
 40
1.0
  9
$DIMTOFL
 70
     0
  9
$DIMTVP
 40
0.0
  9
$DIMTIX
 70
     0
  9
$DIMSOXD
 70
     0
  9
$DIMSAH
 70
     0
  9
$DIMBLK1
  1

  9
$DIMBLK2
  1

  9
$DIMSTYLE
  2
STANDARD
  9
$DIMCLRD
 70
     0
  9
$DIMCLRE
 70
     0
  9
$DIMCLRT
 70
     0
  9
$DIMTFAC
 40
1.0
  9
$DIMGAP
 40
0.125
  9
$DIMJUST
 70
     0
  9
$DIMSD1
 70
     0
  9
$DIMSD2
 70
     0
  9
$DIMTOLJ
 70
     1
  9
$DIMTZIN
 70
     0
  9
$DIMALTZ
 70
     0
  9
$DIMALTTZ
 70
     0
  9
$DIMUPT
 70
     0
  9
$DIMDEC
 70
     2
  9
$DIMTDEC
 70
     4
  9
$DIMALTU
 70
     2
  9
$DIMALTTD
 70
     2
  9
$DIMTXSTY
  7
STANDARD
  9
$DIMAUNIT
 70
     0
  9
$DIMADEC
 70
     0
  9
$DIMALTRND
 40
0.0
  9
$DIMAZIN
 70
     0
  9
$DIMDSEP
 70
    46
  9
$DIMATFIT
 70
     3
  9
$DIMFRAC
 70
     2
  9
$DIMLDRBLK
  1

  9
$DIMLUNIT
 70
     5
  9
$DIMLWD
 70
    -2
  9
$DIMLWE
 70
    -2
  9
$DIMTMOVE
 70
     0
  9
$LUNITS
 70
     5
  9
$LUPREC
 70
     4
  9
$SKETCHINC
 40
0.1
  9
$FILLETRAD
 40
0.0
  9
$AUNITS
 70
     0
  9
$AUPREC
 70
     0
  9
$MENU
  1
acad
  9
$ELEVATION
 40
0.0
  9
$PELEVATION
 40
0.0
  9
$THICKNESS
 40
0.0
  9
$LIMCHECK
 70
     0
  9
$CHAMFERA
 40
0.0
  9
$CHAMFERB
 40
0.0
  9
$CHAMFERC
 40
0.0
  9
$CHAMFERD
 40
0.0
  9
$SKPOLY
 70
     0
  9
$TDCREATE
 40
2450406.632464503
  9
$TDUCREATE
 40
2450406.799131169
  9
$TDUPDATE
 40
2453963.963891783
  9
$TDUUPDATE
 40
2453964.130558449
  9
$TDINDWG
 40
0.0846529398
  9
$TDUSRTIMER
 40
0.0846529398
  9
$USRTIMER
 70
     1
  9
$ANGBASE
 50
0.0
  9
$ANGDIR
 70
     0
  9
$PDMODE
 70
     0
  9
$PDSIZE
 40
0.0
  9
$PLINEWID
 40
0.0
  9
$SPLFRAME
 70
     0
  9
$SPLINETYPE
 70
     6
  9
$SPLINESEGS
 70
     8
  9
$HANDSEED
  5
462
  9
$SURFTAB1
 70
     6
  9
$SURFTAB2
 70
     6
  9
$SURFTYPE
 70
     6
  9
$SURFU
 70
     6
  9
$SURFV
 70
     6
  9
$UCSBASE
  2

  9
$UCSNAME
  2

  9
$UCSORG
 10
0.0
 20
0.0
 30
0.0
  9
$UCSXDIR
 10
1.0
 20
0.0
 30
0.0
  9
$UCSYDIR
 10
0.0
 20
1.0
 30
0.0
  9
$UCSORTHOREF
  2

  9
$UCSORTHOVIEW
 70
     0
  9
$UCSORGTOP
 10
0.0
 20
0.0
 30
0.0
  9
$UCSORGBOTTOM
 10
0.0
 20
0.0
 30
0.0
  9
$UCSORGLEFT
 10
0.0
 20
0.0
 30
0.0
  9
$UCSORGRIGHT
 10
0.0
 20
0.0
 30
0.0
  9
$UCSORGFRONT
 10
0.0
 20
0.0
 30
0.0
  9
$UCSORGBACK
 10
0.0
 20
0.0
 30
0.0
  9
$PUCSBASE
  2

  9
$PUCSNAME
  2

  9
$PUCSORG
 10
0.0
 20
0.0
 30
0.0
  9
$PUCSXDIR
 10
1.0
 20
0.0
 30
0.0
  9
$PUCSYDIR
 10
0.0
 20
1.0
 30
0.0
  9
$PUCSORTHOREF
  2

  9
$PUCSORTHOVIEW
 70
     0
  9
$PUCSORGTOP
 10
0.0
 20
0.0
 30
0.0
  9
$PUCSORGBOTTOM
 10
0.0
 20
0.0
 30
0.0
  9
$PUCSORGLEFT
 10
0.0
 20
0.0
 30
0.0
  9
$PUCSORGRIGHT
 10
0.0
 20
0.0
 30
0.0
  9
$PUCSORGFRONT
 10
0.0
 20
0.0
 30
0.0
  9
$PUCSORGBACK
 10
0.0
 20
0.0
 30
0.0
  9
$USERI1
 70
     0
  9
$USERI2
 70
     0
  9
$USERI3
 70
     0
  9
$USERI4
 70
     0
  9
$USERI5
 70
     0
  9
$USERR1
 40
0.0
  9
$USERR2
 40
0.0
  9
$USERR3
 40
0.0
  9
$USERR4
 40
0.0
  9
$USERR5
 40
0.0
  9
$WORLDVIEW
 70
     1
  9
$SHADEDGE
 70
     3
  9
$SHADEDIF
 70
    70
  9
$TILEMODE
 70
     1
  9
$MAXACTVP
 70
    15
  9
$PINSBASE
 10
0.0008545028977096
 20
1.250283272183907
 30
0.0
  9
$PLIMCHECK
 70
     0
  9
$PEXTMIN
 10
1.000000000000000E+20
 20
1.000000000000000E+20
 30
1.000000000000000E+20
  9
$PEXTMAX
 10
-1.000000000000000E+20
 20
-1.000000000000000E+20
 30
-1.000000000000000E+20
  9
$PLIMMIN
 10
0.0
 20
0.0
  9
$PLIMMAX
 10
12.0
 20
9.0
  9
$UNITMODE
 70
     0
  9
$VISRETAIN
 70
     0
  9
$PLINEGEN
 70
     0
  9
$PSLTSCALE
 70
     1
  9
$TREEDEPTH
 70
  3020
  9
$CMLSTYLE
  2
STANDARD
  9
$CMLJUST
 70
     0
  9
$CMLSCALE
 40
1.0
  9
$PROXYGRAPHICS
 70
     1
  9
$MEASUREMENT
 70
     0
  9
$CELWEIGHT
370
    -1
  9
$ENDCAPS
280
     0
  9
$JOINSTYLE
280
     0
  9
$LWDISPLAY
290
     0
  9
$INSUNITS
 70
     0
  9
$HYPERLINKBASE
  1

  9
$STYLESHEET
  1

  9
$XEDIT
290
     1
  9
$CEPSNTYPE
380
     0
  9
$PSTYLEMODE
290
     1
  9
$FINGERPRINTGUID
  2
{EE414ED8-F652-4F96-A8FC-F2EA144A642D}
  9
$VERSIONGUID
  2
{B2DA9758-67B1-4769-BE0E-8BE65EF9C2B8}
  9
$EXTNAMES
290
     1
  9
$PSVPSCALE
 40
0.0
  9
$OLESTARTUP
290
     0
  0
ENDSEC
  0
SECTION
  2
CLASSES
  0
CLASS
  1
ACDBDICTIONARYWDFLT
  2
AcDbDictionaryWithDefault
  3
ObjectDBX Classes
 90
        0
280
     0
281
     0
  0
CLASS
  1
ACDBPLACEHOLDER
  2
AcDbPlaceHolder
  3
ObjectDBX Classes
 90
        0
280
     0
281
     0
  0
CLASS
  1
LAYOUT
  2
AcDbLayout
  3
ObjectDBX Classes
 90
        0
280
     0
281
     0
  0
CLASS
  1
DICTIONARYVAR
  2
AcDbDictionaryVar
  3
ObjectDBX Classes
 90
        0
280
     0
281
     0
  0
CLASS
  1
MATERIAL
  2
AcDbMaterial
  3
ObjectDBX Classes
 90
     1024
280
     0
281
     0
  0
CLASS
  1
VISUALSTYLE
  2
AcDbVisualStyle
  3
ObjectDBX Classes
 90
     4095
280
     0
281
     0
  0
CLASS
  1
TABLESTYLE
  2
AcDbTableStyle
  3
ObjectDBX Classes
 90
     4095
280
     0
281
     0
  0
ENDSEC
  0
SECTION
  2
TABLES
  0
TABLE
  2
VPORT
  5
8
330
0
100
AcDbSymbolTable
 70
     1
  0
VPORT
  5
353
330
8
100
AcDbSymbolTableRecord
100
AcDbViewportTableRecord
  2
*Active
 70
     0
 10
0.0
 20
0.0
 11
1.0
 21
1.0
 12
-4.006382705294434
 22
10.12493552460935
 13
0.0
 23
0.0
 14
0.5740882589684922
 24
0.5740882589684922
 15
0.5
 25
0.5
 16
0.0
 26
0.0
 36
1.0
 17
0.0
 27
0.0
 37
0.0
 40
4.239326215972486
 41
1.726930320150659
 42
50.0
 43
0.0
 44
0.0
 50
0.0
 51
0.0
 71
     0
 72
   100
 73
     1
 74
     0
 75
     0
 76
     0
 77
     0
 78
     0
281
     0
 65
     1
110
0.0
120
0.0
130
0.0
111
1.0
121
0.0
131
0.0
112
0.0
122
1.0
132
0.0
 79
     0
146
0.0
  0
ENDTAB
  0
TABLE
  2
LTYPE
  5
5
330
0
100
AcDbSymbolTable
 70
     2
  0
LTYPE
  5
12
330
5
100
AcDbSymbolTableRecord
100
AcDbLinetypeTableRecord
  2
BYBLOCK
 70
     0
  3

 72
    65
 73
     0
 40
0.0
  0
LTYPE
  5
13
330
5
100
AcDbSymbolTableRecord
100
AcDbLinetypeTableRecord
  2
BYLAYER
 70
     0
  3

 72
    65
 73
     0
 40
0.0
  0
LTYPE
  5
14
330
5
100
AcDbSymbolTableRecord
100
AcDbLinetypeTableRecord
  2
CONTINUOUS
 70
     0
  3
Solid line
 72
    65
 73
     0
 40
0.0
  0
LTYPE
  5
106
330
5
100
AcDbSymbolTableRecord
100
AcDbLinetypeTableRecord
  2
HIDDEN2
 70
     0
  3
_ _ _ _ _ _ _ _ _ _ _ _ _ _ _ _ _ _ _ _ _ _ _ _
 72
    65
 73
     2
 40
0.1875
 49
0.125
 74
     0
 49
-0.0625
 74
     0
  0
ENDTAB
  0
TABLE
  2
LAYER
  5
2
330
0
100
AcDbSymbolTable
 70
     5
  0
LAYER
  5
F
330
2
100
AcDbSymbolTableRecord
100
AcDbLayerTableRecord
  2
0
 70
     0
 62
     7
  6
CONTINUOUS
370
    -3
390
17D
  0
LAYER
  5
97
330
2
100
AcDbSymbolTableRecord
100
AcDbLayerTableRecord
  2
DEFPOINTS
 70
     0
 62
     7
  6
CONTINUOUS
290
     0
370
    -3
390
17D
  0
LAYER
  5
98
330
2
100
AcDbSymbolTableRecord
100
AcDbLayerTableRecord
  2
ADPDIM
 70
     0
 62
     3
  6
CONTINUOUS
370
    -3
390
17D
  0
LAYER
  5
DB
330
2
100
AcDbSymbolTableRecord
100
AcDbLayerTableRecord
  2
ADP1DETAIL
 70
     0
 62
     7
  6
CONTINUOUS
370
    -3
390
17D
  0
LAYER
  5
DC
330
2
100
AcDbSymbolTableRecord
100
AcDbLayerTableRecord
  2
ADP2DETAIL
 70
     0
 62
     5
  6
CONTINUOUS
370
    -3
390
17D
  0
ENDTAB
  0
TABLE
  2
STYLE
  5
3
330
0
100
AcDbSymbolTable
 70
     2
  0
STYLE
  5
10
330
3
100
AcDbSymbolTableRecord
100
AcDbTextStyleTableRecord
  2
STANDARD
 70
     0
 40
0.0
 41
1.0
 50
0.0
 71
     0
 42
0.2
  3
txt
  4

  0
STYLE
  5
184
330
3
100
AcDbSymbolTableRecord
100
AcDbTextStyleTableRecord
  2
ARIAL_WIDE
 70
     0
 40
0.0
 41
1.25
 50
0.0
 71
     0
 42
0.2
  3
ARIAL.TTF
  4

1001
ACAD
1000
Arial
1071
       34
  0
ENDTAB
  0
TABLE
  2
VIEW
  5
6
330
0
100
AcDbSymbolTable
 70
     0
  0
ENDTAB
  0
TABLE
  2
UCS
  5
7
330
0
100
AcDbSymbolTable
 70
     0
  0
ENDTAB
  0
TABLE
  2
APPID
  5
9
330
0
100
AcDbSymbolTable
 70
     2
  0
APPID
  5
11
330
9
100
AcDbSymbolTableRecord
100
AcDbRegAppTableRecord
  2
ACAD
 70
     0
  0
APPID
  5
3E0
330
9
100
AcDbSymbolTableRecord
100
AcDbRegAppTableRecord
  2
DCO15
 70
     0
  0
ENDTAB
  0
TABLE
  2
DIMSTYLE
  5
A
330
0
100
AcDbSymbolTable
 70
     1
100
AcDbDimStyleTable
 71
     0
  0
DIMSTYLE
105
D9
102
{ACAD_REACTORS
330
15C
330
3EA
330
3EB
330
3EC
102
}
330
A
100
AcDbSymbolTableRecord
100
AcDbDimStyleTableRecord
  2
STANDARD
 70
     0
340
10
  0
ENDTAB
  0
TABLE
  2
BLOCK_RECORD
  5
1
330
0
100
AcDbSymbolTable
 70
    10
  0
BLOCK_RECORD
  5
18
102
{ACAD_XDICTIONARY
360
1F9
102
}
330
1
100
AcDbSymbolTableRecord
100
AcDbBlockTableRecord
  2
*MODEL_SPACE
340
180
  0
BLOCK_RECORD
  5
15
102
{ACAD_XDICTIONARY
360
1F7
102
}
330
1
100
AcDbSymbolTableRecord
100
AcDbBlockTableRecord
  2
*PAPER_SPACE
340
181
  0
BLOCK_RECORD
  5
14F
330
1
100
AcDbSymbolTableRecord
100
AcDbBlockTableRecord
  2
*D0
340
0
  0
BLOCK_RECORD
  5
15D
330
1
100
AcDbSymbolTableRecord
100
AcDbBlockTableRecord
  2
*D1
340
0
  0
BLOCK_RECORD
  5
16A
330
1
100
AcDbSymbolTableRecord
100
AcDbBlockTableRecord
  2
*D2
340
0
  0
BLOCK_RECORD
  5
3B9
330
1
100
AcDbSymbolTableRecord
100
AcDbBlockTableRecord
  2
*D3
340
0
  0
BLOCK_RECORD
  5
3C6
330
1
100
AcDbSymbolTableRecord
100
AcDbBlockTableRecord
  2
*D4
340
0
  0
BLOCK_RECORD
  5
3D3
330
1
100
AcDbSymbolTableRecord
100
AcDbBlockTableRecord
  2
*D5
340
0
  0
BLOCK_RECORD
  5
3EE
330
1
100
AcDbSymbolTableRecord
100
AcDbBlockTableRecord
  2
*D7
340
0
  0
BLOCK_RECORD
  5
3FB
330
1
100
AcDbSymbolTableRecord
100
AcDbBlockTableRecord
  2
*D8
340
0
  0
BLOCK_RECORD
  5
408
330
1
100
AcDbSymbolTableRecord
100
AcDbBlockTableRecord
  2
*D9
340
0
  0
ENDTAB
  0
ENDSEC
  0
SECTION
  2
BLOCKS
  0
BLOCK
  5
9B
330
18
100
AcDbEntity
  8
0
100
AcDbBlockBegin
  2
*MODEL_SPACE
 70
     0
 10
0.0
 20
0.0
 30
0.0
  3
*MODEL_SPACE
  1

  0
ENDBLK
  5
9C
330
18
100
AcDbEntity
  8
0
100
AcDbBlockEnd
  0
BLOCK
  5
99
330
15
100
AcDbEntity
 67
     1
  8
0
100
AcDbBlockBegin
  2
*PAPER_SPACE
 70
     0
 10
0.0
 20
0.0
 30
0.0
  3
*PAPER_SPACE
  1

  0
ENDBLK
  5
9A
330
15
100
AcDbEntity
 67
     1
  8
0
100
AcDbBlockEnd
  0
BLOCK
  5
150
330
14F
100
AcDbEntity
  8
0
100
AcDbBlockBegin
  2
*D0
 70
     1
 10
0.0
 20
0.0
 30
0.0
  3
*D0
  1

  0
LINE
  5
391
330
14F
100
AcDbEntity
  8
ADPDIM
  6
Continuous
 62
     0
100
AcDbLine
 10
-3.712563781664179
 20
9.435350779012926
 30
0.0
 11
-3.712563781664179
 21
9.139454906945784
 31
0.0
  0
LINE
  5
392
330
14F
100
AcDbEntity
  8
ADPDIM
  6
Continuous
 62
     0
100
AcDbLine
 10
-0.0897252598000619
 20
9.812236302852657
 30
0.0
 11
-0.089725259800062
 21
9.139454906945784
 31
0.0
  0
LINE
  5
393
330
14F
100
AcDbEntity
  8
ADPDIM
  6
Continuous
 62
     0
100
AcDbLine
 10
-3.712563781664179
 20
9.319454906945784
 30
0.0
 11
-2.296977854065454
 21
9.319454906945784
 31
0.0
  0
LINE
  5
394
330
14F
100
AcDbEntity
  8
ADPDIM
  6
Continuous
 62
     0
100
AcDbLine
 10
-0.089725259800062
 20
9.319454906945784
 30
0.0
 11
-1.505311187398787
 21
9.319454906945784
 31
0.0
  0
LINE
  5
395
330
14F
100
AcDbEntity
  8
ADPDIM
  6
Continuous
 62
     0
100
AcDbLine
 10
-0.214725259800062
 20
9.194454906945784
 30
0.0
 11
0.0352747401999381
 21
9.444454906945784
 31
0.0
  0
LINE
  5
396
330
14F
100
AcDbEntity
  8
ADPDIM
  6
Continuous
 62
     0
100
AcDbLine
 10
-3.837563781664179
 20
9.194454906945784
 30
0.0
 11
-3.587563781664179
 21
9.444454906945784
 31
0.0
  0
MTEXT
  5
397
330
14F
100
AcDbEntity
  8
ADPDIM
  6
Continuous
 62
     0
100
AcDbMText
 10
-1.90114452073212
 20
9.319454906945784
 30
0.0
 40
0.125
 41
0.0
 71
     5
 72
     1
  1
\A1;3 1/2
 73
     1
 44
1.0
1001
ACAD
1000
MTEXTBEGIN
1070
    73
1070
     1
1070
    44
1040
1.0
1070
    74
1070
     0
1000
MTEXTEND
  0
POINT
  5
398
330
14F
100
AcDbEntity
  8
DEFPOINTS
  6
Continuous
 62
     0
100
AcDbPoint
 10
-3.712563781664179
 20
9.497850779012926
 30
0.0
  0
POINT
  5
399
330
14F
100
AcDbEntity
  8
DEFPOINTS
  6
Continuous
 62
     0
100
AcDbPoint
 10
-0.0897252598000619
 20
9.874736302852657
 30
0.0
  0
POINT
  5
39A
330
14F
100
AcDbEntity
  8
DEFPOINTS
  6
Continuous
 62
     0
100
AcDbPoint
 10
-0.089725259800062
 20
9.319454906945784
 30
0.0
  0
ENDBLK
  5
15B
330
14F
100
AcDbEntity
  8
0
100
AcDbBlockEnd
  0
BLOCK
  5
15E
330
15D
100
AcDbEntity
  8
0
100
AcDbBlockBegin
  2
*D1
 70
     1
 10
0.0
 20
0.0
 30
0.0
  3
*D1
  1

  0
LINE
  5
387
330
15D
100
AcDbEntity
  8
ADPDIM
 62
     0
100
AcDbLine
 10
-6.753444697768263
 20
9.530813522439297
 30
0.0
 11
-6.753444697768263
 21
9.136309740565815
 31
0.0
  0
LINE
  5
388
330
15D
100
AcDbEntity
  8
ADPDIM
 62
     0
100
AcDbLine
 10
-5.449006311717442
 20
9.530813522439297
 30
0.0
 11
-5.449006311717442
 21
9.136309740565815
 31
0.0
  0
LINE
  5
389
330
15D
100
AcDbEntity
  8
ADPDIM
 62
     0
100
AcDbLine
 10
-6.753444697768263
 20
9.316309740565815
 30
0.0
 11
-6.476225504742853
 21
9.316309740565815
 31
0.0
  0
LINE
  5
38A
330
15D
100
AcDbEntity
  8
ADPDIM
 62
     0
100
AcDbLine
 10
-5.449006311717442
 20
9.316309740565815
 30
0.0
 11
-5.726225504742853
 21
9.316309740565815
 31
0.0
  0
LINE
  5
38B
330
15D
100
AcDbEntity
  8
ADPDIM
 62
     0
100
AcDbLine
 10
-5.574006311717442
 20
9.191309740565815
 30
0.0
 11
-5.324006311717442
 21
9.441309740565815
 31
0.0
  0
LINE
  5
38C
330
15D
100
AcDbEntity
  8
ADPDIM
 62
     0
100
AcDbLine
 10
-6.878444697768263
 20
9.191309740565815
 30
0.0
 11
-6.628444697768263
 21
9.441309740565815
 31
0.0
  0
MTEXT
  5
38D
330
15D
100
AcDbEntity
  8
ADPDIM
 62
     0
100
AcDbMText
 10
-6.101225504742853
 20
9.316309740565815
 30
0.0
 40
0.125
 41
0.0
 71
     5
 72
     1
  1
\A1;1 1/4
 73
     1
 44
1.0
1001
ACAD
1000
MTEXTBEGIN
1070
    73
1070
     1
1070
    44
1040
1.0
1070
    74
1070
     0
1000
MTEXTEND
  0
POINT
  5
38E
330
15D
100
AcDbEntity
  8
DEFPOINTS
 62
     0
100
AcDbPoint
 10
-6.753444697768263
 20
9.593313522439297
 30
0.0
  0
POINT
  5
38F
330
15D
100
AcDbEntity
  8
DEFPOINTS
 62
     0
100
AcDbPoint
 10
-5.449006311717442
 20
9.593313522439297
 30
0.0
  0
POINT
  5
390
330
15D
100
AcDbEntity
  8
DEFPOINTS
 62
     0
100
AcDbPoint
 10
-5.449006311717442
 20
9.316309740565815
 30
0.0
  0
ENDBLK
  5
169
330
15D
100
AcDbEntity
  8
0
100
AcDbBlockEnd
  0
BLOCK
  5
16B
330
16A
100
AcDbEntity
  8
0
100
AcDbBlockBegin
  2
*D2
 70
     1
 10
0.0
 20
0.0
 30
0.0
  3
*D2
  1

  0
LINE
  5
37D
330
16A
100
AcDbEntity
  8
ADPDIM
 62
     0
100
AcDbLine
 10
-7.223186295119043
 20
9.937236302852658
 30
0.0
 11
-7.223186295119043
 21
10.70403177724833
 31
0.0
  0
LINE
  5
37E
330
16A
100
AcDbEntity
  8
ADPDIM
 62
     0
100
AcDbLine
 10
-4.979264714366663
 20
9.937236302852658
 30
0.0
 11
-4.979264714366663
 21
10.70403177724833
 31
0.0
  0
LINE
  5
37F
330
16A
100
AcDbEntity
  8
ADPDIM
 62
     0
100
AcDbLine
 10
-7.223186295119043
 20
10.52403177724833
 30
0.0
 11
-6.497058838076186
 21
10.52403177724833
 31
0.0
  0
LINE
  5
380
330
16A
100
AcDbEntity
  8
ADPDIM
 62
     0
100
AcDbLine
 10
-4.979264714366663
 20
10.52403177724833
 30
0.0
 11
-5.70539217140952
 21
10.52403177724833
 31
0.0
  0
LINE
  5
381
330
16A
100
AcDbEntity
  8
ADPDIM
 62
     0
100
AcDbLine
 10
-5.104264714366663
 20
10.39903177724833
 30
0.0
 11
-4.854264714366663
 21
10.64903177724833
 31
0.0
  0
LINE
  5
382
330
16A
100
AcDbEntity
  8
ADPDIM
 62
     0
100
AcDbLine
 10
-7.348186295119043
 20
10.39903177724833
 30
0.0
 11
-7.098186295119043
 21
10.64903177724833
 31
0.0
  0
MTEXT
  5
383
330
16A
100
AcDbEntity
  8
ADPDIM
 62
     0
100
AcDbMText
 10
-6.101225504742853
 20
10.52403177724833
 30
0.0
 40
0.125
 41
0.0
 71
     5
 72
     1
  1
\A1;2 1/4
 73
     1
 44
1.0
1001
ACAD
1000
MTEXTBEGIN
1070
    73
1070
     1
1070
    44
1040
1.0
1070
    74
1070
     0
1000
MTEXTEND
  0
POINT
  5
384
330
16A
100
AcDbEntity
  8
DEFPOINTS
 62
     0
100
AcDbPoint
 10
-7.223186295119043
 20
9.874736302852658
 30
0.0
  0
POINT
  5
385
330
16A
100
AcDbEntity
  8
DEFPOINTS
 62
     0
100
AcDbPoint
 10
-4.979264714366663
 20
9.874736302852658
 30
0.0
  0
POINT
  5
386
330
16A
100
AcDbEntity
  8
DEFPOINTS
 62
     0
100
AcDbPoint
 10
-4.979264714366663
 20
10.52403177724833
 30
0.0
  0
ENDBLK
  5
176
330
16A
100
AcDbEntity
  8
0
100
AcDbBlockEnd
  0
BLOCK
  5
3BA
330
3B9
100
AcDbEntity
  8
0
100
AcDbBlockBegin
  2
*D3
 70
     1
 10
0.0
 20
0.0
 30
0.0
  3
*D3
  1

  0
LINE
  5
3BB
330
3B9
100
AcDbEntity
  8
ADPDIM
  6
Continuous
 62
     0
370
    -2
100
AcDbLine
 10
-7.371670728986597
 20
10.36726502248146
 30
0.0
 11
-7.371670728986597
 21
11.39369767262113
 31
0.0
  0
LINE
  5
3BC
330
3B9
100
AcDbEntity
  8
ADPDIM
  6
Continuous
 62
     0
370
    -2
100
AcDbLine
 10
-5.121670728986597
 20
10.36726502248146
 30
0.0
 11
-5.121670728986597
 21
11.39369767262113
 31
0.0
  0
LINE
  5
3BD
330
3B9
100
AcDbEntity
  8
ADPDIM
  6
Continuous
 62
     0
370
    -2
100
AcDbLine
 10
-7.191670728986597
 20
11.21369767262113
 30
0.0
 11
-6.553337395653263
 21
11.21369767262113
 31
0.0
  0
LINE
  5
3BE
330
3B9
100
AcDbEntity
  8
ADPDIM
  6
Continuous
 62
     0
370
    -2
100
AcDbLine
 10
-5.301670728986596
 20
11.21369767262113
 30
0.0
 11
-5.94000406231993
 21
11.21369767262113
 31
0.0
  0
SOLID
  5
3BF
330
3B9
100
AcDbEntity
  8
ADPDIM
  6
Continuous
 62
     0
100
AcDbTrace
 10
-7.191670728986597
 20
11.24369767262113
 30
0.0
 11
-7.191670728986597
 21
11.18369767262113
 31
0.0
 12
-7.371670728986597
 22
11.21369767262113
 32
0.0
 13
-7.371670728986597
 23
11.21369767262113
 33
0.0
  0
SOLID
  5
3C0
330
3B9
100
AcDbEntity
  8
ADPDIM
  6
Continuous
 62
     0
100
AcDbTrace
 10
-5.301670728986596
 20
11.24369767262113
 30
0.0
 11
-5.301670728986596
 21
11.18369767262113
 31
0.0
 12
-5.121670728986597
 22
11.21369767262113
 32
0.0
 13
-5.121670728986597
 23
11.21369767262113
 33
0.0
  0
MTEXT
  5
3C1
330
3B9
100
AcDbEntity
  8
ADPDIM
  6
Continuous
 62
     0
100
AcDbMText
 10
-6.246670728986597
 20
11.21369767262113
 30
0.0
 40
0.1
 41
0.0
 71
     5
 72
     1
  1
\A1;2 1/4
 73
     1
 44
1.0
1001
ACAD
1000
MTEXTBEGIN
1070
    73
1070
     1
1070
    44
1040
1.0
1070
    74
1070
     0
1000
MTEXTEND
  0
POINT
  5
3C2
330
3B9
100
AcDbEntity
  8
DEFPOINTS
  6
Continuous
 62
     0
100
AcDbPoint
 10
-7.371670728986597
 20
10.30476502248146
 30
0.0
  0
POINT
  5
3C3
330
3B9
100
AcDbEntity
  8
DEFPOINTS
  6
Continuous
 62
     0
100
AcDbPoint
 10
-5.121670728986597
 20
10.30476502248146
 30
0.0
  0
POINT
  5
3C4
330
3B9
100
AcDbEntity
  8
DEFPOINTS
  6
Continuous
 62
     0
100
AcDbPoint
 10
-5.121670728986597
 20
11.21369767262113
 30
0.0
  0
ENDBLK
  5
3C5
330
3B9
100
AcDbEntity
  8
0
100
AcDbBlockEnd
  0
BLOCK
  5
3C7
330
3C6
100
AcDbEntity
  8
0
100
AcDbBlockBegin
  2
*D4
 70
     1
 10
0.0
 20
0.0
 30
0.0
  3
*D4
  1

  0
LINE
  5
3C8
330
3C6
100
AcDbEntity
  8
ADPDIM
  6
Continuous
 62
     0
370
    -2
100
AcDbLine
 10
-6.904562002827443
 20
10.04688698465323
 30
0.0
 11
-6.904562002827443
 21
9.657556667977797
 31
0.0
  0
LINE
  5
3C9
330
3C6
100
AcDbEntity
  8
ADPDIM
  6
Continuous
 62
     0
370
    -2
100
AcDbLine
 10
-5.592062002827443
 20
10.04688698465323
 30
0.0
 11
-5.592062002827443
 21
9.657556667977797
 31
0.0
  0
LINE
  5
3CA
330
3C6
100
AcDbEntity
  8
ADPDIM
  6
Continuous
 62
     0
370
    -2
100
AcDbLine
 10
-6.724562002827443
 20
9.837556667977796
 30
0.0
 11
-6.588312002827443
 21
9.837556667977796
 31
0.0
  0
LINE
  5
3CB
330
3C6
100
AcDbEntity
  8
ADPDIM
  6
Continuous
 62
     0
370
    -2
100
AcDbLine
 10
-5.772062002827443
 20
9.837556667977796
 30
0.0
 11
-5.908312002827443
 21
9.837556667977796
 31
0.0
  0
SOLID
  5
3CC
330
3C6
100
AcDbEntity
  8
ADPDIM
  6
Continuous
 62
     0
100
AcDbTrace
 10
-6.724562002827443
 20
9.867556667977796
 30
0.0
 11
-6.724562002827443
 21
9.807556667977797
 31
0.0
 12
-6.904562002827443
 22
9.837556667977796
 32
0.0
 13
-6.904562002827443
 23
9.837556667977796
 33
0.0
  0
SOLID
  5
3CD
330
3C6
100
AcDbEntity
  8
ADPDIM
  6
Continuous
 62
     0
100
AcDbTrace
 10
-5.772062002827443
 20
9.867556667977796
 30
0.0
 11
-5.772062002827443
 21
9.807556667977797
 31
0.0
 12
-5.592062002827443
 22
9.837556667977796
 32
0.0
 13
-5.592062002827443
 23
9.837556667977796
 33
0.0
  0
MTEXT
  5
3CE
330
3C6
100
AcDbEntity
  8
ADPDIM
  6
Continuous
 62
     0
100
AcDbMText
 10
-6.248312002827443
 20
9.837556667977796
 30
0.0
 40
0.1
 41
0.0
 71
     5
 72
     1
  1
\A1;1 5/16
 73
     1
 44
1.0
1001
ACAD
1000
MTEXTBEGIN
1070
    73
1070
     1
1070
    44
1040
1.0
1070
    74
1070
     0
1000
MTEXTEND
  0
POINT
  5
3CF
330
3C6
100
AcDbEntity
  8
DEFPOINTS
  6
Continuous
 62
     0
100
AcDbPoint
 10
-6.904562002827443
 20
10.10938698465323
 30
0.0
  0
POINT
  5
3D0
330
3C6
100
AcDbEntity
  8
DEFPOINTS
  6
Continuous
 62
     0
100
AcDbPoint
 10
-5.592062002827443
 20
10.10938698465323
 30
0.0
  0
POINT
  5
3D1
330
3C6
100
AcDbEntity
  8
DEFPOINTS
  6
Continuous
 62
     0
100
AcDbPoint
 10
-5.592062002827443
 20
9.837556667977796
 30
0.0
  0
ENDBLK
  5
3D2
330
3C6
100
AcDbEntity
  8
0
100
AcDbBlockEnd
  0
BLOCK
  5
3D4
330
3D3
100
AcDbEntity
  8
0
 62
     3
100
AcDbBlockBegin
  2
*D5
 70
     1
 10
0.0
 20
0.0
 30
0.0
  3
*D5
  1

  0
LINE
  5
3D5
330
3D3
100
AcDbEntity
  8
ADPDIM
  6
Continuous
 62
     0
370
    -2
100
AcDbLine
 10
-7.036010161461554
 20
9.862914940439942
 30
0.0
 11
-7.036010161461554
 21
9.169359713781506
 31
0.0
  0
LINE
  5
3D6
330
3D3
100
AcDbEntity
  8
ADPDIM
  6
Continuous
 62
     0
370
    -2
100
AcDbLine
 10
-5.473510161461554
 20
9.862914940439942
 30
0.0
 11
-5.473510161461554
 21
9.169359713781506
 31
0.0
  0
LINE
  5
3D7
330
3D3
100
AcDbEntity
  8
ADPDIM
  6
Continuous
 62
     0
370
    -2
100
AcDbLine
 10
-6.856010161461554
 20
9.349359713781506
 30
0.0
 11
-6.594760161461554
 21
9.349359713781506
 31
0.0
  0
LINE
  5
3D8
330
3D3
100
AcDbEntity
  8
ADPDIM
  6
Continuous
 62
     0
370
    -2
100
AcDbLine
 10
-5.653510161461554
 20
9.349359713781506
 30
0.0
 11
-5.914760161461554
 21
9.349359713781506
 31
0.0
  0
SOLID
  5
3D9
330
3D3
100
AcDbEntity
  8
ADPDIM
  6
Continuous
 62
     0
100
AcDbTrace
 10
-6.856010161461554
 20
9.379359713781505
 30
0.0
 11
-6.856010161461554
 21
9.319359713781507
 31
0.0
 12
-7.036010161461554
 22
9.349359713781506
 32
0.0
 13
-7.036010161461554
 23
9.349359713781506
 33
0.0
  0
SOLID
  5
3DA
330
3D3
100
AcDbEntity
  8
ADPDIM
  6
Continuous
 62
     0
100
AcDbTrace
 10
-5.653510161461554
 20
9.379359713781505
 30
0.0
 11
-5.653510161461554
 21
9.319359713781507
 31
0.0
 12
-5.473510161461554
 22
9.349359713781506
 32
0.0
 13
-5.473510161461554
 23
9.349359713781506
 33
0.0
  0
MTEXT
  5
3DB
330
3D3
100
AcDbEntity
  8
ADPDIM
  6
Continuous
 62
     0
100
AcDbMText
 10
-6.254760161461554
 20
9.349359713781506
 30
0.0
 40
0.1
 41
0.0
 71
     5
 72
     1
  1
\A1;1 9/16
 73
     1
 44
1.0
1001
ACAD
1000
MTEXTBEGIN
1070
    73
1070
     1
1070
    44
1040
1.0
1070
    74
1070
     0
1000
MTEXTEND
  0
POINT
  5
3DC
330
3D3
100
AcDbEntity
  8
DEFPOINTS
  6
Continuous
 62
     0
100
AcDbPoint
 10
-7.036010161461554
 20
9.925414940439942
 30
0.0
  0
POINT
  5
3DD
330
3D3
100
AcDbEntity
  8
DEFPOINTS
  6
Continuous
 62
     0
100
AcDbPoint
 10
-5.473510161461554
 20
9.925414940439942
 30
0.0
  0
POINT
  5
3DE
330
3D3
100
AcDbEntity
  8
DEFPOINTS
  6
Continuous
 62
     0
100
AcDbPoint
 10
-5.473510161461554
 20
9.349359713781506
 30
0.0
  0
ENDBLK
  5
3DF
330
3D3
100
AcDbEntity
  8
0
 62
     3
100
AcDbBlockEnd
  0
BLOCK
  5
3F9
330
3EE
100
AcDbEntity
  8
0
100
AcDbBlockBegin
  2
*D7
 70
     1
 10
0.0
 20
0.0
 30
0.0
  3
*D7
  1

  0
LINE
  5
415
330
3EE
100
AcDbEntity
  8
ADPDIM
  6
Continuous
 62
     0
370
    -2
100
AcDbLine
 10
-6.65805975156466
 20
9.97215319997022
 30
0.0
 11
-6.65805975156466
 21
10.99858585010988
 31
0.0
  0
LINE
  5
416
330
3EE
100
AcDbEntity
  8
ADPDIM
  6
Continuous
 62
     0
370
    -2
100
AcDbLine
 10
-4.40805975156466
 20
9.97215319997022
 30
0.0
 11
-4.40805975156466
 21
10.99858585010988
 31
0.0
  0
LINE
  5
417
330
3EE
100
AcDbEntity
  8
ADPDIM
  6
Continuous
 62
     0
370
    -2
100
AcDbLine
 10
-6.478059751564661
 20
10.81858585010988
 30
0.0
 11
-5.839726418231327
 21
10.81858585010988
 31
0.0
  0
LINE
  5
418
330
3EE
100
AcDbEntity
  8
ADPDIM
  6
Continuous
 62
     0
370
    -2
100
AcDbLine
 10
-4.58805975156466
 20
10.81858585010988
 30
0.0
 11
-5.226393084897994
 21
10.81858585010988
 31
0.0
  0
SOLID
  5
419
330
3EE
100
AcDbEntity
  8
ADPDIM
  6
Continuous
 62
     0
100
AcDbTrace
 10
-6.478059751564661
 20
10.84858585010988
 30
0.0
 11
-6.478059751564661
 21
10.78858585010988
 31
0.0
 12
-6.65805975156466
 22
10.81858585010988
 32
0.0
 13
-6.65805975156466
 23
10.81858585010988
 33
0.0
  0
SOLID
  5
41A
330
3EE
100
AcDbEntity
  8
ADPDIM
  6
Continuous
 62
     0
100
AcDbTrace
 10
-4.58805975156466
 20
10.84858585010988
 30
0.0
 11
-4.58805975156466
 21
10.78858585010988
 31
0.0
 12
-4.40805975156466
 22
10.81858585010988
 32
0.0
 13
-4.40805975156466
 23
10.81858585010988
 33
0.0
  0
MTEXT
  5
41B
330
3EE
100
AcDbEntity
  8
ADPDIM
  6
Continuous
 62
     0
100
AcDbMText
 10
-5.53305975156466
 20
10.81858585010988
 30
0.0
 40
0.1
 41
0.0
 71
     5
 72
     1
  1
\A1;2 1/4
 73
     1
 44
1.0
1001
ACAD
1000
MTEXTBEGIN
1070
    73
1070
     1
1070
    44
1040
1.0
1070
    74
1070
     0
1000
MTEXTEND
  0
POINT
  5
41C
330
3EE
100
AcDbEntity
  8
DEFPOINTS
  6
Continuous
 62
     0
100
AcDbPoint
 10
-6.65805975156466
 20
9.90965319997022
 30
0.0
  0
POINT
  5
41D
330
3EE
100
AcDbEntity
  8
DEFPOINTS
  6
Continuous
 62
     0
100
AcDbPoint
 10
-4.40805975156466
 20
9.90965319997022
 30
0.0
  0
POINT
  5
41E
330
3EE
100
AcDbEntity
  8
DEFPOINTS
  6
Continuous
 62
     0
100
AcDbPoint
 10
-4.40805975156466
 20
10.81858585010988
 30
0.0
  0
ENDBLK
  5
3FA
330
3EE
100
AcDbEntity
  8
0
100
AcDbBlockEnd
  0
BLOCK
  5
406
330
3FB
100
AcDbEntity
  8
0
100
AcDbBlockBegin
  2
*D8
 70
     1
 10
0.0
 20
0.0
 30
0.0
  3
*D8
  1

  0
LINE
  5
41F
330
3FB
100
AcDbEntity
  8
ADPDIM
  6
Continuous
 62
     0
370
    -2
100
AcDbLine
 10
-6.190951025405507
 20
9.651775162141985
 30
0.0
 11
-6.190951025405507
 21
9.262444845466552
 31
0.0
  0
LINE
  5
420
330
3FB
100
AcDbEntity
  8
ADPDIM
  6
Continuous
 62
     0
370
    -2
100
AcDbLine
 10
-4.878451025405507
 20
9.651775162141985
 30
0.0
 11
-4.878451025405507
 21
9.262444845466552
 31
0.0
  0
LINE
  5
421
330
3FB
100
AcDbEntity
  8
ADPDIM
  6
Continuous
 62
     0
370
    -2
100
AcDbLine
 10
-6.010951025405507
 20
9.442444845466551
 30
0.0
 11
-5.874701025405506
 21
9.442444845466551
 31
0.0
  0
LINE
  5
422
330
3FB
100
AcDbEntity
  8
ADPDIM
  6
Continuous
 62
     0
370
    -2
100
AcDbLine
 10
-5.058451025405506
 20
9.442444845466551
 30
0.0
 11
-5.194701025405507
 21
9.442444845466551
 31
0.0
  0
SOLID
  5
423
330
3FB
100
AcDbEntity
  8
ADPDIM
  6
Continuous
 62
     0
100
AcDbTrace
 10
-6.010951025405507
 20
9.472444845466551
 30
0.0
 11
-6.010951025405507
 21
9.412444845466552
 31
0.0
 12
-6.190951025405507
 22
9.442444845466551
 32
0.0
 13
-6.190951025405507
 23
9.442444845466551
 33
0.0
  0
SOLID
  5
424
330
3FB
100
AcDbEntity
  8
ADPDIM
  6
Continuous
 62
     0
100
AcDbTrace
 10
-5.058451025405506
 20
9.472444845466551
 30
0.0
 11
-5.058451025405506
 21
9.412444845466552
 31
0.0
 12
-4.878451025405507
 22
9.442444845466551
 32
0.0
 13
-4.878451025405507
 23
9.442444845466551
 33
0.0
  0
MTEXT
  5
425
330
3FB
100
AcDbEntity
  8
ADPDIM
  6
Continuous
 62
     0
100
AcDbMText
 10
-5.534701025405507
 20
9.442444845466551
 30
0.0
 40
0.1
 41
0.0
 71
     5
 72
     1
  1
\A1;1 5/16
 73
     1
 44
1.0
1001
ACAD
1000
MTEXTBEGIN
1070
    73
1070
     1
1070
    44
1040
1.0
1070
    74
1070
     0
1000
MTEXTEND
  0
POINT
  5
426
330
3FB
100
AcDbEntity
  8
DEFPOINTS
  6
Continuous
 62
     0
100
AcDbPoint
 10
-6.190951025405507
 20
9.714275162141985
 30
0.0
  0
POINT
  5
427
330
3FB
100
AcDbEntity
  8
DEFPOINTS
  6
Continuous
 62
     0
100
AcDbPoint
 10
-4.878451025405507
 20
9.714275162141985
 30
0.0
  0
POINT
  5
428
330
3FB
100
AcDbEntity
  8
DEFPOINTS
  6
Continuous
 62
     0
100
AcDbPoint
 10
-4.878451025405507
 20
9.442444845466551
 30
0.0
  0
ENDBLK
  5
407
330
3FB
100
AcDbEntity
  8
0
100
AcDbBlockEnd
  0
BLOCK
  5
413
330
408
100
AcDbEntity
  8
0
100
AcDbBlockBegin
  2
*D9
 70
     1
 10
0.0
 20
0.0
 30
0.0
  3
*D9
  1

  0
LINE
  5
429
330
408
100
AcDbEntity
  8
ADPDIM
  6
Continuous
 62
     0
370
    -2
100
AcDbLine
 10
-6.322399184039618
 20
9.467803117928697
 30
0.0
 11
-6.322399184039618
 21
8.774247891270261
 31
0.0
  0
LINE
  5
42A
330
408
100
AcDbEntity
  8
ADPDIM
  6
Continuous
 62
     0
370
    -2
100
AcDbLine
 10
-4.759899184039618
 20
9.467803117928697
 30
0.0
 11
-4.759899184039618
 21
8.774247891270261
 31
0.0
  0
LINE
  5
42B
330
408
100
AcDbEntity
  8
ADPDIM
  6
Continuous
 62
     0
370
    -2
100
AcDbLine
 10
-6.142399184039618
 20
8.954247891270261
 30
0.0
 11
-5.881149184039617
 21
8.954247891270261
 31
0.0
  0
LINE
  5
42C
330
408
100
AcDbEntity
  8
ADPDIM
  6
Continuous
 62
     0
370
    -2
100
AcDbLine
 10
-4.939899184039617
 20
8.954247891270261
 30
0.0
 11
-5.201149184039618
 21
8.954247891270261
 31
0.0
  0
SOLID
  5
42D
330
408
100
AcDbEntity
  8
ADPDIM
  6
Continuous
 62
     0
100
AcDbTrace
 10
-6.142399184039618
 20
8.984247891270261
 30
0.0
 11
-6.142399184039618
 21
8.924247891270262
 31
0.0
 12
-6.322399184039618
 22
8.954247891270261
 32
0.0
 13
-6.322399184039618
 23
8.954247891270261
 33
0.0
  0
SOLID
  5
42E
330
408
100
AcDbEntity
  8
ADPDIM
  6
Continuous
 62
     0
100
AcDbTrace
 10
-4.939899184039617
 20
8.984247891270261
 30
0.0
 11
-4.939899184039617
 21
8.924247891270262
 31
0.0
 12
-4.759899184039618
 22
8.954247891270261
 32
0.0
 13
-4.759899184039618
 23
8.954247891270261
 33
0.0
  0
MTEXT
  5
42F
330
408
100
AcDbEntity
  8
ADPDIM
  6
Continuous
 62
     0
100
AcDbMText
 10
-5.541149184039618
 20
8.954247891270261
 30
0.0
 40
0.1
 41
0.0
 71
     5
 72
     1
  1
\A1;1 9/16
 73
     1
 44
1.0
1001
ACAD
1000
MTEXTBEGIN
1070
    73
1070
     1
1070
    44
1040
1.0
1070
    74
1070
     0
1000
MTEXTEND
  0
POINT
  5
430
330
408
100
AcDbEntity
  8
DEFPOINTS
  6
Continuous
 62
     0
100
AcDbPoint
 10
-6.322399184039618
 20
9.530303117928697
 30
0.0
  0
POINT
  5
431
330
408
100
AcDbEntity
  8
DEFPOINTS
  6
Continuous
 62
     0
100
AcDbPoint
 10
-4.759899184039618
 20
9.530303117928697
 30
0.0
  0
POINT
  5
432
330
408
100
AcDbEntity
  8
DEFPOINTS
  6
Continuous
 62
     0
100
AcDbPoint
 10
-4.759899184039618
 20
8.954247891270261
 30
0.0
  0
ENDBLK
  5
414
330
408
100
AcDbEntity
  8
0
100
AcDbBlockEnd
  0
ENDSEC
  0
SECTION
  2
ENTITIES
  0
LINE
  5
102
330
18
100
AcDbEntity
  8
ADP1DETAIL
100
AcDbLine
 10
-3.712563781664179
 20
13.37142930348707
 30
0.0
 11
-0.0875637816641799
 21
13.37142930348707
 31
0.0
  0
LINE
  5
103
330
18
100
AcDbEntity
  8
ADP1DETAIL
100
AcDbLine
 10
-0.0875637816641799
 20
13.37142930348707
 30
0.0
 11
-0.0875637816641799
 21
11.12142930348707
 31
0.0
  0
LINE
  5
104
330
18
100
AcDbEntity
  8
ADP1DETAIL
100
AcDbLine
 10
-0.0875637816641799
 20
11.12142930348707
 30
0.0
 11
-3.712563781664179
 21
11.12142930348707
 31
0.0
  0
LINE
  5
105
330
18
100
AcDbEntity
  8
ADP1DETAIL
100
AcDbLine
 10
-3.712563781664179
 20
11.12142930348707
 30
0.0
 11
-3.712563781664179
 21
13.37142930348707
 31
0.0
  0
LINE
  5
107
330
18
100
AcDbEntity
  8
ADP2DETAIL
  6
HIDDEN2
100
AcDbLine
 10
-3.712563781664179
 20
11.71826890531392
 30
0.0
 11
-0.5875637816641799
 21
11.71826890531392
 31
0.0
  0
LINE
  5
108
330
18
100
AcDbEntity
  8
ADP1DETAIL
100
AcDbLine
 10
-0.198057429816096
 20
11.2381872520281
 30
0.0
 11
-3.712563781664179
 21
11.2381872520281
 31
0.0
  0
LINE
  5
109
330
18
100
AcDbEntity
  8
ADP2DETAIL
  6
HIDDEN2
100
AcDbLine
 10
-3.712563781664179
 20
11.60091560991323
 30
0.0
 11
-0.4770701335122621
 21
11.60091560991323
 31
0.0
  0
LINE
  5
10A
330
18
100
AcDbEntity
  8
ADP2DETAIL
  6
HIDDEN2
100
AcDbLine
 10
-3.712563781664179
 20
12.77458970166022
 30
0.0
 11
-0.5875637816641799
 21
12.77458970166023
 31
0.0
  0
LINE
  5
10C
330
18
100
AcDbEntity
  8
ADP1DETAIL
100
AcDbLine
 10
-0.198057429816096
 20
13.25467135494605
 30
0.0
 11
-3.712563781664179
 21
13.25467135494605
 31
0.0
  0
LINE
  5
10D
330
18
100
AcDbEntity
  8
ADP2DETAIL
  6
HIDDEN2
100
AcDbLine
 10
-3.712563781664179
 20
12.89194299706092
 30
0.0
 11
-0.4770701335122638
 21
12.89194299706092
 31
0.0
  0
LINE
  5
10E
330
18
100
AcDbEntity
  8
ADP2DETAIL
  6
HIDDEN2
100
AcDbLine
 10
-3.712563781664179
 20
11.49042196176131
 30
0.0
 11
-0.3665764853603459
 21
11.49042196176131
 31
0.0
  0
LINE
  5
10F
330
18
100
AcDbEntity
  8
ADP2DETAIL
  6
HIDDEN2
100
AcDbLine
 10
-3.712563781664179
 20
13.00243664521284
 30
0.0
 11
-0.3665764853603477
 21
13.00243664521284
 31
0.0
  0
LINE
  5
114
330
18
100
AcDbEntity
  8
ADP1DETAIL
100
AcDbLine
 10
-0.198057429816096
 20
13.25467135494605
 30
0.0
 11
-0.198057429816096
 21
11.2381872520281
 31
0.0
  0
LINE
  5
118
330
18
100
AcDbEntity
  8
ADP1DETAIL
  6
Continuous
100
AcDbLine
 10
-0.198057429816096
 20
13.25467135494605
 30
0.0
 11
-0.9416483275516327
 21
12.411822272844
 31
0.0
  0
LINE
  5
119
330
18
100
AcDbEntity
  8
ADP1DETAIL
  6
Continuous
100
AcDbLine
 10
-0.9416483275516327
 20
12.08103633413015
 30
0.0
 11
-0.198057429816096
 21
11.2381872520281
 31
0.0
  0
ARC
  5
11A
330
18
100
AcDbEntity
  8
ADP1DETAIL
  6
Continuous
100
AcDbCircle
 10
-0.7541778880490302
 20
12.24642930348708
 30
0.0
 40
0.25
100
AcDbArc
 50
138.5801364436408
 51
221.4198635563592
  0
LINE
  5
124
330
18
100
AcDbEntity
  8
ADP1DETAIL
  6
Continuous
100
AcDbLine
 10
-3.712563781664179
 20
9.497850779012926
 30
0.0
 11
-3.712563781664179
 21
10.34560218005013
 31
0.0
  0
LINE
  5
125
330
18
100
AcDbEntity
  8
ADP1DETAIL
  6
Continuous
100
AcDbLine
 10
-3.712563781664179
 20
10.34560218005013
 30
0.0
 11
-1.000991407460276
 21
10.34560218005013
 31
0.0
  0
LINE
  5
127
330
18
100
AcDbEntity
  8
ADP1DETAIL
  6
Continuous
100
AcDbLine
 10
-0.3665764853603464
 20
9.497850779012926
 30
0.0
 11
-3.712563781664179
 21
9.497850779012926
 31
0.0
  0
LINE
  5
129
330
18
100
AcDbEntity
  8
ADP1DETAIL
  6
Continuous
100
AcDbLine
 10
-3.712563781664179
 20
10.04085493832167
 30
0.0
 11
-0.2008552830214256
 21
10.04085493832167
 31
0.0
  0
LINE
  5
12A
330
18
100
AcDbEntity
  8
ADP1DETAIL
  6
Continuous
100
AcDbLine
 10
-3.712563781664179
 20
9.985446350103963
 30
0.0
 11
-0.2008552830214256
 21
9.985446350103963
 31
0.0
  0
LINE
  5
12B
330
18
100
AcDbEntity
  8
ADP2DETAIL
  6
HIDDEN2
100
AcDbLine
 10
-3.712563781664179
 20
9.885710896536911
 30
0.0
 11
-0.5875637816641799
 21
9.885710896536911
 31
0.0
  0
LINE
  5
12C
330
18
100
AcDbEntity
  8
ADP2DETAIL
  6
HIDDEN2
100
AcDbLine
 10
-0.5875637816641799
 20
9.697321686147029
 30
0.0
 11
-0.4770701335122627
 21
9.697321686147029
 31
0.0
  0
LINE
  5
132
330
18
100
AcDbEntity
  8
ADP1DETAIL
  6
Continuous
100
AcDbLine
 10
-0.2008552830214256
 20
10.04085493832167
 30
0.0
 11
-0.2008552830214256
 21
9.985446350103963
 31
0.0
  0
ARC
  5
133
330
18
100
AcDbEntity
  8
ADP1DETAIL
  6
Continuous
100
AcDbCircle
 10
-0.2370655718770998
 20
11.14856369848024
 30
0.0
 40
1.108300447690537
100
AcDbArc
 50
226.4271079102233
 51
271.8722955631408
  0
ARC
  5
137
330
18
100
AcDbEntity
  8
ADP1DETAIL
100
AcDbCircle
 10
-0.1980558087428523
 20
9.886798316190143
 30
0.0
 40
0.1089999999999999
100
AcDbArc
 50
257.2931962956907
 51
90.0
  0
LINE
  5
13D
330
18
100
AcDbEntity
  8
ADP2DETAIL
  6
HIDDEN2
100
AcDbLine
 10
-0.5875637816641799
 20
9.885710896536911
 30
0.0
 11
-0.5875637816641799
 21
9.697321686147029
 31
0.0
  0
LINE
  5
13E
330
18
100
AcDbEntity
  8
ADP2DETAIL
  6
HIDDEN2
100
AcDbLine
 10
-0.4770701335122627
 20
9.697321686147029
 30
0.0
 11
-0.4770701335122624
 21
9.497850779012926
 31
0.0
  0
ARC
  5
13F
330
18
100
AcDbEntity
  8
ADP1DETAIL
  6
Continuous
100
AcDbCircle
 10
0.1126626093130743
 20
9.431015809987991
 30
0.0
 40
0.4838770742119985
100
AcDbArc
 50
133.7642572673514
 51
172.0607034032509
  0
DIMENSION
  5
15C
330
18
100
AcDbEntity
  8
ADPDIM
  6
Continuous
100
AcDbDimension
  2
*D0
 10
-0.089725259800062
 20
9.319454906945784
 30
0.0
 11
-1.90114452073212
 21
9.319454906945784
 31
0.0
 70
    32
 71
     5
 42
-1.0
  3
STANDARD
100
AcDbAlignedDimension
 13
-3.712563781664179
 23
9.497850779012926
 33
0.0
 14
-0.0897252598000619
 24
9.874736302852657
 34
0.0
100
AcDbRotatedDimension
1001
ACAD
1000
DSTYLE
1002
{
1070
   270
1070
     7
1070
   270
1070
     7
1070
   270
1070
     7
1070
   270
1070
     7
1070
    41
1040
0.125
1070
    73
1070
     0
1070
    74
1070
     0
1070
    78
1070
     2
1070
   140
1040
0.125
1070
   141
1040
0.1875
1070
   142
1040
0.125
1070
   147
1040
0.125
1070
   171
1070
     1
1070
   271
1070
     2
1070
   276
1070
     2
1070
   277
1070
     5
1002
}
  0
TEXT
  5
185
330
18
100
AcDbEntity
  8
ADPDIM
100
AcDbText
 10
-10.41410070185517
 20
8.294343651647748
 30
0.0
 40
0.125
  1
J U L I U S  B L U M  &  C O . ,  I N C .      ( 8 0 0 )  5 2 6 - 6 2 9 3        W W W . J U L I U S B L U M . C O M        P A R T  N o .  5 5 3 0 - N
 41
1.25
  7
ARIAL_WIDE
 72
     1
 11
-3.712563781664179
 21
8.419343651647748
 31
0.0
100
AcDbText
 73
     3
  0
DIMENSION
  5
3EA
330
18
100
AcDbEntity
  8
ADPDIM
  6
Continuous
 62
     3
100
AcDbDimension
  2
*D7
 10
-4.40805975156466
 20
10.81858585010988
 30
0.0
 11
-5.53305975156466
 21
10.81858585010988
 31
0.0
 70
    32
 71
     5
 42
2.25
  3
STANDARD
100
AcDbAlignedDimension
 13
-6.65805975156466
 23
9.90965319997022
 33
0.0
 14
-4.40805975156466
 24
9.90965319997022
 34
0.0
100
AcDbRotatedDimension
1001
ACAD
1000
DSTYLE
1002
{
1070
   140
1040
0.1
1070
   276
1070
     2
1070
   277
1070
     5
1070
   289
1070
     3
1002
}
  0
DIMENSION
  5
3EB
330
18
100
AcDbEntity
  8
ADPDIM
  6
Continuous
 62
     3
100
AcDbDimension
  2
*D8
 10
-4.878451025405507
 20
9.442444845466551
 30
0.0
 11
-5.534701025405507
 21
9.442444845466551
 31
0.0
 70
    32
 71
     5
 42
1.3125
  3
STANDARD
100
AcDbAlignedDimension
 13
-6.190951025405507
 23
9.714275162141985
 33
0.0
 14
-4.878451025405507
 24
9.714275162141985
 34
0.0
100
AcDbRotatedDimension
1001
ACAD
1000
DSTYLE
1002
{
1070
   140
1040
0.1
1070
   276
1070
     2
1070
   277
1070
     5
1070
   289
1070
     3
1002
}
  0
DIMENSION
  5
3EC
330
18
100
AcDbEntity
  8
ADPDIM
  6
Continuous
 62
     3
100
AcDbDimension
  2
*D9
 10
-4.759899184039618
 20
8.954247891270261
 30
0.0
 11
-5.541149184039618
 21
8.954247891270261
 31
0.0
 70
    32
 71
     5
 42
1.5625
  3
STANDARD
100
AcDbAlignedDimension
 13
-6.322399184039618
 23
9.530303117928697
 33
0.0
 14
-4.759899184039618
 24
9.530303117928697
 34
0.0
100
AcDbRotatedDimension
1001
ACAD
1000
DSTYLE
1002
{
1070
   140
1040
0.1
1070
   276
1070
     2
1070
   277
1070
     5
1070
   289
1070
     3
1002
}
  0
SPLINE
  5
3ED
330
18
100
AcDbEntity
  8
ADPDIM
 62
     7
370
     0
100
AcDbSpline
210
0.0
220
0.0
230
1.0
 70
    11
 71
     3
 72
   116
 73
   112
 74
     0
 42
0.0000000001
 43
0.0000000001
 40
0.0
 40
0.0
 40
0.0
 40
0.0
 40
1.0
 40
1.0
 40
1.0
 40
2.0
 40
2.0
 40
2.0
 40
3.0
 40
3.0
 40
3.0
 40
4.0
 40
4.0
 40
4.0
 40
5.0
 40
5.0
 40
5.0
 40
6.0
 40
6.0
 40
6.0
 40
7.0
 40
7.0
 40
7.0
 40
8.0
 40
8.0
 40
8.0
 40
9.0
 40
9.0
 40
9.0
 40
10.0
 40
10.0
 40
10.0
 40
11.0
 40
11.0
 40
11.0
 40
12.0
 40
12.0
 40
12.0
 40
13.0
 40
13.0
 40
13.0
 40
14.0
 40
14.0
 40
14.0
 40
15.0
 40
15.0
 40
15.0
 40
16.0
 40
16.0
 40
16.0
 40
17.0
 40
17.0
 40
17.0
 40
18.0
 40
18.0
 40
18.0
 40
19.0
 40
19.0
 40
19.0
 40
20.0
 40
20.0
 40
20.0
 40
21.0
 40
21.0
 40
21.0
 40
22.0
 40
22.0
 40
22.0
 40
23.0
 40
23.0
 40
23.0
 40
24.0
 40
24.0
 40
24.0
 40
25.0
 40
25.0
 40
25.0
 40
26.0
 40
26.0
 40
26.0
 40
27.0
 40
27.0
 40
27.0
 40
28.0
 40
28.0
 40
28.0
 40
29.0
 40
29.0
 40
29.0
 40
30.0
 40
30.0
 40
30.0
 40
31.0
 40
31.0
 40
31.0
 40
32.0
 40
32.0
 40
32.0
 40
33.0
 40
33.0
 40
33.0
 40
34.0
 40
34.0
 40
34.0
 40
35.0
 40
35.0
 40
35.0
 40
36.0
 40
36.0
 40
36.0
 40
37.0
 40
37.0
 40
37.0
 40
37.0
 10
-4.660057668989529
 20
9.517111120016261
 30
0.0
 10
-4.663036148376262
 20
9.510064965620557
 30
0.0
 10
-4.670008345044531
 20
9.505129968171656
 30
0.0
 10
-4.678136971632706
 20
9.505129968171656
 30
0.0
 10
-4.678136971632706
 20
9.505129968171656
 30
0.0
 10
-4.744961140085861
 20
9.505129968171656
 30
0.0
 10
-4.744961140085861
 20
9.505129968171656
 30
0.0
 10
-4.755792585440326
 20
9.505129968171656
 30
0.0
 10
-4.764580108145655
 20
9.513910767447219
 30
0.0
 10
-4.764580108145655
 20
9.524748936231452
 30
0.0
 10
-4.764580108145655
 20
9.524748936231452
 30
0.0
 10
-4.764311170954979
 20
9.689076283164096
 30
0.0
 10
-4.764311170954979
 20
9.689076283164096
 30
0.0
 10
-4.764311170954979
 20
9.689076283164096
 30
0.0
 10
-4.88408234882242
 20
9.68867960080785
 30
0.0
 10
-4.88408234882242
 20
9.68867960080785
 30
0.0
 10
-4.88408234882242
 20
9.68867960080785
 30
0.0
 10
-4.88408234882242
 20
9.862796261481092
 30
0.0
 10
-4.88408234882242
 20
9.862796261481092
 30
0.0
 10
-4.88408234882242
 20
9.862796261481092
 30
0.0
 10
-6.183008639207641
 20
9.862796261481092
 30
0.0
 10
-6.183008639207641
 20
9.862796261481092
 30
0.0
 10
-6.183008639207641
 20
9.862796261481092
 30
0.0
 10
-6.183008639207641
 20
9.68867960080785
 30
0.0
 10
-6.183008639207641
 20
9.68867960080785
 30
0.0
 10
-6.183008639207641
 20
9.68867960080785
 30
0.0
 10
-6.310767251638152
 20
9.689076283164096
 30
0.0
 10
-6.310767251638152
 20
9.689076283164096
 30
0.0
 10
-6.310767251638152
 20
9.689076283164096
 30
0.0
 10
-6.31051176130701
 20
9.524748936231452
 30
0.0
 10
-6.31051176130701
 20
9.524748936231452
 30
0.0
 10
-6.31051176130701
 20
9.513910767447219
 30
0.0
 10
-6.319285837152806
 20
9.505129968171656
 30
0.0
 10
-6.330130729366805
 20
9.505129968171656
 30
0.0
 10
-6.330130729366805
 20
9.505129968171656
 30
0.0
 10
-6.39351250177931
 20
9.505129968171656
 30
0.0
 10
-6.39351250177931
 20
9.505129968171656
 30
0.0
 10
-6.401641128367485
 20
9.505129968171656
 30
0.0
 10
-6.408613325035752
 20
9.510064965620557
 30
0.0
 10
-6.411578357562953
 20
9.517111120016261
 30
0.0
 10
-6.412580148598221
 20
9.51945087357514
 30
0.0
 10
-6.413924834551599
 20
9.527196264666601
 30
0.0
 10
-6.413924834551599
 20
9.527196264666601
 30
0.0
 10
-6.436340749394422
 20
9.606868907404289
 30
0.0
 10
-6.493691605306023
 20
9.67192481382875
 30
0.0
 10
-6.568402356875743
 20
9.704788938529326
 30
0.0
 10
-6.568402356875743
 20
9.704788938529326
 30
0.0
 10
-6.568711634645021
 20
9.704096425263335
 30
0.0
 10
-6.568711634645021
 20
9.704096425263335
 30
0.0
 10
-6.617187563264322
 20
9.724710460928632
 30
0.0
 10
-6.651154330446669
 20
9.772756090042852
 30
0.0
 10
-6.651154330446669
 20
9.828735366282009
 30
0.0
 10
-6.651154330446669
 20
9.898894355899541
 30
0.0
 10
-6.597783744957068
 20
9.956594830159021
 30
0.0
 10
-6.529433357946828
 20
9.963432558231952
 30
0.0
 10
-6.529433357946828
 20
9.963432558231952
 30
0.0
 10
-6.530152764931886
 20
9.963432558231952
 30
0.0
 10
-6.530152764931886
 20
9.963432558231952
 30
0.0
 10
-6.530152764931886
 20
9.963432558231952
 30
0.0
 10
-6.530152764931886
 20
9.986251878860789
 30
0.0
 10
-6.530152764931886
 20
9.986251878860789
 30
0.0
 10
-6.530152764931886
 20
9.997083324215253
 30
0.0
 10
-6.521365242226557
 20
10.00586412349082
 30
0.0
 10
-6.510547243731625
 20
10.00586412349082
 30
0.0
 10
-6.510547243731625
 20
10.00586412349082
 30
0.0
 10
-6.428931529791305
 20
10.00613306068149
 30
0.0
 10
-6.428931529791305
 20
10.00613306068149
 30
0.0
 10
-6.249288209849678
 20
10.00613306068149
 30
0.0
 10
-6.084705372585892
 20
10.0706914333032
 30
0.0
 10
-5.957155186478155
 20
10.17788307407679
 30
0.0
 10
-5.957155186478155
 20
10.17788307407679
 30
0.0
 10
-5.957390506519997
 20
10.17819235184606
 30
0.0
 10
-5.957390506519997
 20
10.17819235184606
 30
0.0
 10
-5.841801301967564
 20
10.27053193626458
 30
0.0
 10
-5.69526415019812
 20
10.32572457122101
 30
0.0
 10
-5.535818013276241
 20
10.32572457122101
 30
0.0
 10
-5.376385323213895
 20
10.32572457122101
 30
0.0
 10
-5.229834724584918
 20
10.27053193626458
 30
0.0
 10
-5.114258966892019
 20
10.17819235184606
 30
0.0
 10
-5.114258966892019
 20
10.17819235184606
 30
0.0
 10
-5.114507733793394
 20
10.17788307407679
 30
0.0
 10
-5.114507733793394
 20
10.17788307407679
 30
0.0
 10
-4.986944100826123
 20
10.0706914333032
 30
0.0
 10
-4.822374710421872
 20
10.00613306068149
 30
0.0
 10
-4.64271794362071
 20
10.00613306068149
 30
0.0
 10
-4.64271794362071
 20
10.00613306068149
 30
0.0
 10
-4.56110222968039
 20
10.00586412349082
 30
0.0
 10
-4.56110222968039
 20
10.00586412349082
 30
0.0
 10
-4.550270784325925
 20
10.00586412349082
 30
0.0
 10
-4.541503431909895
 20
9.997083324215253
 30
0.0
 10
-4.541503431909895
 20
9.986251878860789
 30
0.0
 10
-4.541503431909895
 20
9.986251878860789
 30
0.0
 10
-4.541503431909895
 20
9.963432558231952
 30
0.0
 10
-4.541503431909895
 20
9.963432558231952
 30
0.0
 10
-4.541503431909895
 20
9.963432558231952
 30
0.0
 10
-4.542216115465187
 20
9.963432558231952
 30
0.0
 10
-4.542216115465187
 20
9.963432558231952
 30
0.0
 10
-4.473865728454947
 20
9.956594830159021
 30
0.0
 10
-4.420481696105813
 20
9.898894355899541
 30
0.0
 10
-4.420481696105813
 20
9.828735366282009
 30
0.0
 10
-4.420481696105813
 20
9.772756090042852
 30
0.0
 10
-4.454461910147692
 20
9.724710460928632
 30
0.0
 10
-4.502924391907461
 20
9.704096425263335
 30
0.0
 10
-4.502924391907461
 20
9.704096425263335
 30
0.0
 10
-4.503233669676738
 20
9.704788938529326
 30
0.0
 10
-4.503233669676738
 20
9.704788938529326
 30
0.0
 10
-4.577944421246459
 20
9.67192481382875
 30
0.0
 10
-4.635308724017594
 20
9.606868907404289
 30
0.0
 10
-4.65773808571995
 20
9.527196264666601
 30
0.0
 10
-4.65773808571995
 20
9.527196264666601
 30
0.0
 10
-4.659069324813795
 20
9.51945087357514
 30
0.0
 10
-4.660057668989529
 20
9.517111120016261
 30
0.0
  0
ENDSEC
  0
SECTION
  2
OBJECTS
  0
DICTIONARY
  5
C
330
0
100
AcDbDictionary
281
     1
  3
ACAD_COLOR
350
3B3
  3
ACAD_GROUP
350
D
  3
ACAD_LAYOUT
350
17E
  3
ACAD_MATERIAL
350
39E
  3
ACAD_MLINESTYLE
350
E
  3
ACAD_PLOTSETTINGS
350
17F
  3
ACAD_PLOTSTYLENAME
350
17C
  3
ACAD_TABLESTYLE
350
3B4
  3
ACAD_VISUALSTYLE
350
3A2
  3
AcDbVariableDictionary
350
21D
  3
ASE_INDEX_DICTIONARY
350
434
  3
DWGPROPS
350
455
  0
DICTIONARY
  5
1F9
330
18
100
AcDbDictionary
280
     1
281
     1
  3
ACAD_LAYOUTSELFREF
360
37A
  0
DICTIONARY
  5
1F7
330
15
100
AcDbDictionary
280
     1
281
     1
  3
ACAD_LAYOUTSELFREF
360
379
  0
DICTIONARY
  5
3B3
102
{ACAD_REACTORS
330
C
102
}
330
C
100
AcDbDictionary
281
     1
  0
DICTIONARY
  5
D
102
{ACAD_REACTORS
330
C
102
}
330
C
100
AcDbDictionary
281
     1
  0
DICTIONARY
  5
17E
102
{ACAD_REACTORS
330
C
102
}
330
C
100
AcDbDictionary
281
     1
  3
Layout1
350
181
  3
Model
350
180
  0
DICTIONARY
  5
39E
102
{ACAD_REACTORS
330
C
102
}
330
C
100
AcDbDictionary
281
     1
  3
ByBlock
350
3A0
  3
ByLayer
350
39F
  3
Global
350
3A1
  0
DICTIONARY
  5
E
102
{ACAD_REACTORS
330
C
102
}
330
C
100
AcDbDictionary
281
     1
  3
STANDARD
350
1B
  0
DICTIONARY
  5
17F
102
{ACAD_REACTORS
330
C
102
}
330
C
100
AcDbDictionary
281
     1
  0
ACDBDICTIONARYWDFLT
  5
17C
102
{ACAD_REACTORS
330
C
102
}
330
C
100
AcDbDictionary
281
     1
  3
Normal
350
17D
100
AcDbDictionaryWithDefault
340
17D
  0
DICTIONARY
  5
3B4
102
{ACAD_REACTORS
330
C
102
}
330
C
100
AcDbDictionary
281
     1
  3
Standard
350
3B5
  0
DICTIONARY
  5
3A2
102
{ACAD_REACTORS
330
C
102
}
330
C
100
AcDbDictionary
281
     1
  3
2dWireframe
350
3A8
  3
3D Hidden
350
3AA
  3
3dWireframe
350
3A9
  3
Basic
350
3A7
  3
Brighten
350
3AE
  3
ColorChange
350
3B2
  3
Conceptual
350
3AB
  3
Dim
350
3AD
  3
Facepattern
350
3B1
  3
Flat
350
3A3
  3
FlatWithEdges
350
3A4
  3
Gouraud
350
3A5
  3
GouraudWithEdges
350
3A6
  3
Linepattern
350
3B0
  3
Realistic
350
3AC
  3
Thicken
350
3AF
  0
DICTIONARY
  5
21D
102
{ACAD_REACTORS
330
C
102
}
330
C
100
AcDbDictionary
281
     1
  3
CTABLESTYLE
350
452
  3
DIMASSOC
350
21E
  3
INDEXCTL
350
454
  3
SORTENTS
350
453
  0
DICTIONARY
  5
434
102
{ACAD_REACTORS
330
C
102
}
330
C
100
AcDbDictionary
281
     1
  3
ASEBlockHierarchyIndexRecord
350
435
1001
DCO15
1040
1569088976.25
  0
XRECORD
  5
455
102
{ACAD_REACTORS
330
C
102
}
330
C
100
AcDbXrecord
280
     1
  1
DWGPROPS COOKIE
  2

  3

  4

  6

  7

  8
Yu Hu
  9

300
=
301
=
302
=
303
=
304
=
305
=
306
=
307
=
308
=
309
=
 40
0.0846528240740741
 41
2450406.632464503
 42
2453963.963891783
  1

 90
        0
  0
XRECORD
  5
37A
102
{ACAD_REACTORS
330
1F9
102
}
330
1F9
100
AcDbXrecord
280
     1
340
18
  0
XRECORD
  5
379
102
{ACAD_REACTORS
330
1F7
102
}
330
1F7
100
AcDbXrecord
280
     1
340
15
  0
LAYOUT
  5
181
102
{ACAD_XDICTIONARY
360
458
102
}
102
{ACAD_REACTORS
330
17E
102
}
330
17E
100
AcDbPlotSettings
  1

  2
Fax
  4

  6

 40
0.0
 41
0.0
 42
0.0
 43
0.0
 44
0.0
 45
0.0
 46
0.0
 47
0.0
 48
0.0
 49
0.0
140
0.0
141
0.0
142
1.0
143
1.0
 70
   688
 72
     0
 73
     0
 74
     5
  7
Default R14 pen assignments.ctb
 75
    16
147
1.0
148
0.0
149
0.0
100
AcDbLayout
  1
Layout1
 70
     1
 71
     1
 10
0.0
 20
0.0
 11
12.0
 21
9.0
 12
0.0008545028977096
 22
1.250283272183907
 32
0.0
 14
1.000000000000000E+20
 24
1.000000000000000E+20
 34
1.000000000000000E+20
 15
-1.000000000000000E+20
 25
-1.000000000000000E+20
 35
-1.000000000000000E+20
146
0.0
 13
0.0
 23
0.0
 33
0.0
 16
1.0
 26
0.0
 36
0.0
 17
0.0
 27
1.0
 37
0.0
 76
     0
330
15
  0
LAYOUT
  5
180
102
{ACAD_XDICTIONARY
360
456
102
}
102
{ACAD_REACTORS
330
17E
102
}
330
17E
100
AcDbPlotSettings
  1

  2
Fax
  4

  6

 40
0.0
 41
0.0
 42
0.0
 43
0.0
 44
0.0
 45
0.0
 46
0.0
 47
0.0
 48
0.0
 49
0.0
140
0.0
141
0.0
142
1.0
143
1.0
 70
  1712
 72
     0
 73
     0
 74
     0
  7
Default R14 pen assignments.ctb
 75
     0
147
1.0
148
0.0
149
0.0
100
AcDbLayout
  1
Model
 70
     1
 71
     0
 10
0.0
 20
0.0
 11
12.0
 21
9.0
 12
0.0
 22
0.0
 32
0.0
 14
0.0
 24
0.0
 34
0.0
 15
0.0
 25
0.0
 35
0.0
146
0.0
 13
0.0
 23
0.0
 33
0.0
 16
1.0
 26
0.0
 36
0.0
 17
0.0
 27
1.0
 37
0.0
 76
     0
330
18
331
353
  0
MATERIAL
  5
3A0
102
{ACAD_XDICTIONARY
360
45C
102
}
102
{ACAD_REACTORS
330
39E
102
}
330
39E
100
AcDbMaterial
  1
ByBlock
  0
MATERIAL
  5
39F
102
{ACAD_XDICTIONARY
360
45A
102
}
102
{ACAD_REACTORS
330
39E
102
}
330
39E
100
AcDbMaterial
  1
ByLayer
  0
MATERIAL
  5
3A1
102
{ACAD_XDICTIONARY
360
45E
102
}
102
{ACAD_REACTORS
330
39E
102
}
330
39E
100
AcDbMaterial
  1
Global
  0
MLINESTYLE
  5
1B
102
{ACAD_REACTORS
330
E
102
}
330
E
100
AcDbMlineStyle
  2
STANDARD
 70
     0
  3

 62
     0
 51
90.0
 52
90.0
 71
     2
 49
0.5
 62
   256
  6
BYLAYER
 49
-0.5
 62
   256
  6
BYLAYER
  0
ACDBPLACEHOLDER
  5
17D
102
{ACAD_REACTORS
330
17C
102
}
330
17C
  0
TABLESTYLE
  5
3B5
102
{ACAD_XDICTIONARY
360
460
102
}
102
{ACAD_REACTORS
330
3B4
102
}
330
3B4
100
AcDbTableStyle
  3
Standard
 70
     0
 71
     0
 40
0.06
 41
0.06
280
     0
281
     0
  7
STANDARD
140
0.18
170
     2
 62
     0
 63
     7
283
     0
274
    -2
284
     1
 64
     0
275
    -2
285
     1
 65
     0
276
    -2
286
     1
 66
     0
277
    -2
287
     1
 67
     0
278
    -2
288
     1
 68
     0
279
    -2
289
     1
 69
     0
  7
STANDARD
140
0.25
170
     5
 62
     0
 63
     7
283
     0
274
    -2
284
     1
 64
     0
275
    -2
285
     1
 65
     0
276
    -2
286
     1
 66
     0
277
    -2
287
     1
 67
     0
278
    -2
288
     1
 68
     0
279
    -2
289
     1
 69
     0
  7
STANDARD
140
0.18
170
     5
 62
     0
 63
     7
283
     0
274
    -2
284
     1
 64
     0
275
    -2
285
     1
 65
     0
276
    -2
286
     1
 66
     0
277
    -2
287
     1
 67
     0
278
    -2
288
     1
 68
     0
279
    -2
289
     1
 69
     0
  0
VISUALSTYLE
  5
3A8
102
{ACAD_REACTORS
330
3A2
102
}
330
3A2
100
AcDbVisualStyle
  2
2dWireframe
 70
     4
 71
     0
 72
     2
 73
     0
 90
        0
 40
-0.6
 41
-30.0
 62
     5
 63
     7
 74
     1
 91
        4
 64
     7
 65
   257
 75
     1
175
     1
 42
1.0
 92
        0
 66
   257
 43
1.0
 76
     1
 77
     6
 78
     2
 67
     7
 79
     5
170
     0
171
     0
290
     0
174
     0
 93
        1
 44
0.0
173
     0
291
     0
 45
0.0
1001
ACAD
1000
AcDbSavedByObjectVersion
1070
     0
  0
VISUALSTYLE
  5
3AA
102
{ACAD_REACTORS
330
3A2
102
}
330
3A2
100
AcDbVisualStyle
  2
3D Hidden
 70
     6
 71
     1
 72
     2
 73
     2
 90
        0
 40
-0.6
 41
-30.0
 62
     5
 63
     7
 74
     2
 91
        2
 64
     7
 65
   257
 75
     2
175
     1
 42
40.0
 92
        0
 66
   257
 43
1.0
 76
     1
 77
     6
 78
     2
 67
     7
 79
     3
170
     0
171
     0
290
     0
174
     0
 93
        1
 44
0.0
173
     0
291
     0
 45
0.0
1001
ACAD
1000
AcDbSavedByObjectVersion
1070
     0
  0
VISUALSTYLE
  5
3A9
102
{ACAD_REACTORS
330
3A2
102
}
330
3A2
100
AcDbVisualStyle
  2
3dWireframe
 70
     5
 71
     0
 72
     2
 73
     0
 90
        0
 40
-0.6
 41
-30.0
 62
     5
 63
     7
 74
     1
 91
        4
 64
     7
 65
   257
 75
     1
175
     1
 42
1.0
 92
        0
 66
   257
 43
1.0
 76
     1
 77
     6
 78
     2
 67
     7
 79
     5
170
     0
171
     0
290
     0
174
     0
 93
        1
 44
0.0
173
     0
291
     0
 45
0.0
1001
ACAD
1000
AcDbSavedByObjectVersion
1070
     0
  0
VISUALSTYLE
  5
3A7
102
{ACAD_REACTORS
330
3A2
102
}
330
3A2
100
AcDbVisualStyle
  2
Basic
 70
     7
 71
     1
 72
     0
 73
     1
 90
        0
 40
-0.6
 41
-30.0
 62
     5
 63
     7
 74
     0
 91
        4
 64
     7
 65
   257
 75
     1
175
     1
 42
1.0
 92
        8
 66
     7
 43
1.0
 76
     1
 77
     6
 78
     2
 67
     7
 79
     5
170
     0
171
     0
290
     0
174
     0
 93
        1
 44
0.0
173
     0
291
     1
 45
0.0
1001
ACAD
1000
AcDbSavedByObjectVersion
1070
     0
  0
VISUALSTYLE
  5
3AE
102
{ACAD_REACTORS
330
3A2
102
}
330
3A2
100
AcDbVisualStyle
  2
Brighten
 70
    12
 71
     2
 72
     2
 73
     0
 90
        0
 40
-0.6
 41
-30.0
 62
     5
 63
     7
 74
     1
 91
        4
 64
     7
 65
   257
 75
     1
175
     1
 42
1.0
 92
        8
 66
     7
 43
1.0
 76
     1
 77
     6
 78
     2
 67
     7
 79
     5
170
     0
171
     0
290
     0
174
     0
 93
        1
 44
50.0
173
     0
291
     1
 45
0.0
1001
ACAD
1000
AcDbSavedByObjectVersion
1070
     0
  0
VISUALSTYLE
  5
3B2
102
{ACAD_REACTORS
330
3A2
102
}
330
3A2
100
AcDbVisualStyle
  2
ColorChange
 70
    16
 71
     2
 72
     2
 73
     3
 90
        0
 40
-0.6
 41
-30.0
 62
     5
 63
     8
 74
     1
 91
        4
 64
     7
 65
   257
 75
     1
175
     1
 42
1.0
 92
        8
 66
     8
 43
1.0
 76
     1
 77
     6
 78
     2
 67
     7
 79
     5
170
     0
171
     0
290
     0
174
     0
 93
        1
 44
0.0
173
     0
291
     1
 45
0.0
1001
ACAD
1000
AcDbSavedByObjectVersion
1070
     0
  0
VISUALSTYLE
  5
3AB
102
{ACAD_REACTORS
330
3A2
102
}
330
3A2
100
AcDbVisualStyle
  2
Conceptual
 70
     9
 71
     3
 72
     2
 73
     0
 90
        0
 40
-0.6
 41
-30.0
 62
     5
 63
     7
 74
     2
 91
        2
 64
     7
 65
   257
 75
     1
175
     1
 42
40.0
 92
        8
 66
     7
 43
1.0
 76
     1
 77
     6
 78
     2
 67
     7
 79
     3
170
     0
171
     0
290
     0
174
     0
 93
        1
 44
0.0
173
     0
291
     0
 45
0.0
1001
ACAD
1000
AcDbSavedByObjectVersion
1070
     0
  0
VISUALSTYLE
  5
3AD
102
{ACAD_REACTORS
330
3A2
102
}
330
3A2
100
AcDbVisualStyle
  2
Dim
 70
    11
 71
     2
 72
     2
 73
     0
 90
        0
 40
-0.6
 41
-30.0
 62
     5
 63
     7
 74
     1
 91
        4
 64
     7
 65
   257
 75
     1
175
     1
 42
1.0
 92
        8
 66
     7
 43
1.0
 76
     1
 77
     6
 78
     2
 67
     7
 79
     5
170
     0
171
     0
290
     0
174
     0
 93
        1
 44
-50.0
173
     0
291
     1
 45
0.0
1001
ACAD
1000
AcDbSavedByObjectVersion
1070
     0
  0
VISUALSTYLE
  5
3B1
102
{ACAD_REACTORS
330
3A2
102
}
330
3A2
100
AcDbVisualStyle
  2
Facepattern
 70
    15
 71
     2
 72
     2
 73
     0
 90
        0
 40
-0.6
 41
-30.0
 62
     5
 63
     7
 74
     1
 91
        4
 64
     7
 65
   257
 75
     1
175
     1
 42
1.0
 92
        8
 66
     7
 43
1.0
 76
     1
 77
     6
 78
     2
 67
     7
 79
     5
170
     0
171
     0
290
     0
174
     0
 93
        1
 44
0.0
173
     0
291
     1
 45
0.0
1001
ACAD
1000
AcDbSavedByObjectVersion
1070
     0
  0
VISUALSTYLE
  5
3A3
102
{ACAD_REACTORS
330
3A2
102
}
330
3A2
100
AcDbVisualStyle
  2
Flat
 70
     0
 71
     2
 72
     1
 73
     1
 90
        2
 40
-0.6
 41
30.0
 62
     5
 63
     7
 74
     0
 91
        4
 64
     7
 65
   257
 75
     1
175
     1
 42
1.0
 92
        8
 66
     7
 43
1.0
 76
     1
 77
     6
 78
     2
 67
     7
 79
     5
170
     0
171
     0
290
     0
174
     0
 93
       13
 44
0.0
173
     0
291
     1
 45
0.0
1001
ACAD
1000
AcDbSavedByObjectVersion
1070
     0
  0
VISUALSTYLE
  5
3A4
102
{ACAD_REACTORS
330
3A2
102
}
330
3A2
100
AcDbVisualStyle
  2
FlatWithEdges
 70
     1
 71
     2
 72
     1
 73
     1
 90
        2
 40
-0.6
 41
30.0
 62
     5
 63
     7
 74
     1
 91
        4
 64
     7
 65
   257
 75
     1
175
     1
 42
1.0
 92
        0
 66
   257
 43
1.0
 76
     1
 77
     6
 78
     2
 67
     7
 79
     5
170
     0
171
     0
290
     0
174
     0
 93
       13
 44
0.0
173
     0
291
     1
 45
0.0
1001
ACAD
1000
AcDbSavedByObjectVersion
1070
     0
  0
VISUALSTYLE
  5
3A5
102
{ACAD_REACTORS
330
3A2
102
}
330
3A2
100
AcDbVisualStyle
  2
Gouraud
 70
     2
 71
     2
 72
     2
 73
     1
 90
        2
 40
-0.6
 41
30.0
 62
     5
 63
     7
 74
     0
 91
        4
 64
     7
 65
   257
 75
     1
175
     1
 42
1.0
 92
        0
 66
     7
 43
1.0
 76
     1
 77
     6
 78
     2
 67
     7
 79
     5
170
     0
171
     0
290
     0
174
     0
 93
       13
 44
0.0
173
     0
291
     1
 45
0.0
1001
ACAD
1000
AcDbSavedByObjectVersion
1070
     0
  0
VISUALSTYLE
  5
3A6
102
{ACAD_REACTORS
330
3A2
102
}
330
3A2
100
AcDbVisualStyle
  2
GouraudWithEdges
 70
     3
 71
     2
 72
     2
 73
     1
 90
        2
 40
-0.6
 41
30.0
 62
     5
 63
     7
 74
     1
 91
        4
 64
     7
 65
   257
 75
     1
175
     1
 42
1.0
 92
        0
 66
   257
 43
1.0
 76
     1
 77
     6
 78
     2
 67
     7
 79
     5
170
     0
171
     0
290
     0
174
     0
 93
       13
 44
0.0
173
     0
291
     1
 45
0.0
1001
ACAD
1000
AcDbSavedByObjectVersion
1070
     0
  0
VISUALSTYLE
  5
3B0
102
{ACAD_REACTORS
330
3A2
102
}
330
3A2
100
AcDbVisualStyle
  2
Linepattern
 70
    14
 71
     2
 72
     2
 73
     0
 90
        0
 40
-0.6
 41
-30.0
 62
     5
 63
     7
 74
     1
 91
        4
 64
     7
 65
   257
 75
     7
175
     7
 42
1.0
 92
        8
 66
     7
 43
1.0
 76
     1
 77
     6
 78
     2
 67
     7
 79
     5
170
     0
171
     0
290
     0
174
     0
 93
        1
 44
0.0
173
     0
291
     1
 45
0.0
1001
ACAD
1000
AcDbSavedByObjectVersion
1070
     0
  0
VISUALSTYLE
  5
3AC
102
{ACAD_REACTORS
330
3A2
102
}
330
3A2
100
AcDbVisualStyle
  2
Realistic
 70
     8
 71
     2
 72
     2
 73
     0
 90
        0
 40
-0.6
 41
-30.0
 62
     5
 63
     7
 74
     1
 91
        0
 64
     7
 65
   257
 75
     1
175
     1
 42
1.0
 92
        8
 66
     8
 43
1.0
 76
     1
 77
     6
 78
     2
 67
     7
 79
     5
170
     0
171
     0
290
     0
174
     0
 93
       13
 44
0.0
173
     0
291
     0
 45
0.0
1001
ACAD
1000
AcDbSavedByObjectVersion
1070
     0
  0
VISUALSTYLE
  5
3AF
102
{ACAD_REACTORS
330
3A2
102
}
330
3A2
100
AcDbVisualStyle
  2
Thicken
 70
    13
 71
     2
 72
     2
 73
     0
 90
        0
 40
-0.6
 41
-30.0
 62
     5
 63
     7
 74
     1
 91
        4
 64
     7
 65
   257
 75
     1
175
     1
 42
1.0
 92
       12
 66
     7
 43
1.0
 76
     1
 77
     6
 78
     2
 67
     7
 79
     5
170
     0
171
     0
290
     0
174
     0
 93
        1
 44
0.0
173
     0
291
     1
 45
0.0
1001
ACAD
1000
AcDbSavedByObjectVersion
1070
     0
  0
DICTIONARYVAR
  5
452
102
{ACAD_REACTORS
330
21D
102
}
330
21D
100
DictionaryVariables
280
     0
  1
STANDARD
  0
DICTIONARYVAR
  5
21E
102
{ACAD_REACTORS
330
21D
102
}
330
21D
100
DictionaryVariables
280
     0
  1
1
  0
DICTIONARYVAR
  5
454
102
{ACAD_REACTORS
330
21D
102
}
330
21D
100
DictionaryVariables
280
     0
  1
0
  0
DICTIONARYVAR
  5
453
102
{ACAD_REACTORS
330
21D
102
}
330
21D
100
DictionaryVariables
280
     0
  1
127
  0
XRECORD
  5
435
102
{ACAD_REACTORS
330
434
102
}
330
434
100
AcDbXrecord
280
     1
  0
DICTIONARY
  5
458
330
181
100
AcDbDictionary
280
     1
281
     1
  3
ACAD_XREC_ROUNDTRIP
360
459
  0
DICTIONARY
  5
456
330
180
100
AcDbDictionary
280
     1
281
     1
  3
ACAD_XREC_ROUNDTRIP
360
457
  0
DICTIONARY
  5
45C
330
3A0
100
AcDbDictionary
280
     1
281
     1
  3
ACAD_XREC_ROUNDTRIP
360
45D
  0
DICTIONARY
  5
45A
330
39F
100
AcDbDictionary
280
     1
281
     1
  3
ACAD_XREC_ROUNDTRIP
360
45B
  0
DICTIONARY
  5
45E
330
3A1
100
AcDbDictionary
280
     1
281
     1
  3
ACAD_XREC_ROUNDTRIP
360
45F
  0
DICTIONARY
  5
460
330
3B5
100
AcDbDictionary
280
     1
281
     1
  3
ACAD_XREC_ROUNDTRIP
360
461
  0
XRECORD
  5
459
102
{ACAD_REACTORS
330
458
102
}
330
458
100
AcDbXrecord
280
     1
102
SHADEPLOT
 70
     0
102
SHADEPLOTRESLEVEL
 70
     2
102
SHADEPLOTCUSTOMDPI
 70
   300
  0
XRECORD
  5
457
102
{ACAD_REACTORS
330
456
102
}
330
456
100
AcDbXrecord
280
     1
102
SHADEPLOT
 70
     0
102
SHADEPLOTRESLEVEL
 70
     2
102
SHADEPLOTCUSTOMDPI
 70
   300
  0
XRECORD
  5
45D
102
{ACAD_REACTORS
330
45C
102
}
330
45C
100
AcDbXrecord
280
     1
102
MATERIAL
148
0.0
149
0.0
149
0.0
 93
        0
 94
       63
282
     0
 72
     1
 77
     1
171
     1
175
     1
179
     1
273
     0
  0
XRECORD
  5
45B
102
{ACAD_REACTORS
330
45A
102
}
330
45A
100
AcDbXrecord
280
     1
102
MATERIAL
148
0.0
149
0.0
149
0.0
 93
        0
 94
       63
282
     0
 72
     1
 77
     1
171
     1
175
     1
179
     1
273
     0
  0
XRECORD
  5
45F
102
{ACAD_REACTORS
330
45E
102
}
330
45E
100
AcDbXrecord
280
     1
102
MATERIAL
148
0.0
149
0.0
149
0.0
 93
        0
 94
       63
282
     0
 72
     1
 77
     1
171
     1
175
     1
179
     1
273
     0
  0
XRECORD
  5
461
102
{ACAD_REACTORS
330
460
102
}
330
460
100
AcDbXrecord
280
     1
102
ACAD_ROUNDTRIP_PRE2007_TABLESTYLE
 90
      512
 91
        0
  1

 92
      512
 93
        0
  2

 94
      512
 95
        0
  3

  0
ENDSEC
  0
EOF
