  0
SECTION
  2
HEADER
  9
$ACADVER
  1
AC1014
  9
$ACADMAINTVER
 70
     9
  9
$DWGCODEPAGE
  3
ANSI_1252
  9
$INSBASE
 10
1.553953563036646
 20
3.741049237823488
 30
0.0
  9
$EXTMIN
 10
-8.087972314824551
 20
-0.8086755497867073
 30
0.0
  9
$EXTMAX
 10
11.21615029772661
 20
8.358742576253224
 30
0.0
  9
$LIMMIN
 10
0.0
 20
0.0
  9
$LIMMAX
 10
36.0
 20
36.0
  9
$ORTHOMODE
 70
     1
  9
$REGENMODE
 70
     1
  9
$FILLMODE
 70
     1
  9
$QTEXTMODE
 70
     0
  9
$MIRRTEXT
 70
     1
  9
$DRAGMODE
 70
     0
  9
$LTSCALE
 40
1.0
  9
$OSMODE
 70
    37
  9
$ATTMODE
 70
     1
  9
$TEXTSIZE
 40
0.2
  9
$TRACEWID
 40
0.05
  9
$TEXTSTYLE
  7
STANDARD
  9
$CLAYER
  8
ADPDIM
  9
$CELTYPE
  6
BYLAYER
  9
$CECOLOR
 62
   256
  9
$CELTSCALE
 40
1.0
  9
$DELOBJ
 70
     1
  9
$DISPSILH
 70
     0
  9
$DIMSCALE
 40
1.0
  9
$DIMASZ
 40
0.125
  9
$DIMEXO
 40
0.0625
  9
$DIMDLI
 40
0.38
  9
$DIMRND
 40
0.0
  9
$DIMDLE
 40
0.0
  9
$DIMEXE
 40
0.18
  9
$DIMTP
 40
0.0
  9
$DIMTM
 40
0.0
  9
$DIMTXT
 40
0.125
  9
$DIMCEN
 40
0.1875
  9
$DIMTSZ
 40
0.125
  9
$DIMTOL
 70
     0
  9
$DIMLIM
 70
     0
  9
$DIMTIH
 70
     0
  9
$DIMTOH
 70
     0
  9
$DIMSE1
 70
     0
  9
$DIMSE2
 70
     0
  9
$DIMTAD
 70
     0
  9
$DIMZIN
 70
     3
  9
$DIMBLK
  1

  9
$DIMASO
 70
     1
  9
$DIMSHO
 70
     1
  9
$DIMPOST
  1

  9
$DIMAPOST
  1

  9
$DIMALT
 70
     0
  9
$DIMALTD
 70
     1
  9
$DIMALTF
 40
25.4
  9
$DIMLFAC
 40
1.0
  9
$DIMTOFL
 70
     0
  9
$DIMTVP
 40
0.0
  9
$DIMTIX
 70
     0
  9
$DIMSOXD
 70
     0
  9
$DIMSAH
 70
     0
  9
$DIMBLK1
  1

  9
$DIMBLK2
  1

  9
$DIMSTYLE
  2
STANDARD
  9
$DIMCLRD
 70
     0
  9
$DIMCLRE
 70
     0
  9
$DIMCLRT
 70
     0
  9
$DIMTFAC
 40
1.0
  9
$DIMGAP
 40
0.125
  9
$DIMJUST
 70
     0
  9
$DIMSD1
 70
     0
  9
$DIMSD2
 70
     0
  9
$DIMTOLJ
 70
     1
  9
$DIMTZIN
 70
     3
  9
$DIMALTZ
 70
     3
  9
$DIMALTTZ
 70
     3
  9
$DIMFIT
 70
     5
  9
$DIMUPT
 70
     0
  9
$DIMUNIT
 70
     5
  9
$DIMDEC
 70
     5
  9
$DIMTDEC
 70
     5
  9
$DIMALTU
 70
     5
  9
$DIMALTTD
 70
     1
  9
$DIMTXSTY
  7
STANDARD
  9
$DIMAUNIT
 70
     0
  9
$LUNITS
 70
     5
  9
$LUPREC
 70
     5
  9
$SKETCHINC
 40
0.1
  9
$FILLETRAD
 40
0.0
  9
$AUNITS
 70
     0
  9
$AUPREC
 70
     0
  9
$MENU
  1
acad
  9
$ELEVATION
 40
0.0
  9
$PELEVATION
 40
0.0
  9
$THICKNESS
 40
0.0
  9
$LIMCHECK
 70
     0
  9
$BLIPMODE
 70
     0
  9
$CHAMFERA
 40
0.0
  9
$CHAMFERB
 40
0.0
  9
$CHAMFERC
 40
0.0
  9
$CHAMFERD
 40
0.0
  9
$SKPOLY
 70
     0
  9
$TDCREATE
 40
2450414.688764467
  9
$TDUPDATE
 40
2452297.072672523
  9
$TDINDWG
 40
0.0164431250
  9
$TDUSRTIMER
 40
0.0164431250
  9
$USRTIMER
 70
     1
  9
$ANGBASE
 50
0.0
  9
$ANGDIR
 70
     0
  9
$PDMODE
 70
     0
  9
$PDSIZE
 40
0.0
  9
$PLINEWID
 40
0.0
  9
$COORDS
 70
     2
  9
$SPLFRAME
 70
     0
  9
$SPLINETYPE
 70
     6
  9
$SPLINESEGS
 70
     8
  9
$ATTDIA
 70
     0
  9
$ATTREQ
 70
     1
  9
$HANDLING
 70
 22529
  9
$HANDSEED
  5
2CC
  9
$SURFTAB1
 70
     6
  9
$SURFTAB2
 70
     6
  9
$SURFTYPE
 70
     6
  9
$SURFU
 70
     6
  9
$SURFV
 70
     6
  9
$UCSNAME
  2

  9
$UCSORG
 10
0.0
 20
0.0
 30
0.0
  9
$UCSXDIR
 10
1.0
 20
0.0
 30
0.0
  9
$UCSYDIR
 10
0.0
 20
1.0
 30
0.0
  9
$PUCSNAME
  2

  9
$PUCSORG
 10
0.0
 20
0.0
 30
0.0
  9
$PUCSXDIR
 10
1.0
 20
0.0
 30
0.0
  9
$PUCSYDIR
 10
0.0
 20
1.0
 30
0.0
  9
$USERI1
 70
     0
  9
$USERI2
 70
     0
  9
$USERI3
 70
     0
  9
$USERI4
 70
     0
  9
$USERI5
 70
     0
  9
$USERR1
 40
0.0
  9
$USERR2
 40
0.0
  9
$USERR3
 40
0.0
  9
$USERR4
 40
0.0
  9
$USERR5
 40
0.0
  9
$WORLDVIEW
 70
     1
  9
$SHADEDGE
 70
     3
  9
$SHADEDIF
 70
    70
  9
$TILEMODE
 70
     1
  9
$MAXACTVP
 70
    15
  9
$PINSBASE
 10
0.0781263709068299
 20
112.0181290174387
 30
0.0
  9
$PLIMCHECK
 70
     0
  9
$PEXTMIN
 10
1.000000000000000E+20
 20
1.000000000000000E+20
 30
1.000000000000000E+20
  9
$PEXTMAX
 10
-1.000000000000000E+20
 20
-1.000000000000000E+20
 30
-1.000000000000000E+20
  9
$PLIMMIN
 10
0.0
 20
0.0
  9
$PLIMMAX
 10
12.0
 20
9.0
  9
$UNITMODE
 70
     0
  9
$VISRETAIN
 70
     0
  9
$PLINEGEN
 70
     0
  9
$PSLTSCALE
 70
     1
  9
$TREEDEPTH
 70
  3020
  9
$PICKSTYLE
 70
     1
  9
$CMLSTYLE
  2
STANDARD
  9
$CMLJUST
 70
     0
  9
$CMLSCALE
 40
1.0
  9
$PROXYGRAPHICS
 70
     1
  9
$MEASUREMENT
 70
     0
  0
ENDSEC
  0
SECTION
  2
CLASSES
  0
CLASS
  1
ACDBDICTIONARYWDFLT
  2
AcDbDictionaryWithDefault
  3
AutoCAD 2000
 90
        0
280
     0
281
     0
  0
CLASS
  1
ACDBPLACEHOLDER
  2
AcDbPlaceHolder
  3
AutoCAD 2000
 90
        0
280
     0
281
     0
  0
CLASS
  1
LAYOUT
  2
AcDbLayout
  3
AutoCAD 2000
 90
        0
280
     0
281
     0
  0
CLASS
  1
DICTIONARYVAR
  2
AcDbDictionaryVar
  3
AutoCAD 2000
 90
        0
280
     0
281
     0
  0
CLASS
  1
LONG_TRANSACTION
  2
AcDbLongTransaction
  3
AutoCAD 2000
 90
        0
280
     0
281
     0
  0
CLASS
  1
LWPOLYLINE
  2
AcDbPolyline
  3
AutoCAD 2000
 90
        0
280
     0
281
     1
  0
CLASS
  1
HATCH
  2
AcDbHatch
  3
AutoCAD 2000
 90
        0
280
     0
281
     1
  0
CLASS
  1
XRECORD
  2
AcDbXrecord
  3
AutoCAD 2000
 90
        0
280
     0
281
     0
  0
CLASS
  1
LONG_TRANSACTION
  2
AcDbLongTransaction
  3
AutoCAD 2000
 90
        0
280
     0
281
     0
  0
CLASS
  1
LWPOLYLINE
  2
AcDbPolyline
  3
AutoCAD 2000
 90
        0
280
     0
281
     1
  0
CLASS
  1
HATCH
  2
AcDbHatch
  3
AutoCAD 2000
 90
        0
280
     0
281
     1
  0
CLASS
  1
XRECORD
  2
AcDbXrecord
  3
AutoCAD 2000
 90
        0
280
     0
281
     0
  0
CLASS
  1
LONG_TRANSACTION
  2
AcDbLongTransaction
  3
AutoCAD 2000
 90
        0
280
     0
281
     0
  0
CLASS
  1
LWPOLYLINE
  2
AcDbPolyline
  3
AutoCAD 2000
 90
        0
280
     0
281
     1
  0
CLASS
  1
HATCH
  2
AcDbHatch
  3
AutoCAD 2000
 90
        0
280
     0
281
     1
  0
CLASS
  1
XRECORD
  2
AcDbXrecord
  3
AutoCAD 2000
 90
        0
280
     0
281
     0
  0
CLASS
  1
LONG_TRANSACTION
  2
AcDbLongTransaction
  3
AutoCAD 2000
 90
        0
280
     0
281
     0
  0
CLASS
  1
LWPOLYLINE
  2
AcDbPolyline
  3
AutoCAD 2000
 90
        0
280
     0
281
     1
  0
CLASS
  1
HATCH
  2
AcDbHatch
  3
AutoCAD 2000
 90
        0
280
     0
281
     1
  0
CLASS
  1
XRECORD
  2
AcDbXrecord
  3
AutoCAD 2000
 90
        0
280
     0
281
     0
  0
CLASS
  1
LONG_TRANSACTION
  2
AcDbLongTransaction
  3
AutoCAD 2000
 90
        0
280
     0
281
     0
  0
CLASS
  1
LWPOLYLINE
  2
AcDbPolyline
  3
AutoCAD 2000
 90
        0
280
     0
281
     1
  0
CLASS
  1
HATCH
  2
AcDbHatch
  3
AutoCAD 2000
 90
        0
280
     0
281
     1
  0
CLASS
  1
XRECORD
  2
AcDbXrecord
  3
AutoCAD 2000
 90
        0
280
     0
281
     0
  0
CLASS
  1
LONG_TRANSACTION
  2
AcDbLongTransaction
  3
AutoCAD 2000
 90
        0
280
     0
281
     0
  0
CLASS
  1
LWPOLYLINE
  2
AcDbPolyline
  3
AutoCAD 2000
 90
        0
280
     0
281
     1
  0
CLASS
  1
HATCH
  2
AcDbHatch
  3
AutoCAD 2000
 90
        0
280
     0
281
     1
  0
CLASS
  1
XRECORD
  2
AcDbXrecord
  3
AutoCAD 2000
 90
        0
280
     0
281
     0
  0
ENDSEC
  0
SECTION
  2
TABLES
  0
TABLE
  2
VPORT
  5
8
330
0
100
AcDbSymbolTable
 70
     2
  0
VPORT
  5
2A8
330
8
100
AcDbSymbolTableRecord
100
AcDbViewportTableRecord
  2
*ACTIVE
 70
     0
 10
0.0
 20
0.0
 11
1.0
 21
1.0
 12
1.578992966964046
 22
3.774900557628965
 13
0.0
 23
0.0
 14
0.5740882589684922
 24
0.5740882589684922
 15
0.5
 25
0.5
 16
0.0
 26
0.0
 36
1.0
 17
0.0
 27
0.0
 37
0.0
 40
12.37286757987653
 41
1.570528967254408
 42
50.0
 43
0.0
 44
0.0
 50
0.0
 51
0.0
 71
     0
 72
   100
 73
     1
 74
     0
 75
     0
 76
     0
 77
     0
 78
     0
  0
ENDTAB
  0
TABLE
  2
LTYPE
  5
5
330
0
100
AcDbSymbolTable
 70
     1
  0
LTYPE
  5
13
330
5
100
AcDbSymbolTableRecord
100
AcDbLinetypeTableRecord
  2
BYBLOCK
 70
     0
  3

 72
    65
 73
     0
 40
0.0
  0
LTYPE
  5
14
330
5
100
AcDbSymbolTableRecord
100
AcDbLinetypeTableRecord
  2
BYLAYER
 70
     0
  3

 72
    65
 73
     0
 40
0.0
  0
LTYPE
  5
15
330
5
100
AcDbSymbolTableRecord
100
AcDbLinetypeTableRecord
  2
CONTINUOUS
 70
     0
  3
Solid line
 72
    65
 73
     0
 40
0.0
  0
ENDTAB
  0
TABLE
  2
LAYER
  5
2
330
0
100
AcDbSymbolTable
 70
     4
  0
LAYER
  5
10
330
2
100
AcDbSymbolTableRecord
100
AcDbLayerTableRecord
  2
0
 70
     0
 62
     7
  6
CONTINUOUS
  0
LAYER
  5
6C
330
2
100
AcDbSymbolTableRecord
100
AcDbLayerTableRecord
  2
ADPDIM
 70
     0
 62
     3
  6
CONTINUOUS
  0
LAYER
  5
6E
330
2
100
AcDbSymbolTableRecord
100
AcDbLayerTableRecord
  2
ADP1DETAIL
 70
     0
 62
     7
  6
CONTINUOUS
  0
LAYER
  5
70
330
2
100
AcDbSymbolTableRecord
100
AcDbLayerTableRecord
  2
DEFPOINTS
 70
     0
 62
     7
  6
CONTINUOUS
  0
ENDTAB
  0
TABLE
  2
STYLE
  5
3
330
0
100
AcDbSymbolTable
 70
     2
  0
STYLE
  5
11
330
3
100
AcDbSymbolTableRecord
100
AcDbTextStyleTableRecord
  2
STANDARD
 70
     0
 40
0.0
 41
1.0
 50
0.0
 71
     0
 42
0.2
  3
txt
  4

  0
STYLE
  5
111
330
3
100
AcDbSymbolTableRecord
100
AcDbTextStyleTableRecord
  2
ARIAL_WIDE
 70
     0
 40
0.0
 41
1.25
 50
0.0
 71
     0
 42
0.2
  3
ARIAL.TTF
  4

1001
ACAD
1000
Arial
1071
       34
  0
ENDTAB
  0
TABLE
  2
VIEW
  5
6
330
0
100
AcDbSymbolTable
 70
     0
  0
ENDTAB
  0
TABLE
  2
UCS
  5
7
330
0
100
AcDbSymbolTable
 70
     0
  0
ENDTAB
  0
TABLE
  2
APPID
  5
9
330
0
100
AcDbSymbolTable
 70
     1
  0
APPID
  5
12
330
9
100
AcDbSymbolTableRecord
100
AcDbRegAppTableRecord
  2
ACAD
 70
     0
  0
ENDTAB
  0
TABLE
  2
DIMSTYLE
  5
A
330
0
100
AcDbSymbolTable
 70
     1
  0
DIMSTYLE
105
10F
330
A
100
AcDbSymbolTableRecord
100
AcDbDimStyleTableRecord
  2
STANDARD
 70
     0
  3

  4

  5

  6

  7

 40
1.0
 41
0.18
 42
0.0625
 43
0.38
 44
0.18
 45
0.0
 46
0.0
 47
0.0
 48
0.0
140
0.18
141
0.09
142
0.0
143
25.4
144
1.0
145
0.0
146
1.0
147
0.09
 71
     0
 72
     0
 73
     1
 74
     1
 75
     0
 76
     0
 77
     0
 78
     0
170
     0
171
     2
172
     0
173
     0
174
     0
175
     0
176
     0
177
     0
178
     0
270
     2
271
     4
272
     4
273
     2
274
     2
340
11
275
     0
280
     0
281
     0
282
     0
283
     1
284
     0
285
     0
286
     0
287
     3
288
     0
  0
ENDTAB
  0
TABLE
  2
BLOCK_RECORD
  5
1
330
0
100
AcDbSymbolTable
 70
     2
  0
BLOCK_RECORD
  5
1E
102
{ACAD_XDICTIONARY
360
14E
102
}
330
1
100
AcDbSymbolTableRecord
100
AcDbBlockTableRecord
  2
*MODEL_SPACE
  0
BLOCK_RECORD
  5
1A
102
{ACAD_XDICTIONARY
360
150
102
}
330
1
100
AcDbSymbolTableRecord
100
AcDbBlockTableRecord
  2
*PAPER_SPACE
  0
BLOCK_RECORD
  5
67
330
1
100
AcDbSymbolTableRecord
100
AcDbBlockTableRecord
  2
*D0
  0
BLOCK_RECORD
  5
6A
330
1
100
AcDbSymbolTableRecord
100
AcDbBlockTableRecord
  2
*D1
  0
ENDTAB
  0
ENDSEC
  0
SECTION
  2
BLOCKS
  0
BLOCK
  5
73
330
1E
100
AcDbEntity
  8
0
100
AcDbBlockBegin
  2
*MODEL_SPACE
 70
     0
 10
0.0
 20
0.0
 30
0.0
  3
*MODEL_SPACE
  1

  0
ENDBLK
  5
74
330
1E
100
AcDbEntity
  8
0
100
AcDbBlockEnd
  0
BLOCK
  5
71
330
1A
100
AcDbEntity
 67
     1
  8
0
100
AcDbBlockBegin
  2
*PAPER_SPACE
 70
     0
 10
0.0
 20
0.0
 30
0.0
  3
*PAPER_SPACE
  1

  0
ENDBLK
  5
72
330
1A
100
AcDbEntity
 67
     1
  8
0
100
AcDbBlockEnd
  0
BLOCK
  5
76
330
67
100
AcDbEntity
  8
0
100
AcDbBlockBegin
  2
*D0
 70
     1
 10
0.0
 20
0.0
 30
0.0
  3
*D0
  1
*U
  0
LINE
  5
77
330
67
100
AcDbEntity
  8
0
  6
BYBLOCK
 62
     0
100
AcDbLine
 10
3.018021334543508
 20
0.0843234354631105
 30
0.0
 11
4.030605151940499
 21
0.0843234354631104
 31
0.0
  0
LINE
  5
78
330
67
100
AcDbEntity
  8
0
  6
BYBLOCK
 62
     0
100
AcDbLine
 10
3.018021334543508
 20
7.839780308404127
 30
0.0
 11
4.0306051519405
 21
7.839780308404127
 31
0.0
  0
LINE
  5
79
330
67
100
AcDbEntity
  8
0
  6
BYBLOCK
 62
     0
100
AcDbLine
 10
3.8506051519405
 20
0.0843234354631104
 30
0.0
 11
3.8506051519405
 21
3.545385205266951
 31
0.0
  0
LINE
  5
7A
330
67
100
AcDbEntity
  8
0
  6
BYBLOCK
 62
     0
100
AcDbLine
 10
3.8506051519405
 20
7.839780308404127
 30
0.0
 11
3.8506051519405
 21
4.378718538600285
 31
0.0
  0
LINE
  5
7B
330
67
100
AcDbEntity
  8
0
  6
BYBLOCK
 62
     0
100
AcDbLine
 10
3.9756051519405
 20
-0.0406765645368896
 30
0.0
 11
3.7256051519405
 21
0.2093234354631104
 31
0.0
  0
LINE
  5
7C
330
67
100
AcDbEntity
  8
0
  6
BYBLOCK
 62
     0
100
AcDbLine
 10
3.9756051519405
 20
7.714780308404127
 30
0.0
 11
3.7256051519405
 21
7.964780308404127
 31
0.0
  0
TEXT
  5
7D
330
67
100
AcDbEntity
  8
0
  6
BYBLOCK
 62
     0
100
AcDbText
 10
3.9131051519405
 20
3.670385205266951
 30
0.0
 40
0.125
  1
7 3/4
 50
90.0
 72
     1
 11
3.8506051519405
 21
3.962051871933618
 31
0.0
100
AcDbText
 73
     2
  0
POINT
  5
7F
330
67
100
AcDbEntity
  8
DEFPOINTS
  6
BYBLOCK
 62
     0
100
AcDbPoint
 10
2.955521334543508
 20
0.0843234354631105
 30
0.0
  0
POINT
  5
80
330
67
100
AcDbEntity
  8
DEFPOINTS
  6
BYBLOCK
 62
     0
100
AcDbPoint
 10
2.955521334543508
 20
7.839780308404127
 30
0.0
  0
POINT
  5
81
330
67
100
AcDbEntity
  8
DEFPOINTS
  6
BYBLOCK
 62
     0
100
AcDbPoint
 10
3.8506051519405
 20
7.839780308404127
 30
0.0
  0
ENDBLK
  5
82
330
67
100
AcDbEntity
  8
0
100
AcDbBlockEnd
  0
BLOCK
  5
83
330
6A
100
AcDbEntity
  8
0
100
AcDbBlockBegin
  2
*D1
 70
     1
 10
0.0
 20
0.0
 30
0.0
  3
*D1
  1
*U
  0
LINE
  5
84
330
6A
100
AcDbEntity
  8
0
  6
BYBLOCK
 62
     0
100
AcDbLine
 10
-0.0280913442430398
 20
5.841389664973085
 30
0.0
 11
-0.0280913442430398
 21
8.277391619767545
 31
0.0
  0
LINE
  5
85
330
6A
100
AcDbEntity
  8
0
  6
BYBLOCK
 62
     0
100
AcDbLine
 10
2.97190865575696
 20
5.841389664973085
 30
0.0
 11
2.97190865575696
 21
8.277391619767545
 31
0.0
  0
LINE
  5
86
330
6A
100
AcDbEntity
  8
0
  6
BYBLOCK
 62
     0
100
AcDbLine
 10
-0.0280913442430398
 20
8.097391619767545
 30
0.0
 11
1.305241989090293
 21
8.097391619767545
 31
0.0
  0
LINE
  5
87
330
6A
100
AcDbEntity
  8
0
  6
BYBLOCK
 62
     0
100
AcDbLine
 10
2.97190865575696
 20
8.097391619767545
 30
0.0
 11
1.638575322423626
 21
8.097391619767545
 31
0.0
  0
LINE
  5
88
330
6A
100
AcDbEntity
  8
0
  6
BYBLOCK
 62
     0
100
AcDbLine
 10
-0.1530913442430398
 20
7.972391619767545
 30
0.0
 11
0.0969086557569602
 21
8.222391619767545
 31
0.0
  0
LINE
  5
89
330
6A
100
AcDbEntity
  8
0
  6
BYBLOCK
 62
     0
100
AcDbLine
 10
2.84690865575696
 20
7.972391619767545
 30
0.0
 11
3.09690865575696
 21
8.222391619767545
 31
0.0
  0
TEXT
  5
8A
330
6A
100
AcDbEntity
  8
0
  6
BYBLOCK
 62
     0
100
AcDbText
 10
1.430241989090293
 20
8.034891619767545
 30
0.0
 40
0.125
  1
3
 72
     1
 11
1.47190865575696
 21
8.097391619767545
 31
0.0
100
AcDbText
 73
     2
  0
POINT
  5
8B
330
6A
100
AcDbEntity
  8
DEFPOINTS
  6
BYBLOCK
 62
     0
100
AcDbPoint
 10
-0.0280913442430398
 20
5.778889664973085
 30
0.0
  0
POINT
  5
8C
330
6A
100
AcDbEntity
  8
DEFPOINTS
  6
BYBLOCK
 62
     0
100
AcDbPoint
 10
2.97190865575696
 20
5.778889664973085
 30
0.0
  0
POINT
  5
8D
330
6A
100
AcDbEntity
  8
DEFPOINTS
  6
BYBLOCK
 62
     0
100
AcDbPoint
 10
2.97190865575696
 20
8.097391619767545
 30
0.0
  0
ENDBLK
  5
8E
330
6A
100
AcDbEntity
  8
0
100
AcDbBlockEnd
  0
ENDSEC
  0
SECTION
  2
ENTITIES
  0
DIMENSION
  5
8F
330
1E
100
AcDbEntity
  8
ADPDIM
100
AcDbDimension
  2
*D1
 10
3.053953563036646
 20
8.178742576253224
 30
0.0
 11
1.553953563036646
 21
8.178742576253224
 31
0.0
 12
0.0820449072796865
 22
0.0813509564856787
 32
0.0
100
AcDbAlignedDimension
 13
0.0539535630366468
 23
5.860240621458764
 33
0.0
 14
3.053953563036646
 24
5.860240621458764
 34
0.0
100
AcDbRotatedDimension
  0
DIMENSION
  5
90
330
1E
100
AcDbEntity
  8
ADPDIM
100
AcDbDimension
  2
*D0
 10
3.375939478689646
 20
7.839780308404127
 30
0.0
 11
3.375939478689646
 21
3.962051871933618
 31
0.0
 12
-0.4746656732508537
 22
0.0
 32
0.0
100
AcDbAlignedDimension
 13
2.480855661292654
 23
0.0843234354631105
 33
0.0
 14
2.480855661292654
 24
7.839780308404127
 34
0.0
 50
90.0
100
AcDbRotatedDimension
  0
LWPOLYLINE
  5
91
330
1E
100
AcDbEntity
  8
ADP1DETAIL
100
AcDbPolyline
 90
        9
 70
     0
 43
0.0
 10
2.331463981169963
 20
7.558469388193425
 42
0.581471519461188
 10
2.104719252221519
 20
7.413734660799327
 42
0.2146295759178388
 10
2.312802443686284
 20
6.74719465715123
 42
0.0620505354593104
 10
2.783076270087017
 20
6.229888628643413
 42
-0.153867997514907
 10
3.116361814405193
 20
5.5537967073058
 42
-0.3214574155365489
 10
2.718448250799509
 20
4.741556293954944
 42
-0.0498397330272215
 10
2.29670951780492
 20
4.523753433931651
 42
0.2863836583862544
 10
2.104553926883206
 20
4.292327609994257
 10
2.104553926883206
 20
4.257643252766036
  0
LWPOLYLINE
  5
9C
330
1E
100
AcDbEntity
  8
ADP1DETAIL
100
AcDbPolyline
 90
        9
 70
     0
 43
0.0
 10
2.453547441430497
 20
7.789993527560234
 42
0.5604662810104017
 10
1.842813982704396
 20
7.426854714263637
 42
0.2067295420571425
 10
2.106914937829197
 20
6.585032919803339
 42
0.0597855413427878
 10
2.602104228688197
 20
6.040324699858441
 42
-0.1512996591292215
 10
2.857952028965347
 20
5.512122789608838
 42
-0.3278055544043567
 10
2.585597918992897
 20
4.967414569663932
 42
-0.0505037655526372
 10
2.205952796000997
 20
4.769338853320335
 42
0.2921747272429453
 10
1.842813982704396
 20
4.307162181851936
 10
1.842813982704396
 20
4.257643252766035
  0
LWPOLYLINE
  5
A7
330
1E
100
AcDbEntity
  8
ADP1DETAIL
100
AcDbPolyline
 90
        9
 70
     0
 43
0.0
 10
0.6543596846427966
 20
7.789993527560234
 42
-0.5604662810104017
 10
1.265093143368896
 20
7.426854714263637
 42
-0.2067295420571425
 10
1.000992188244096
 20
6.585032919803339
 42
-0.0597855413427878
 10
0.5058028973850966
 20
6.040324699858441
 42
0.1512996591292215
 10
0.2499550971079456
 20
5.512122789608838
 42
0.3278055544043567
 10
0.5223092070803963
 20
4.967414569663932
 42
0.0505037655526372
 10
0.9019543300722963
 20
4.769338853320335
 42
-0.2921747272429453
 10
1.265093143368896
 20
4.307162181851936
 10
1.265093143368896
 20
4.257643252766035
  0
LWPOLYLINE
  5
B2
330
1E
100
AcDbEntity
  8
ADP1DETAIL
100
AcDbPolyline
 90
        9
 70
     0
 43
0.0
 10
0.7764431449033303
 20
7.558469388193425
 42
-0.581471519461188
 10
1.003187873851774
 20
7.413734660799327
 42
-0.2146295759178388
 10
0.7951046823870094
 20
6.74719465715123
 42
-0.0620505354593104
 10
0.3248308559862769
 20
6.229888628643413
 42
0.153867997514907
 10
-0.0084546883319003
 20
5.5537967073058
 42
0.3214574155365489
 10
0.3894588752737844
 20
4.741556293954944
 42
0.0498397330272215
 10
0.8111976082683739
 20
4.523753433931651
 42
-0.2863836583862544
 10
1.003353199190087
 20
4.292327609994257
 10
1.003353199190087
 20
4.257643252766036
  0
ARC
  5
BD
330
1E
100
AcDbEntity
  8
ADP1DETAIL
100
AcDbCircle
 10
0.9952569320526967
 20
3.958080471056512
 30
0.0
 40
0.225249724082684
100
AcDbArc
 50
105.5249758834691
 51
254.4750241165308
  0
LWPOLYLINE
  5
BE
330
1E
100
AcDbEntity
  8
ADP1DETAIL
100
AcDbPolyline
 90
        9
 70
     0
 43
0.0
 10
0.7764431449033303
 20
0.357691553919599
 42
0.581471519461188
 10
1.003187873851774
 20
0.5024262813136963
 42
0.2146295759178388
 10
0.7951046823870094
 20
1.168966284961794
 42
0.0620505354593104
 10
0.3248308559862769
 20
1.68627231346961
 42
-0.153867997514907
 10
-0.0084546883319003
 20
2.362364234807223
 42
-0.3214574155365489
 10
0.3894588752737844
 20
3.17460464815808
 42
-0.0498397330272215
 10
0.8111976082683739
 20
3.392407508181373
 42
0.2863836583862544
 10
1.003353199190087
 20
3.623833332118766
 10
1.003353199190087
 20
3.658517689346988
  0
LWPOLYLINE
  5
C9
330
1E
100
AcDbEntity
  8
ADP1DETAIL
100
AcDbPolyline
 90
        9
 70
     0
 43
0.0
 10
0.6543596846427966
 20
0.1261674145527905
 42
0.5604662810104017
 10
1.265093143368896
 20
0.489306227849387
 42
0.2067295420571425
 10
1.000992188244096
 20
1.331128022309685
 42
0.0597855413427878
 10
0.5058028973850966
 20
1.875836242254583
 42
-0.1512996591292215
 10
0.2499550971079456
 20
2.404038152504186
 42
-0.3278055544043567
 10
0.5223092070803963
 20
2.948746372449091
 42
-0.0505037655526372
 10
0.9019543300722963
 20
3.146822088792689
 42
0.2921747272429453
 10
1.265093143368896
 20
3.608998760261088
 10
1.265093143368896
 20
3.658517689346989
  0
LWPOLYLINE
  5
D4
330
1E
100
AcDbEntity
  8
ADP1DETAIL
100
AcDbPolyline
 90
        4
 70
     0
 43
0.0
 10
0.7764431449033303
 20
0.357691553919599
 42
0.8572199558377368
 10
0.7699038525098967
 20
0.5553314666305909
 42
0.6541247677941974
 10
0.5058028973850966
 20
0.2747242018104867
 42
0.2248662268476365
 10
0.6543596846427966
 20
0.1261674145527905
 42
0.173213749463685
  0
LWPOLYLINE
  5
DA
330
1E
100
AcDbEntity
  8
ADP1DETAIL
100
AcDbPolyline
 90
        9
 70
     0
 43
0.0
 10
2.453547441430497
 20
0.1261674145527905
 42
-0.5604662810104017
 10
1.842813982704396
 20
0.489306227849387
 42
-0.2067295420571425
 10
2.106914937829197
 20
1.331128022309685
 42
-0.0597855413427878
 10
2.602104228688197
 20
1.875836242254583
 42
0.1512996591292215
 10
2.857952028965347
 20
2.404038152504186
 42
0.3278055544043567
 10
2.585597918992897
 20
2.948746372449091
 42
0.0505037655526372
 10
2.205952796000997
 20
3.146822088792689
 42
-0.2921747272429453
 10
1.842813982704396
 20
3.608998760261088
 10
1.842813982704396
 20
3.658517689346989
  0
LWPOLYLINE
  5
E5
330
1E
100
AcDbEntity
  8
ADP1DETAIL
100
AcDbPolyline
 90
        9
 70
     0
 43
0.0
 10
2.331463981169963
 20
0.357691553919599
 42
-0.581471519461188
 10
2.104719252221519
 20
0.5024262813136963
 42
-0.2146295759178388
 10
2.312802443686284
 20
1.168966284961794
 42
-0.0620505354593104
 10
2.783076270087017
 20
1.68627231346961
 42
0.153867997514907
 10
3.116361814405193
 20
2.362364234807223
 42
0.3214574155365489
 10
2.718448250799509
 20
3.17460464815808
 42
0.0498397330272215
 10
2.29670951780492
 20
3.392407508181373
 42
-0.2863836583862544
 10
2.104553926883206
 20
3.623833332118766
 10
2.104553926883206
 20
3.658517689346988
  0
LWPOLYLINE
  5
F0
330
1E
100
AcDbEntity
  8
ADP1DETAIL
100
AcDbPolyline
 90
        4
 70
     0
 43
0.0
 10
2.331463981169963
 20
0.357691553919599
 42
-0.8572199558377368
 10
2.338003273563397
 20
0.5553314666305909
 42
-0.6541247677941974
 10
2.602104228688197
 20
0.2747242018104867
 42
-0.2248662268476365
 10
2.453547441430497
 20
0.1261674145527905
 42
-0.173213749463685
  0
LWPOLYLINE
  5
F6
330
1E
100
AcDbEntity
  8
ADP1DETAIL
100
AcDbPolyline
 90
        4
 70
     1
 43
0.0
 10
0.9349669494628965
 20
3.658517689346989
 10
0.9349669494628965
 20
3.741049237823488
 10
2.172940176610397
 20
3.741049237823488
 10
2.172940176610397
 20
3.658517689346989
  0
ARC
  5
FC
330
1E
100
AcDbEntity
  8
ADP1DETAIL
100
AcDbCircle
 10
2.107786807599378
 20
3.954383938742368
 30
0.0
 40
0.2301427990985841
100
AcDbArc
 50
282.203102165964
 51
73.55470504071329
  0
LWPOLYLINE
  5
FD
330
1E
100
AcDbEntity
  8
ADP1DETAIL
100
AcDbPolyline
 90
        4
 70
     1
 43
0.0
 10
0.9349669494628965
 20
4.257643252766035
 10
0.9349669494628965
 20
4.175111704289536
 10
2.172940176610397
 20
4.175111704289536
 10
2.172940176610397
 20
4.257643252766035
  0
LWPOLYLINE
  5
103
330
1E
100
AcDbEntity
  8
ADP1DETAIL
100
AcDbPolyline
 90
        4
 70
     0
 43
0.0
 10
0.7764431449033303
 20
7.558469388193425
 42
-0.8572199558377368
 10
0.7699038525098967
 20
7.360829475482433
 42
-0.6541247677941974
 10
0.5058028973850966
 20
7.641436740302538
 42
-0.2248662268476365
 10
0.6543596846427966
 20
7.789993527560234
 42
-0.173213749463685
  0
LWPOLYLINE
  5
109
330
1E
100
AcDbEntity
  8
ADP1DETAIL
100
AcDbPolyline
 90
        4
 70
     0
 43
0.0
 10
2.331463981169963
 20
7.558469388193425
 42
0.8572199558377368
 10
2.338003273563397
 20
7.360829475482433
 42
0.6541247677941974
 10
2.602104228688197
 20
7.641436740302538
 42
0.2248662268476365
 10
2.453547441430497
 20
7.789993527560234
 42
0.173213749463685
  0
TEXT
  5
112
330
1E
100
AcDbEntity
  8
ADPDIM
100
AcDbText
 10
-8.087972314824551
 20
-0.7531673642478262
 30
0.0
 40
0.1875
  1
J U L I U S  B L U M  &  C O . ,  I N C .      ( 8 0 0 )  5 2 6 - 6 2 9 3        W W W . J U L I U S B L U M . C O M        P A R T  N o .  5 4 6
 41
1.25
  7
ARIAL_WIDE
 72
     1
 11
1.564088991451029
 21
-0.5656673642478262
 31
0.0
100
AcDbText
 73
     3
  0
ENDSEC
  0
SECTION
  2
OBJECTS
  0
DICTIONARY
  5
C
330
0
100
AcDbDictionary
  3
ACAD_GROUP
350
D
  3
ACAD_LAYOUT
350
19
  3
ACAD_MLINESTYLE
350
16
  3
ACAD_PLOTSETTINGS
350
18
  3
ACAD_PLOTSTYLENAME
350
E
  3
ACDBHEADERROUNDTRIPXREC
350
2A9
  3
ACDBVARIABLEDICTIONARY
350
183
  0
DICTIONARY
  5
14E
330
1E
100
AcDbDictionary
280
     1
  3
ACAD_LAYOUTSELFREF
360
2CB
  0
DICTIONARY
  5
150
330
1A
100
AcDbDictionary
280
     1
  3
ACAD_LAYOUTSELFREF
360
2CA
  0
DICTIONARY
  5
D
102
{ACAD_REACTORS
330
C
102
}
330
C
100
AcDbDictionary
  0
DICTIONARY
  5
19
102
{ACAD_REACTORS
330
C
102
}
330
C
100
AcDbDictionary
  0
DICTIONARY
  5
16
102
{ACAD_REACTORS
330
C
102
}
330
C
100
AcDbDictionary
  3
STANDARD
350
17
  0
DICTIONARY
  5
18
102
{ACAD_REACTORS
330
C
102
}
330
C
100
AcDbDictionary
  0
ACDBDICTIONARYWDFLT
  5
E
102
{ACAD_REACTORS
330
C
102
}
330
C
100
AcDbDictionary
281
     1
  3
Normal
350
F
100
AcDbDictionaryWithDefault
340
F
  0
DICTIONARY
  5
2A9
102
{ACAD_REACTORS
330
C
102
}
330
C
100
AcDbDictionary
  3
CEPSNTYPE
350
2B3
  3
DIMSTYLEDATA
350
2B7
  3
FINGERPRINTGUID
350
2B4
  3
HYPERLINKBASE
350
2AC
  3
INSUNITS
350
2B2
  3
LAYOUTDICT
350
2AE
  3
LWETCUNION
350
2B1
  3
PLOTSETDICT
350
2AF
  3
PLOTSTYLNAMDICT
350
2B0
  3
PSVPSCALE
350
2B6
  3
PUCSBASE
350
2BA
  3
PUCSORGBACK
350
2C0
  3
PUCSORGBOTTOM
350
2BC
  3
PUCSORGFRONT
350
2BF
  3
PUCSORGLEFT
350
2BD
  3
PUCSORGRIGHT
350
2BE
  3
PUCSORGTOP
350
2BB
  3
PUCSORTHOREF
350
2B8
  3
PUCSORTHOVIEW
350
2B9
  3
STYLESHEET
350
2AD
  3
TSTACKALIGN
350
2AA
  3
TSTACKSIZE
350
2AB
  3
UCSBASE
350
2C3
  3
UCSORGBACK
350
2C9
  3
UCSORGBOTTOM
350
2C5
  3
UCSORGFRONT
350
2C8
  3
UCSORGLEFT
350
2C6
  3
UCSORGRIGHT
350
2C7
  3
UCSORGTOP
350
2C4
  3
UCSORTHOREF
350
2C1
  3
UCSORTHOVIEW
350
2C2
  3
VERSIONGUID
350
2B5
  0
DICTIONARY
  5
183
102
{ACAD_REACTORS
330
C
102
}
330
C
100
AcDbDictionary
  3
DIMASSOC
350
185
  3
HIDETEXT
350
184
  0
XRECORD
  5
2CB
102
{ACAD_REACTORS
330
14E
102
}
330
14E
100
AcDbXrecord
340
1E
  0
XRECORD
  5
2CA
102
{ACAD_REACTORS
330
150
102
}
330
150
100
AcDbXrecord
340
1A
  0
MLINESTYLE
  5
17
102
{ACAD_REACTORS
330
16
102
}
330
16
100
AcDbMlineStyle
  2
STANDARD
 70
     0
  3

 62
   256
 51
90.0
 52
90.0
 71
     2
 49
0.5
 62
   256
  6
BYLAYER
 49
-0.5
 62
   256
  6
BYLAYER
  0
ACDBPLACEHOLDER
  5
F
102
{ACAD_REACTORS
330
E
102
}
330
E
100
AcDbPlaceHolder
280
     0
  0
XRECORD
  5
2B3
102
{ACAD_REACTORS
330
2A9
102
}
330
2A9
100
AcDbXrecord
 90
        0
  0
XRECORD
  5
2B7
102
{ACAD_REACTORS
330
2A9
102
}
330
2A9
100
AcDbXrecord
1000
DSTYLE
1002
{
1070
   277
 70
     5
1070
   279
 70
     2
1002
}
  0
XRECORD
  5
2B4
102
{ACAD_REACTORS
330
2A9
102
}
330
2A9
100
AcDbXrecord
  1
{D282D61B-FB17-401A-8645-1F698127FD5C}
  0
XRECORD
  5
2AC
102
{ACAD_REACTORS
330
2A9
102
}
330
2A9
100
AcDbXrecord
  1

  0
XRECORD
  5
2B2
102
{ACAD_REACTORS
330
2A9
102
}
330
2A9
100
AcDbXrecord
 90
        0
  0
XRECORD
  5
2AE
102
{ACAD_REACTORS
330
2A9
102
}
330
2A9
100
AcDbXrecord
340
19
  0
XRECORD
  5
2B1
102
{ACAD_REACTORS
330
2A9
102
}
330
2A9
100
AcDbXrecord
 90
    14877
  0
XRECORD
  5
2AF
102
{ACAD_REACTORS
330
2A9
102
}
330
2A9
100
AcDbXrecord
340
18
  0
XRECORD
  5
2B0
102
{ACAD_REACTORS
330
2A9
102
}
330
2A9
100
AcDbXrecord
340
E
  0
XRECORD
  5
2B6
102
{ACAD_REACTORS
330
2A9
102
}
330
2A9
100
AcDbXrecord
 40
0.0
  0
XRECORD
  5
2BA
102
{ACAD_REACTORS
330
2A9
102
}
330
2A9
100
AcDbXrecord
340
0
  0
XRECORD
  5
2C0
102
{ACAD_REACTORS
330
2A9
102
}
330
2A9
100
AcDbXrecord
 10
0.0
 20
0.0
 30
0.0
  0
XRECORD
  5
2BC
102
{ACAD_REACTORS
330
2A9
102
}
330
2A9
100
AcDbXrecord
 10
0.0
 20
0.0
 30
0.0
  0
XRECORD
  5
2BF
102
{ACAD_REACTORS
330
2A9
102
}
330
2A9
100
AcDbXrecord
 10
0.0
 20
0.0
 30
0.0
  0
XRECORD
  5
2BD
102
{ACAD_REACTORS
330
2A9
102
}
330
2A9
100
AcDbXrecord
 10
0.0
 20
0.0
 30
0.0
  0
XRECORD
  5
2BE
102
{ACAD_REACTORS
330
2A9
102
}
330
2A9
100
AcDbXrecord
 10
0.0
 20
0.0
 30
0.0
  0
XRECORD
  5
2BB
102
{ACAD_REACTORS
330
2A9
102
}
330
2A9
100
AcDbXrecord
 10
0.0
 20
0.0
 30
0.0
  0
XRECORD
  5
2B8
102
{ACAD_REACTORS
330
2A9
102
}
330
2A9
100
AcDbXrecord
340
0
  0
XRECORD
  5
2B9
102
{ACAD_REACTORS
330
2A9
102
}
330
2A9
100
AcDbXrecord
 70
     0
  0
XRECORD
  5
2AD
102
{ACAD_REACTORS
330
2A9
102
}
330
2A9
100
AcDbXrecord
  1

  0
XRECORD
  5
2AA
102
{ACAD_REACTORS
330
2A9
102
}
330
2A9
100
AcDbXrecord
 90
        1
  0
XRECORD
  5
2AB
102
{ACAD_REACTORS
330
2A9
102
}
330
2A9
100
AcDbXrecord
 90
       70
  0
XRECORD
  5
2C3
102
{ACAD_REACTORS
330
2A9
102
}
330
2A9
100
AcDbXrecord
340
0
  0
XRECORD
  5
2C9
102
{ACAD_REACTORS
330
2A9
102
}
330
2A9
100
AcDbXrecord
 10
0.0
 20
0.0
 30
0.0
  0
XRECORD
  5
2C5
102
{ACAD_REACTORS
330
2A9
102
}
330
2A9
100
AcDbXrecord
 10
0.0
 20
0.0
 30
0.0
  0
XRECORD
  5
2C8
102
{ACAD_REACTORS
330
2A9
102
}
330
2A9
100
AcDbXrecord
 10
0.0
 20
0.0
 30
0.0
  0
XRECORD
  5
2C6
102
{ACAD_REACTORS
330
2A9
102
}
330
2A9
100
AcDbXrecord
 10
0.0
 20
0.0
 30
0.0
  0
XRECORD
  5
2C7
102
{ACAD_REACTORS
330
2A9
102
}
330
2A9
100
AcDbXrecord
 10
0.0
 20
0.0
 30
0.0
  0
XRECORD
  5
2C4
102
{ACAD_REACTORS
330
2A9
102
}
330
2A9
100
AcDbXrecord
 10
0.0
 20
0.0
 30
0.0
  0
XRECORD
  5
2C1
102
{ACAD_REACTORS
330
2A9
102
}
330
2A9
100
AcDbXrecord
340
0
  0
XRECORD
  5
2C2
102
{ACAD_REACTORS
330
2A9
102
}
330
2A9
100
AcDbXrecord
 70
     0
  0
XRECORD
  5
2B5
102
{ACAD_REACTORS
330
2A9
102
}
330
2A9
100
AcDbXrecord
  1
{1A0E2864-1240-4A36-A979-7109C9D0C4E3}
  0
DICTIONARYVAR
  5
185
102
{ACAD_REACTORS
330
183
102
}
330
183
100
DictionaryVariables
280
     0
  1
2
  0
DICTIONARYVAR
  5
184
102
{ACAD_REACTORS
330
183
102
}
330
183
100
DictionaryVariables
280
     0
  1
1
  0
ENDSEC
  0
EOF
