  0
SECTION
  2
HEADER
  9
$ACADVER
  1
AC1014
  9
$ACADMAINTVER
 70
     9
  9
$DWGCODEPAGE
  3
ANSI_1252
  9
$INSBASE
 10
1.525396862301303
 20
0.2828030495198752
 30
0.0
  9
$EXTMIN
 10
-4.883924956131299
 20
-0.9822436846430914
 30
0.0
  9
$EXTMAX
 10
7.985490118902807
 20
4.72598030349156
 30
0.0
  9
$LIMMIN
 10
0.0
 20
0.0
  9
$LIMMAX
 10
36.0
 20
36.0
  9
$ORTHOMODE
 70
     1
  9
$REGENMODE
 70
     1
  9
$FILLMODE
 70
     1
  9
$QTEXTMODE
 70
     0
  9
$MIRRTEXT
 70
     1
  9
$DRAGMODE
 70
     0
  9
$LTSCALE
 40
1.0
  9
$OSMODE
 70
    37
  9
$ATTMODE
 70
     1
  9
$TEXTSIZE
 40
0.2
  9
$TRACEWID
 40
0.05
  9
$TEXTSTYLE
  7
STANDARD
  9
$CLAYER
  8
ADPDIM
  9
$CELTYPE
  6
BYLAYER
  9
$CECOLOR
 62
   256
  9
$CELTSCALE
 40
1.0
  9
$DELOBJ
 70
     1
  9
$DISPSILH
 70
     0
  9
$DIMSCALE
 40
1.0
  9
$DIMASZ
 40
0.125
  9
$DIMEXO
 40
0.0625
  9
$DIMDLI
 40
0.38
  9
$DIMRND
 40
0.0
  9
$DIMDLE
 40
0.0
  9
$DIMEXE
 40
0.18
  9
$DIMTP
 40
0.0
  9
$DIMTM
 40
0.0
  9
$DIMTXT
 40
0.125
  9
$DIMCEN
 40
0.1875
  9
$DIMTSZ
 40
0.125
  9
$DIMTOL
 70
     0
  9
$DIMLIM
 70
     0
  9
$DIMTIH
 70
     0
  9
$DIMTOH
 70
     0
  9
$DIMSE1
 70
     0
  9
$DIMSE2
 70
     0
  9
$DIMTAD
 70
     0
  9
$DIMZIN
 70
     3
  9
$DIMBLK
  1

  9
$DIMASO
 70
     1
  9
$DIMSHO
 70
     1
  9
$DIMPOST
  1

  9
$DIMAPOST
  1

  9
$DIMALT
 70
     0
  9
$DIMALTD
 70
     1
  9
$DIMALTF
 40
25.4
  9
$DIMLFAC
 40
1.0
  9
$DIMTOFL
 70
     0
  9
$DIMTVP
 40
0.0
  9
$DIMTIX
 70
     0
  9
$DIMSOXD
 70
     0
  9
$DIMSAH
 70
     0
  9
$DIMBLK1
  1

  9
$DIMBLK2
  1

  9
$DIMSTYLE
  2
STANDARD
  9
$DIMCLRD
 70
     0
  9
$DIMCLRE
 70
     0
  9
$DIMCLRT
 70
     0
  9
$DIMTFAC
 40
1.0
  9
$DIMGAP
 40
0.125
  9
$DIMJUST
 70
     0
  9
$DIMSD1
 70
     0
  9
$DIMSD2
 70
     0
  9
$DIMTOLJ
 70
     1
  9
$DIMTZIN
 70
     0
  9
$DIMALTZ
 70
     0
  9
$DIMALTTZ
 70
     0
  9
$DIMFIT
 70
     3
  9
$DIMUPT
 70
     0
  9
$DIMUNIT
 70
     2
  9
$DIMDEC
 70
     4
  9
$DIMTDEC
 70
     4
  9
$DIMALTU
 70
     2
  9
$DIMALTTD
 70
     2
  9
$DIMTXSTY
  7
STANDARD
  9
$DIMAUNIT
 70
     0
  9
$LUNITS
 70
     5
  9
$LUPREC
 70
     5
  9
$SKETCHINC
 40
0.1
  9
$FILLETRAD
 40
0.0
  9
$AUNITS
 70
     0
  9
$AUPREC
 70
     0
  9
$MENU
  1
acad
  9
$ELEVATION
 40
0.0
  9
$PELEVATION
 40
0.0
  9
$THICKNESS
 40
0.0
  9
$LIMCHECK
 70
     0
  9
$BLIPMODE
 70
     0
  9
$CHAMFERA
 40
0.0
  9
$CHAMFERB
 40
0.0
  9
$CHAMFERC
 40
0.0
  9
$CHAMFERD
 40
0.0
  9
$SKPOLY
 70
     0
  9
$TDCREATE
 40
2450414.599266782
  9
$TDUPDATE
 40
2452297.072615370
  9
$TDINDWG
 40
0.0174173032
  9
$TDUSRTIMER
 40
0.0174173032
  9
$USRTIMER
 70
     1
  9
$ANGBASE
 50
0.0
  9
$ANGDIR
 70
     0
  9
$PDMODE
 70
     0
  9
$PDSIZE
 40
0.0
  9
$PLINEWID
 40
0.0
  9
$COORDS
 70
     2
  9
$SPLFRAME
 70
     0
  9
$SPLINETYPE
 70
     6
  9
$SPLINESEGS
 70
     8
  9
$ATTDIA
 70
     0
  9
$ATTREQ
 70
     1
  9
$HANDLING
 70
 22529
  9
$HANDSEED
  5
259
  9
$SURFTAB1
 70
     6
  9
$SURFTAB2
 70
     6
  9
$SURFTYPE
 70
     6
  9
$SURFU
 70
     6
  9
$SURFV
 70
     6
  9
$UCSNAME
  2

  9
$UCSORG
 10
0.0
 20
0.0
 30
0.0
  9
$UCSXDIR
 10
1.0
 20
0.0
 30
0.0
  9
$UCSYDIR
 10
0.0
 20
1.0
 30
0.0
  9
$PUCSNAME
  2

  9
$PUCSORG
 10
0.0
 20
0.0
 30
0.0
  9
$PUCSXDIR
 10
1.0
 20
0.0
 30
0.0
  9
$PUCSYDIR
 10
0.0
 20
1.0
 30
0.0
  9
$USERI1
 70
     0
  9
$USERI2
 70
     0
  9
$USERI3
 70
     0
  9
$USERI4
 70
     0
  9
$USERI5
 70
     0
  9
$USERR1
 40
0.0
  9
$USERR2
 40
0.0
  9
$USERR3
 40
0.0
  9
$USERR4
 40
0.0
  9
$USERR5
 40
0.0
  9
$WORLDVIEW
 70
     1
  9
$SHADEDGE
 70
     3
  9
$SHADEDIF
 70
    70
  9
$TILEMODE
 70
     1
  9
$MAXACTVP
 70
    15
  9
$PINSBASE
 10
0.0781263709068299
 20
112.0181290174387
 30
0.0
  9
$PLIMCHECK
 70
     0
  9
$PEXTMIN
 10
1.000000000000000E+20
 20
1.000000000000000E+20
 30
1.000000000000000E+20
  9
$PEXTMAX
 10
-1.000000000000000E+20
 20
-1.000000000000000E+20
 30
-1.000000000000000E+20
  9
$PLIMMIN
 10
0.0
 20
0.0
  9
$PLIMMAX
 10
12.0
 20
9.0
  9
$UNITMODE
 70
     0
  9
$VISRETAIN
 70
     0
  9
$PLINEGEN
 70
     0
  9
$PSLTSCALE
 70
     1
  9
$TREEDEPTH
 70
  3020
  9
$PICKSTYLE
 70
     1
  9
$CMLSTYLE
  2
STANDARD
  9
$CMLJUST
 70
     0
  9
$CMLSCALE
 40
1.0
  9
$PROXYGRAPHICS
 70
     1
  9
$MEASUREMENT
 70
     0
  0
ENDSEC
  0
SECTION
  2
CLASSES
  0
CLASS
  1
ACDBDICTIONARYWDFLT
  2
AcDbDictionaryWithDefault
  3
AutoCAD 2000
 90
        0
280
     0
281
     0
  0
CLASS
  1
ACDBPLACEHOLDER
  2
AcDbPlaceHolder
  3
AutoCAD 2000
 90
        0
280
     0
281
     0
  0
CLASS
  1
LAYOUT
  2
AcDbLayout
  3
AutoCAD 2000
 90
        0
280
     0
281
     0
  0
CLASS
  1
DICTIONARYVAR
  2
AcDbDictionaryVar
  3
AutoCAD 2000
 90
        0
280
     0
281
     0
  0
CLASS
  1
LONG_TRANSACTION
  2
AcDbLongTransaction
  3
AutoCAD 2000
 90
        0
280
     0
281
     0
  0
CLASS
  1
LWPOLYLINE
  2
AcDbPolyline
  3
AutoCAD 2000
 90
        0
280
     0
281
     1
  0
CLASS
  1
HATCH
  2
AcDbHatch
  3
AutoCAD 2000
 90
        0
280
     0
281
     1
  0
CLASS
  1
XRECORD
  2
AcDbXrecord
  3
AutoCAD 2000
 90
        0
280
     0
281
     0
  0
CLASS
  1
LONG_TRANSACTION
  2
AcDbLongTransaction
  3
AutoCAD 2000
 90
        0
280
     0
281
     0
  0
CLASS
  1
LWPOLYLINE
  2
AcDbPolyline
  3
AutoCAD 2000
 90
        0
280
     0
281
     1
  0
CLASS
  1
HATCH
  2
AcDbHatch
  3
AutoCAD 2000
 90
        0
280
     0
281
     1
  0
CLASS
  1
XRECORD
  2
AcDbXrecord
  3
AutoCAD 2000
 90
        0
280
     0
281
     0
  0
CLASS
  1
LONG_TRANSACTION
  2
AcDbLongTransaction
  3
AutoCAD 2000
 90
        0
280
     0
281
     0
  0
CLASS
  1
LWPOLYLINE
  2
AcDbPolyline
  3
AutoCAD 2000
 90
        0
280
     0
281
     1
  0
CLASS
  1
HATCH
  2
AcDbHatch
  3
AutoCAD 2000
 90
        0
280
     0
281
     1
  0
CLASS
  1
XRECORD
  2
AcDbXrecord
  3
AutoCAD 2000
 90
        0
280
     0
281
     0
  0
CLASS
  1
LONG_TRANSACTION
  2
AcDbLongTransaction
  3
AutoCAD 2000
 90
        0
280
     0
281
     0
  0
CLASS
  1
LWPOLYLINE
  2
AcDbPolyline
  3
AutoCAD 2000
 90
        0
280
     0
281
     1
  0
CLASS
  1
HATCH
  2
AcDbHatch
  3
AutoCAD 2000
 90
        0
280
     0
281
     1
  0
CLASS
  1
XRECORD
  2
AcDbXrecord
  3
AutoCAD 2000
 90
        0
280
     0
281
     0
  0
CLASS
  1
LONG_TRANSACTION
  2
AcDbLongTransaction
  3
AutoCAD 2000
 90
        0
280
     0
281
     0
  0
CLASS
  1
LWPOLYLINE
  2
AcDbPolyline
  3
AutoCAD 2000
 90
        0
280
     0
281
     1
  0
CLASS
  1
HATCH
  2
AcDbHatch
  3
AutoCAD 2000
 90
        0
280
     0
281
     1
  0
CLASS
  1
XRECORD
  2
AcDbXrecord
  3
AutoCAD 2000
 90
        0
280
     0
281
     0
  0
CLASS
  1
LONG_TRANSACTION
  2
AcDbLongTransaction
  3
AutoCAD 2000
 90
        0
280
     0
281
     0
  0
CLASS
  1
LWPOLYLINE
  2
AcDbPolyline
  3
AutoCAD 2000
 90
        0
280
     0
281
     1
  0
CLASS
  1
HATCH
  2
AcDbHatch
  3
AutoCAD 2000
 90
        0
280
     0
281
     1
  0
CLASS
  1
XRECORD
  2
AcDbXrecord
  3
AutoCAD 2000
 90
        0
280
     0
281
     0
  0
ENDSEC
  0
SECTION
  2
TABLES
  0
TABLE
  2
VPORT
  5
8
330
0
100
AcDbSymbolTable
 70
     2
  0
VPORT
  5
236
330
8
100
AcDbSymbolTableRecord
100
AcDbViewportTableRecord
  2
*ACTIVE
 70
     0
 10
0.0
 20
0.0
 11
1.0
 21
1.0
 12
1.561369911360285
 22
1.8728630875296
 13
0.0
 23
0.0
 14
0.5740882589684922
 24
0.5740882589684922
 15
0.5
 25
0.5
 16
0.0
 26
0.0
 36
1.0
 17
0.0
 27
0.0
 37
0.0
 40
8.249307541962579
 41
1.570528967254408
 42
50.0
 43
0.0
 44
0.0
 50
0.0
 51
0.0
 71
     0
 72
   100
 73
     1
 74
     0
 75
     0
 76
     0
 77
     0
 78
     0
  0
ENDTAB
  0
TABLE
  2
LTYPE
  5
5
330
0
100
AcDbSymbolTable
 70
     1
  0
LTYPE
  5
12
330
5
100
AcDbSymbolTableRecord
100
AcDbLinetypeTableRecord
  2
BYBLOCK
 70
     0
  3

 72
    65
 73
     0
 40
0.0
  0
LTYPE
  5
13
330
5
100
AcDbSymbolTableRecord
100
AcDbLinetypeTableRecord
  2
BYLAYER
 70
     0
  3

 72
    65
 73
     0
 40
0.0
  0
LTYPE
  5
14
330
5
100
AcDbSymbolTableRecord
100
AcDbLinetypeTableRecord
  2
CONTINUOUS
 70
     0
  3
Solid line
 72
    65
 73
     0
 40
0.0
  0
ENDTAB
  0
TABLE
  2
LAYER
  5
2
330
0
100
AcDbSymbolTable
 70
     4
  0
LAYER
  5
F
330
2
100
AcDbSymbolTableRecord
100
AcDbLayerTableRecord
  2
0
 70
     0
 62
     7
  6
CONTINUOUS
  0
LAYER
  5
2C
330
2
100
AcDbSymbolTableRecord
100
AcDbLayerTableRecord
  2
ADPDIM
 70
     0
 62
     3
  6
CONTINUOUS
  0
LAYER
  5
2E
330
2
100
AcDbSymbolTableRecord
100
AcDbLayerTableRecord
  2
ADP1DETAIL
 70
     0
 62
     7
  6
CONTINUOUS
  0
LAYER
  5
30
330
2
100
AcDbSymbolTableRecord
100
AcDbLayerTableRecord
  2
DEFPOINTS
 70
     0
 62
     7
  6
CONTINUOUS
  0
ENDTAB
  0
TABLE
  2
STYLE
  5
3
330
0
100
AcDbSymbolTable
 70
     2
  0
STYLE
  5
10
330
3
100
AcDbSymbolTableRecord
100
AcDbTextStyleTableRecord
  2
STANDARD
 70
     0
 40
0.0
 41
1.0
 50
0.0
 71
     0
 42
0.2
  3
txt
  4

  0
STYLE
  5
EE
330
3
100
AcDbSymbolTableRecord
100
AcDbTextStyleTableRecord
  2
ARIAL_WIDE
 70
     0
 40
0.0
 41
1.25
 50
0.0
 71
     0
 42
0.2
  3
ARIAL.TTF
  4

1001
ACAD
1000
Arial
1071
       34
  0
ENDTAB
  0
TABLE
  2
VIEW
  5
6
330
0
100
AcDbSymbolTable
 70
     0
  0
ENDTAB
  0
TABLE
  2
UCS
  5
7
330
0
100
AcDbSymbolTable
 70
     0
  0
ENDTAB
  0
TABLE
  2
APPID
  5
9
330
0
100
AcDbSymbolTable
 70
     1
  0
APPID
  5
11
330
9
100
AcDbSymbolTableRecord
100
AcDbRegAppTableRecord
  2
ACAD
 70
     0
  0
ENDTAB
  0
TABLE
  2
DIMSTYLE
  5
A
330
0
100
AcDbSymbolTable
 70
     1
  0
DIMSTYLE
105
E2
330
A
100
AcDbSymbolTableRecord
100
AcDbDimStyleTableRecord
  2
STANDARD
 70
     0
  3

  4

  5

  6

  7

 40
1.0
 41
0.18
 42
0.0625
 43
0.38
 44
0.18
 45
0.0
 46
0.0
 47
0.0
 48
0.0
140
0.18
141
0.09
142
0.0
143
25.4
144
1.0
145
0.0
146
1.0
147
0.09
 71
     0
 72
     0
 73
     1
 74
     1
 75
     0
 76
     0
 77
     0
 78
     0
170
     0
171
     2
172
     0
173
     0
174
     0
175
     0
176
     0
177
     0
178
     0
270
     2
271
     4
272
     4
273
     2
274
     2
340
10
275
     0
280
     0
281
     0
282
     0
283
     1
284
     0
285
     0
286
     0
287
     3
288
     0
  0
ENDTAB
  0
TABLE
  2
BLOCK_RECORD
  5
1
330
0
100
AcDbSymbolTable
 70
     2
  0
BLOCK_RECORD
  5
18
102
{ACAD_XDICTIONARY
360
143
102
}
330
1
100
AcDbSymbolTableRecord
100
AcDbBlockTableRecord
  2
*MODEL_SPACE
  0
BLOCK_RECORD
  5
15
102
{ACAD_XDICTIONARY
360
141
102
}
330
1
100
AcDbSymbolTableRecord
100
AcDbBlockTableRecord
  2
*PAPER_SPACE
  0
BLOCK_RECORD
  5
29
330
1
100
AcDbSymbolTableRecord
100
AcDbBlockTableRecord
  2
*D0
  0
BLOCK_RECORD
  5
2A
330
1
100
AcDbSymbolTableRecord
100
AcDbBlockTableRecord
  2
*D1
  0
ENDTAB
  0
ENDSEC
  0
SECTION
  2
BLOCKS
  0
BLOCK
  5
33
330
18
100
AcDbEntity
  8
0
100
AcDbBlockBegin
  2
*MODEL_SPACE
 70
     0
 10
0.0
 20
0.0
 30
0.0
  3
*MODEL_SPACE
  1

  0
ENDBLK
  5
34
330
18
100
AcDbEntity
  8
0
100
AcDbBlockEnd
  0
BLOCK
  5
31
330
15
100
AcDbEntity
 67
     1
  8
0
100
AcDbBlockBegin
  2
*PAPER_SPACE
 70
     0
 10
0.0
 20
0.0
 30
0.0
  3
*PAPER_SPACE
  1

  0
ENDBLK
  5
32
330
15
100
AcDbEntity
 67
     1
  8
0
100
AcDbBlockEnd
  0
BLOCK
  5
36
330
29
100
AcDbEntity
  8
0
100
AcDbBlockBegin
  2
*D0
 70
     1
 10
0.0
 20
0.0
 30
0.0
  3
*D0
  1
*U
  0
LINE
  5
37
330
29
100
AcDbEntity
  8
0
  6
BYBLOCK
 62
     0
100
AcDbLine
 10
2.598901248130365
 20
-0.4930586518274102
 30
0.0
 11
3.505317286883203
 21
-0.4930586518274102
 31
0.0
  0
LINE
  5
38
330
29
100
AcDbEntity
  8
0
  6
BYBLOCK
 62
     0
100
AcDbLine
 10
2.598901248130365
 20
4.256941348172589
 30
0.0
 11
3.505317286883203
 21
4.256941348172589
 31
0.0
  0
LINE
  5
39
330
29
100
AcDbEntity
  8
0
  6
BYBLOCK
 62
     0
100
AcDbLine
 10
3.325317286883203
 20
-0.4930586518274102
 30
0.0
 11
3.325317286883203
 21
1.465274681505922
 31
0.0
  0
LINE
  5
3A
330
29
100
AcDbEntity
  8
0
  6
BYBLOCK
 62
     0
100
AcDbLine
 10
3.325317286883203
 20
4.256941348172589
 30
0.0
 11
3.325317286883203
 21
2.298608014839256
 31
0.0
  0
LINE
  5
3B
330
29
100
AcDbEntity
  8
0
  6
BYBLOCK
 62
     0
100
AcDbLine
 10
3.450317286883203
 20
-0.6180586518274103
 30
0.0
 11
3.200317286883203
 21
-0.3680586518274102
 31
0.0
  0
LINE
  5
3C
330
29
100
AcDbEntity
  8
0
  6
BYBLOCK
 62
     0
100
AcDbLine
 10
3.450317286883203
 20
4.131941348172589
 30
0.0
 11
3.200317286883203
 21
4.381941348172589
 31
0.0
  0
TEXT
  5
3D
330
29
100
AcDbEntity
  8
0
  6
BYBLOCK
 62
     0
100
AcDbText
 10
3.387817286883203
 20
1.590274681505922
 30
0.0
 40
0.125
  1
4 3/4
 50
90.0
 72
     1
 11
3.325317286883203
 21
1.881941348172589
 31
0.0
100
AcDbText
 73
     2
  0
POINT
  5
3E
330
29
100
AcDbEntity
  8
DEFPOINTS
  6
BYBLOCK
 62
     0
100
AcDbPoint
 10
2.536401248130365
 20
-0.4930586518274102
 30
0.0
  0
POINT
  5
3F
330
29
100
AcDbEntity
  8
DEFPOINTS
  6
BYBLOCK
 62
     0
100
AcDbPoint
 10
2.536401248130365
 20
4.256941348172589
 30
0.0
  0
POINT
  5
40
330
29
100
AcDbEntity
  8
DEFPOINTS
  6
BYBLOCK
 62
     0
100
AcDbPoint
 10
3.325317286883203
 20
4.256941348172589
 30
0.0
  0
ENDBLK
  5
41
330
29
100
AcDbEntity
  8
0
100
AcDbBlockEnd
  0
BLOCK
  5
42
330
2A
100
AcDbEntity
  8
0
100
AcDbBlockBegin
  2
*D1
 70
     1
 10
0.0
 20
0.0
 30
0.0
  3
*D1
  1
*U
  0
LINE
  5
43
330
2A
100
AcDbEntity
  8
0
  6
BYBLOCK
 62
     0
100
AcDbLine
 10
0.0235574971215656
 20
3.922002531009968
 30
0.0
 11
0.0235574971215656
 21
4.72598030349156
 31
0.0
  0
LINE
  5
44
330
2A
100
AcDbEntity
  8
0
  6
BYBLOCK
 62
     0
100
AcDbLine
 10
3.023557497121565
 20
3.922002531009968
 30
0.0
 11
3.023557497121565
 21
4.72598030349156
 31
0.0
  0
LINE
  5
45
330
2A
100
AcDbEntity
  8
0
  6
BYBLOCK
 62
     0
100
AcDbLine
 10
0.0235574971215656
 20
4.54598030349156
 30
0.0
 11
1.356890830454898
 21
4.54598030349156
 31
0.0
  0
LINE
  5
46
330
2A
100
AcDbEntity
  8
0
  6
BYBLOCK
 62
     0
100
AcDbLine
 10
3.023557497121565
 20
4.54598030349156
 30
0.0
 11
1.690224163788232
 21
4.54598030349156
 31
0.0
  0
LINE
  5
47
330
2A
100
AcDbEntity
  8
0
  6
BYBLOCK
 62
     0
100
AcDbLine
 10
-0.1014425028784344
 20
4.42098030349156
 30
0.0
 11
0.1485574971215656
 21
4.67098030349156
 31
0.0
  0
LINE
  5
48
330
2A
100
AcDbEntity
  8
0
  6
BYBLOCK
 62
     0
100
AcDbLine
 10
2.898557497121565
 20
4.42098030349156
 30
0.0
 11
3.148557497121565
 21
4.67098030349156
 31
0.0
  0
TEXT
  5
49
330
2A
100
AcDbEntity
  8
0
  6
BYBLOCK
 62
     0
100
AcDbText
 10
1.481890830454898
 20
4.48348030349156
 30
0.0
 40
0.125
  1
3
 72
     1
 11
1.523557497121565
 21
4.54598030349156
 31
0.0
100
AcDbText
 73
     2
  0
POINT
  5
4A
330
2A
100
AcDbEntity
  8
DEFPOINTS
  6
BYBLOCK
 62
     0
100
AcDbPoint
 10
0.0235574971215656
 20
3.859502531009968
 30
0.0
  0
POINT
  5
4B
330
2A
100
AcDbEntity
  8
DEFPOINTS
  6
BYBLOCK
 62
     0
100
AcDbPoint
 10
3.023557497121565
 20
3.859502531009968
 30
0.0
  0
POINT
  5
4C
330
2A
100
AcDbEntity
  8
DEFPOINTS
  6
BYBLOCK
 62
     0
100
AcDbPoint
 10
3.023557497121565
 20
4.54598030349156
 30
0.0
  0
ENDBLK
  5
4D
330
2A
100
AcDbEntity
  8
0
100
AcDbBlockEnd
  0
ENDSEC
  0
SECTION
  2
ENTITIES
  0
DIMENSION
  5
4E
330
18
100
AcDbEntity
  8
ADPDIM
100
AcDbDimension
  2
*D1
 10
3.023557497121565
 20
4.54598030349156
 30
0.0
 11
1.523557497121565
 21
4.54598030349156
 31
0.0
100
AcDbAlignedDimension
 13
0.0235574971215656
 23
3.859502531009968
 33
0.0
 14
3.023557497121565
 24
3.859502531009968
 34
0.0
100
AcDbRotatedDimension
  0
LWPOLYLINE
  5
4F
330
18
100
AcDbEntity
  8
ADP1DETAIL
100
AcDbPolyline
 90
       10
 70
     0
 43
0.0
 10
1.040421482288851
 20
0.8997372502716221
 42
-0.0316262293359903
 10
1.050988714528509
 20
1.840409199932698
 42
-0.1184982908802005
 10
1.128360000431368
 20
2.06845088469902
 42
0.3706520279737924
 10
1.095782616893322
 20
2.251698667100527
 42
0.1428571428571379
 10
0.9899061203946736
 20
2.237446061802632
 42
-0.0062180921358745
 10
0.7924057326952703
 20
2.241518234744888
 42
-0.1334354524683193
 10
0.6641322850142144
 20
2.304636915349851
 42
0.2891741378180871
 10
0.4360906002478928
 20
2.316853434176619
 42
0.4786816196657422
 10
0.432018427305637
 20
2.170255208255413
 42
-0.5407164553644245
 10
0.4238740814211256
 20
1.974790907027138
 42
-0.2755624842455238
  0
LWPOLYLINE
  5
5B
330
18
100
AcDbEntity
  8
ADP1DETAIL
100
AcDbPolyline
 90
        7
 70
     0
 43
0.0
 10
1.034700022759487
 20
3.795052212215455
 42
0.4927664951326248
 10
0.5867609991113552
 20
3.994588686385985
 42
0.2071041079931158
 10
0.2833841149133025
 20
3.599587910987178
 42
0.2880027966092666
 10
0.6437714203029355
 20
2.781081149593775
 42
-0.0812400246610349
 10
1.110035222191218
 20
2.349430817714664
 42
-0.1503509878689816
 10
1.262741707525808
 20
1.90556396700879
 10
1.262741707525808
 20
0.8997372502716221
 42
-0.1063877097285188
  0
LWPOLYLINE
  5
64
330
18
100
AcDbEntity
  8
ADP1DETAIL
100
AcDbPolyline
 90
        4
 70
     0
 43
0.0
 10
1.262741707525808
 20
0.2828030495198752
 10
1.262741707525808
 20
0.1000048847097235
 42
-0.1063877097285188
 10
1.213875632218739
 20
-0.1692081470705111
 42
-0.3053428690699297
 10
0.8331274621178275
 20
-0.492945895979843
 42
-0.0560318915652521
  0
LWPOLYLINE
  5
6A
330
18
100
AcDbEntity
  8
ADP1DETAIL
100
AcDbPolyline
 90
        4
 70
     1
 43
0.0
 10
0.9410400450876048
 20
0.8997372502716221
 10
0.9410400450876048
 20
0.8101494455419951
 10
2.121970198341769
 20
0.8101494455419951
 10
2.121970198341769
 20
0.8997372502716221
  0
LWPOLYLINE
  5
70
330
18
100
AcDbEntity
  8
ADP1DETAIL
100
AcDbPolyline
 90
        4
 70
     1
 43
0.0
 10
0.9349317856742212
 20
0.3723908542495025
 10
0.9349317856742212
 20
0.2828030495198752
 10
2.115861938928386
 20
0.2828030495198752
 10
2.115861938928386
 20
0.3723908542495025
  0
LWPOLYLINE
  5
76
330
18
100
AcDbEntity
  8
ADP1DETAIL
100
AcDbPolyline
 90
        5
 70
     0
 43
0.0
 10
1.275883610511348
 20
3.853062726864753
 42
0.4935608455835436
 10
0.4673187786092959
 20
4.212004013036684
 42
0.2112642445991794
 10
0.0398121657275178
 20
3.64778515783465
 42
0.2914018712638033
 10
0.5058679687528391
 20
2.574879913536626
 42
-0.045612143552637
 10
0.7503297162923007
 20
2.379116434354902
 42
-0.146898191506493
  0
LWPOLYLINE
  5
7D
330
18
100
AcDbEntity
  8
ADP1DETAIL
100
AcDbPolyline
 90
        4
 70
     0
 43
0.0
 10
1.030627849817231
 20
3.80930481751335
 42
0.6995401626375345
 10
0.7618644356283523
 20
3.721753099254851
 42
0.5644317292966167
 10
1.063205233355277
 20
3.507964019786423
 42
0.3828753620617301
 10
1.275883610511348
 20
3.853062726864753
  0
LWPOLYLINE
  5
83
330
18
100
AcDbEntity
  8
ADP1DETAIL
100
AcDbPolyline
 90
        2
 70
     0
 43
0.0
 10
1.014679733795984
 20
1.685865351976038
 10
1.014679733795983
 20
0.8997372502716221
 42
-0.1186231232281079
  0
LWPOLYLINE
  5
87
330
18
100
AcDbEntity
  8
ADP1DETAIL
100
AcDbPolyline
 90
        3
 70
     0
 43
0.0
 10
0.8331274621178275
 20
-0.492945895979843
 42
-0.3642961922860707
 10
0.5704723073423324
 20
-0.3137702865205898
 42
-1.00835192691297
 10
0.8758852780115129
 20
-0.216038135906452
 42
-0.1518440184324931
  0
ARC
  5
8C
330
18
100
AcDbEntity
  8
ADP1DETAIL
100
AcDbCircle
 10
0.9981273535420168
 20
0.5904309670376869
 30
0.0
 40
0.2270135911852357
100
AcDbArc
 50
104.5645686015424
 51
253.8365831718224
  0
LWPOLYLINE
  5
8D
330
18
100
AcDbEntity
  8
ADP1DETAIL
100
AcDbPolyline
 90
        4
 70
     0
 43
0.0
 10
1.014679733795983
 20
0.2828030495198752
 10
1.014679733795983
 20
0.0955027767123671
 42
-0.1186231232281079
 10
0.9782312543244525
 20
-0.0891146844686644
 10
0.8758852780115129
 20
-0.216038135906452
 42
-1.000000301361982
  0
LWPOLYLINE
  5
93
330
18
100
AcDbEntity
  8
ADP1DETAIL
100
AcDbPolyline
 90
        9
 70
     0
 43
0.0
 10
1.014679733795984
 20
1.685865351976038
 42
0.025997118715915
 10
0.9451122180298606
 20
1.938141350546836
 42
0.1536143373421662
 10
0.7700087815128639
 20
2.202832591793458
 42
0.1995145178912522
 10
0.5928692585247389
 20
2.255770840042782
 42
0.4160549226340508
 10
0.5256784049775192
 20
2.184507813553308
 42
-0.4419261241879758
 10
0.4951371079106011
 20
2.003296117622928
 42
-0.6374373973618797
 10
0.2487706449041287
 20
2.19061607296669
 42
-0.3505701446225482
 10
0.509389713208496
 20
2.426802103617524
 42
-0.0903278010255163
 10
0.7503297162923007
 20
2.379116434354902
 42
0.2959390457445028
  0
DIMENSION
  5
9E
330
18
100
AcDbEntity
  8
ADPDIM
100
AcDbDimension
  2
*D0
 10
3.325317286883203
 20
4.256941348172589
 30
0.0
 11
3.325317286883203
 21
1.881941348172589
 31
0.0
100
AcDbAlignedDimension
 13
2.536401248130365
 23
-0.4930586518274102
 33
0.0
 14
2.536401248130365
 24
4.256941348172589
 34
0.0
 50
90.0
100
AcDbRotatedDimension
  0
LWPOLYLINE
  5
9F
330
18
100
AcDbEntity
  8
ADP1DETAIL
100
AcDbPolyline
 90
        2
 70
     0
 43
0.0
 10
2.036113990806623
 20
1.685865351976038
 10
2.036113990806624
 20
0.8997372502716221
 42
0.1186231232281079
  0
LWPOLYLINE
  5
A3
330
18
100
AcDbEntity
  8
ADP1DETAIL
100
AcDbPolyline
 90
       10
 70
     0
 43
0.0
 10
2.010372242313756
 20
0.8997372502716221
 42
0.0316262293359903
 10
1.999805010074098
 20
1.840409199932698
 42
0.1184982908802005
 10
1.922433724171239
 20
2.06845088469902
 42
-0.3706520279737924
 10
1.955011107709285
 20
2.251698667100527
 42
-0.1428571428571379
 10
2.060887604207934
 20
2.237446061802632
 42
0.0062180921358745
 10
2.258387991907337
 20
2.241518234744888
 42
0.1334354524683193
 10
2.386661439588393
 20
2.304636915349851
 42
-0.2891741378180871
 10
2.614703124354715
 20
2.316853434176619
 42
-0.4786816196657422
 10
2.618775297296971
 20
2.170255208255413
 42
0.5407164553644245
 10
2.626919643181482
 20
1.974790907027138
 42
0.2755624842455238
  0
LWPOLYLINE
  5
AF
330
18
100
AcDbEntity
  8
ADP1DETAIL
100
AcDbPolyline
 90
        7
 70
     0
 43
0.0
 10
2.016093701843121
 20
3.795052212215455
 42
-0.4927664951326248
 10
2.464032725491253
 20
3.994588686385985
 42
-0.2071041079931158
 10
2.767409609689305
 20
3.599587910987178
 42
-0.2880027966092666
 10
2.407022304299672
 20
2.781081149593775
 42
0.0812400246610349
 10
1.940758502411389
 20
2.349430817714664
 42
0.1503509878689816
 10
1.788052017076799
 20
1.90556396700879
 10
1.788052017076799
 20
0.8997372502716221
 42
0.1063877097285188
  0
LWPOLYLINE
  5
B8
330
18
100
AcDbEntity
  8
ADP1DETAIL
100
AcDbPolyline
 90
        3
 70
     0
 43
0.0
 10
2.21766626248478
 20
-0.492945895979843
 42
0.3642961922860707
 10
2.480321417260275
 20
-0.3137702865205898
 42
1.00835192691297
 10
2.174908446591095
 20
-0.216038135906452
 42
0.1518440184324931
  0
LWPOLYLINE
  5
BD
330
18
100
AcDbEntity
  8
ADP1DETAIL
100
AcDbPolyline
 90
        4
 70
     0
 43
0.0
 10
1.788052017076799
 20
0.2828030495198752
 10
1.788052017076799
 20
0.1000048847097235
 42
0.1063877097285188
 10
1.836918092383868
 20
-0.1692081470705111
 42
0.3053428690699297
 10
2.21766626248478
 20
-0.492945895979843
 42
0.0560318915652521
  0
ARC
  5
C3
330
18
100
AcDbEntity
  8
ADP1DETAIL
100
AcDbCircle
 10
2.052666371060591
 20
0.5904309670376869
 30
0.0
 40
0.2270135911852357
100
AcDbArc
 50
286.1634168281775
 51
75.43543139845758
  0
LWPOLYLINE
  5
C4
330
18
100
AcDbEntity
  8
ADP1DETAIL
100
AcDbPolyline
 90
        4
 70
     0
 43
0.0
 10
2.036113990806624
 20
0.2828030495198752
 10
2.036113990806624
 20
0.0955027767123671
 42
0.1186231232281079
 10
2.072562470278155
 20
-0.0891146844686644
 10
2.174908446591095
 20
-0.216038135906452
 42
1.000000301361982
  0
LWPOLYLINE
  5
CA
330
18
100
AcDbEntity
  8
ADP1DETAIL
100
AcDbPolyline
 90
        5
 70
     0
 43
0.0
 10
1.77491011409126
 20
3.853062726864753
 42
-0.4935608455835436
 10
2.583474945993312
 20
4.212004013036684
 42
-0.2112642445991794
 10
3.01098155887509
 20
3.64778515783465
 42
-0.2914018712638033
 10
2.544925755849769
 20
2.574879913536626
 42
0.045612143552637
 10
2.300464008310307
 20
2.379116434354902
 42
0.146898191506493
  0
LWPOLYLINE
  5
D1
330
18
100
AcDbEntity
  8
ADP1DETAIL
100
AcDbPolyline
 90
        9
 70
     0
 43
0.0
 10
2.036113990806623
 20
1.685865351976038
 42
-0.025997118715915
 10
2.105681506572746
 20
1.938141350546836
 42
-0.1536143373421662
 10
2.280784943089744
 20
2.202832591793458
 42
-0.1995145178912522
 10
2.457924466077869
 20
2.255770840042782
 42
-0.4160549226340508
 10
2.525115319625089
 20
2.184507813553308
 42
0.4419261241879758
 10
2.555656616692007
 20
2.003296117622928
 42
0.6374373973618797
 10
2.802023079698479
 20
2.19061607296669
 42
0.3505701446225482
 10
2.541404011394111
 20
2.426802103617524
 42
0.0903278010255163
 10
2.300464008310307
 20
2.379116434354902
 42
-0.2959390457445028
  0
LWPOLYLINE
  5
DC
330
18
100
AcDbEntity
  8
ADP1DETAIL
100
AcDbPolyline
 90
        4
 70
     0
 43
0.0
 10
2.020165874785377
 20
3.80930481751335
 42
-0.6995401626375345
 10
2.288929288974255
 20
3.721753099254851
 42
-0.5644317292966167
 10
1.987588491247331
 20
3.507964019786423
 42
-0.3828753620617301
 10
1.77491011409126
 20
3.853062726864753
  0
TEXT
  5
EF
330
18
100
AcDbEntity
  8
ADPDIM
100
AcDbText
 10
-4.883924956131299
 20
-0.9452382276171707
 30
0.0
 40
0.125
  1
J U L I U S  B L U M  &  C O . ,  I N C .      ( 8 0 0 )  5 2 6 - 6 2 9 3        W W W . J U L I U S B L U M . C O M        P A R T  N o .  5 4 4
 41
1.25
  7
ARIAL_WIDE
 72
     1
 11
1.550782581385753
 21
-0.8202382276171707
 31
0.0
100
AcDbText
 73
     3
  0
ENDSEC
  0
SECTION
  2
OBJECTS
  0
DICTIONARY
  5
C
330
0
100
AcDbDictionary
  3
ACAD_GROUP
350
D
  3
ACAD_LAYOUT
350
E8
  3
ACAD_MLINESTYLE
350
E
  3
ACAD_PLOTSETTINGS
350
E9
  3
ACAD_PLOTSTYLENAME
350
E6
  3
ACDBHEADERROUNDTRIPXREC
350
237
  3
ACDBVARIABLEDICTIONARY
350
149
  0
DICTIONARY
  5
143
330
18
100
AcDbDictionary
280
     1
  3
ACAD_LAYOUTSELFREF
360
258
  0
DICTIONARY
  5
141
330
15
100
AcDbDictionary
280
     1
  3
ACAD_LAYOUTSELFREF
360
257
  0
DICTIONARY
  5
D
102
{ACAD_REACTORS
330
C
102
}
330
C
100
AcDbDictionary
  0
DICTIONARY
  5
E8
102
{ACAD_REACTORS
330
C
102
}
330
C
100
AcDbDictionary
  0
DICTIONARY
  5
E
102
{ACAD_REACTORS
330
C
102
}
330
C
100
AcDbDictionary
  3
STANDARD
350
1B
  0
DICTIONARY
  5
E9
102
{ACAD_REACTORS
330
C
102
}
330
C
100
AcDbDictionary
  0
ACDBDICTIONARYWDFLT
  5
E6
102
{ACAD_REACTORS
330
C
102
}
330
C
100
AcDbDictionary
281
     1
  3
Normal
350
E7
100
AcDbDictionaryWithDefault
340
E7
  0
DICTIONARY
  5
237
102
{ACAD_REACTORS
330
C
102
}
330
C
100
AcDbDictionary
  3
CEPSNTYPE
350
241
  3
FINGERPRINTGUID
350
242
  3
HYPERLINKBASE
350
23A
  3
INSUNITS
350
240
  3
LAYOUTDICT
350
23C
  3
LWETCUNION
350
23F
  3
PLOTSETDICT
350
23D
  3
PLOTSTYLNAMDICT
350
23E
  3
PSVPSCALE
350
244
  3
PUCSBASE
350
247
  3
PUCSORGBACK
350
24D
  3
PUCSORGBOTTOM
350
249
  3
PUCSORGFRONT
350
24C
  3
PUCSORGLEFT
350
24A
  3
PUCSORGRIGHT
350
24B
  3
PUCSORGTOP
350
248
  3
PUCSORTHOREF
350
245
  3
PUCSORTHOVIEW
350
246
  3
STYLESHEET
350
23B
  3
TSTACKALIGN
350
238
  3
TSTACKSIZE
350
239
  3
UCSBASE
350
250
  3
UCSORGBACK
350
256
  3
UCSORGBOTTOM
350
252
  3
UCSORGFRONT
350
255
  3
UCSORGLEFT
350
253
  3
UCSORGRIGHT
350
254
  3
UCSORGTOP
350
251
  3
UCSORTHOREF
350
24E
  3
UCSORTHOVIEW
350
24F
  3
VERSIONGUID
350
243
  0
DICTIONARY
  5
149
102
{ACAD_REACTORS
330
C
102
}
330
C
100
AcDbDictionary
  3
DIMASSOC
350
14A
  0
XRECORD
  5
258
102
{ACAD_REACTORS
330
143
102
}
330
143
100
AcDbXrecord
340
18
  0
XRECORD
  5
257
102
{ACAD_REACTORS
330
141
102
}
330
141
100
AcDbXrecord
340
15
  0
MLINESTYLE
  5
1B
102
{ACAD_REACTORS
330
E
102
}
330
E
100
AcDbMlineStyle
  2
STANDARD
 70
     0
  3

 62
     0
 51
90.0
 52
90.0
 71
     2
 49
0.5
 62
   256
  6
BYLAYER
 49
-0.5
 62
   256
  6
BYLAYER
  0
ACDBPLACEHOLDER
  5
E7
102
{ACAD_REACTORS
330
E6
102
}
330
E6
100
AcDbPlaceHolder
280
     0
  0
XRECORD
  5
241
102
{ACAD_REACTORS
330
237
102
}
330
237
100
AcDbXrecord
 90
        0
  0
XRECORD
  5
242
102
{ACAD_REACTORS
330
237
102
}
330
237
100
AcDbXrecord
  1
{E23F4B62-696B-41D8-9E83-52CC5B8B7004}
  0
XRECORD
  5
23A
102
{ACAD_REACTORS
330
237
102
}
330
237
100
AcDbXrecord
  1

  0
XRECORD
  5
240
102
{ACAD_REACTORS
330
237
102
}
330
237
100
AcDbXrecord
 90
        0
  0
XRECORD
  5
23C
102
{ACAD_REACTORS
330
237
102
}
330
237
100
AcDbXrecord
340
E8
  0
XRECORD
  5
23F
102
{ACAD_REACTORS
330
237
102
}
330
237
100
AcDbXrecord
 90
    14877
  0
XRECORD
  5
23D
102
{ACAD_REACTORS
330
237
102
}
330
237
100
AcDbXrecord
340
E9
  0
XRECORD
  5
23E
102
{ACAD_REACTORS
330
237
102
}
330
237
100
AcDbXrecord
340
E6
  0
XRECORD
  5
244
102
{ACAD_REACTORS
330
237
102
}
330
237
100
AcDbXrecord
 40
0.0
  0
XRECORD
  5
247
102
{ACAD_REACTORS
330
237
102
}
330
237
100
AcDbXrecord
340
0
  0
XRECORD
  5
24D
102
{ACAD_REACTORS
330
237
102
}
330
237
100
AcDbXrecord
 10
0.0
 20
0.0
 30
0.0
  0
XRECORD
  5
249
102
{ACAD_REACTORS
330
237
102
}
330
237
100
AcDbXrecord
 10
0.0
 20
0.0
 30
0.0
  0
XRECORD
  5
24C
102
{ACAD_REACTORS
330
237
102
}
330
237
100
AcDbXrecord
 10
0.0
 20
0.0
 30
0.0
  0
XRECORD
  5
24A
102
{ACAD_REACTORS
330
237
102
}
330
237
100
AcDbXrecord
 10
0.0
 20
0.0
 30
0.0
  0
XRECORD
  5
24B
102
{ACAD_REACTORS
330
237
102
}
330
237
100
AcDbXrecord
 10
0.0
 20
0.0
 30
0.0
  0
XRECORD
  5
248
102
{ACAD_REACTORS
330
237
102
}
330
237
100
AcDbXrecord
 10
0.0
 20
0.0
 30
0.0
  0
XRECORD
  5
245
102
{ACAD_REACTORS
330
237
102
}
330
237
100
AcDbXrecord
340
0
  0
XRECORD
  5
246
102
{ACAD_REACTORS
330
237
102
}
330
237
100
AcDbXrecord
 70
     0
  0
XRECORD
  5
23B
102
{ACAD_REACTORS
330
237
102
}
330
237
100
AcDbXrecord
  1

  0
XRECORD
  5
238
102
{ACAD_REACTORS
330
237
102
}
330
237
100
AcDbXrecord
 90
        1
  0
XRECORD
  5
239
102
{ACAD_REACTORS
330
237
102
}
330
237
100
AcDbXrecord
 90
       70
  0
XRECORD
  5
250
102
{ACAD_REACTORS
330
237
102
}
330
237
100
AcDbXrecord
340
0
  0
XRECORD
  5
256
102
{ACAD_REACTORS
330
237
102
}
330
237
100
AcDbXrecord
 10
0.0
 20
0.0
 30
0.0
  0
XRECORD
  5
252
102
{ACAD_REACTORS
330
237
102
}
330
237
100
AcDbXrecord
 10
0.0
 20
0.0
 30
0.0
  0
XRECORD
  5
255
102
{ACAD_REACTORS
330
237
102
}
330
237
100
AcDbXrecord
 10
0.0
 20
0.0
 30
0.0
  0
XRECORD
  5
253
102
{ACAD_REACTORS
330
237
102
}
330
237
100
AcDbXrecord
 10
0.0
 20
0.0
 30
0.0
  0
XRECORD
  5
254
102
{ACAD_REACTORS
330
237
102
}
330
237
100
AcDbXrecord
 10
0.0
 20
0.0
 30
0.0
  0
XRECORD
  5
251
102
{ACAD_REACTORS
330
237
102
}
330
237
100
AcDbXrecord
 10
0.0
 20
0.0
 30
0.0
  0
XRECORD
  5
24E
102
{ACAD_REACTORS
330
237
102
}
330
237
100
AcDbXrecord
340
0
  0
XRECORD
  5
24F
102
{ACAD_REACTORS
330
237
102
}
330
237
100
AcDbXrecord
 70
     0
  0
XRECORD
  5
243
102
{ACAD_REACTORS
330
237
102
}
330
237
100
AcDbXrecord
  1
{25E7015E-0FB9-4D1C-BE11-14464BD83B45}
  0
DICTIONARYVAR
  5
14A
102
{ACAD_REACTORS
330
149
102
}
330
149
100
DictionaryVariables
280
     0
  1
1
  0
ENDSEC
  0
EOF
