  0
SECTION
  2
HEADER
  9
$ACADVER
  1
AC1014
  9
$ACADMAINTVER
 70
     9
  9
$DWGCODEPAGE
  3
ANSI_1252
  9
$INSBASE
 10
-77.67180879749474
 20
98.74719744156958
 30
0.0
  9
$EXTMIN
 10
-106.7856389475629
 20
97.3361964566078
 30
0.0
  9
$EXTMAX
 10
-55.30797864742653
 20
126.4758858312005
 30
0.0
  9
$LIMMIN
 10
0.0
 20
0.0
  9
$LIMMAX
 10
36.0
 20
36.0
  9
$ORTHOMODE
 70
     1
  9
$REGENMODE
 70
     1
  9
$FILLMODE
 70
     1
  9
$QTEXTMODE
 70
     0
  9
$MIRRTEXT
 70
     1
  9
$DRAGMODE
 70
     0
  9
$LTSCALE
 40
1.0
  9
$OSMODE
 70
    37
  9
$ATTMODE
 70
     1
  9
$TEXTSIZE
 40
0.2
  9
$TRACEWID
 40
0.05
  9
$TEXTSTYLE
  7
STANDARD
  9
$CLAYER
  8
0
  9
$CELTYPE
  6
BYLAYER
  9
$CECOLOR
 62
   256
  9
$CELTSCALE
 40
1.0
  9
$DELOBJ
 70
     1
  9
$DISPSILH
 70
     0
  9
$DIMSCALE
 40
1.0
  9
$DIMASZ
 40
0.125
  9
$DIMEXO
 40
0.0625
  9
$DIMDLI
 40
0.38
  9
$DIMRND
 40
0.0
  9
$DIMDLE
 40
0.0
  9
$DIMEXE
 40
0.18
  9
$DIMTP
 40
0.0
  9
$DIMTM
 40
0.0
  9
$DIMTXT
 40
0.125
  9
$DIMCEN
 40
0.1875
  9
$DIMTSZ
 40
0.125
  9
$DIMTOL
 70
     0
  9
$DIMLIM
 70
     0
  9
$DIMTIH
 70
     0
  9
$DIMTOH
 70
     0
  9
$DIMSE1
 70
     0
  9
$DIMSE2
 70
     0
  9
$DIMTAD
 70
     0
  9
$DIMZIN
 70
     3
  9
$DIMBLK
  1

  9
$DIMASO
 70
     1
  9
$DIMSHO
 70
     1
  9
$DIMPOST
  1

  9
$DIMAPOST
  1

  9
$DIMALT
 70
     0
  9
$DIMALTD
 70
     1
  9
$DIMALTF
 40
25.4
  9
$DIMLFAC
 40
1.0
  9
$DIMTOFL
 70
     0
  9
$DIMTVP
 40
0.0
  9
$DIMTIX
 70
     0
  9
$DIMSOXD
 70
     0
  9
$DIMSAH
 70
     0
  9
$DIMBLK1
  1

  9
$DIMBLK2
  1

  9
$DIMSTYLE
  2
STANDARD
  9
$DIMCLRD
 70
     0
  9
$DIMCLRE
 70
     0
  9
$DIMCLRT
 70
     0
  9
$DIMTFAC
 40
1.0
  9
$DIMGAP
 40
0.125
  9
$DIMJUST
 70
     0
  9
$DIMSD1
 70
     0
  9
$DIMSD2
 70
     0
  9
$DIMTOLJ
 70
     1
  9
$DIMTZIN
 70
     0
  9
$DIMALTZ
 70
     0
  9
$DIMALTTZ
 70
     0
  9
$DIMFIT
 70
     3
  9
$DIMUPT
 70
     0
  9
$DIMUNIT
 70
     2
  9
$DIMDEC
 70
     4
  9
$DIMTDEC
 70
     4
  9
$DIMALTU
 70
     2
  9
$DIMALTTD
 70
     2
  9
$DIMTXSTY
  7
STANDARD
  9
$DIMAUNIT
 70
     0
  9
$LUNITS
 70
     5
  9
$LUPREC
 70
     4
  9
$SKETCHINC
 40
0.1
  9
$FILLETRAD
 40
0.062
  9
$AUNITS
 70
     0
  9
$AUPREC
 70
     0
  9
$MENU
  1
acad
  9
$ELEVATION
 40
0.0
  9
$PELEVATION
 40
0.0
  9
$THICKNESS
 40
0.0
  9
$LIMCHECK
 70
     0
  9
$BLIPMODE
 70
     0
  9
$CHAMFERA
 40
0.0
  9
$CHAMFERB
 40
0.0
  9
$CHAMFERC
 40
0.0
  9
$CHAMFERD
 40
0.0
  9
$SKPOLY
 70
     0
  9
$TDCREATE
 40
2450407.612110532
  9
$TDUPDATE
 40
2452297.072559491
  9
$TDINDWG
 40
0.0185054167
  9
$TDUSRTIMER
 40
0.0185054167
  9
$USRTIMER
 70
     1
  9
$ANGBASE
 50
0.0
  9
$ANGDIR
 70
     0
  9
$PDMODE
 70
     0
  9
$PDSIZE
 40
0.0
  9
$PLINEWID
 40
0.0
  9
$COORDS
 70
     2
  9
$SPLFRAME
 70
     0
  9
$SPLINETYPE
 70
     6
  9
$SPLINESEGS
 70
     8
  9
$ATTDIA
 70
     0
  9
$ATTREQ
 70
     1
  9
$HANDLING
 70
 22529
  9
$HANDSEED
  5
2FF
  9
$SURFTAB1
 70
     6
  9
$SURFTAB2
 70
     6
  9
$SURFTYPE
 70
     6
  9
$SURFU
 70
     6
  9
$SURFV
 70
     6
  9
$UCSNAME
  2

  9
$UCSORG
 10
0.0
 20
0.0
 30
0.0
  9
$UCSXDIR
 10
1.0
 20
0.0
 30
0.0
  9
$UCSYDIR
 10
0.0
 20
1.0
 30
0.0
  9
$PUCSNAME
  2

  9
$PUCSORG
 10
0.0
 20
0.0
 30
0.0
  9
$PUCSXDIR
 10
1.0
 20
0.0
 30
0.0
  9
$PUCSYDIR
 10
0.0
 20
1.0
 30
0.0
  9
$USERI1
 70
     0
  9
$USERI2
 70
     0
  9
$USERI3
 70
     0
  9
$USERI4
 70
     0
  9
$USERI5
 70
     0
  9
$USERR1
 40
0.0
  9
$USERR2
 40
0.0
  9
$USERR3
 40
0.0
  9
$USERR4
 40
0.0
  9
$USERR5
 40
0.0
  9
$WORLDVIEW
 70
     1
  9
$SHADEDGE
 70
     3
  9
$SHADEDIF
 70
    70
  9
$TILEMODE
 70
     1
  9
$MAXACTVP
 70
    15
  9
$PINSBASE
 10
0.0008545038290322
 20
1.250283272183907
 30
0.0
  9
$PLIMCHECK
 70
     0
  9
$PEXTMIN
 10
1.000000000000000E+20
 20
1.000000000000000E+20
 30
1.000000000000000E+20
  9
$PEXTMAX
 10
-1.000000000000000E+20
 20
-1.000000000000000E+20
 30
-1.000000000000000E+20
  9
$PLIMMIN
 10
0.0
 20
0.0
  9
$PLIMMAX
 10
12.0
 20
9.0
  9
$UNITMODE
 70
     0
  9
$VISRETAIN
 70
     0
  9
$PLINEGEN
 70
     0
  9
$PSLTSCALE
 70
     1
  9
$TREEDEPTH
 70
  3020
  9
$PICKSTYLE
 70
     1
  9
$CMLSTYLE
  2
STANDARD
  9
$CMLJUST
 70
     0
  9
$CMLSCALE
 40
1.0
  9
$PROXYGRAPHICS
 70
     1
  9
$MEASUREMENT
 70
     0
  0
ENDSEC
  0
SECTION
  2
CLASSES
  0
CLASS
  1
ACDBDICTIONARYWDFLT
  2
AcDbDictionaryWithDefault
  3
AutoCAD 2000
 90
        0
280
     0
281
     0
  0
CLASS
  1
ACDBPLACEHOLDER
  2
AcDbPlaceHolder
  3
AutoCAD 2000
 90
        0
280
     0
281
     0
  0
CLASS
  1
LAYOUT
  2
AcDbLayout
  3
AutoCAD 2000
 90
        0
280
     0
281
     0
  0
CLASS
  1
DICTIONARYVAR
  2
AcDbDictionaryVar
  3
AutoCAD 2000
 90
        0
280
     0
281
     0
  0
CLASS
  1
LONG_TRANSACTION
  2
AcDbLongTransaction
  3
AutoCAD 2000
 90
        0
280
     0
281
     0
  0
CLASS
  1
LWPOLYLINE
  2
AcDbPolyline
  3
AutoCAD 2000
 90
        0
280
     0
281
     1
  0
CLASS
  1
HATCH
  2
AcDbHatch
  3
AutoCAD 2000
 90
        0
280
     0
281
     1
  0
CLASS
  1
XRECORD
  2
AcDbXrecord
  3
AutoCAD 2000
 90
        0
280
     0
281
     0
  0
CLASS
  1
LONG_TRANSACTION
  2
AcDbLongTransaction
  3
AutoCAD 2000
 90
        0
280
     0
281
     0
  0
CLASS
  1
LWPOLYLINE
  2
AcDbPolyline
  3
AutoCAD 2000
 90
        0
280
     0
281
     1
  0
CLASS
  1
HATCH
  2
AcDbHatch
  3
AutoCAD 2000
 90
        0
280
     0
281
     1
  0
CLASS
  1
XRECORD
  2
AcDbXrecord
  3
AutoCAD 2000
 90
        0
280
     0
281
     0
  0
CLASS
  1
LONG_TRANSACTION
  2
AcDbLongTransaction
  3
AutoCAD 2000
 90
        0
280
     0
281
     0
  0
CLASS
  1
LWPOLYLINE
  2
AcDbPolyline
  3
AutoCAD 2000
 90
        0
280
     0
281
     1
  0
CLASS
  1
HATCH
  2
AcDbHatch
  3
AutoCAD 2000
 90
        0
280
     0
281
     1
  0
CLASS
  1
XRECORD
  2
AcDbXrecord
  3
AutoCAD 2000
 90
        0
280
     0
281
     0
  0
CLASS
  1
LONG_TRANSACTION
  2
AcDbLongTransaction
  3
AutoCAD 2000
 90
        0
280
     0
281
     0
  0
CLASS
  1
LWPOLYLINE
  2
AcDbPolyline
  3
AutoCAD 2000
 90
        0
280
     0
281
     1
  0
CLASS
  1
HATCH
  2
AcDbHatch
  3
AutoCAD 2000
 90
        0
280
     0
281
     1
  0
CLASS
  1
XRECORD
  2
AcDbXrecord
  3
AutoCAD 2000
 90
        0
280
     0
281
     0
  0
CLASS
  1
LONG_TRANSACTION
  2
AcDbLongTransaction
  3
AutoCAD 2000
 90
        0
280
     0
281
     0
  0
CLASS
  1
LWPOLYLINE
  2
AcDbPolyline
  3
AutoCAD 2000
 90
        0
280
     0
281
     1
  0
CLASS
  1
HATCH
  2
AcDbHatch
  3
AutoCAD 2000
 90
        0
280
     0
281
     1
  0
CLASS
  1
XRECORD
  2
AcDbXrecord
  3
AutoCAD 2000
 90
        0
280
     0
281
     0
  0
CLASS
  1
LONG_TRANSACTION
  2
AcDbLongTransaction
  3
AutoCAD 2000
 90
        0
280
     0
281
     0
  0
CLASS
  1
LWPOLYLINE
  2
AcDbPolyline
  3
AutoCAD 2000
 90
        0
280
     0
281
     1
  0
CLASS
  1
HATCH
  2
AcDbHatch
  3
AutoCAD 2000
 90
        0
280
     0
281
     1
  0
CLASS
  1
XRECORD
  2
AcDbXrecord
  3
AutoCAD 2000
 90
        0
280
     0
281
     0
  0
ENDSEC
  0
SECTION
  2
TABLES
  0
TABLE
  2
VPORT
  5
8
330
0
100
AcDbSymbolTable
 70
     2
  0
VPORT
  5
2DC
330
8
100
AcDbSymbolTableRecord
100
AcDbViewportTableRecord
  2
*ACTIVE
 70
     0
 10
0.0
 20
0.0
 11
1.0
 21
1.0
 12
-81.00382501389994
 22
111.907863176098
 13
0.0
 23
0.0
 14
0.5740882589684922
 24
0.5740882589684922
 15
0.5
 25
0.5
 16
0.0
 26
0.0
 36
1.0
 17
0.0
 27
0.0
 37
0.0
 40
32.99942313428109
 41
1.570528967254408
 42
50.0
 43
0.0
 44
0.0
 50
0.0
 51
0.0
 71
     0
 72
   100
 73
     1
 74
     0
 75
     0
 76
     0
 77
     0
 78
     0
  0
ENDTAB
  0
TABLE
  2
LTYPE
  5
5
330
0
100
AcDbSymbolTable
 70
     1
  0
LTYPE
  5
12
330
5
100
AcDbSymbolTableRecord
100
AcDbLinetypeTableRecord
  2
BYBLOCK
 70
     0
  3

 72
    65
 73
     0
 40
0.0
  0
LTYPE
  5
13
330
5
100
AcDbSymbolTableRecord
100
AcDbLinetypeTableRecord
  2
BYLAYER
 70
     0
  3

 72
    65
 73
     0
 40
0.0
  0
LTYPE
  5
14
330
5
100
AcDbSymbolTableRecord
100
AcDbLinetypeTableRecord
  2
CONTINUOUS
 70
     0
  3
Solid line
 72
    65
 73
     0
 40
0.0
  0
ENDTAB
  0
TABLE
  2
LAYER
  5
2
330
0
100
AcDbSymbolTable
 70
     4
  0
LAYER
  5
F
330
2
100
AcDbSymbolTableRecord
100
AcDbLayerTableRecord
  2
0
 70
     0
 62
     7
  6
CONTINUOUS
  0
LAYER
  5
1E
330
2
100
AcDbSymbolTableRecord
100
AcDbLayerTableRecord
  2
DEFPOINTS
 70
     0
 62
     7
  6
CONTINUOUS
  0
LAYER
  5
20
330
2
100
AcDbSymbolTableRecord
100
AcDbLayerTableRecord
  2
ADPDIM
 70
     0
 62
     3
  6
CONTINUOUS
  0
LAYER
  5
21
330
2
100
AcDbSymbolTableRecord
100
AcDbLayerTableRecord
  2
ADP1DETAIL
 70
     0
 62
     7
  6
CONTINUOUS
  0
ENDTAB
  0
TABLE
  2
STYLE
  5
3
330
0
100
AcDbSymbolTable
 70
     2
  0
STYLE
  5
10
330
3
100
AcDbSymbolTableRecord
100
AcDbTextStyleTableRecord
  2
STANDARD
 70
     0
 40
0.0
 41
1.0
 50
0.0
 71
     0
 42
0.2
  3
txt
  4

  0
STYLE
  5
194
330
3
100
AcDbSymbolTableRecord
100
AcDbTextStyleTableRecord
  2
ARIAL_WIDE
 70
     0
 40
0.0
 41
1.25
 50
0.0
 71
     0
 42
0.2
  3
ARIAL.TTF
  4

1001
ACAD
1000
Arial
1071
       34
  0
ENDTAB
  0
TABLE
  2
VIEW
  5
6
330
0
100
AcDbSymbolTable
 70
     0
  0
ENDTAB
  0
TABLE
  2
UCS
  5
7
330
0
100
AcDbSymbolTable
 70
     0
  0
ENDTAB
  0
TABLE
  2
APPID
  5
9
330
0
100
AcDbSymbolTable
 70
     1
  0
APPID
  5
11
330
9
100
AcDbSymbolTableRecord
100
AcDbRegAppTableRecord
  2
ACAD
 70
     0
  0
ENDTAB
  0
TABLE
  2
DIMSTYLE
  5
A
330
0
100
AcDbSymbolTable
 70
     1
  0
DIMSTYLE
105
188
330
A
100
AcDbSymbolTableRecord
100
AcDbDimStyleTableRecord
  2
STANDARD
 70
     0
  3

  4

  5

  6

  7

 40
1.0
 41
0.18
 42
0.0625
 43
0.38
 44
0.18
 45
0.0
 46
0.0
 47
0.0
 48
0.0
140
0.18
141
0.09
142
0.0
143
25.4
144
1.0
145
0.0
146
1.0
147
0.09
 71
     0
 72
     0
 73
     1
 74
     1
 75
     0
 76
     0
 77
     0
 78
     0
170
     0
171
     2
172
     0
173
     0
174
     0
175
     0
176
     0
177
     0
178
     0
270
     2
271
     4
272
     4
273
     2
274
     2
340
10
275
     0
280
     0
281
     0
282
     0
283
     1
284
     0
285
     0
286
     0
287
     3
288
     0
  0
ENDTAB
  0
TABLE
  2
BLOCK_RECORD
  5
1
330
0
100
AcDbSymbolTable
 70
     2
  0
BLOCK_RECORD
  5
18
102
{ACAD_XDICTIONARY
360
1E9
102
}
330
1
100
AcDbSymbolTableRecord
100
AcDbBlockTableRecord
  2
*MODEL_SPACE
  0
BLOCK_RECORD
  5
15
102
{ACAD_XDICTIONARY
360
1E7
102
}
330
1
100
AcDbSymbolTableRecord
100
AcDbBlockTableRecord
  2
*PAPER_SPACE
  0
BLOCK_RECORD
  5
1C
330
1
100
AcDbSymbolTableRecord
100
AcDbBlockTableRecord
  2
*D0
  0
BLOCK_RECORD
  5
1D
330
1
100
AcDbSymbolTableRecord
100
AcDbBlockTableRecord
  2
*D1
  0
ENDTAB
  0
ENDSEC
  0
SECTION
  2
BLOCKS
  0
BLOCK
  5
24
330
18
100
AcDbEntity
  8
0
100
AcDbBlockBegin
  2
*MODEL_SPACE
 70
     0
 10
0.0
 20
0.0
 30
0.0
  3
*MODEL_SPACE
  1

  0
ENDBLK
  5
25
330
18
100
AcDbEntity
  8
0
100
AcDbBlockEnd
  0
BLOCK
  5
22
330
15
100
AcDbEntity
 67
     1
  8
0
100
AcDbBlockBegin
  2
*PAPER_SPACE
 70
     0
 10
0.0
 20
0.0
 30
0.0
  3
*PAPER_SPACE
  1

  0
ENDBLK
  5
23
330
15
100
AcDbEntity
 67
     1
  8
0
100
AcDbBlockEnd
  0
BLOCK
  5
27
330
1C
100
AcDbEntity
  8
0
100
AcDbBlockBegin
  2
*D0
 70
     1
 10
0.0
 20
0.0
 30
0.0
  3
*D0
  1

  0
LINE
  5
28
330
1C
100
AcDbEntity
  8
0
  6
BYBLOCK
 62
     0
100
AcDbLine
 10
-77.60930879749475
 20
125.7471974415695
 30
0.0
 11
-76.32383646613035
 21
125.7471974415695
 31
0.0
  0
LINE
  5
29
330
1C
100
AcDbEntity
  8
0
  6
BYBLOCK
 62
     0
100
AcDbLine
 10
-77.60930879749475
 20
98.74719744156958
 30
0.0
 11
-76.32383646613037
 21
98.74719744156958
 31
0.0
  0
LINE
  5
2A
330
1C
100
AcDbEntity
  8
0
  6
BYBLOCK
 62
     0
100
AcDbLine
 10
-76.50383646613036
 20
125.7471974415695
 30
0.0
 11
-76.50383646613038
 21
112.4763641082362
 31
0.0
  0
LINE
  5
2B
330
1C
100
AcDbEntity
  8
0
  6
BYBLOCK
 62
     0
100
AcDbLine
 10
-76.50383646613038
 20
98.74719744156958
 30
0.0
 11
-76.50383646613038
 21
112.0180307749029
 31
0.0
  0
LINE
  5
2C
330
1C
100
AcDbEntity
  8
0
  6
BYBLOCK
 62
     0
100
AcDbLine
 10
-76.37883646613037
 20
125.6221974415695
 30
0.0
 11
-76.62883646613036
 21
125.8721974415695
 31
0.0
  0
LINE
  5
2D
330
1C
100
AcDbEntity
  8
0
  6
BYBLOCK
 62
     0
100
AcDbLine
 10
-76.37883646613038
 20
98.62219744156959
 30
0.0
 11
-76.62883646613038
 21
98.87219744156958
 31
0.0
  0
TEXT
  5
2E
330
1C
100
AcDbEntity
  8
0
  6
BYBLOCK
 62
     0
100
AcDbText
 10
-76.44133646613038
 20
112.1430307749029
 30
0.0
 40
0.125
  1
27
 50
90.0
 72
     1
 11
-76.50383646613038
 21
112.2471974415695
 31
0.0
100
AcDbText
 73
     2
  0
POINT
  5
2F
330
1C
100
AcDbEntity
  8
DEFPOINTS
  6
BYBLOCK
 62
     0
100
AcDbPoint
 10
-77.67180879749474
 20
125.7471974415695
 30
0.0
  0
POINT
  5
30
330
1C
100
AcDbEntity
  8
DEFPOINTS
  6
BYBLOCK
 62
     0
100
AcDbPoint
 10
-77.67180879749474
 20
98.74719744156958
 30
0.0
  0
POINT
  5
31
330
1C
100
AcDbEntity
  8
DEFPOINTS
  6
BYBLOCK
 62
     0
100
AcDbPoint
 10
-76.50383646613038
 20
98.74719744156958
 30
0.0
  0
ENDBLK
  5
32
330
1C
100
AcDbEntity
  8
0
100
AcDbBlockEnd
  0
BLOCK
  5
33
330
1D
100
AcDbEntity
  8
0
100
AcDbBlockBegin
  2
*D1
 70
     1
 10
0.0
 20
0.0
 30
0.0
  3
*D1
  1

  0
LINE
  5
34
330
1D
100
AcDbEntity
  8
0
  6
BYBLOCK
 62
     0
100
AcDbLine
 10
-84.42180879749475
 20
125.8096974415695
 30
0.0
 11
-84.42180879749475
 21
126.4758858312005
 31
0.0
  0
LINE
  5
35
330
1D
100
AcDbEntity
  8
0
  6
BYBLOCK
 62
     0
100
AcDbLine
 10
-77.67180879749474
 20
125.8096974415695
 30
0.0
 11
-77.67180879749474
 21
126.4758858312005
 31
0.0
  0
LINE
  5
36
330
1D
100
AcDbEntity
  8
0
  6
BYBLOCK
 62
     0
100
AcDbLine
 10
-84.42180879749475
 20
126.2958858312005
 30
0.0
 11
-81.46347546416143
 21
126.2958858312005
 31
0.0
  0
LINE
  5
37
330
1D
100
AcDbEntity
  8
0
  6
BYBLOCK
 62
     0
100
AcDbLine
 10
-77.67180879749474
 20
126.2958858312005
 30
0.0
 11
-80.63014213082807
 21
126.2958858312005
 31
0.0
  0
LINE
  5
38
330
1D
100
AcDbEntity
  8
0
  6
BYBLOCK
 62
     0
100
AcDbLine
 10
-84.54680879749474
 20
126.1708858312005
 30
0.0
 11
-84.29680879749474
 21
126.4208858312005
 31
0.0
  0
LINE
  5
39
330
1D
100
AcDbEntity
  8
0
  6
BYBLOCK
 62
     0
100
AcDbLine
 10
-77.79680879749474
 20
126.1708858312005
 30
0.0
 11
-77.54680879749475
 21
126.4208858312005
 31
0.0
  0
TEXT
  5
3A
330
1D
100
AcDbEntity
  8
0
  6
BYBLOCK
 62
     0
100
AcDbText
 10
-81.33847546416141
 20
126.2333858312005
 30
0.0
 40
0.125
  1
6 3/4
 72
     1
 11
-81.04680879749475
 21
126.2958858312005
 31
0.0
100
AcDbText
 73
     2
  0
POINT
  5
3B
330
1D
100
AcDbEntity
  8
DEFPOINTS
  6
BYBLOCK
 62
     0
100
AcDbPoint
 10
-84.42180879749475
 20
125.7471974415695
 30
0.0
  0
POINT
  5
3C
330
1D
100
AcDbEntity
  8
DEFPOINTS
  6
BYBLOCK
 62
     0
100
AcDbPoint
 10
-77.67180879749474
 20
125.7471974415695
 30
0.0
  0
POINT
  5
3D
330
1D
100
AcDbEntity
  8
DEFPOINTS
  6
BYBLOCK
 62
     0
100
AcDbPoint
 10
-77.67180879749474
 20
126.2958858312005
 30
0.0
  0
ENDBLK
  5
3E
330
1D
100
AcDbEntity
  8
0
100
AcDbBlockEnd
  0
ENDSEC
  0
SECTION
  2
ENTITIES
  0
LINE
  5
3F
330
18
100
AcDbEntity
  8
ADP1DETAIL
100
AcDbLine
 10
-84.23380879749476
 20
111.7471974415695
 30
0.0
 11
-82.73418776351844
 21
106.7818106745915
 31
0.0
  0
LINE
  5
40
330
18
100
AcDbEntity
  8
ADP1DETAIL
100
AcDbLine
 10
-84.23380879749476
 20
111.7471974415695
 30
0.0
 11
-82.73430879749474
 21
107.1221974415695
 31
0.0
  0
LINE
  5
41
330
18
100
AcDbEntity
  8
ADP1DETAIL
100
AcDbLine
 10
-84.29580879749476
 20
112.2471974415695
 30
0.0
 11
-82.73430879749474
 21
107.2471974415695
 31
0.0
  0
LINE
  5
42
330
18
100
AcDbEntity
  8
ADP1DETAIL
100
AcDbLine
 10
-84.23380879749476
 20
112.2471974415695
 30
0.0
 11
-82.73430879749474
 21
107.6221974415695
 31
0.0
  0
LINE
  5
43
330
18
100
AcDbEntity
  8
ADP1DETAIL
100
AcDbLine
 10
-83.21086141800577
 20
106.9905834936601
 30
0.0
 11
-84.23421437811805
 21
111.7506029361188
 31
0.0
  0
LINE
  5
44
330
18
100
AcDbEntity
  8
ADP1DETAIL
100
AcDbLine
 10
-83.29780879749476
 20
107.0281974415695
 30
0.0
 11
-84.42180879749475
 21
112.0901974415695
 31
0.0
  0
LINE
  5
45
330
18
100
AcDbEntity
  8
ADP1DETAIL
100
AcDbLine
 10
-84.42180879749475
 20
112.0591974415695
 30
0.0
 11
-83.35980879749476
 21
107.0591974415695
 31
0.0
  0
LINE
  5
46
330
18
100
AcDbEntity
  8
ADP1DETAIL
100
AcDbLine
 10
-77.67180879749474
 20
112.0591974415695
 30
0.0
 11
-78.73380879749475
 21
107.0591974415695
 31
0.0
  0
LINE
  5
47
330
18
100
AcDbEntity
  8
ADP1DETAIL
100
AcDbLine
 10
-78.79580879749475
 20
107.0281974415695
 30
0.0
 11
-77.67180879749474
 21
112.0901974415695
 31
0.0
  0
LINE
  5
48
330
18
100
AcDbEntity
  8
ADP1DETAIL
100
AcDbLine
 10
-77.85980879749475
 20
112.2471974415695
 30
0.0
 11
-79.35930879749474
 21
107.6221974415695
 31
0.0
  0
LINE
  5
49
330
18
100
AcDbEntity
  8
ADP1DETAIL
100
AcDbLine
 10
-77.79780879749475
 20
112.2471974415695
 30
0.0
 11
-79.35930879749474
 21
107.2471974415695
 31
0.0
  0
LINE
  5
4A
330
18
100
AcDbEntity
  8
ADP1DETAIL
100
AcDbLine
 10
-77.85980879749475
 20
111.7471974415695
 30
0.0
 11
-79.35930879749474
 21
107.1221974415695
 31
0.0
  0
LINE
  5
4B
330
18
100
AcDbEntity
  8
ADP1DETAIL
100
AcDbLine
 10
-77.85980879749475
 20
111.7471974415695
 30
0.0
 11
-79.35942983147106
 21
106.7818106745915
 31
0.0
  0
LINE
  5
4C
330
18
100
AcDbEntity
  8
ADP1DETAIL
100
AcDbLine
 10
-78.88275617698372
 20
106.9905834936601
 30
0.0
 11
-77.85940321687146
 21
111.7506029361188
 31
0.0
  0
LINE
  5
4D
330
18
100
AcDbEntity
  8
ADP1DETAIL
100
AcDbLine
 10
-81.04680879749475
 20
112.0591974415695
 30
0.0
 11
-79.98480879749475
 21
107.0591974415695
 31
0.0
  0
LINE
  5
4E
330
18
100
AcDbEntity
  8
ADP1DETAIL
100
AcDbLine
 10
-81.04680879749475
 20
112.0591974415695
 30
0.0
 11
-82.10880879749476
 21
107.0591974415695
 31
0.0
  0
LINE
  5
4F
330
18
100
AcDbEntity
  8
ADP1DETAIL
100
AcDbLine
 10
-82.17080879749476
 20
107.0281974415695
 30
0.0
 11
-81.04680879749475
 21
112.0901974415695
 31
0.0
  0
LINE
  5
50
330
18
100
AcDbEntity
  8
ADP1DETAIL
100
AcDbLine
 10
-81.23480879749475
 20
112.2471974415695
 30
0.0
 11
-82.73430879749474
 21
107.6221974415695
 31
0.0
  0
LINE
  5
51
330
18
100
AcDbEntity
  8
ADP1DETAIL
100
AcDbLine
 10
-81.17280879749475
 20
112.2471974415695
 30
0.0
 11
-82.73430879749474
 21
107.2471974415695
 31
0.0
  0
LINE
  5
52
330
18
100
AcDbEntity
  8
ADP1DETAIL
100
AcDbLine
 10
-81.23480879749475
 20
111.7471974415695
 30
0.0
 11
-82.73430879749474
 21
107.1221974415695
 31
0.0
  0
LINE
  5
53
330
18
100
AcDbEntity
  8
ADP1DETAIL
100
AcDbLine
 10
-81.23480879749475
 20
111.7471974415695
 30
0.0
 11
-82.73442983147106
 21
106.7818106745915
 31
0.0
  0
LINE
  5
54
330
18
100
AcDbEntity
  8
ADP1DETAIL
100
AcDbLine
 10
-82.25775617698372
 20
106.9905834936601
 30
0.0
 11
-81.23440321687146
 21
111.7506029361188
 31
0.0
  0
LINE
  5
55
330
18
100
AcDbEntity
  8
ADP1DETAIL
100
AcDbLine
 10
-79.83586141800578
 20
106.9905834936601
 30
0.0
 11
-80.85921437811805
 21
111.7506029361188
 31
0.0
  0
LINE
  5
56
330
18
100
AcDbEntity
  8
ADP1DETAIL
100
AcDbLine
 10
-80.85880879749476
 20
111.7471974415695
 30
0.0
 11
-79.35918776351845
 21
106.7818106745915
 31
0.0
  0
LINE
  5
57
330
18
100
AcDbEntity
  8
ADP1DETAIL
100
AcDbLine
 10
-80.85880879749476
 20
111.7471974415695
 30
0.0
 11
-79.35930879749474
 21
107.1221974415695
 31
0.0
  0
LINE
  5
58
330
18
100
AcDbEntity
  8
ADP1DETAIL
100
AcDbLine
 10
-80.92080879749476
 20
112.2471974415695
 30
0.0
 11
-79.35930879749474
 21
107.2471974415695
 31
0.0
  0
LINE
  5
59
330
18
100
AcDbEntity
  8
ADP1DETAIL
100
AcDbLine
 10
-80.85880879749476
 20
112.2471974415695
 30
0.0
 11
-79.35930879749474
 21
107.6221974415695
 31
0.0
  0
LINE
  5
5A
330
18
100
AcDbEntity
  8
ADP1DETAIL
100
AcDbLine
 10
-79.92280879749475
 20
107.0281974415695
 30
0.0
 11
-81.04680879749475
 21
112.0901974415695
 31
0.0
  0
DIMENSION
  5
5B
330
18
100
AcDbEntity
  8
ADPDIM
100
AcDbDimension
  2
*D0
 10
-76.50383646613038
 20
98.74719744156958
 30
0.0
 11
-76.50383646613038
 21
112.2471974415695
 31
0.0
100
AcDbAlignedDimension
 13
-77.67180879749474
 23
125.7471974415695
 33
0.0
 14
-77.67180879749474
 24
98.74719744156958
 34
0.0
 50
90.0
100
AcDbRotatedDimension
  0
LINE
  5
5C
330
18
100
AcDbEntity
  8
ADP1DETAIL
100
AcDbLine
 10
-84.42180879749475
 20
98.93519744156959
 30
0.0
 11
-83.35980879749476
 21
103.9351974415695
 31
0.0
  0
LINE
  5
5D
330
18
100
AcDbEntity
  8
ADP1DETAIL
100
AcDbLine
 10
-83.29780879749476
 20
103.9661974415695
 30
0.0
 11
-84.42180879749475
 21
98.90419744156957
 31
0.0
  0
LINE
  5
5E
330
18
100
AcDbEntity
  8
ADP1DETAIL
100
AcDbLine
 10
-84.29580879749476
 20
98.74719744156958
 30
0.0
 11
-82.73430879749474
 21
103.7471974415695
 31
0.0
  0
LINE
  5
5F
330
18
100
AcDbEntity
  8
ADP1DETAIL
100
AcDbLine
 10
-84.42180879749475
 20
98.75715867747933
 30
0.0
 11
-84.23380879749476
 21
98.74719744156958
 31
0.0
  0
LINE
  5
60
330
18
100
AcDbEntity
  8
ADP1DETAIL
100
AcDbLine
 10
-84.28049496176749
 20
105.4986245405177
 30
0.0
 11
-82.73430879749474
 21
104.5284474415695
 31
0.0
  0
LINE
  5
61
330
18
100
AcDbEntity
  8
ADP1DETAIL
100
AcDbLine
 10
-84.28049496176749
 20
105.4957703426213
 30
0.0
 11
-82.73430879749474
 21
106.4659474415695
 31
0.0
  0
LINE
  5
62
330
18
100
AcDbEntity
  8
ADP1DETAIL
100
AcDbLine
 10
-83.29780879749476
 20
107.0281974415695
 30
0.0
 11
-84.42180879749475
 21
105.6536974415695
 31
0.0
  0
LINE
  5
63
330
18
100
AcDbEntity
  8
ADP1DETAIL
100
AcDbLine
 10
-83.35980879749476
 20
107.0591974415695
 30
0.0
 11
-84.42180879749475
 21
105.6846974415695
 31
0.0
  0
LINE
  5
64
330
18
100
AcDbEntity
  8
ADP1DETAIL
100
AcDbLine
 10
-83.35980879749476
 20
103.9351974415695
 30
0.0
 11
-84.42180879749475
 21
105.3096974415695
 31
0.0
  0
LINE
  5
65
330
18
100
AcDbEntity
  8
ADP1DETAIL
100
AcDbLine
 10
-83.29780879749476
 20
103.9661974415695
 30
0.0
 11
-84.42180879749475
 21
105.3406974415695
 31
0.0
  0
LINE
  5
66
330
18
100
AcDbEntity
  8
ADP1DETAIL
100
AcDbLine
 10
-84.42180879749475
 20
98.93519744156959
 30
0.0
 11
-84.42180879749475
 21
98.75715867747933
 31
0.0
  0
LINE
  5
67
330
18
100
AcDbEntity
  8
ADP1DETAIL
100
AcDbLine
 10
-84.42180879749475
 20
105.6846974415695
 30
0.0
 11
-84.42180879749475
 21
105.3406974415695
 31
0.0
  0
LINE
  5
68
330
18
100
AcDbEntity
  8
ADP1DETAIL
100
AcDbLine
 10
-78.88275617698372
 20
104.003811389479
 30
0.0
 11
-77.85940321687146
 21
99.24379194702034
 31
0.0
  0
LINE
  5
69
330
18
100
AcDbEntity
  8
ADP1DETAIL
100
AcDbLine
 10
-77.85980879749475
 20
99.24719744156959
 30
0.0
 11
-79.35942983147106
 21
104.2125842085475
 31
0.0
  0
LINE
  5
6A
330
18
100
AcDbEntity
  8
ADP1DETAIL
100
AcDbLine
 10
-77.85980879749475
 20
99.24719744156959
 30
0.0
 11
-79.35930879749474
 21
103.8721974415695
 31
0.0
  0
LINE
  5
6B
330
18
100
AcDbEntity
  8
ADP1DETAIL
100
AcDbLine
 10
-78.79580879749475
 20
103.9661974415695
 30
0.0
 11
-77.67180879749474
 21
98.90419744156957
 31
0.0
  0
LINE
  5
6C
330
18
100
AcDbEntity
  8
ADP1DETAIL
100
AcDbLine
 10
-77.67180879749474
 20
98.93519744156959
 30
0.0
 11
-78.73380879749475
 21
103.9351974415695
 31
0.0
  0
LINE
  5
6D
330
18
100
AcDbEntity
  8
ADP1DETAIL
100
AcDbLine
 10
-82.17080879749476
 20
103.9661974415695
 30
0.0
 11
-81.04680879749475
 21
98.90419744156957
 31
0.0
  0
LINE
  5
6E
330
18
100
AcDbEntity
  8
ADP1DETAIL
100
AcDbLine
 10
-81.04680879749475
 20
98.93519744156959
 30
0.0
 11
-82.10880879749476
 21
103.9351974415695
 31
0.0
  0
LINE
  5
6F
330
18
100
AcDbEntity
  8
ADP1DETAIL
100
AcDbLine
 10
-81.04680879749475
 20
98.93519744156959
 30
0.0
 11
-79.98480879749475
 21
103.9351974415695
 31
0.0
  0
LINE
  5
70
330
18
100
AcDbEntity
  8
ADP1DETAIL
100
AcDbLine
 10
-82.25775617698372
 20
104.003811389479
 30
0.0
 11
-81.23440321687146
 21
99.24379194702034
 31
0.0
  0
LINE
  5
71
330
18
100
AcDbEntity
  8
ADP1DETAIL
100
AcDbLine
 10
-81.23480879749475
 20
99.24719744156959
 30
0.0
 11
-82.73442983147106
 21
104.2125842085475
 31
0.0
  0
LINE
  5
72
330
18
100
AcDbEntity
  8
ADP1DETAIL
100
AcDbLine
 10
-81.23480879749475
 20
99.24719744156959
 30
0.0
 11
-82.73430879749474
 21
103.8721974415695
 31
0.0
  0
LINE
  5
73
330
18
100
AcDbEntity
  8
ADP1DETAIL
100
AcDbLine
 10
-84.23380879749476
 20
99.24719744156959
 30
0.0
 11
-82.73430879749474
 21
103.8721974415695
 31
0.0
  0
LINE
  5
74
330
18
100
AcDbEntity
  8
ADP1DETAIL
100
AcDbLine
 10
-84.23380879749476
 20
99.24719744156959
 30
0.0
 11
-82.73418776351844
 21
104.2125842085475
 31
0.0
  0
LINE
  5
75
330
18
100
AcDbEntity
  8
ADP1DETAIL
100
AcDbLine
 10
-83.21086141800577
 20
104.003811389479
 30
0.0
 11
-84.23421437811805
 21
99.24379194702034
 31
0.0
  0
LINE
  5
76
330
18
100
AcDbEntity
  8
ADP1DETAIL
100
AcDbLine
 10
-79.92280879749475
 20
103.9661974415695
 30
0.0
 11
-81.04680879749475
 21
98.90419744156957
 31
0.0
  0
LINE
  5
77
330
18
100
AcDbEntity
  8
ADP1DETAIL
100
AcDbLine
 10
-80.85880879749476
 20
99.24719744156959
 30
0.0
 11
-79.35930879749474
 21
103.8721974415695
 31
0.0
  0
LINE
  5
78
330
18
100
AcDbEntity
  8
ADP1DETAIL
100
AcDbLine
 10
-80.85880879749476
 20
99.24719744156959
 30
0.0
 11
-79.35918776351845
 21
104.2125842085475
 31
0.0
  0
LINE
  5
79
330
18
100
AcDbEntity
  8
ADP1DETAIL
100
AcDbLine
 10
-79.83586141800578
 20
104.003811389479
 30
0.0
 11
-80.85921437811805
 21
99.24379194702034
 31
0.0
  0
LINE
  5
7A
330
18
100
AcDbEntity
  8
ADP1DETAIL
100
AcDbLine
 10
-84.23380879749476
 20
98.74719744156958
 30
0.0
 11
-82.73430879749474
 21
103.3721974415695
 31
0.0
  0
LINE
  5
7B
330
18
100
AcDbEntity
  8
ADP1DETAIL
100
AcDbLine
 10
-77.85980879749475
 20
98.74719744156958
 30
0.0
 11
-79.35930879749474
 21
103.3721974415695
 31
0.0
  0
LINE
  5
7C
330
18
100
AcDbEntity
  8
ADP1DETAIL
100
AcDbLine
 10
-77.79780879749475
 20
98.74719744156958
 30
0.0
 11
-79.35930879749474
 21
103.7471974415695
 31
0.0
  0
LINE
  5
7D
330
18
100
AcDbEntity
  8
ADP1DETAIL
100
AcDbLine
 10
-81.23480879749475
 20
98.74719744156958
 30
0.0
 11
-82.73430879749474
 21
103.3721974415695
 31
0.0
  0
LINE
  5
7E
330
18
100
AcDbEntity
  8
ADP1DETAIL
100
AcDbLine
 10
-81.17280879749475
 20
98.74719744156958
 30
0.0
 11
-82.73430879749474
 21
103.7471974415695
 31
0.0
  0
LINE
  5
7F
330
18
100
AcDbEntity
  8
ADP1DETAIL
100
AcDbLine
 10
-80.85880879749476
 20
98.74719744156958
 30
0.0
 11
-79.35930879749474
 21
103.3721974415695
 31
0.0
  0
LINE
  5
80
330
18
100
AcDbEntity
  8
ADP1DETAIL
100
AcDbLine
 10
-80.92080879749476
 20
98.74719744156958
 30
0.0
 11
-79.35930879749474
 21
103.7471974415695
 31
0.0
  0
LINE
  5
81
330
18
100
AcDbEntity
  8
ADP1DETAIL
100
AcDbLine
 10
-81.23480879749475
 20
98.74719744156958
 30
0.0
 11
-80.85880879749476
 21
98.74719744156958
 31
0.0
  0
LINE
  5
82
330
18
100
AcDbEntity
  8
ADP1DETAIL
100
AcDbLine
 10
-77.85980879749475
 20
98.74719744156958
 30
0.0
 11
-77.67180879749474
 21
98.74719744156958
 31
0.0
  0
LINE
  5
83
330
18
100
AcDbEntity
  8
ADP1DETAIL
100
AcDbLine
 10
-77.67180879749474
 20
98.92523620565984
 30
0.0
 11
-77.67180879749474
 21
98.74719744156958
 31
0.0
  0
LINE
  5
84
330
18
100
AcDbEntity
  8
ADP1DETAIL
100
AcDbLine
 10
-79.98480879749475
 20
107.0591974415695
 30
0.0
 11
-81.04680879749475
 21
105.6846974415695
 31
0.0
  0
LINE
  5
85
330
18
100
AcDbEntity
  8
ADP1DETAIL
100
AcDbLine
 10
-79.92280879749475
 20
107.0281974415695
 30
0.0
 11
-81.04680879749475
 21
105.6536974415695
 31
0.0
  0
LINE
  5
86
330
18
100
AcDbEntity
  8
ADP1DETAIL
100
AcDbLine
 10
-80.79656011298316
 20
105.6878412992972
 30
0.0
 11
-79.83586141800578
 21
106.9905834936601
 31
0.0
  0
LINE
  5
87
330
18
100
AcDbEntity
  8
ADP1DETAIL
100
AcDbLine
 10
-80.79717717352272
 20
105.6837703426213
 30
0.0
 11
-79.35930879749474
 21
106.5909474415695
 31
0.0
  0
LINE
  5
88
330
18
100
AcDbEntity
  8
ADP1DETAIL
100
AcDbLine
 10
-80.79717717352272
 20
105.6837703426213
 30
0.0
 11
-79.35918776351845
 21
106.7818106745915
 31
0.0
  0
LINE
  5
89
330
18
100
AcDbEntity
  8
ADP1DETAIL
100
AcDbLine
 10
-80.90549496176748
 20
105.4957703426213
 30
0.0
 11
-79.35930879749474
 21
106.4659474415695
 31
0.0
  0
LINE
  5
8A
330
18
100
AcDbEntity
  8
ADP1DETAIL
100
AcDbLine
 10
-80.85880879749476
 20
105.4971974415695
 30
0.0
 11
-79.35930879749474
 21
106.3721974415695
 31
0.0
  0
LINE
  5
8B
330
18
100
AcDbEntity
  8
ADP1DETAIL
100
AcDbLine
 10
-79.98480879749475
 20
103.9351974415695
 30
0.0
 11
-81.04680879749475
 21
105.3096974415695
 31
0.0
  0
LINE
  5
8C
330
18
100
AcDbEntity
  8
ADP1DETAIL
100
AcDbLine
 10
-80.90549496176748
 20
105.4986245405177
 30
0.0
 11
-79.35930879749474
 21
104.5284474415695
 31
0.0
  0
LINE
  5
8D
330
18
100
AcDbEntity
  8
ADP1DETAIL
100
AcDbLine
 10
-79.92280879749475
 20
103.9661974415695
 30
0.0
 11
-81.04680879749475
 21
105.3406974415695
 31
0.0
  0
LINE
  5
8E
330
18
100
AcDbEntity
  8
ADP1DETAIL
100
AcDbLine
 10
-80.85880879749476
 20
105.4971974415695
 30
0.0
 11
-79.35930879749474
 21
104.6221974415695
 31
0.0
  0
LINE
  5
8F
330
18
100
AcDbEntity
  8
ADP1DETAIL
100
AcDbLine
 10
-80.79717717352272
 20
105.3106245405178
 30
0.0
 11
-79.35918776351845
 21
104.2125842085475
 31
0.0
  0
LINE
  5
90
330
18
100
AcDbEntity
  8
ADP1DETAIL
100
AcDbLine
 10
-80.79717717352272
 20
105.3106245405178
 30
0.0
 11
-79.35930879749474
 21
104.4034474415695
 31
0.0
  0
LINE
  5
91
330
18
100
AcDbEntity
  8
ADP1DETAIL
100
AcDbLine
 10
-80.79656011298316
 20
105.3065535838418
 30
0.0
 11
-79.83586141800578
 21
104.003811389479
 31
0.0
  0
LINE
  5
92
330
18
100
AcDbEntity
  8
ADP1DETAIL
100
AcDbLine
 10
-84.17217717352272
 20
105.6837703426213
 30
0.0
 11
-82.73430879749474
 21
106.5909474415695
 31
0.0
  0
LINE
  5
93
330
18
100
AcDbEntity
  8
ADP1DETAIL
100
AcDbLine
 10
-84.17217717352272
 20
105.6837703426213
 30
0.0
 11
-82.73418776351844
 21
106.7818106745915
 31
0.0
  0
LINE
  5
94
330
18
100
AcDbEntity
  8
ADP1DETAIL
100
AcDbLine
 10
-84.23380879749476
 20
105.4971974415695
 30
0.0
 11
-82.73430879749474
 21
106.3721974415695
 31
0.0
  0
LINE
  5
95
330
18
100
AcDbEntity
  8
ADP1DETAIL
100
AcDbLine
 10
-84.17156011298315
 20
105.6878412992972
 30
0.0
 11
-83.21086141800577
 21
106.9905834936601
 31
0.0
  0
LINE
  5
96
330
18
100
AcDbEntity
  8
ADP1DETAIL
100
AcDbLine
 10
-81.29705748200635
 20
105.6878412992972
 30
0.0
 11
-82.25775617698372
 21
106.9905834936601
 31
0.0
  0
LINE
  5
97
330
18
100
AcDbEntity
  8
ADP1DETAIL
100
AcDbLine
 10
-82.10880879749476
 20
107.0591974415695
 30
0.0
 11
-81.04680879749475
 21
105.6846974415695
 31
0.0
  0
LINE
  5
98
330
18
100
AcDbEntity
  8
ADP1DETAIL
100
AcDbLine
 10
-82.17080879749476
 20
107.0281974415695
 30
0.0
 11
-81.04680879749475
 21
105.6536974415695
 31
0.0
  0
LINE
  5
99
330
18
100
AcDbEntity
  8
ADP1DETAIL
100
AcDbLine
 10
-81.23480879749475
 20
105.4971974415695
 30
0.0
 11
-82.73430879749474
 21
106.3721974415695
 31
0.0
  0
LINE
  5
9A
330
18
100
AcDbEntity
  8
ADP1DETAIL
100
AcDbLine
 10
-81.18812263322203
 20
105.4957703426213
 30
0.0
 11
-82.73430879749474
 21
106.4659474415695
 31
0.0
  0
LINE
  5
9B
330
18
100
AcDbEntity
  8
ADP1DETAIL
100
AcDbLine
 10
-81.29644042146679
 20
105.6837703426213
 30
0.0
 11
-82.73442983147106
 21
106.7818106745915
 31
0.0
  0
LINE
  5
9C
330
18
100
AcDbEntity
  8
ADP1DETAIL
100
AcDbLine
 10
-81.29644042146679
 20
105.6837703426213
 30
0.0
 11
-82.73430879749474
 21
106.5909474415695
 31
0.0
  0
LINE
  5
9D
330
18
100
AcDbEntity
  8
ADP1DETAIL
100
AcDbLine
 10
-81.29644042146679
 20
105.3106245405178
 30
0.0
 11
-82.73430879749474
 21
104.4034474415695
 31
0.0
  0
LINE
  5
9E
330
18
100
AcDbEntity
  8
ADP1DETAIL
100
AcDbLine
 10
-81.29644042146679
 20
105.3106245405178
 30
0.0
 11
-82.73442983147106
 21
104.2125842085475
 31
0.0
  0
LINE
  5
9F
330
18
100
AcDbEntity
  8
ADP1DETAIL
100
AcDbLine
 10
-81.18812263322203
 20
105.4986245405177
 30
0.0
 11
-82.73430879749474
 21
104.5284474415695
 31
0.0
  0
LINE
  5
A0
330
18
100
AcDbEntity
  8
ADP1DETAIL
100
AcDbLine
 10
-81.23480879749475
 20
105.4971974415695
 30
0.0
 11
-82.73430879749474
 21
104.6221974415695
 31
0.0
  0
LINE
  5
A1
330
18
100
AcDbEntity
  8
ADP1DETAIL
100
AcDbLine
 10
-82.25775617698372
 20
104.003811389479
 30
0.0
 11
-82.73442983147106
 21
104.2125842085475
 31
0.0
  0
LINE
  5
A2
330
18
100
AcDbEntity
  8
ADP1DETAIL
100
AcDbLine
 10
-82.73430879749474
 20
103.7471974415695
 30
0.0
 11
-82.73430879749474
 21
103.3721974415695
 31
0.0
  0
LINE
  5
A3
330
18
100
AcDbEntity
  8
ADP1DETAIL
100
AcDbLine
 10
-83.21086141800577
 20
104.003811389479
 30
0.0
 11
-82.73418776351844
 21
104.2125842085475
 31
0.0
  0
LINE
  5
A4
330
18
100
AcDbEntity
  8
ADP1DETAIL
100
AcDbLine
 10
-84.23380879749476
 20
105.4971974415695
 30
0.0
 11
-82.73430879749474
 21
104.6221974415695
 31
0.0
  0
LINE
  5
A5
330
18
100
AcDbEntity
  8
ADP1DETAIL
100
AcDbLine
 10
-84.17217717352272
 20
105.3106245405178
 30
0.0
 11
-82.73418776351844
 21
104.2125842085475
 31
0.0
  0
LINE
  5
A6
330
18
100
AcDbEntity
  8
ADP1DETAIL
100
AcDbLine
 10
-84.17217717352272
 20
105.3106245405178
 30
0.0
 11
-82.73430879749474
 21
104.4034474415695
 31
0.0
  0
LINE
  5
A7
330
18
100
AcDbEntity
  8
ADP1DETAIL
100
AcDbLine
 10
-84.17156011298315
 20
105.3065535838418
 30
0.0
 11
-83.21086141800577
 21
104.003811389479
 31
0.0
  0
LINE
  5
A8
330
18
100
AcDbEntity
  8
ADP1DETAIL
100
AcDbLine
 10
-83.29780879749476
 20
103.9661974415695
 30
0.0
 11
-83.36540858308394
 21
103.9370041074864
 31
0.0
  0
LINE
  5
A9
330
18
100
AcDbEntity
  8
ADP1DETAIL
100
AcDbLine
 10
-82.73418776351844
 20
104.2125842085475
 30
0.0
 11
-82.73430879749474
 21
104.4034474415695
 31
0.0
  0
POINT
  5
AA
330
18
100
AcDbEntity
  8
ADP1DETAIL
100
AcDbPoint
 10
-82.73430879749474
 20
104.2159474415695
 30
0.0
  0
POINT
  5
AB
330
18
100
AcDbEntity
  8
ADP1DETAIL
100
AcDbPoint
 10
-82.77178031518118
 20
104.0163377932559
 30
0.0
  0
POINT
  5
AC
330
18
100
AcDbEntity
  8
ADP1DETAIL
100
AcDbPoint
 10
-82.76760339384495
 20
103.9745832350281
 30
0.0
  0
LINE
  5
AD
330
18
100
AcDbEntity
  8
ADP1DETAIL
100
AcDbLine
 10
-82.73418776351844
 20
104.2125842085475
 30
0.0
 11
-82.73430879749474
 21
103.8721974415695
 31
0.0
  0
LINE
  5
AE
330
18
100
AcDbEntity
  8
ADP1DETAIL
100
AcDbLine
 10
-82.73430879749474
 20
104.5284474415695
 30
0.0
 11
-82.73430879749474
 21
104.6221974415695
 31
0.0
  0
LINE
  5
AF
330
18
100
AcDbEntity
  8
ADP1DETAIL
100
AcDbLine
 10
-81.29705748200635
 20
105.3065535838418
 30
0.0
 11
-82.25775617698372
 21
104.003811389479
 31
0.0
  0
LINE
  5
B0
330
18
100
AcDbEntity
  8
ADP1DETAIL
100
AcDbLine
 10
-82.17080879749476
 20
103.9661974415695
 30
0.0
 11
-81.04680879749475
 21
105.3406974415695
 31
0.0
  0
LINE
  5
B1
330
18
100
AcDbEntity
  8
ADP1DETAIL
100
AcDbLine
 10
-82.10880879749476
 20
103.9351974415695
 30
0.0
 11
-81.04680879749475
 21
105.3096974415695
 31
0.0
  0
LINE
  5
B2
330
18
100
AcDbEntity
  8
ADP1DETAIL
100
AcDbLine
 10
-82.17080879749476
 20
103.9661974415695
 30
0.0
 11
-82.10320901190556
 21
103.9370041074864
 31
0.0
  0
LINE
  5
B3
330
18
100
AcDbEntity
  8
ADP1DETAIL
100
AcDbLine
 10
-82.25775617698372
 20
106.9905834936601
 30
0.0
 11
-82.73442983147106
 21
106.7818106745915
 31
0.0
  0
LINE
  5
B4
330
18
100
AcDbEntity
  8
ADP1DETAIL
100
AcDbLine
 10
-83.21086141800577
 20
106.9905834936601
 30
0.0
 11
-82.73418776351844
 21
106.7818106745915
 31
0.0
  0
LINE
  5
B5
330
18
100
AcDbEntity
  8
ADP1DETAIL
100
AcDbLine
 10
-83.29780879749476
 20
107.0281974415695
 30
0.0
 11
-83.36540858308394
 21
107.0573907756527
 31
0.0
  0
LINE
  5
B6
330
18
100
AcDbEntity
  8
ADP1DETAIL
100
AcDbLine
 10
-82.73418776351844
 20
106.7818106745915
 30
0.0
 11
-82.73430879749474
 21
107.1221974415695
 31
0.0
  0
LINE
  5
B7
330
18
100
AcDbEntity
  8
ADP1DETAIL
100
AcDbLine
 10
-82.73430879749474
 20
106.4659474415695
 30
0.0
 11
-82.73430879749474
 21
106.3721974415695
 31
0.0
  0
LINE
  5
B8
330
18
100
AcDbEntity
  8
ADP1DETAIL
100
AcDbLine
 10
-82.73418776351844
 20
106.7818106745915
 30
0.0
 11
-82.73430879749474
 21
106.5909474415695
 31
0.0
  0
POINT
  5
B9
330
18
100
AcDbEntity
  8
ADP1DETAIL
100
AcDbPoint
 10
-82.73430879749474
 20
106.7784474415695
 30
0.0
  0
LINE
  5
BA
330
18
100
AcDbEntity
  8
ADP1DETAIL
100
AcDbLine
 10
-82.73430879749474
 20
107.2471974415695
 30
0.0
 11
-82.73430879749474
 21
107.6221974415695
 31
0.0
  0
POINT
  5
BB
330
18
100
AcDbEntity
  8
ADP1DETAIL
100
AcDbPoint
 10
-82.77178031518118
 20
106.9780570898832
 30
0.0
  0
POINT
  5
BC
330
18
100
AcDbEntity
  8
ADP1DETAIL
100
AcDbPoint
 10
-82.76760339384495
 20
107.0198116481109
 30
0.0
  0
LINE
  5
BD
330
18
100
AcDbEntity
  8
ADP1DETAIL
100
AcDbLine
 10
-82.17080879749476
 20
107.0281974415695
 30
0.0
 11
-82.10320901190556
 21
107.0573907756527
 31
0.0
  0
LINE
  5
BE
330
18
100
AcDbEntity
  8
ADP1DETAIL
100
AcDbLine
 10
-77.85980879749475
 20
105.4971974415695
 30
0.0
 11
-79.35930879749474
 21
106.3721974415695
 31
0.0
  0
LINE
  5
BF
330
18
100
AcDbEntity
  8
ADP1DETAIL
100
AcDbLine
 10
-77.81312263322202
 20
105.4957703426213
 30
0.0
 11
-79.35930879749474
 21
106.4659474415695
 31
0.0
  0
LINE
  5
C0
330
18
100
AcDbEntity
  8
ADP1DETAIL
100
AcDbLine
 10
-77.92144042146678
 20
105.6837703426213
 30
0.0
 11
-79.35942983147106
 21
106.7818106745915
 31
0.0
  0
LINE
  5
C1
330
18
100
AcDbEntity
  8
ADP1DETAIL
100
AcDbLine
 10
-77.92144042146678
 20
105.6837703426213
 30
0.0
 11
-79.35930879749474
 21
106.5909474415695
 31
0.0
  0
LINE
  5
C2
330
18
100
AcDbEntity
  8
ADP1DETAIL
100
AcDbLine
 10
-78.73380879749475
 20
107.0591974415695
 30
0.0
 11
-77.67180879749474
 21
105.6846974415695
 31
0.0
  0
LINE
  5
C3
330
18
100
AcDbEntity
  8
ADP1DETAIL
100
AcDbLine
 10
-78.79580879749475
 20
107.0281974415695
 30
0.0
 11
-77.67180879749474
 21
105.6536974415695
 31
0.0
  0
LINE
  5
C4
330
18
100
AcDbEntity
  8
ADP1DETAIL
100
AcDbLine
 10
-77.92205748200635
 20
105.6878412992972
 30
0.0
 11
-78.88275617698372
 21
106.9905834936601
 31
0.0
  0
LINE
  5
C5
330
18
100
AcDbEntity
  8
ADP1DETAIL
100
AcDbLine
 10
-77.92144042146678
 20
105.3106245405178
 30
0.0
 11
-79.35930879749474
 21
104.4034474415695
 31
0.0
  0
LINE
  5
C6
330
18
100
AcDbEntity
  8
ADP1DETAIL
100
AcDbLine
 10
-77.92144042146678
 20
105.3106245405178
 30
0.0
 11
-79.35942983147106
 21
104.2125842085475
 31
0.0
  0
LINE
  5
C7
330
18
100
AcDbEntity
  8
ADP1DETAIL
100
AcDbLine
 10
-77.81312263322202
 20
105.4986245405177
 30
0.0
 11
-79.35930879749474
 21
104.5284474415695
 31
0.0
  0
LINE
  5
C8
330
18
100
AcDbEntity
  8
ADP1DETAIL
100
AcDbLine
 10
-77.85980879749475
 20
105.4971974415695
 30
0.0
 11
-79.35930879749474
 21
104.6221974415695
 31
0.0
  0
LINE
  5
C9
330
18
100
AcDbEntity
  8
ADP1DETAIL
100
AcDbLine
 10
-78.73380879749475
 20
103.9351974415695
 30
0.0
 11
-77.67180879749474
 21
105.3096974415695
 31
0.0
  0
LINE
  5
CA
330
18
100
AcDbEntity
  8
ADP1DETAIL
100
AcDbLine
 10
-77.92205748200635
 20
105.3065535838418
 30
0.0
 11
-78.88275617698372
 21
104.003811389479
 31
0.0
  0
LINE
  5
CB
330
18
100
AcDbEntity
  8
ADP1DETAIL
100
AcDbLine
 10
-78.79580879749475
 20
103.9661974415695
 30
0.0
 11
-77.67180879749474
 21
105.3406974415695
 31
0.0
  0
LINE
  5
CC
330
18
100
AcDbEntity
  8
ADP1DETAIL
100
AcDbLine
 10
-79.35930879749474
 20
103.7471974415695
 30
0.0
 11
-79.35930879749474
 21
103.3721974415695
 31
0.0
  0
LINE
  5
CD
330
18
100
AcDbEntity
  8
ADP1DETAIL
100
AcDbLine
 10
-78.88275617698372
 20
104.003811389479
 30
0.0
 11
-79.35942983147106
 21
104.2125842085475
 31
0.0
  0
LINE
  5
CE
330
18
100
AcDbEntity
  8
ADP1DETAIL
100
AcDbLine
 10
-79.92280879749475
 20
103.9661974415695
 30
0.0
 11
-79.99040858308394
 21
103.9370041074864
 31
0.0
  0
LINE
  5
CF
330
18
100
AcDbEntity
  8
ADP1DETAIL
100
AcDbLine
 10
-79.35942983147106
 20
104.2125842085475
 30
0.0
 11
-79.35930879749474
 21
104.4034474415695
 31
0.0
  0
LINE
  5
D0
330
18
100
AcDbEntity
  8
ADP1DETAIL
100
AcDbLine
 10
-79.83586141800578
 20
104.003811389479
 30
0.0
 11
-79.35918776351845
 21
104.2125842085475
 31
0.0
  0
POINT
  5
D1
330
18
100
AcDbEntity
  8
ADP1DETAIL
100
AcDbPoint
 10
-79.35930879749474
 20
104.2159474415695
 30
0.0
  0
POINT
  5
D2
330
18
100
AcDbEntity
  8
ADP1DETAIL
100
AcDbPoint
 10
-79.32601420114456
 20
103.9745832350281
 30
0.0
  0
POINT
  5
D3
330
18
100
AcDbEntity
  8
ADP1DETAIL
100
AcDbPoint
 10
-79.32183727980832
 20
104.0163377932559
 30
0.0
  0
LINE
  5
D4
330
18
100
AcDbEntity
  8
ADP1DETAIL
100
AcDbLine
 10
-79.35942983147106
 20
104.2125842085475
 30
0.0
 11
-79.35930879749474
 21
103.8721974415695
 31
0.0
  0
LINE
  5
D5
330
18
100
AcDbEntity
  8
ADP1DETAIL
100
AcDbLine
 10
-79.35930879749474
 20
104.5284474415695
 30
0.0
 11
-79.35930879749474
 21
104.6221974415695
 31
0.0
  0
LINE
  5
D6
330
18
100
AcDbEntity
  8
ADP1DETAIL
100
AcDbLine
 10
-78.79580879749475
 20
103.9661974415695
 30
0.0
 11
-78.72820901190556
 21
103.9370041074864
 31
0.0
  0
LINE
  5
D7
330
18
100
AcDbEntity
  8
ADP1DETAIL
100
AcDbLine
 10
-77.67180879749474
 20
105.6536974415695
 30
0.0
 11
-77.67180879749474
 21
105.3096974415695
 31
0.0
  0
LINE
  5
D8
330
18
100
AcDbEntity
  8
ADP1DETAIL
100
AcDbLine
 10
-78.88275617698372
 20
106.9905834936601
 30
0.0
 11
-79.35942983147106
 21
106.7818106745915
 31
0.0
  0
LINE
  5
D9
330
18
100
AcDbEntity
  8
ADP1DETAIL
100
AcDbLine
 10
-79.83586141800578
 20
106.9905834936601
 30
0.0
 11
-79.35918776351845
 21
106.7818106745915
 31
0.0
  0
LINE
  5
DA
330
18
100
AcDbEntity
  8
ADP1DETAIL
100
AcDbLine
 10
-79.35942983147106
 20
106.7818106745915
 30
0.0
 11
-79.35930879749474
 21
107.1221974415695
 31
0.0
  0
LINE
  5
DB
330
18
100
AcDbEntity
  8
ADP1DETAIL
100
AcDbLine
 10
-79.35930879749474
 20
106.4659474415695
 30
0.0
 11
-79.35930879749474
 21
106.3721974415695
 31
0.0
  0
LINE
  5
DC
330
18
100
AcDbEntity
  8
ADP1DETAIL
100
AcDbLine
 10
-79.35942983147106
 20
106.7818106745915
 30
0.0
 11
-79.35930879749474
 21
106.5909474415695
 31
0.0
  0
POINT
  5
DD
330
18
100
AcDbEntity
  8
ADP1DETAIL
100
AcDbPoint
 10
-79.35930879749474
 20
106.7784474415695
 30
0.0
  0
LINE
  5
DE
330
18
100
AcDbEntity
  8
ADP1DETAIL
100
AcDbLine
 10
-79.92280879749475
 20
107.0281974415695
 30
0.0
 11
-79.99040858308394
 21
107.0573907756527
 31
0.0
  0
LINE
  5
DF
330
18
100
AcDbEntity
  8
ADP1DETAIL
100
AcDbLine
 10
-79.35930879749474
 20
107.2471974415695
 30
0.0
 11
-79.35930879749474
 21
107.6221974415695
 31
0.0
  0
POINT
  5
E0
330
18
100
AcDbEntity
  8
ADP1DETAIL
100
AcDbPoint
 10
-79.32183727980832
 20
106.9780570898832
 30
0.0
  0
POINT
  5
E1
330
18
100
AcDbEntity
  8
ADP1DETAIL
100
AcDbPoint
 10
-79.32601420114456
 20
107.0198116481109
 30
0.0
  0
LINE
  5
E2
330
18
100
AcDbEntity
  8
ADP1DETAIL
100
AcDbLine
 10
-78.79580879749475
 20
107.0281974415695
 30
0.0
 11
-78.72820901190556
 21
107.0573907756527
 31
0.0
  0
LINE
  5
E3
330
18
100
AcDbEntity
  8
ADP1DETAIL
100
AcDbLine
 10
-84.23380879749476
 20
118.9971974415695
 30
0.0
 11
-82.73430879749474
 21
118.1221974415695
 31
0.0
  0
LINE
  5
E4
330
18
100
AcDbEntity
  8
ADP1DETAIL
100
AcDbLine
 10
-84.28049496176749
 20
118.9986245405177
 30
0.0
 11
-82.73430879749474
 21
118.0284474415695
 31
0.0
  0
LINE
  5
E5
330
18
100
AcDbEntity
  8
ADP1DETAIL
100
AcDbLine
 10
-77.81312263322202
 20
118.9986245405177
 30
0.0
 11
-79.35930879749474
 21
118.0284474415695
 31
0.0
  0
LINE
  5
E6
330
18
100
AcDbEntity
  8
ADP1DETAIL
100
AcDbLine
 10
-77.85980879749475
 20
118.9971974415695
 30
0.0
 11
-79.35930879749474
 21
118.1221974415695
 31
0.0
  0
LINE
  5
E7
330
18
100
AcDbEntity
  8
ADP1DETAIL
100
AcDbLine
 10
-81.18812263322203
 20
118.9986245405177
 30
0.0
 11
-82.73430879749474
 21
118.0284474415695
 31
0.0
  0
LINE
  5
E8
330
18
100
AcDbEntity
  8
ADP1DETAIL
100
AcDbLine
 10
-81.23480879749475
 20
118.9971974415695
 30
0.0
 11
-82.73430879749474
 21
118.1221974415695
 31
0.0
  0
LINE
  5
E9
330
18
100
AcDbEntity
  8
ADP1DETAIL
100
AcDbLine
 10
-80.85880879749476
 20
118.9971974415695
 30
0.0
 11
-79.35930879749474
 21
118.1221974415695
 31
0.0
  0
LINE
  5
EA
330
18
100
AcDbEntity
  8
ADP1DETAIL
100
AcDbLine
 10
-80.90549496176748
 20
118.9986245405177
 30
0.0
 11
-79.35930879749474
 21
118.0284474415695
 31
0.0
  0
LINE
  5
EB
330
18
100
AcDbEntity
  8
ADP1DETAIL
100
AcDbLine
 10
-77.67180879749474
 20
119.1536974415695
 30
0.0
 11
-77.67180879749474
 21
118.8096974415695
 31
0.0
  0
LINE
  5
EC
330
18
100
AcDbEntity
  8
ADP1DETAIL
100
AcDbLine
 10
-84.42180879749475
 20
119.1846974415695
 30
0.0
 11
-84.42180879749475
 21
118.8406974415695
 31
0.0
  0
LINE
  5
ED
330
18
100
AcDbEntity
  8
ADP1DETAIL
100
AcDbLine
 10
-84.29580879749476
 20
112.2471974415695
 30
0.0
 11
-82.73430879749474
 21
117.2471974415695
 31
0.0
  0
LINE
  5
EE
330
18
100
AcDbEntity
  8
ADP1DETAIL
100
AcDbLine
 10
-84.42180879749475
 20
112.4351974415695
 30
0.0
 11
-83.35980879749476
 21
117.4351974415695
 31
0.0
  0
LINE
  5
EF
330
18
100
AcDbEntity
  8
ADP1DETAIL
100
AcDbLine
 10
-83.29780879749476
 20
117.4661974415695
 30
0.0
 11
-84.42180879749475
 21
112.4041974415695
 31
0.0
  0
LINE
  5
F0
330
18
100
AcDbEntity
  8
ADP1DETAIL
100
AcDbLine
 10
-83.35980879749476
 20
117.4351974415695
 30
0.0
 11
-84.42180879749475
 21
118.8096974415695
 31
0.0
  0
LINE
  5
F1
330
18
100
AcDbEntity
  8
ADP1DETAIL
100
AcDbLine
 10
-83.29780879749476
 20
117.4661974415695
 30
0.0
 11
-84.42180879749475
 21
118.8406974415695
 31
0.0
  0
LINE
  5
F2
330
18
100
AcDbEntity
  8
ADP1DETAIL
100
AcDbLine
 10
-84.42180879749475
 20
112.4351974415695
 30
0.0
 11
-84.42180879749475
 21
112.0591974415695
 31
0.0
  0
LINE
  5
F3
330
18
100
AcDbEntity
  8
ADP1DETAIL
100
AcDbLine
 10
-77.79780879749475
 20
112.2471974415695
 30
0.0
 11
-79.35930879749474
 21
117.2471974415695
 31
0.0
  0
LINE
  5
F4
330
18
100
AcDbEntity
  8
ADP1DETAIL
100
AcDbLine
 10
-77.85980879749475
 20
112.2471974415695
 30
0.0
 11
-79.35930879749474
 21
116.8721974415695
 31
0.0
  0
LINE
  5
F5
330
18
100
AcDbEntity
  8
ADP1DETAIL
100
AcDbLine
 10
-84.23380879749476
 20
112.2471974415695
 30
0.0
 11
-82.73430879749474
 21
116.8721974415695
 31
0.0
  0
LINE
  5
F6
330
18
100
AcDbEntity
  8
ADP1DETAIL
100
AcDbLine
 10
-81.17280879749475
 20
112.2471974415695
 30
0.0
 11
-82.73430879749474
 21
117.2471974415695
 31
0.0
  0
LINE
  5
F7
330
18
100
AcDbEntity
  8
ADP1DETAIL
100
AcDbLine
 10
-81.23480879749475
 20
112.2471974415695
 30
0.0
 11
-82.73430879749474
 21
116.8721974415695
 31
0.0
  0
LINE
  5
F8
330
18
100
AcDbEntity
  8
ADP1DETAIL
100
AcDbLine
 10
-80.85880879749476
 20
112.2471974415695
 30
0.0
 11
-79.35930879749474
 21
116.8721974415695
 31
0.0
  0
LINE
  5
F9
330
18
100
AcDbEntity
  8
ADP1DETAIL
100
AcDbLine
 10
-80.92080879749476
 20
112.2471974415695
 30
0.0
 11
-79.35930879749474
 21
117.2471974415695
 31
0.0
  0
LINE
  5
FA
330
18
100
AcDbEntity
  8
ADP1DETAIL
100
AcDbLine
 10
-84.23380879749476
 20
112.7471974415695
 30
0.0
 11
-82.73430879749474
 21
117.3721974415695
 31
0.0
  0
LINE
  5
FB
330
18
100
AcDbEntity
  8
ADP1DETAIL
100
AcDbLine
 10
-84.23380879749476
 20
112.7471974415695
 30
0.0
 11
-82.73418776351844
 21
117.7125842085475
 31
0.0
  0
LINE
  5
FC
330
18
100
AcDbEntity
  8
ADP1DETAIL
100
AcDbLine
 10
-83.21086141800577
 20
117.503811389479
 30
0.0
 11
-84.23421437811805
 21
112.7437919470203
 31
0.0
  0
LINE
  5
FD
330
18
100
AcDbEntity
  8
ADP1DETAIL
100
AcDbLine
 10
-78.88275617698372
 20
117.503811389479
 30
0.0
 11
-77.85940321687146
 21
112.7437919470203
 31
0.0
  0
LINE
  5
FE
330
18
100
AcDbEntity
  8
ADP1DETAIL
100
AcDbLine
 10
-77.85980879749475
 20
112.7471974415695
 30
0.0
 11
-79.35942983147106
 21
117.7125842085475
 31
0.0
  0
LINE
  5
FF
330
18
100
AcDbEntity
  8
ADP1DETAIL
100
AcDbLine
 10
-77.85980879749475
 20
112.7471974415695
 30
0.0
 11
-79.35930879749474
 21
117.3721974415695
 31
0.0
  0
LINE
  5
100
330
18
100
AcDbEntity
  8
ADP1DETAIL
100
AcDbLine
 10
-78.79580879749475
 20
117.4661974415695
 30
0.0
 11
-77.67180879749474
 21
112.4041974415695
 31
0.0
  0
LINE
  5
101
330
18
100
AcDbEntity
  8
ADP1DETAIL
100
AcDbLine
 10
-77.67180879749474
 20
112.4351974415695
 30
0.0
 11
-78.73380879749475
 21
117.4351974415695
 31
0.0
  0
LINE
  5
102
330
18
100
AcDbEntity
  8
ADP1DETAIL
100
AcDbLine
 10
-82.25775617698372
 20
117.503811389479
 30
0.0
 11
-81.23440321687146
 21
112.7437919470203
 31
0.0
  0
LINE
  5
103
330
18
100
AcDbEntity
  8
ADP1DETAIL
100
AcDbLine
 10
-81.23480879749475
 20
112.7471974415695
 30
0.0
 11
-82.73442983147106
 21
117.7125842085475
 31
0.0
  0
LINE
  5
104
330
18
100
AcDbEntity
  8
ADP1DETAIL
100
AcDbLine
 10
-81.23480879749475
 20
112.7471974415695
 30
0.0
 11
-82.73430879749474
 21
117.3721974415695
 31
0.0
  0
LINE
  5
105
330
18
100
AcDbEntity
  8
ADP1DETAIL
100
AcDbLine
 10
-82.17080879749476
 20
117.4661974415695
 30
0.0
 11
-81.04680879749475
 21
112.4041974415695
 31
0.0
  0
LINE
  5
106
330
18
100
AcDbEntity
  8
ADP1DETAIL
100
AcDbLine
 10
-81.04680879749475
 20
112.4351974415695
 30
0.0
 11
-82.10880879749476
 21
117.4351974415695
 31
0.0
  0
LINE
  5
107
330
18
100
AcDbEntity
  8
ADP1DETAIL
100
AcDbLine
 10
-81.04680879749475
 20
112.4351974415695
 30
0.0
 11
-79.98480879749475
 21
117.4351974415695
 31
0.0
  0
LINE
  5
108
330
18
100
AcDbEntity
  8
ADP1DETAIL
100
AcDbLine
 10
-79.92280879749475
 20
117.4661974415695
 30
0.0
 11
-81.04680879749475
 21
112.4041974415695
 31
0.0
  0
LINE
  5
109
330
18
100
AcDbEntity
  8
ADP1DETAIL
100
AcDbLine
 10
-80.85880879749476
 20
112.7471974415695
 30
0.0
 11
-79.35930879749474
 21
117.3721974415695
 31
0.0
  0
LINE
  5
10A
330
18
100
AcDbEntity
  8
ADP1DETAIL
100
AcDbLine
 10
-80.85880879749476
 20
112.7471974415695
 30
0.0
 11
-79.35918776351845
 21
117.7125842085475
 31
0.0
  0
LINE
  5
10B
330
18
100
AcDbEntity
  8
ADP1DETAIL
100
AcDbLine
 10
-79.83586141800578
 20
117.503811389479
 30
0.0
 11
-80.85921437811805
 21
112.7437919470203
 31
0.0
  0
LINE
  5
10C
330
18
100
AcDbEntity
  8
ADP1DETAIL
100
AcDbLine
 10
-79.98480879749475
 20
117.4351974415695
 30
0.0
 11
-81.04680879749475
 21
118.8096974415695
 31
0.0
  0
LINE
  5
10D
330
18
100
AcDbEntity
  8
ADP1DETAIL
100
AcDbLine
 10
-80.79717717352272
 20
118.8106245405178
 30
0.0
 11
-79.35918776351845
 21
117.7125842085475
 31
0.0
  0
LINE
  5
10E
330
18
100
AcDbEntity
  8
ADP1DETAIL
100
AcDbLine
 10
-80.79717717352272
 20
118.8106245405178
 30
0.0
 11
-79.35930879749474
 21
117.9034474415695
 31
0.0
  0
LINE
  5
10F
330
18
100
AcDbEntity
  8
ADP1DETAIL
100
AcDbLine
 10
-80.79656011298316
 20
118.8065535838418
 30
0.0
 11
-79.83586141800578
 21
117.503811389479
 31
0.0
  0
LINE
  5
110
330
18
100
AcDbEntity
  8
ADP1DETAIL
100
AcDbLine
 10
-79.92280879749475
 20
117.4661974415695
 30
0.0
 11
-81.04680879749475
 21
118.8406974415695
 31
0.0
  0
LINE
  5
111
330
18
100
AcDbEntity
  8
ADP1DETAIL
100
AcDbLine
 10
-81.29644042146679
 20
118.8106245405178
 30
0.0
 11
-82.73430879749474
 21
117.9034474415695
 31
0.0
  0
LINE
  5
112
330
18
100
AcDbEntity
  8
ADP1DETAIL
100
AcDbLine
 10
-81.29644042146679
 20
118.8106245405178
 30
0.0
 11
-82.73442983147106
 21
117.7125842085475
 31
0.0
  0
LINE
  5
113
330
18
100
AcDbEntity
  8
ADP1DETAIL
100
AcDbLine
 10
-82.25775617698372
 20
117.503811389479
 30
0.0
 11
-82.73442983147106
 21
117.7125842085475
 31
0.0
  0
LINE
  5
114
330
18
100
AcDbEntity
  8
ADP1DETAIL
100
AcDbLine
 10
-84.17217717352272
 20
118.8106245405178
 30
0.0
 11
-82.73418776351844
 21
117.7125842085475
 31
0.0
  0
LINE
  5
115
330
18
100
AcDbEntity
  8
ADP1DETAIL
100
AcDbLine
 10
-84.17217717352272
 20
118.8106245405178
 30
0.0
 11
-82.73430879749474
 21
117.9034474415695
 31
0.0
  0
LINE
  5
116
330
18
100
AcDbEntity
  8
ADP1DETAIL
100
AcDbLine
 10
-83.21086141800577
 20
117.503811389479
 30
0.0
 11
-82.73418776351844
 21
117.7125842085475
 31
0.0
  0
LINE
  5
117
330
18
100
AcDbEntity
  8
ADP1DETAIL
100
AcDbLine
 10
-84.17156011298315
 20
118.8065535838418
 30
0.0
 11
-83.21086141800577
 21
117.503811389479
 31
0.0
  0
LINE
  5
118
330
18
100
AcDbEntity
  8
ADP1DETAIL
100
AcDbLine
 10
-83.29780879749476
 20
117.4661974415695
 30
0.0
 11
-83.36540858308394
 21
117.4370041074864
 31
0.0
  0
LINE
  5
119
330
18
100
AcDbEntity
  8
ADP1DETAIL
100
AcDbLine
 10
-82.73418776351844
 20
117.7125842085475
 30
0.0
 11
-82.73430879749474
 21
117.3721974415695
 31
0.0
  0
LINE
  5
11A
330
18
100
AcDbEntity
  8
ADP1DETAIL
100
AcDbLine
 10
-82.73430879749474
 20
117.2471974415695
 30
0.0
 11
-82.73430879749474
 21
116.8721974415695
 31
0.0
  0
POINT
  5
11B
330
18
100
AcDbEntity
  8
ADP1DETAIL
100
AcDbPoint
 10
-82.77178031518118
 20
117.5163377932559
 30
0.0
  0
POINT
  5
11C
330
18
100
AcDbEntity
  8
ADP1DETAIL
100
AcDbPoint
 10
-82.76760339384495
 20
117.4745832350281
 30
0.0
  0
LINE
  5
11D
330
18
100
AcDbEntity
  8
ADP1DETAIL
100
AcDbLine
 10
-82.73430879749474
 20
118.0284474415695
 30
0.0
 11
-82.73430879749474
 21
118.1221974415695
 31
0.0
  0
LINE
  5
11E
330
18
100
AcDbEntity
  8
ADP1DETAIL
100
AcDbLine
 10
-82.73418776351844
 20
117.7125842085475
 30
0.0
 11
-82.73430879749474
 21
117.9034474415695
 31
0.0
  0
POINT
  5
11F
330
18
100
AcDbEntity
  8
ADP1DETAIL
100
AcDbPoint
 10
-82.73430879749474
 20
117.7159474415695
 30
0.0
  0
LINE
  5
120
330
18
100
AcDbEntity
  8
ADP1DETAIL
100
AcDbLine
 10
-81.29705748200635
 20
118.8065535838418
 30
0.0
 11
-82.25775617698372
 21
117.503811389479
 31
0.0
  0
LINE
  5
121
330
18
100
AcDbEntity
  8
ADP1DETAIL
100
AcDbLine
 10
-82.17080879749476
 20
117.4661974415695
 30
0.0
 11
-81.04680879749475
 21
118.8406974415695
 31
0.0
  0
LINE
  5
122
330
18
100
AcDbEntity
  8
ADP1DETAIL
100
AcDbLine
 10
-82.10880879749476
 20
117.4351974415695
 30
0.0
 11
-81.04680879749475
 21
118.8096974415695
 31
0.0
  0
LINE
  5
123
330
18
100
AcDbEntity
  8
ADP1DETAIL
100
AcDbLine
 10
-82.17080879749476
 20
117.4661974415695
 30
0.0
 11
-82.10320901190556
 21
117.4370041074864
 31
0.0
  0
LINE
  5
124
330
18
100
AcDbEntity
  8
ADP1DETAIL
100
AcDbLine
 10
-77.92144042146678
 20
118.8106245405178
 30
0.0
 11
-79.35930879749474
 21
117.9034474415695
 31
0.0
  0
LINE
  5
125
330
18
100
AcDbEntity
  8
ADP1DETAIL
100
AcDbLine
 10
-77.92144042146678
 20
118.8106245405178
 30
0.0
 11
-79.35942983147106
 21
117.7125842085475
 31
0.0
  0
LINE
  5
126
330
18
100
AcDbEntity
  8
ADP1DETAIL
100
AcDbLine
 10
-77.92205748200635
 20
118.8065535838418
 30
0.0
 11
-78.88275617698372
 21
117.503811389479
 31
0.0
  0
LINE
  5
127
330
18
100
AcDbEntity
  8
ADP1DETAIL
100
AcDbLine
 10
-78.79580879749475
 20
117.4661974415695
 30
0.0
 11
-77.67180879749474
 21
118.8406974415695
 31
0.0
  0
LINE
  5
128
330
18
100
AcDbEntity
  8
ADP1DETAIL
100
AcDbLine
 10
-78.73380879749475
 20
117.4351974415695
 30
0.0
 11
-77.67180879749474
 21
118.8096974415695
 31
0.0
  0
LINE
  5
129
330
18
100
AcDbEntity
  8
ADP1DETAIL
100
AcDbLine
 10
-78.88275617698372
 20
117.503811389479
 30
0.0
 11
-79.35942983147106
 21
117.7125842085475
 31
0.0
  0
LINE
  5
12A
330
18
100
AcDbEntity
  8
ADP1DETAIL
100
AcDbLine
 10
-79.83586141800578
 20
117.503811389479
 30
0.0
 11
-79.35918776351845
 21
117.7125842085475
 31
0.0
  0
LINE
  5
12B
330
18
100
AcDbEntity
  8
ADP1DETAIL
100
AcDbLine
 10
-79.35942983147106
 20
117.7125842085475
 30
0.0
 11
-79.35930879749474
 21
117.3721974415695
 31
0.0
  0
LINE
  5
12C
330
18
100
AcDbEntity
  8
ADP1DETAIL
100
AcDbLine
 10
-79.92280879749475
 20
117.4661974415695
 30
0.0
 11
-79.99040858308394
 21
117.4370041074864
 31
0.0
  0
LINE
  5
12D
330
18
100
AcDbEntity
  8
ADP1DETAIL
100
AcDbLine
 10
-79.35930879749474
 20
117.2471974415695
 30
0.0
 11
-79.35930879749474
 21
116.8721974415695
 31
0.0
  0
POINT
  5
12E
330
18
100
AcDbEntity
  8
ADP1DETAIL
100
AcDbPoint
 10
-79.32601420114456
 20
117.4745832350281
 30
0.0
  0
POINT
  5
12F
330
18
100
AcDbEntity
  8
ADP1DETAIL
100
AcDbPoint
 10
-79.32183727980832
 20
117.5163377932559
 30
0.0
  0
LINE
  5
130
330
18
100
AcDbEntity
  8
ADP1DETAIL
100
AcDbLine
 10
-79.35930879749474
 20
118.0284474415695
 30
0.0
 11
-79.35930879749474
 21
118.1221974415695
 31
0.0
  0
LINE
  5
131
330
18
100
AcDbEntity
  8
ADP1DETAIL
100
AcDbLine
 10
-79.35942983147106
 20
117.7125842085475
 30
0.0
 11
-79.35930879749474
 21
117.9034474415695
 31
0.0
  0
POINT
  5
132
330
18
100
AcDbEntity
  8
ADP1DETAIL
100
AcDbPoint
 10
-79.35930879749474
 20
117.7159474415695
 30
0.0
  0
LINE
  5
133
330
18
100
AcDbEntity
  8
ADP1DETAIL
100
AcDbLine
 10
-78.79580879749475
 20
117.4661974415695
 30
0.0
 11
-78.72820901190556
 21
117.4370041074864
 31
0.0
  0
LINE
  5
134
330
18
100
AcDbEntity
  8
ADP1DETAIL
100
AcDbLine
 10
-84.29580879749476
 20
125.7471974415695
 30
0.0
 11
-82.73430879749474
 21
120.7471974415695
 31
0.0
  0
LINE
  5
135
330
18
100
AcDbEntity
  8
ADP1DETAIL
100
AcDbLine
 10
-84.42180879749475
 20
125.7200921108751
 30
0.0
 11
-84.23380879749476
 21
125.7471974415695
 31
0.0
  0
LINE
  5
136
330
18
100
AcDbEntity
  8
ADP1DETAIL
100
AcDbLine
 10
-83.29780879749476
 20
120.5281974415695
 30
0.0
 11
-84.42180879749475
 21
125.5901974415695
 31
0.0
  0
LINE
  5
137
330
18
100
AcDbEntity
  8
ADP1DETAIL
100
AcDbLine
 10
-84.42180879749475
 20
125.5591974415695
 30
0.0
 11
-83.35980879749476
 21
120.5591974415695
 31
0.0
  0
LINE
  5
138
330
18
100
AcDbEntity
  8
ADP1DETAIL
100
AcDbLine
 10
-84.28049496176749
 20
118.9957703426213
 30
0.0
 11
-82.73430879749474
 21
119.9659474415695
 31
0.0
  0
LINE
  5
139
330
18
100
AcDbEntity
  8
ADP1DETAIL
100
AcDbLine
 10
-83.29780879749476
 20
120.5281974415695
 30
0.0
 11
-84.42180879749475
 21
119.1536974415695
 31
0.0
  0
LINE
  5
13A
330
18
100
AcDbEntity
  8
ADP1DETAIL
100
AcDbLine
 10
-83.35980879749476
 20
120.5591974415695
 30
0.0
 11
-84.42180879749475
 21
119.1846974415695
 31
0.0
  0
DIMENSION
  5
13B
330
18
100
AcDbEntity
  8
ADPDIM
100
AcDbDimension
  2
*D1
 10
-77.67180879749474
 20
126.2958858312005
 30
0.0
 11
-81.04680879749475
 21
126.2958858312005
 31
0.0
100
AcDbAlignedDimension
 13
-84.42180879749475
 23
125.7471974415695
 33
0.0
 14
-77.67180879749474
 24
125.7471974415695
 34
0.0
100
AcDbRotatedDimension
  0
LINE
  5
13C
330
18
100
AcDbEntity
  8
ADP1DETAIL
100
AcDbLine
 10
-84.42180879749475
 20
125.5901974415695
 30
0.0
 11
-84.42180879749475
 21
125.7200921108751
 31
0.0
  0
LINE
  5
13D
330
18
100
AcDbEntity
  8
ADP1DETAIL
100
AcDbLine
 10
-84.23380879749476
 20
125.7471974415695
 30
0.0
 11
-82.73430879749474
 21
121.1221974415695
 31
0.0
  0
LINE
  5
13E
330
18
100
AcDbEntity
  8
ADP1DETAIL
100
AcDbLine
 10
-77.85980879749475
 20
125.7471974415695
 30
0.0
 11
-79.35930879749474
 21
121.1221974415695
 31
0.0
  0
LINE
  5
13F
330
18
100
AcDbEntity
  8
ADP1DETAIL
100
AcDbLine
 10
-77.79780879749475
 20
125.7471974415695
 30
0.0
 11
-79.35930879749474
 21
120.7471974415695
 31
0.0
  0
LINE
  5
140
330
18
100
AcDbEntity
  8
ADP1DETAIL
100
AcDbLine
 10
-81.23480879749475
 20
125.7471974415695
 30
0.0
 11
-82.73430879749474
 21
121.1221974415695
 31
0.0
  0
LINE
  5
141
330
18
100
AcDbEntity
  8
ADP1DETAIL
100
AcDbLine
 10
-81.17280879749475
 20
125.7471974415695
 30
0.0
 11
-82.73430879749474
 21
120.7471974415695
 31
0.0
  0
LINE
  5
142
330
18
100
AcDbEntity
  8
ADP1DETAIL
100
AcDbLine
 10
-80.92080879749476
 20
125.7471974415695
 30
0.0
 11
-79.35930879749474
 21
120.7471974415695
 31
0.0
  0
LINE
  5
143
330
18
100
AcDbEntity
  8
ADP1DETAIL
100
AcDbLine
 10
-80.85880879749476
 20
125.7471974415695
 30
0.0
 11
-79.35930879749474
 21
121.1221974415695
 31
0.0
  0
LINE
  5
144
330
18
100
AcDbEntity
  8
ADP1DETAIL
100
AcDbLine
 10
-77.67180879749474
 20
125.5591974415695
 30
0.0
 11
-78.73380879749475
 21
120.5591974415695
 31
0.0
  0
LINE
  5
145
330
18
100
AcDbEntity
  8
ADP1DETAIL
100
AcDbLine
 10
-78.79580879749475
 20
120.5281974415695
 30
0.0
 11
-77.67180879749474
 21
125.5901974415695
 31
0.0
  0
LINE
  5
146
330
18
100
AcDbEntity
  8
ADP1DETAIL
100
AcDbLine
 10
-77.85980879749475
 20
125.2471974415695
 30
0.0
 11
-79.35930879749474
 21
120.6221974415695
 31
0.0
  0
LINE
  5
147
330
18
100
AcDbEntity
  8
ADP1DETAIL
100
AcDbLine
 10
-77.85980879749475
 20
125.2471974415695
 30
0.0
 11
-79.35942983147106
 21
120.2818106745915
 31
0.0
  0
LINE
  5
148
330
18
100
AcDbEntity
  8
ADP1DETAIL
100
AcDbLine
 10
-78.88275617698372
 20
120.4905834936601
 30
0.0
 11
-77.85940321687146
 21
125.2506029361188
 31
0.0
  0
LINE
  5
149
330
18
100
AcDbEntity
  8
ADP1DETAIL
100
AcDbLine
 10
-81.04680879749475
 20
125.5591974415695
 30
0.0
 11
-79.98480879749475
 21
120.5591974415695
 31
0.0
  0
LINE
  5
14A
330
18
100
AcDbEntity
  8
ADP1DETAIL
100
AcDbLine
 10
-81.04680879749475
 20
125.5591974415695
 30
0.0
 11
-82.10880879749476
 21
120.5591974415695
 31
0.0
  0
LINE
  5
14B
330
18
100
AcDbEntity
  8
ADP1DETAIL
100
AcDbLine
 10
-82.17080879749476
 20
120.5281974415695
 30
0.0
 11
-81.04680879749475
 21
125.5901974415695
 31
0.0
  0
LINE
  5
14C
330
18
100
AcDbEntity
  8
ADP1DETAIL
100
AcDbLine
 10
-81.23480879749475
 20
125.2471974415695
 30
0.0
 11
-82.73430879749474
 21
120.6221974415695
 31
0.0
  0
LINE
  5
14D
330
18
100
AcDbEntity
  8
ADP1DETAIL
100
AcDbLine
 10
-81.23480879749475
 20
125.2471974415695
 30
0.0
 11
-82.73442983147106
 21
120.2818106745915
 31
0.0
  0
LINE
  5
14E
330
18
100
AcDbEntity
  8
ADP1DETAIL
100
AcDbLine
 10
-82.25775617698372
 20
120.4905834936601
 30
0.0
 11
-81.23440321687146
 21
125.2506029361188
 31
0.0
  0
LINE
  5
14F
330
18
100
AcDbEntity
  8
ADP1DETAIL
100
AcDbLine
 10
-83.21086141800577
 20
120.4905834936601
 30
0.0
 11
-84.23421437811805
 21
125.2506029361188
 31
0.0
  0
LINE
  5
150
330
18
100
AcDbEntity
  8
ADP1DETAIL
100
AcDbLine
 10
-84.23380879749476
 20
125.2471974415695
 30
0.0
 11
-82.73418776351844
 21
120.2818106745915
 31
0.0
  0
LINE
  5
151
330
18
100
AcDbEntity
  8
ADP1DETAIL
100
AcDbLine
 10
-84.23380879749476
 20
125.2471974415695
 30
0.0
 11
-82.73430879749474
 21
120.6221974415695
 31
0.0
  0
LINE
  5
152
330
18
100
AcDbEntity
  8
ADP1DETAIL
100
AcDbLine
 10
-79.83586141800578
 20
120.4905834936601
 30
0.0
 11
-80.85921437811805
 21
125.2506029361188
 31
0.0
  0
LINE
  5
153
330
18
100
AcDbEntity
  8
ADP1DETAIL
100
AcDbLine
 10
-80.85880879749476
 20
125.2471974415695
 30
0.0
 11
-79.35918776351845
 21
120.2818106745915
 31
0.0
  0
LINE
  5
154
330
18
100
AcDbEntity
  8
ADP1DETAIL
100
AcDbLine
 10
-80.85880879749476
 20
125.2471974415695
 30
0.0
 11
-79.35930879749474
 21
120.6221974415695
 31
0.0
  0
LINE
  5
155
330
18
100
AcDbEntity
  8
ADP1DETAIL
100
AcDbLine
 10
-79.92280879749475
 20
120.5281974415695
 30
0.0
 11
-81.04680879749475
 21
125.5901974415695
 31
0.0
  0
LINE
  5
156
330
18
100
AcDbEntity
  8
ADP1DETAIL
100
AcDbLine
 10
-79.98480879749475
 20
120.5591974415695
 30
0.0
 11
-81.04680879749475
 21
119.1846974415695
 31
0.0
  0
LINE
  5
157
330
18
100
AcDbEntity
  8
ADP1DETAIL
100
AcDbLine
 10
-79.92280879749475
 20
120.5281974415695
 30
0.0
 11
-81.04680879749475
 21
119.1536974415695
 31
0.0
  0
LINE
  5
158
330
18
100
AcDbEntity
  8
ADP1DETAIL
100
AcDbLine
 10
-80.90549496176748
 20
118.9957703426213
 30
0.0
 11
-79.35930879749474
 21
119.9659474415695
 31
0.0
  0
LINE
  5
159
330
18
100
AcDbEntity
  8
ADP1DETAIL
100
AcDbLine
 10
-80.79656011298316
 20
119.1878412992972
 30
0.0
 11
-79.83586141800578
 21
120.4905834936601
 31
0.0
  0
LINE
  5
15A
330
18
100
AcDbEntity
  8
ADP1DETAIL
100
AcDbLine
 10
-80.79717717352272
 20
119.1837703426213
 30
0.0
 11
-79.35930879749474
 21
120.0909474415695
 31
0.0
  0
LINE
  5
15B
330
18
100
AcDbEntity
  8
ADP1DETAIL
100
AcDbLine
 10
-80.79717717352272
 20
119.1837703426213
 30
0.0
 11
-79.35918776351845
 21
120.2818106745915
 31
0.0
  0
LINE
  5
15C
330
18
100
AcDbEntity
  8
ADP1DETAIL
100
AcDbLine
 10
-80.85880879749476
 20
118.9971974415695
 30
0.0
 11
-79.35930879749474
 21
119.8721974415695
 31
0.0
  0
LINE
  5
15D
330
18
100
AcDbEntity
  8
ADP1DETAIL
100
AcDbLine
 10
-81.23480879749475
 20
118.9971974415695
 30
0.0
 11
-82.73430879749474
 21
119.8721974415695
 31
0.0
  0
LINE
  5
15E
330
18
100
AcDbEntity
  8
ADP1DETAIL
100
AcDbLine
 10
-81.18812263322203
 20
118.9957703426213
 30
0.0
 11
-82.73430879749474
 21
119.9659474415695
 31
0.0
  0
LINE
  5
15F
330
18
100
AcDbEntity
  8
ADP1DETAIL
100
AcDbLine
 10
-81.29644042146679
 20
119.1837703426213
 30
0.0
 11
-82.73442983147106
 21
120.2818106745915
 31
0.0
  0
LINE
  5
160
330
18
100
AcDbEntity
  8
ADP1DETAIL
100
AcDbLine
 10
-81.29644042146679
 20
119.1837703426213
 30
0.0
 11
-82.73430879749474
 21
120.0909474415695
 31
0.0
  0
LINE
  5
161
330
18
100
AcDbEntity
  8
ADP1DETAIL
100
AcDbLine
 10
-82.25775617698372
 20
120.4905834936601
 30
0.0
 11
-82.73442983147106
 21
120.2818106745915
 31
0.0
  0
LINE
  5
162
330
18
100
AcDbEntity
  8
ADP1DETAIL
100
AcDbLine
 10
-83.21086141800577
 20
120.4905834936601
 30
0.0
 11
-82.73418776351844
 21
120.2818106745915
 31
0.0
  0
LINE
  5
163
330
18
100
AcDbEntity
  8
ADP1DETAIL
100
AcDbLine
 10
-84.23380879749476
 20
118.9971974415695
 30
0.0
 11
-82.73430879749474
 21
119.8721974415695
 31
0.0
  0
LINE
  5
164
330
18
100
AcDbEntity
  8
ADP1DETAIL
100
AcDbLine
 10
-84.17217717352272
 20
119.1837703426213
 30
0.0
 11
-82.73430879749474
 21
120.0909474415695
 31
0.0
  0
LINE
  5
165
330
18
100
AcDbEntity
  8
ADP1DETAIL
100
AcDbLine
 10
-84.17217717352272
 20
119.1837703426213
 30
0.0
 11
-82.73418776351844
 21
120.2818106745915
 31
0.0
  0
LINE
  5
166
330
18
100
AcDbEntity
  8
ADP1DETAIL
100
AcDbLine
 10
-84.17156011298315
 20
119.1878412992972
 30
0.0
 11
-83.21086141800577
 21
120.4905834936601
 31
0.0
  0
LINE
  5
167
330
18
100
AcDbEntity
  8
ADP1DETAIL
100
AcDbLine
 10
-83.29780879749476
 20
120.5281974415695
 30
0.0
 11
-83.36540858308394
 21
120.5573907756526
 31
0.0
  0
LINE
  5
168
330
18
100
AcDbEntity
  8
ADP1DETAIL
100
AcDbLine
 10
-82.73418776351844
 20
120.2818106745915
 30
0.0
 11
-82.73430879749474
 21
120.0909474415695
 31
0.0
  0
LINE
  5
169
330
18
100
AcDbEntity
  8
ADP1DETAIL
100
AcDbLine
 10
-82.73430879749474
 20
119.9659474415695
 30
0.0
 11
-82.73430879749474
 21
119.8721974415695
 31
0.0
  0
POINT
  5
16A
330
18
100
AcDbEntity
  8
ADP1DETAIL
100
AcDbPoint
 10
-82.73430879749474
 20
120.2784474415695
 30
0.0
  0
POINT
  5
16B
330
18
100
AcDbEntity
  8
ADP1DETAIL
100
AcDbPoint
 10
-82.76760339384495
 20
120.5198116481109
 30
0.0
  0
POINT
  5
16C
330
18
100
AcDbEntity
  8
ADP1DETAIL
100
AcDbPoint
 10
-82.77178031518118
 20
120.4780570898832
 30
0.0
  0
LINE
  5
16D
330
18
100
AcDbEntity
  8
ADP1DETAIL
100
AcDbLine
 10
-82.73418776351844
 20
120.2818106745915
 30
0.0
 11
-82.73430879749474
 21
120.6221974415695
 31
0.0
  0
LINE
  5
16E
330
18
100
AcDbEntity
  8
ADP1DETAIL
100
AcDbLine
 10
-82.73430879749474
 20
120.7471974415695
 30
0.0
 11
-82.73430879749474
 21
121.1221974415695
 31
0.0
  0
LINE
  5
16F
330
18
100
AcDbEntity
  8
ADP1DETAIL
100
AcDbLine
 10
-81.29705748200635
 20
119.1878412992972
 30
0.0
 11
-82.25775617698372
 21
120.4905834936601
 31
0.0
  0
LINE
  5
170
330
18
100
AcDbEntity
  8
ADP1DETAIL
100
AcDbLine
 10
-82.10880879749476
 20
120.5591974415695
 30
0.0
 11
-81.04680879749475
 21
119.1846974415695
 31
0.0
  0
LINE
  5
171
330
18
100
AcDbEntity
  8
ADP1DETAIL
100
AcDbLine
 10
-82.17080879749476
 20
120.5281974415695
 30
0.0
 11
-81.04680879749475
 21
119.1536974415695
 31
0.0
  0
LINE
  5
172
330
18
100
AcDbEntity
  8
ADP1DETAIL
100
AcDbLine
 10
-82.17080879749476
 20
120.5281974415695
 30
0.0
 11
-82.10320901190556
 21
120.5573907756526
 31
0.0
  0
LINE
  5
173
330
18
100
AcDbEntity
  8
ADP1DETAIL
100
AcDbLine
 10
-77.85980879749475
 20
118.9971974415695
 30
0.0
 11
-79.35930879749474
 21
119.8721974415695
 31
0.0
  0
LINE
  5
174
330
18
100
AcDbEntity
  8
ADP1DETAIL
100
AcDbLine
 10
-77.81312263322202
 20
118.9957703426213
 30
0.0
 11
-79.35930879749474
 21
119.9659474415695
 31
0.0
  0
LINE
  5
175
330
18
100
AcDbEntity
  8
ADP1DETAIL
100
AcDbLine
 10
-77.92144042146678
 20
119.1837703426213
 30
0.0
 11
-79.35942983147106
 21
120.2818106745915
 31
0.0
  0
LINE
  5
176
330
18
100
AcDbEntity
  8
ADP1DETAIL
100
AcDbLine
 10
-77.92144042146678
 20
119.1837703426213
 30
0.0
 11
-79.35930879749474
 21
120.0909474415695
 31
0.0
  0
LINE
  5
177
330
18
100
AcDbEntity
  8
ADP1DETAIL
100
AcDbLine
 10
-78.73380879749475
 20
120.5591974415695
 30
0.0
 11
-77.67180879749474
 21
119.1846974415695
 31
0.0
  0
LINE
  5
178
330
18
100
AcDbEntity
  8
ADP1DETAIL
100
AcDbLine
 10
-78.79580879749475
 20
120.5281974415695
 30
0.0
 11
-77.67180879749474
 21
119.1536974415695
 31
0.0
  0
LINE
  5
179
330
18
100
AcDbEntity
  8
ADP1DETAIL
100
AcDbLine
 10
-77.92205748200635
 20
119.1878412992972
 30
0.0
 11
-78.88275617698372
 21
120.4905834936601
 31
0.0
  0
LINE
  5
17A
330
18
100
AcDbEntity
  8
ADP1DETAIL
100
AcDbLine
 10
-78.88275617698372
 20
120.4905834936601
 30
0.0
 11
-79.35942983147106
 21
120.2818106745915
 31
0.0
  0
LINE
  5
17B
330
18
100
AcDbEntity
  8
ADP1DETAIL
100
AcDbLine
 10
-79.92280879749475
 20
120.5281974415695
 30
0.0
 11
-79.99040858308394
 21
120.5573907756526
 31
0.0
  0
LINE
  5
17C
330
18
100
AcDbEntity
  8
ADP1DETAIL
100
AcDbLine
 10
-79.35942983147106
 20
120.2818106745915
 30
0.0
 11
-79.35930879749474
 21
120.0909474415695
 31
0.0
  0
LINE
  5
17D
330
18
100
AcDbEntity
  8
ADP1DETAIL
100
AcDbLine
 10
-79.35930879749474
 20
119.9659474415695
 30
0.0
 11
-79.35930879749474
 21
119.8721974415695
 31
0.0
  0
LINE
  5
17E
330
18
100
AcDbEntity
  8
ADP1DETAIL
100
AcDbLine
 10
-79.83586141800578
 20
120.4905834936601
 30
0.0
 11
-79.35918776351845
 21
120.2818106745915
 31
0.0
  0
POINT
  5
17F
330
18
100
AcDbEntity
  8
ADP1DETAIL
100
AcDbPoint
 10
-79.35930879749474
 20
120.2784474415695
 30
0.0
  0
POINT
  5
180
330
18
100
AcDbEntity
  8
ADP1DETAIL
100
AcDbPoint
 10
-79.32183727980832
 20
120.4780570898832
 30
0.0
  0
POINT
  5
181
330
18
100
AcDbEntity
  8
ADP1DETAIL
100
AcDbPoint
 10
-79.32601420114456
 20
120.5198116481109
 30
0.0
  0
LINE
  5
182
330
18
100
AcDbEntity
  8
ADP1DETAIL
100
AcDbLine
 10
-79.35942983147106
 20
120.2818106745915
 30
0.0
 11
-79.35930879749474
 21
120.6221974415695
 31
0.0
  0
LINE
  5
183
330
18
100
AcDbEntity
  8
ADP1DETAIL
100
AcDbLine
 10
-78.79580879749475
 20
120.5281974415695
 30
0.0
 11
-78.72820901190556
 21
120.5573907756526
 31
0.0
  0
LINE
  5
184
330
18
100
AcDbEntity
  8
ADP1DETAIL
100
AcDbLine
 10
-79.35930879749474
 20
120.7471974415695
 30
0.0
 11
-79.35930879749474
 21
121.1221974415695
 31
0.0
  0
LINE
  5
185
330
18
100
AcDbEntity
  8
ADP1DETAIL
100
AcDbLine
 10
-81.23480879749475
 20
125.7471974415695
 30
0.0
 11
-80.85880879749476
 21
125.7471974415695
 31
0.0
  0
LINE
  5
186
330
18
100
AcDbEntity
  8
ADP1DETAIL
100
AcDbLine
 10
-77.85980879749475
 20
125.7471974415695
 30
0.0
 11
-77.67180879749474
 21
125.7471974415695
 31
0.0
  0
LINE
  5
187
330
18
100
AcDbEntity
  8
ADP1DETAIL
100
AcDbLine
 10
-77.67180879749474
 20
125.5901974415695
 30
0.0
 11
-77.67180879749474
 21
125.7200921108751
 31
0.0
  0
TEXT
  5
195
330
18
100
AcDbEntity
  8
ADPDIM
100
AcDbText
 10
-106.7856389475629
 20
97.48421828471148
 30
0.0
 40
0.5
  1
J U L I U S  B L U M  &  C O . ,  I N C .      ( 8 0 0 )  5 2 6 - 6 2 9 3        W W W . J U L I U S B L U M . C O M        P A R T  N o .  5 4 2
 41
1.25
  7
ARIAL_WIDE
 72
     1
 11
-81.04680879749475
 21
97.98421828471148
 31
0.0
100
AcDbText
 73
     3
  0
ENDSEC
  0
SECTION
  2
OBJECTS
  0
DICTIONARY
  5
C
330
0
100
AcDbDictionary
  3
ACAD_GROUP
350
D
  3
ACAD_LAYOUT
350
18E
  3
ACAD_MLINESTYLE
350
E
  3
ACAD_PLOTSETTINGS
350
18F
  3
ACAD_PLOTSTYLENAME
350
18C
  3
ACDBHEADERROUNDTRIPXREC
350
2DD
  3
ACDBVARIABLEDICTIONARY
350
1EF
  0
DICTIONARY
  5
1E9
330
18
100
AcDbDictionary
280
     1
  3
ACAD_LAYOUTSELFREF
360
2FE
  0
DICTIONARY
  5
1E7
330
15
100
AcDbDictionary
280
     1
  3
ACAD_LAYOUTSELFREF
360
2FD
  0
DICTIONARY
  5
D
102
{ACAD_REACTORS
330
C
102
}
330
C
100
AcDbDictionary
  0
DICTIONARY
  5
18E
102
{ACAD_REACTORS
330
C
102
}
330
C
100
AcDbDictionary
  0
DICTIONARY
  5
E
102
{ACAD_REACTORS
330
C
102
}
330
C
100
AcDbDictionary
  3
STANDARD
350
1B
  0
DICTIONARY
  5
18F
102
{ACAD_REACTORS
330
C
102
}
330
C
100
AcDbDictionary
  0
ACDBDICTIONARYWDFLT
  5
18C
102
{ACAD_REACTORS
330
C
102
}
330
C
100
AcDbDictionary
281
     1
  3
Normal
350
18D
100
AcDbDictionaryWithDefault
340
18D
  0
DICTIONARY
  5
2DD
102
{ACAD_REACTORS
330
C
102
}
330
C
100
AcDbDictionary
  3
CEPSNTYPE
350
2E7
  3
FINGERPRINTGUID
350
2E8
  3
HYPERLINKBASE
350
2E0
  3
INSUNITS
350
2E6
  3
LAYOUTDICT
350
2E2
  3
LWETCUNION
350
2E5
  3
PLOTSETDICT
350
2E3
  3
PLOTSTYLNAMDICT
350
2E4
  3
PSVPSCALE
350
2EA
  3
PUCSBASE
350
2ED
  3
PUCSORGBACK
350
2F3
  3
PUCSORGBOTTOM
350
2EF
  3
PUCSORGFRONT
350
2F2
  3
PUCSORGLEFT
350
2F0
  3
PUCSORGRIGHT
350
2F1
  3
PUCSORGTOP
350
2EE
  3
PUCSORTHOREF
350
2EB
  3
PUCSORTHOVIEW
350
2EC
  3
STYLESHEET
350
2E1
  3
TSTACKALIGN
350
2DE
  3
TSTACKSIZE
350
2DF
  3
UCSBASE
350
2F6
  3
UCSORGBACK
350
2FC
  3
UCSORGBOTTOM
350
2F8
  3
UCSORGFRONT
350
2FB
  3
UCSORGLEFT
350
2F9
  3
UCSORGRIGHT
350
2FA
  3
UCSORGTOP
350
2F7
  3
UCSORTHOREF
350
2F4
  3
UCSORTHOVIEW
350
2F5
  3
VERSIONGUID
350
2E9
  0
DICTIONARY
  5
1EF
102
{ACAD_REACTORS
330
C
102
}
330
C
100
AcDbDictionary
  3
DIMASSOC
350
1F0
  0
XRECORD
  5
2FE
102
{ACAD_REACTORS
330
1E9
102
}
330
1E9
100
AcDbXrecord
340
18
  0
XRECORD
  5
2FD
102
{ACAD_REACTORS
330
1E7
102
}
330
1E7
100
AcDbXrecord
340
15
  0
MLINESTYLE
  5
1B
102
{ACAD_REACTORS
330
E
102
}
330
E
100
AcDbMlineStyle
  2
STANDARD
 70
     0
  3

 62
     0
 51
90.0
 52
90.0
 71
     2
 49
0.5
 62
   256
  6
BYLAYER
 49
-0.5
 62
   256
  6
BYLAYER
  0
ACDBPLACEHOLDER
  5
18D
102
{ACAD_REACTORS
330
18C
102
}
330
18C
100
AcDbPlaceHolder
280
     0
  0
XRECORD
  5
2E7
102
{ACAD_REACTORS
330
2DD
102
}
330
2DD
100
AcDbXrecord
 90
        0
  0
XRECORD
  5
2E8
102
{ACAD_REACTORS
330
2DD
102
}
330
2DD
100
AcDbXrecord
  1
{BD5168B8-9B2B-4A12-AE93-0909687E92D8}
  0
XRECORD
  5
2E0
102
{ACAD_REACTORS
330
2DD
102
}
330
2DD
100
AcDbXrecord
  1

  0
XRECORD
  5
2E6
102
{ACAD_REACTORS
330
2DD
102
}
330
2DD
100
AcDbXrecord
 90
        0
  0
XRECORD
  5
2E2
102
{ACAD_REACTORS
330
2DD
102
}
330
2DD
100
AcDbXrecord
340
18E
  0
XRECORD
  5
2E5
102
{ACAD_REACTORS
330
2DD
102
}
330
2DD
100
AcDbXrecord
 90
    14877
  0
XRECORD
  5
2E3
102
{ACAD_REACTORS
330
2DD
102
}
330
2DD
100
AcDbXrecord
340
18F
  0
XRECORD
  5
2E4
102
{ACAD_REACTORS
330
2DD
102
}
330
2DD
100
AcDbXrecord
340
18C
  0
XRECORD
  5
2EA
102
{ACAD_REACTORS
330
2DD
102
}
330
2DD
100
AcDbXrecord
 40
0.0
  0
XRECORD
  5
2ED
102
{ACAD_REACTORS
330
2DD
102
}
330
2DD
100
AcDbXrecord
340
0
  0
XRECORD
  5
2F3
102
{ACAD_REACTORS
330
2DD
102
}
330
2DD
100
AcDbXrecord
 10
0.0
 20
0.0
 30
0.0
  0
XRECORD
  5
2EF
102
{ACAD_REACTORS
330
2DD
102
}
330
2DD
100
AcDbXrecord
 10
0.0
 20
0.0
 30
0.0
  0
XRECORD
  5
2F2
102
{ACAD_REACTORS
330
2DD
102
}
330
2DD
100
AcDbXrecord
 10
0.0
 20
0.0
 30
0.0
  0
XRECORD
  5
2F0
102
{ACAD_REACTORS
330
2DD
102
}
330
2DD
100
AcDbXrecord
 10
0.0
 20
0.0
 30
0.0
  0
XRECORD
  5
2F1
102
{ACAD_REACTORS
330
2DD
102
}
330
2DD
100
AcDbXrecord
 10
0.0
 20
0.0
 30
0.0
  0
XRECORD
  5
2EE
102
{ACAD_REACTORS
330
2DD
102
}
330
2DD
100
AcDbXrecord
 10
0.0
 20
0.0
 30
0.0
  0
XRECORD
  5
2EB
102
{ACAD_REACTORS
330
2DD
102
}
330
2DD
100
AcDbXrecord
340
0
  0
XRECORD
  5
2EC
102
{ACAD_REACTORS
330
2DD
102
}
330
2DD
100
AcDbXrecord
 70
     0
  0
XRECORD
  5
2E1
102
{ACAD_REACTORS
330
2DD
102
}
330
2DD
100
AcDbXrecord
  1

  0
XRECORD
  5
2DE
102
{ACAD_REACTORS
330
2DD
102
}
330
2DD
100
AcDbXrecord
 90
        1
  0
XRECORD
  5
2DF
102
{ACAD_REACTORS
330
2DD
102
}
330
2DD
100
AcDbXrecord
 90
       70
  0
XRECORD
  5
2F6
102
{ACAD_REACTORS
330
2DD
102
}
330
2DD
100
AcDbXrecord
340
0
  0
XRECORD
  5
2FC
102
{ACAD_REACTORS
330
2DD
102
}
330
2DD
100
AcDbXrecord
 10
0.0
 20
0.0
 30
0.0
  0
XRECORD
  5
2F8
102
{ACAD_REACTORS
330
2DD
102
}
330
2DD
100
AcDbXrecord
 10
0.0
 20
0.0
 30
0.0
  0
XRECORD
  5
2FB
102
{ACAD_REACTORS
330
2DD
102
}
330
2DD
100
AcDbXrecord
 10
0.0
 20
0.0
 30
0.0
  0
XRECORD
  5
2F9
102
{ACAD_REACTORS
330
2DD
102
}
330
2DD
100
AcDbXrecord
 10
0.0
 20
0.0
 30
0.0
  0
XRECORD
  5
2FA
102
{ACAD_REACTORS
330
2DD
102
}
330
2DD
100
AcDbXrecord
 10
0.0
 20
0.0
 30
0.0
  0
XRECORD
  5
2F7
102
{ACAD_REACTORS
330
2DD
102
}
330
2DD
100
AcDbXrecord
 10
0.0
 20
0.0
 30
0.0
  0
XRECORD
  5
2F4
102
{ACAD_REACTORS
330
2DD
102
}
330
2DD
100
AcDbXrecord
340
0
  0
XRECORD
  5
2F5
102
{ACAD_REACTORS
330
2DD
102
}
330
2DD
100
AcDbXrecord
 70
     0
  0
XRECORD
  5
2E9
102
{ACAD_REACTORS
330
2DD
102
}
330
2DD
100
AcDbXrecord
  1
{3A1A0ED0-65F6-4F45-BFCB-215963EA5A7D}
  0
DICTIONARYVAR
  5
1F0
102
{ACAD_REACTORS
330
1EF
102
}
330
1EF
100
DictionaryVariables
280
     0
  1
1
  0
ENDSEC
  0
EOF
