  0
SECTION
  2
HEADER
  9
$ACADVER
  1
AC1015
  9
$ACADMAINTVER
 70
    20
  9
$DWGCODEPAGE
  3
ANSI_1252
  9
$INSBASE
 10
0.0
 20
0.0
 30
0.0
  9
$EXTMIN
 10
-180.6856897782832
 20
93.88536007352097
 30
0.0
  9
$EXTMAX
 10
-106.9475309013053
 20
158.8605850883073
 30
0.0
  9
$LIMMIN
 10
0.0
 20
0.0
  9
$LIMMAX
 10
0.0
 20
0.0
  9
$ORTHOMODE
 70
     1
  9
$REGENMODE
 70
     1
  9
$FILLMODE
 70
     1
  9
$QTEXTMODE
 70
     0
  9
$MIRRTEXT
 70
     1
  9
$LTSCALE
 40
1.0
  9
$ATTMODE
 70
     1
  9
$TEXTSIZE
 40
0.0
  9
$TRACEWID
 40
0.05
  9
$TEXTSTYLE
  7
STANDARD
  9
$CLAYER
  8
0
  9
$CELTYPE
  6
CONTINUOUS
  9
$CECOLOR
 62
   256
  9
$CELTSCALE
 40
1.0
  9
$DISPSILH
 70
     0
  9
$DIMSCALE
 40
1.0
  9
$DIMASZ
 40
0.18
  9
$DIMEXO
 40
0.0625
  9
$DIMDLI
 40
0.38
  9
$DIMRND
 40
0.0
  9
$DIMDLE
 40
0.0
  9
$DIMEXE
 40
0.18
  9
$DIMTP
 40
0.0
  9
$DIMTM
 40
0.0
  9
$DIMTXT
 40
0.18
  9
$DIMCEN
 40
0.09
  9
$DIMTSZ
 40
0.0
  9
$DIMTOL
 70
     0
  9
$DIMLIM
 70
     0
  9
$DIMTIH
 70
     1
  9
$DIMTOH
 70
     1
  9
$DIMSE1
 70
     0
  9
$DIMSE2
 70
     0
  9
$DIMTAD
 70
     0
  9
$DIMZIN
 70
     0
  9
$DIMBLK
  1

  9
$DIMASO
 70
     1
  9
$DIMSHO
 70
     1
  9
$DIMPOST
  1

  9
$DIMAPOST
  1

  9
$DIMALT
 70
     0
  9
$DIMALTD
 70
     2
  9
$DIMALTF
 40
25.4
  9
$DIMLFAC
 40
1.0
  9
$DIMTOFL
 70
     0
  9
$DIMTVP
 40
0.0
  9
$DIMTIX
 70
     0
  9
$DIMSOXD
 70
     0
  9
$DIMSAH
 70
     0
  9
$DIMBLK1
  1

  9
$DIMBLK2
  1

  9
$DIMSTYLE
  2
STANDARD
  9
$DIMCLRD
 70
     0
  9
$DIMCLRE
 70
     0
  9
$DIMCLRT
 70
     0
  9
$DIMTFAC
 40
1.0
  9
$DIMGAP
 40
0.09
  9
$DIMJUST
 70
     0
  9
$DIMSD1
 70
     0
  9
$DIMSD2
 70
     0
  9
$DIMTOLJ
 70
     1
  9
$DIMTZIN
 70
     0
  9
$DIMALTZ
 70
     0
  9
$DIMALTTZ
 70
     0
  9
$DIMUPT
 70
     0
  9
$DIMDEC
 70
     4
  9
$DIMTDEC
 70
     4
  9
$DIMALTU
 70
     2
  9
$DIMALTTD
 70
     2
  9
$DIMTXSTY
  7
STANDARD
  9
$DIMAUNIT
 70
     0
  9
$DIMADEC
 70
     0
  9
$DIMALTRND
 40
0.0
  9
$DIMAZIN
 70
     0
  9
$DIMDSEP
 70
    46
  9
$DIMATFIT
 70
     3
  9
$DIMFRAC
 70
     0
  9
$DIMLDRBLK
  1

  9
$DIMLUNIT
 70
     2
  9
$DIMLWD
 70
    -2
  9
$DIMLWE
 70
    -2
  9
$DIMTMOVE
 70
     0
  9
$LUNITS
 70
     2
  9
$LUPREC
 70
     4
  9
$SKETCHINC
 40
0.1
  9
$FILLETRAD
 40
0.0
  9
$AUNITS
 70
     0
  9
$AUPREC
 70
     0
  9
$MENU
  1
acad
  9
$ELEVATION
 40
0.0
  9
$PELEVATION
 40
0.0
  9
$THICKNESS
 40
0.0
  9
$LIMCHECK
 70
     0
  9
$CHAMFERA
 40
0.0
  9
$CHAMFERB
 40
0.0
  9
$CHAMFERC
 40
0.0
  9
$CHAMFERD
 40
0.0
  9
$SKPOLY
 70
     0
  9
$TDCREATE
 40
2444971.791666667
  9
$TDUCREATE
 40
2444971.958333334
  9
$TDUPDATE
 40
2453954.911730972
  9
$TDUUPDATE
 40
2453955.078397639
  9
$TDINDWG
 40
0.0104931366
  9
$TDUSRTIMER
 40
0.0104931366
  9
$USRTIMER
 70
     1
  9
$ANGBASE
 50
0.0
  9
$ANGDIR
 70
     0
  9
$PDMODE
 70
     0
  9
$PDSIZE
 40
0.0
  9
$PLINEWID
 40
0.0
  9
$SPLFRAME
 70
     0
  9
$SPLINETYPE
 70
     6
  9
$SPLINESEGS
 70
     8
  9
$HANDSEED
  5
486
  9
$SURFTAB1
 70
     6
  9
$SURFTAB2
 70
     6
  9
$SURFTYPE
 70
     6
  9
$SURFU
 70
     6
  9
$SURFV
 70
     6
  9
$UCSBASE
  2

  9
$UCSNAME
  2

  9
$UCSORG
 10
0.0
 20
0.0
 30
0.0
  9
$UCSXDIR
 10
1.0
 20
0.0
 30
0.0
  9
$UCSYDIR
 10
0.0
 20
1.0
 30
0.0
  9
$UCSORTHOREF
  2

  9
$UCSORTHOVIEW
 70
     0
  9
$UCSORGTOP
 10
0.0
 20
0.0
 30
0.0
  9
$UCSORGBOTTOM
 10
0.0
 20
0.0
 30
0.0
  9
$UCSORGLEFT
 10
0.0
 20
0.0
 30
0.0
  9
$UCSORGRIGHT
 10
0.0
 20
0.0
 30
0.0
  9
$UCSORGFRONT
 10
0.0
 20
0.0
 30
0.0
  9
$UCSORGBACK
 10
0.0
 20
0.0
 30
0.0
  9
$PUCSBASE
  2

  9
$PUCSNAME
  2

  9
$PUCSORG
 10
0.0
 20
0.0
 30
0.0
  9
$PUCSXDIR
 10
1.0
 20
0.0
 30
0.0
  9
$PUCSYDIR
 10
0.0
 20
1.0
 30
0.0
  9
$PUCSORTHOREF
  2

  9
$PUCSORTHOVIEW
 70
     0
  9
$PUCSORGTOP
 10
0.0
 20
0.0
 30
0.0
  9
$PUCSORGBOTTOM
 10
0.0
 20
0.0
 30
0.0
  9
$PUCSORGLEFT
 10
0.0
 20
0.0
 30
0.0
  9
$PUCSORGRIGHT
 10
0.0
 20
0.0
 30
0.0
  9
$PUCSORGFRONT
 10
0.0
 20
0.0
 30
0.0
  9
$PUCSORGBACK
 10
0.0
 20
0.0
 30
0.0
  9
$USERI1
 70
     0
  9
$USERI2
 70
     0
  9
$USERI3
 70
     0
  9
$USERI4
 70
     0
  9
$USERI5
 70
     0
  9
$USERR1
 40
0.0
  9
$USERR2
 40
0.0
  9
$USERR3
 40
0.0
  9
$USERR4
 40
0.0
  9
$USERR5
 40
0.0
  9
$WORLDVIEW
 70
     1
  9
$SHADEDGE
 70
     3
  9
$SHADEDIF
 70
    70
  9
$TILEMODE
 70
     1
  9
$MAXACTVP
 70
    16
  9
$PINSBASE
 10
0.0
 20
0.0
 30
0.0
  9
$PLIMCHECK
 70
     0
  9
$PEXTMIN
 10
1.000000000000000E+20
 20
1.000000000000000E+20
 30
1.000000000000000E+20
  9
$PEXTMAX
 10
-1.000000000000000E+20
 20
-1.000000000000000E+20
 30
-1.000000000000000E+20
  9
$PLIMMIN
 10
0.0
 20
0.0
  9
$PLIMMAX
 10
12.0
 20
9.0
  9
$UNITMODE
 70
     0
  9
$VISRETAIN
 70
     0
  9
$PLINEGEN
 70
     0
  9
$PSLTSCALE
 70
     0
  9
$TREEDEPTH
 70
  3020
  9
$CMLSTYLE
  2
STANDARD
  9
$CMLJUST
 70
     0
  9
$CMLSCALE
 40
1.0
  9
$PROXYGRAPHICS
 70
     1
  9
$MEASUREMENT
 70
     0
  9
$CELWEIGHT
370
    -1
  9
$ENDCAPS
280
     0
  9
$JOINSTYLE
280
     0
  9
$LWDISPLAY
290
     0
  9
$INSUNITS
 70
     0
  9
$HYPERLINKBASE
  1

  9
$STYLESHEET
  1

  9
$XEDIT
290
     1
  9
$CEPSNTYPE
380
     0
  9
$PSTYLEMODE
290
     1
  9
$FINGERPRINTGUID
  2
{3F34A239-1CAB-4CD5-80E0-FF61ABFF8F88}
  9
$VERSIONGUID
  2
{0302DF20-2A7A-42F9-B6E7-C3F90C73A276}
  9
$EXTNAMES
290
     1
  9
$PSVPSCALE
 40
0.0
  9
$OLESTARTUP
290
     0
  0
ENDSEC
  0
SECTION
  2
CLASSES
  0
CLASS
  1
IMAGE
  2
AcDbRasterImage
  3
ISM
 90
    34943
280
     0
281
     1
  0
CLASS
  1
DICTIONARYVAR
  2
AcDbDictionaryVar
  3
ObjectDBX Classes
 90
        0
280
     0
281
     0
  0
CLASS
  1
RASTERVARIABLES
  2
AcDbRasterVariables
  3
ISM
 90
    32768
280
     0
281
     0
  0
CLASS
  1
IMAGEDEF
  2
AcDbRasterImageDef
  3
ISM
 90
    32768
280
     0
281
     0
  0
CLASS
  1
IMAGEDEF_REACTOR
  2
AcDbRasterImageDefReactor
  3
ISM
 90
    32769
280
     0
281
     0
  0
CLASS
  1
IDBUFFER
  2
AcDbIdBuffer
  3
ObjectDBX Classes
 90
    32768
280
     0
281
     0
  0
CLASS
  1
SPATIAL_FILTER
  2
AcDbSpatialFilter
  3
ObjectDBX Classes
 90
    32768
280
     0
281
     0
  0
CLASS
  1
SORTENTSTABLE
  2
AcDbSortentsTable
  3
ObjectDBX Classes
 90
    32768
280
     0
281
     0
  0
CLASS
  1
LAYER_INDEX
  2
AcDbLayerIndex
  3
ObjectDBX Classes
 90
    32768
280
     0
281
     0
  0
CLASS
  1
SPATIAL_INDEX
  2
AcDbSpatialIndex
  3
ObjectDBX Classes
 90
    32768
280
     0
281
     0
  0
CLASS
  1
OBJECT_PTR
  2
CAseDLPNTableRecord
  3
ASE-LPNTableRecord
 90
    32769
280
     0
281
     0
  0
CLASS
  1
ACDBDICTIONARYWDFLT
  2
AcDbDictionaryWithDefault
  3
ObjectDBX Classes
 90
        0
280
     0
281
     0
  0
CLASS
  1
ACDBPLACEHOLDER
  2
AcDbPlaceHolder
  3
ObjectDBX Classes
 90
        0
280
     0
281
     0
  0
CLASS
  1
LAYOUT
  2
AcDbLayout
  3
ObjectDBX Classes
 90
        0
280
     0
281
     0
  0
CLASS
  1
MATERIAL
  2
AcDbMaterial
  3
ObjectDBX Classes
 90
     1024
280
     0
281
     0
  0
CLASS
  1
VISUALSTYLE
  2
AcDbVisualStyle
  3
ObjectDBX Classes
 90
     4095
280
     0
281
     0
  0
CLASS
  1
TABLESTYLE
  2
AcDbTableStyle
  3
ObjectDBX Classes
 90
     4095
280
     0
281
     0
  0
ENDSEC
  0
SECTION
  2
TABLES
  0
TABLE
  2
VPORT
  5
7
330
0
100
AcDbSymbolTable
 70
     2
  0
VPORT
  5
2B
330
7
100
AcDbSymbolTableRecord
100
AcDbViewportTableRecord
  2
DCADVPORT
 70
     0
 10
-153.0779571047061
 20
95.75651337248535
 11
-127.9485677724503
 21
130.8504611665537
 12
6.209999999999999
 22
9.019999999999999
 13
0.0
 23
0.0
 14
1.0
 24
1.0
 15
0.0
 25
0.0
 16
0.0
 26
0.0
 36
1.0
 17
0.0
 27
0.0
 37
0.0
 40
18.04
 41
0.688564
 42
50.0
 43
1.0
 44
1.0
 50
0.0
 51
0.0
 71
     0
 72
   100
 73
     1
 74
     1
 75
     0
 76
     0
 77
     0
 78
     0
281
     0
 65
     1
110
0.0
120
0.0
130
0.0
111
1.0
121
0.0
131
0.0
112
0.0
122
1.0
132
0.0
 79
     0
146
0.0
  0
VPORT
  5
283
330
7
100
AcDbSymbolTableRecord
100
AcDbViewportTableRecord
  2
*Active
 70
     0
 10
0.0
 20
0.0
 11
1.0
 21
1.0
 12
-144.8767749902872
 22
113.1403200680618
 13
0.0
 23
0.0
 14
1.0
 24
1.0
 15
0.0
 25
0.0
 16
0.0
 26
0.0
 36
1.0
 17
0.0
 27
0.0
 37
0.0
 40
46.92051945159542
 41
1.774011299435028
 42
50.0
 43
0.0
 44
0.0
 50
0.0
 51
0.0
 71
     0
 72
   100
 73
     1
 74
     1
 75
     0
 76
     0
 77
     0
 78
     0
281
     0
 65
     1
110
0.0
120
0.0
130
0.0
111
1.0
121
0.0
131
0.0
112
0.0
122
1.0
132
0.0
 79
     0
146
0.0
  0
ENDTAB
  0
TABLE
  2
LTYPE
  5
4
330
0
100
AcDbSymbolTable
 70
     3
  0
LTYPE
  5
11
330
4
100
AcDbSymbolTableRecord
100
AcDbLinetypeTableRecord
  2
BYBLOCK
 70
     0
  3

 72
    65
 73
     0
 40
0.0
  0
LTYPE
  5
12
330
4
100
AcDbSymbolTableRecord
100
AcDbLinetypeTableRecord
  2
BYLAYER
 70
     0
  3

 72
    65
 73
     0
 40
0.0
  0
LTYPE
  5
13
330
4
100
AcDbSymbolTableRecord
100
AcDbLinetypeTableRecord
  2
CONTINUOUS
 70
     0
  3
Solid line
 72
    65
 73
     0
 40
0.0
  0
LTYPE
  5
1E
330
4
100
AcDbSymbolTableRecord
100
AcDbLinetypeTableRecord
  2
CONTINUOUS
 70
     0
  3
Solid line
 72
    65
 73
     0
 40
0.0
  0
ENDTAB
  0
TABLE
  2
LAYER
  5
2
330
0
100
AcDbSymbolTable
 70
     4
  0
LAYER
  5
14
330
2
100
AcDbSymbolTableRecord
100
AcDbLayerTableRecord
  2
0
 70
     0
 62
     7
  6
CONTINUOUS
370
    -3
390
FB
  0
LAYER
  5
2A
330
2
100
AcDbSymbolTableRecord
100
AcDbLayerTableRecord
  2
0
 70
     0
 62
   250
  6
CONTINUOUS
370
    -3
390
FB
  0
LAYER
  5
103
330
2
100
AcDbSymbolTableRecord
100
AcDbLayerTableRecord
  2
ADPDIM
 70
     0
 62
     3
  6
CONTINUOUS
370
    -3
390
FB
  0
LAYER
  5
2CD
330
2
100
AcDbSymbolTableRecord
100
AcDbLayerTableRecord
  2
Defpoints
 70
     0
 62
     7
  6
CONTINUOUS
290
     0
370
    -3
390
FB
  0
ENDTAB
  0
TABLE
  2
STYLE
  5
3
330
0
100
AcDbSymbolTable
 70
     2
  0
STYLE
  5
17
330
3
100
AcDbSymbolTableRecord
100
AcDbTextStyleTableRecord
  2
STANDARD
 70
     0
 40
0.0
 41
1.0
 50
0.0
 71
     0
 42
0.0
  3
txt
  4

  0
STYLE
  5
104
330
3
100
AcDbSymbolTableRecord
100
AcDbTextStyleTableRecord
  2
ARIAL_WIDE
 70
     0
 40
0.0
 41
1.25
 50
0.0
 71
     0
 42
0.2
  3
ARIAL.TTF
  4

1001
ACAD
1000
Arial
1071
       34
  0
ENDTAB
  0
TABLE
  2
VIEW
  5
5
330
0
100
AcDbSymbolTable
 70
     0
  0
ENDTAB
  0
TABLE
  2
UCS
  5
6
330
0
100
AcDbSymbolTable
 70
     0
  0
ENDTAB
  0
TABLE
  2
APPID
  5
8
330
0
100
AcDbSymbolTable
 70
     2
  0
APPID
  5
16
330
8
100
AcDbSymbolTableRecord
100
AcDbRegAppTableRecord
  2
ACAD
 70
     0
  0
APPID
  5
447
330
8
100
AcDbSymbolTableRecord
100
AcDbRegAppTableRecord
  2
DCO15
 70
     0
  0
ENDTAB
  0
TABLE
  2
DIMSTYLE
  5
9
330
0
100
AcDbSymbolTable
 70
     2
100
AcDbDimStyleTable
 71
     1
340
18
  0
DIMSTYLE
105
18
102
{ACAD_REACTORS
330
2CC
330
34B
102
}
330
9
100
AcDbSymbolTableRecord
100
AcDbDimStyleTableRecord
  2
STANDARD
 70
     0
289
     0
340
17
  0
ENDTAB
  0
TABLE
  2
BLOCK_RECORD
  5
1
330
0
100
AcDbSymbolTable
 70
     5
  0
BLOCK_RECORD
  5
A
102
{ACAD_XDICTIONARY
360
159
102
}
330
1
100
AcDbSymbolTableRecord
100
AcDbBlockTableRecord
  2
*MODEL_SPACE
340
FE
  0
BLOCK_RECORD
  5
B
102
{ACAD_XDICTIONARY
360
15B
102
}
330
1
100
AcDbSymbolTableRecord
100
AcDbBlockTableRecord
  2
*PAPER_SPACE
340
FF
  0
BLOCK_RECORD
  5
2CE
330
1
100
AcDbSymbolTableRecord
100
AcDbBlockTableRecord
  2
*D0
340
0
  0
BLOCK_RECORD
  5
2DC
330
1
100
AcDbSymbolTableRecord
100
AcDbBlockTableRecord
  2
*D1
340
0
  0
BLOCK_RECORD
  5
2FE
330
1
100
AcDbSymbolTableRecord
100
AcDbBlockTableRecord
  2
*D2
340
0
  0
BLOCK_RECORD
  5
34C
330
1
100
AcDbSymbolTableRecord
100
AcDbBlockTableRecord
  2
*D3
340
0
  0
ENDTAB
  0
ENDSEC
  0
SECTION
  2
BLOCKS
  0
BLOCK
  5
D
330
A
100
AcDbEntity
  8
0
100
AcDbBlockBegin
  2
*MODEL_SPACE
 70
     0
 10
0.0
 20
0.0
 30
0.0
  3
*MODEL_SPACE
  1

  0
ENDBLK
  5
E
330
A
100
AcDbEntity
  8
0
100
AcDbBlockEnd
  0
BLOCK
  5
F
330
B
100
AcDbEntity
 67
     1
  8
0
100
AcDbBlockBegin
  2
*PAPER_SPACE
 70
     0
 10
0.0
 20
0.0
 30
0.0
  3
*PAPER_SPACE
  1

  0
ENDBLK
  5
10
330
B
100
AcDbEntity
 67
     1
  8
0
100
AcDbBlockEnd
  0
BLOCK
  5
2D9
330
2CE
100
AcDbEntity
  8
0
 62
     3
100
AcDbBlockBegin
  2
*D0
 70
     1
 10
0.0
 20
0.0
 30
0.0
  3
*D0
  1

  0
LINE
  5
454
330
2CE
100
AcDbEntity
  8
ADPDIM
  6
Continuous
 62
     0
370
    -2
100
AcDbLine
 10
-136.8266171110743
 20
130.5126416603734
 30
0.0
 11
-131.3284478296699
 21
130.5126416603734
 31
0.0
  0
LINE
  5
455
330
2CE
100
AcDbEntity
  8
ADPDIM
  6
Continuous
 62
     0
370
    -2
100
AcDbLine
 10
-136.435424154709
 20
96.51264166037339
 30
0.0
 11
-131.3284478296699
 21
96.51264166037339
 31
0.0
  0
LINE
  5
456
330
2CE
100
AcDbEntity
  8
ADPDIM
  6
Continuous
 62
     0
370
    -2
100
AcDbLine
 10
-131.5084478296699
 20
130.3326416603734
 30
0.0
 11
-131.5084478296699
 21
113.6926416603734
 31
0.0
  0
LINE
  5
457
330
2CE
100
AcDbEntity
  8
ADPDIM
  6
Continuous
 62
     0
370
    -2
100
AcDbLine
 10
-131.5084478296699
 20
96.6926416603734
 30
0.0
 11
-131.5084478296699
 21
113.3326416603734
 31
0.0
  0
SOLID
  5
458
330
2CE
100
AcDbEntity
  8
ADPDIM
  6
Continuous
 62
     0
100
AcDbTrace
 10
-131.5384478296699
 20
130.3326416603734
 30
0.0
 11
-131.4784478296699
 21
130.3326416603734
 31
0.0
 12
-131.5084478296699
 22
130.5126416603734
 32
0.0
 13
-131.5084478296699
 23
130.5126416603734
 33
0.0
  0
SOLID
  5
459
330
2CE
100
AcDbEntity
  8
ADPDIM
  6
Continuous
 62
     0
100
AcDbTrace
 10
-131.5384478296699
 20
96.6926416603734
 30
0.0
 11
-131.4784478296699
 21
96.6926416603734
 31
0.0
 12
-131.5084478296699
 22
96.51264166037339
 32
0.0
 13
-131.5084478296699
 23
96.51264166037339
 33
0.0
  0
MTEXT
  5
45A
330
2CE
100
AcDbEntity
  8
ADPDIM
  6
Continuous
 62
     0
100
AcDbMText
 10
-131.5084478296699
 20
113.5126416603734
 30
0.0
 40
0.18
 41
0.0
 71
     5
 72
     1
  1
\A1;34
 73
     1
 44
1.0
1001
ACAD
1000
MTEXTBEGIN
1070
    73
1070
     1
1070
    44
1040
1.0
1070
    74
1070
     0
1000
MTEXTEND
  0
POINT
  5
45B
330
2CE
100
AcDbEntity
  8
Defpoints
  6
Continuous
 62
     0
100
AcDbPoint
 10
-136.8891171110743
 20
130.5126416603734
 30
0.0
  0
POINT
  5
45C
330
2CE
100
AcDbEntity
  8
Defpoints
  6
Continuous
 62
     0
100
AcDbPoint
 10
-136.497924154709
 20
96.51264166037339
 30
0.0
  0
POINT
  5
45D
330
2CE
100
AcDbEntity
  8
Defpoints
  6
Continuous
 62
     0
100
AcDbPoint
 10
-131.5084478296699
 20
96.51264166037339
 30
0.0
  0
ENDBLK
  5
2DA
330
2CE
100
AcDbEntity
  8
0
 62
     3
100
AcDbBlockEnd
  0
BLOCK
  5
2E7
330
2DC
100
AcDbEntity
  8
0
 62
     3
100
AcDbBlockBegin
  2
*D1
 70
     1
 10
0.0
 20
0.0
 30
0.0
  3
*D1
  1

  0
LINE
  5
2F3
330
2DC
100
AcDbEntity
  8
ADPDIM
  6
Continuous
 62
     0
370
    -2
100
AcDbLine
 10
-139.8427901594277
 20
130.5243960648083
 30
0.0
 11
-147.5173877436906
 21
130.5243960648083
 31
0.0
  0
LINE
  5
2F4
330
2DC
100
AcDbEntity
  8
ADPDIM
  6
Continuous
 62
     0
370
    -2
100
AcDbLine
 10
-133.3929079220721
 20
104.8993960648083
 30
0.0
 11
-147.5173877436906
 21
104.8993960648083
 31
0.0
  0
LINE
  5
2F5
330
2DC
100
AcDbEntity
  8
ADPDIM
  6
Continuous
 62
     0
370
    -2
100
AcDbLine
 10
-147.3373877436906
 20
130.3443960648083
 30
0.0
 11
-147.3373877436906
 21
117.8918960648083
 31
0.0
  0
LINE
  5
2F6
330
2DC
100
AcDbEntity
  8
ADPDIM
  6
Continuous
 62
     0
370
    -2
100
AcDbLine
 10
-147.3373877436906
 20
105.0793960648083
 30
0.0
 11
-147.3373877436906
 21
117.5318960648083
 31
0.0
  0
SOLID
  5
2F7
330
2DC
100
AcDbEntity
  8
ADPDIM
  6
Continuous
 62
     0
100
AcDbTrace
 10
-147.3673877436906
 20
130.3443960648083
 30
0.0
 11
-147.3073877436906
 21
130.3443960648083
 31
0.0
 12
-147.3373877436906
 22
130.5243960648083
 32
0.0
 13
-147.3373877436906
 23
130.5243960648083
 33
0.0
  0
SOLID
  5
2F8
330
2DC
100
AcDbEntity
  8
ADPDIM
  6
Continuous
 62
     0
100
AcDbTrace
 10
-147.3673877436906
 20
105.0793960648083
 30
0.0
 11
-147.3073877436906
 21
105.0793960648083
 31
0.0
 12
-147.3373877436906
 22
104.8993960648083
 32
0.0
 13
-147.3373877436906
 23
104.8993960648083
 33
0.0
  0
MTEXT
  5
2F9
330
2DC
100
AcDbEntity
  8
ADPDIM
  6
Continuous
 62
     0
100
AcDbMText
 10
-147.3373877436907
 20
117.7118960648083
 30
0.0
 40
0.18
 41
0.0
 71
     5
 72
     1
  1
\A1;25.6250
 73
     1
 44
1.0
1001
ACAD
1000
MTEXTBEGIN
1070
    73
1070
     1
1070
    44
1040
1.0
1070
    74
1070
     0
1000
MTEXTEND
  0
POINT
  5
2FA
330
2DC
100
AcDbEntity
  8
Defpoints
  6
Continuous
 62
     0
100
AcDbPoint
 10
-139.7802901594277
 20
130.5243960648083
 30
0.0
  0
POINT
  5
2FB
330
2DC
100
AcDbEntity
  8
Defpoints
  6
Continuous
 62
     0
100
AcDbPoint
 10
-133.3304079220721
 20
104.8993960648083
 30
0.0
  0
POINT
  5
2FC
330
2DC
100
AcDbEntity
  8
Defpoints
  6
Continuous
 62
     0
100
AcDbPoint
 10
-147.3373877436906
 20
104.8993960648083
 30
0.0
  0
ENDBLK
  5
2E8
330
2DC
100
AcDbEntity
  8
0
 62
     3
100
AcDbBlockEnd
  0
BLOCK
  5
309
330
2FE
100
AcDbEntity
  8
0
 62
     3
100
AcDbBlockBegin
  2
*D2
 70
     1
 10
0.0
 20
0.0
 30
0.0
  3
*D2
  1

  0
LINE
  5
333
330
2FE
100
AcDbEntity
  8
ADPDIM
  6
Continuous
 62
     0
370
    -2
100
AcDbLine
 10
-137.2599727318675
 20
130.4252079232069
 30
0.0
 11
-147.7758403634251
 21
130.4252079232069
 31
0.0
  0
LINE
  5
334
330
2FE
100
AcDbEntity
  8
ADPDIM
  6
Continuous
 62
     0
370
    -2
100
AcDbLine
 10
-144.4918335142052
 20
101.8993960648083
 30
0.0
 11
-147.7758403634251
 21
101.8993960648083
 31
0.0
  0
LINE
  5
335
330
2FE
100
AcDbEntity
  8
ADPDIM
  6
Continuous
 62
     0
370
    -2
100
AcDbLine
 10
-147.5958403634251
 20
130.2452079232069
 30
0.0
 11
-147.5958403634251
 21
116.3918960648083
 31
0.0
  0
LINE
  5
336
330
2FE
100
AcDbEntity
  8
ADPDIM
  6
Continuous
 62
     0
370
    -2
100
AcDbLine
 10
-147.5958403634251
 20
102.0793960648083
 30
0.0
 11
-147.5958403634251
 21
116.0318960648083
 31
0.0
  0
SOLID
  5
337
330
2FE
100
AcDbEntity
  8
ADPDIM
  6
Continuous
 62
     0
100
AcDbTrace
 10
-147.6258403634251
 20
130.2452079232069
 30
0.0
 11
-147.5658403634251
 21
130.2452079232069
 31
0.0
 12
-147.5958403634251
 22
130.4252079232069
 32
0.0
 13
-147.5958403634251
 23
130.4252079232069
 33
0.0
  0
SOLID
  5
338
330
2FE
100
AcDbEntity
  8
ADPDIM
  6
Continuous
 62
     0
100
AcDbTrace
 10
-147.6258403634251
 20
102.0793960648083
 30
0.0
 11
-147.5658403634251
 21
102.0793960648083
 31
0.0
 12
-147.5958403634251
 22
101.8993960648083
 32
0.0
 13
-147.5958403634251
 23
101.8993960648083
 33
0.0
  0
MTEXT
  5
339
330
2FE
100
AcDbEntity
  8
ADPDIM
  6
Continuous
 62
     0
100
AcDbMText
 10
-147.5958403634252
 20
116.2118960648083
 30
0.0
 40
0.18
 41
0.0
 71
     5
 72
     1
  1
\A1;28.5258
 73
     1
 44
1.0
1001
ACAD
1000
MTEXTBEGIN
1070
    73
1070
     1
1070
    44
1040
1.0
1070
    74
1070
     0
1000
MTEXTEND
  0
POINT
  5
33A
330
2FE
100
AcDbEntity
  8
Defpoints
  6
Continuous
 62
     0
100
AcDbPoint
 10
-137.1974727318675
 20
130.4252079232069
 30
0.0
  0
POINT
  5
33B
330
2FE
100
AcDbEntity
  8
Defpoints
  6
Continuous
 62
     0
100
AcDbPoint
 10
-144.4293335142052
 20
101.8993960648083
 30
0.0
  0
POINT
  5
33C
330
2FE
100
AcDbEntity
  8
Defpoints
  6
Continuous
 62
     0
100
AcDbPoint
 10
-147.5958403634251
 20
101.8993960648083
 30
0.0
  0
ENDBLK
  5
30A
330
2FE
100
AcDbEntity
  8
0
 62
     3
100
AcDbBlockEnd
  0
BLOCK
  5
357
330
34C
100
AcDbEntity
  8
0
 62
     3
100
AcDbBlockBegin
  2
*D3
 70
     1
 10
0.0
 20
0.0
 30
0.0
  3
*D3
  1

  0
LINE
  5
44A
330
34C
100
AcDbEntity
  8
ADPDIM
  6
Continuous
 62
     0
370
    -2
100
AcDbLine
 10
-137.2256876089466
 20
130.5109036656901
 30
0.0
 11
-147.3637469448875
 21
130.5109036656901
 31
0.0
  0
LINE
  5
44B
330
34C
100
AcDbEntity
  8
ADPDIM
  6
Continuous
 62
     0
370
    -2
100
AcDbLine
 10
-142.0691377521184
 20
101.8859036656901
 30
0.0
 11
-147.3637469448875
 21
101.8859036656901
 31
0.0
  0
LINE
  5
44C
330
34C
100
AcDbEntity
  8
ADPDIM
  6
Continuous
 62
     0
370
    -2
100
AcDbLine
 10
-147.1837469448875
 20
130.3309036656901
 30
0.0
 11
-147.1837469448875
 21
116.3784036656901
 31
0.0
  0
LINE
  5
44D
330
34C
100
AcDbEntity
  8
ADPDIM
  6
Continuous
 62
     0
370
    -2
100
AcDbLine
 10
-147.1837469448875
 20
102.0659036656901
 30
0.0
 11
-147.1837469448875
 21
116.0184036656901
 31
0.0
  0
SOLID
  5
44E
330
34C
100
AcDbEntity
  8
ADPDIM
  6
Continuous
 62
     0
100
AcDbTrace
 10
-147.2137469448875
 20
130.3309036656901
 30
0.0
 11
-147.1537469448875
 21
130.3309036656901
 31
0.0
 12
-147.1837469448875
 22
130.5109036656901
 32
0.0
 13
-147.1837469448875
 23
130.5109036656901
 33
0.0
  0
SOLID
  5
44F
330
34C
100
AcDbEntity
  8
ADPDIM
  6
Continuous
 62
     0
100
AcDbTrace
 10
-147.2137469448875
 20
102.0659036656901
 30
0.0
 11
-147.1537469448875
 21
102.0659036656901
 31
0.0
 12
-147.1837469448875
 22
101.8859036656901
 32
0.0
 13
-147.1837469448875
 23
101.8859036656901
 33
0.0
  0
MTEXT
  5
450
330
34C
100
AcDbEntity
  8
ADPDIM
  6
Continuous
 62
     0
100
AcDbMText
 10
-147.1837469448876
 20
116.1984036656901
 30
0.0
 40
0.18
 41
0.0
 71
     5
 72
     1
  1
\A1;28 5/8
 73
     1
 44
1.0
1001
ACAD
1000
MTEXTBEGIN
1070
    73
1070
     1
1070
    44
1040
1.0
1070
    74
1070
     0
1000
MTEXTEND
  0
POINT
  5
451
330
34C
100
AcDbEntity
  8
Defpoints
  6
Continuous
 62
     0
100
AcDbPoint
 10
-137.1631876089466
 20
130.5109036656901
 30
0.0
  0
POINT
  5
452
330
34C
100
AcDbEntity
  8
Defpoints
  6
Continuous
 62
     0
100
AcDbPoint
 10
-142.0066377521184
 20
101.8859036656901
 30
0.0
  0
POINT
  5
453
330
34C
100
AcDbEntity
  8
Defpoints
  6
Continuous
 62
     0
100
AcDbPoint
 10
-147.1837469448875
 20
101.8859036656901
 30
0.0
  0
ENDBLK
  5
358
330
34C
100
AcDbEntity
  8
0
 62
     3
100
AcDbBlockEnd
  0
ENDSEC
  0
SECTION
  2
ENTITIES
  0
ARC
  5
2C
330
A
100
AcDbEntity
  8
0
  6
Continuous
 62
     7
 48
0.125
100
AcDbCircle
 10
-136.2423657583056
 20
107.5954446260364
 30
0.0
 40
7.774685823654733
100
AcDbArc
 50
155.2406283161019
 51
206.2024626382132
  0
ARC
  5
2D
330
A
100
AcDbEntity
  8
0
  6
Continuous
 62
     7
 48
0.125
100
AcDbCircle
 10
-138.7936251961962
 20
105.5560684099333
 30
0.0
 40
3.081548195600782
100
AcDbArc
 50
356.8936421746077
 51
34.18145509812132
  0
ARC
  5
2E
330
A
100
AcDbEntity
  8
0
  6
Continuous
 62
     7
 48
0.125
100
AcDbCircle
 10
-138.1636207312626
 20
105.690685963606
 30
0.0
 40
0.9788211827912896
100
AcDbArc
 50
331.3572770137647
 51
91.90198248739804
  0
ARC
  5
2F
330
A
100
AcDbEntity
  8
0
  6
Continuous
 62
     7
 48
0.125
100
AcDbCircle
 10
-138.4375363928082
 20
106.2825331235079
 30
0.0
 40
1.862489359711584
100
AcDbArc
 50
138.5252445252154
 51
205.7487278351568
  0
ARC
  5
30
330
A
100
AcDbEntity
  8
0
  6
Continuous
 62
     7
 48
0.125
100
AcDbCircle
 10
-138.3085930865586
 20
106.0109054511919
 30
0.0
 40
0.6676070361548009
100
AcDbArc
 50
80.29992864226827
 51
200.4236123247746
  0
ARC
  5
31
330
A
100
AcDbEntity
  8
0
  6
Continuous
 62
     7
 48
0.125
100
AcDbCircle
 10
-138.2310088587277
 20
105.7072687381627
 30
0.0
 40
0.706766337961385
100
AcDbArc
 50
51.43213093845167
 51
174.2613938441432
  0
ARC
  5
32
330
A
100
AcDbEntity
  8
0
  6
Continuous
 62
     7
 48
0.125
100
AcDbCircle
 10
-136.8256287104321
 20
107.2918557832764
 30
0.0
 40
6.841286896227938
100
AcDbArc
 50
160.138986688483
 51
193.1430380598338
  0
ARC
  5
33
330
A
100
AcDbEntity
  8
0
  6
Continuous
 62
     7
 48
0.125
100
AcDbCircle
 10
-138.5105650997317
 20
106.3252436609614
 30
0.0
 40
2.148999081712716
100
AcDbArc
 50
130.5766121113653
 51
221.0030524506739
  0
ARC
  5
34
330
A
100
AcDbEntity
  8
0
  6
Continuous
 62
     7
 48
0.125
100
AcDbCircle
 10
-139.3497718488027
 20
105.4485815523245
 30
0.0
 40
3.961232754691751
100
AcDbArc
 50
352.3931990284362
 51
44.07792714080165
  0
ARC
  5
35
330
A
100
AcDbEntity
  8
0
  6
Continuous
 62
     7
 48
0.125
100
AcDbCircle
 10
-139.4069304093017
 20
106.0381168186385
 30
0.0
 40
4.247684359233531
100
AcDbArc
 50
249.0636047861133
 51
269.9745055935664
  0
ARC
  5
36
330
A
100
AcDbEntity
  8
0
  6
Continuous
 62
     7
 48
0.125
100
AcDbCircle
 10
-138.8249706782392
 20
106.0519056525135
 30
0.0
 40
1.732388310537926
100
AcDbArc
 50
221.0030524506727
 51
331.3572770137648
  0
ARC
  5
37
330
A
100
AcDbEntity
  8
0
  6
Continuous
 62
     7
 48
0.125
100
AcDbCircle
 10
-138.7648255331871
 20
106.1246765400442
 30
0.0
 40
1.499120563097476
100
AcDbArc
 50
205.7487278351579
 51
312.9673950795446
  0
ARC
  5
38
330
A
100
AcDbEntity
  8
0
  6
Continuous
 62
     7
 48
0.125
100
AcDbCircle
 10
-139.0315976967331
 20
105.3914029197528
 30
0.0
 40
3.243464884800577
100
AcDbArc
 50
255.3275418402101
 51
315.618298062722
  0
LWPOLYLINE
  5
39
330
A
100
AcDbEntity
  8
0
  6
Continuous
 62
     7
 48
0.125
100
AcDbPolyline
 90
        2
 70
   128
 43
0.0
 10
-141.4965462121088
 20
102.3399648190128
 10
-141.4965462121088
 20
96.56307526041581
  0
LWPOLYLINE
  5
3D
330
A
100
AcDbEntity
  8
0
  6
Continuous
 62
     7
 48
0.125
100
AcDbPolyline
 90
        2
 70
   128
 43
0.0
 10
-140.9247611924934
 20
96.56307526041581
 10
-140.9247611924934
 20
102.0708744351594
  0
LWPOLYLINE
  5
41
330
A
100
AcDbEntity
  8
0
  6
Continuous
 62
     7
 48
0.125
100
AcDbPolyline
 90
        2
 70
   128
 43
0.0
 10
-141.4965462121088
 20
96.56307526041581
 10
-140.9247611924934
 20
96.56307526041581
  0
ARC
  5
45
330
A
100
AcDbEntity
  8
0
  6
Continuous
 62
     7
 48
0.125
100
AcDbCircle
 10
-139.4069304093016
 20
106.0381168186385
 30
0.0
 40
4.247684359233565
100
AcDbArc
 50
206.2024626382128
 51
240.5316736109345
  0
ARC
  5
46
330
A
100
AcDbEntity
  8
0
  6
Continuous
 62
     7
 48
0.125
100
AcDbCircle
 10
-139.40788791426
 20
106.6889001672352
 30
0.0
 40
4.189567063615691
100
AcDbArc
 50
193.1430380598338
 51
221.0248614749371
  0
ARC
  5
47
330
A
100
AcDbEntity
  8
0
  6
Continuous
 62
     7
 48
0.125
100
AcDbCircle
 10
-138.4806393476042
 20
107.4956516992326
 30
0.0
 40
5.418647182544161
100
AcDbArc
 50
221.0248614749373
 51
255.32754184021
  0
LWPOLYLINE
  5
48
330
A
100
AcDbEntity
  8
0
  6
Continuous
 62
     7
 48
0.125
100
AcDbPolyline
 90
        2
 70
   128
 43
0.0
 10
-137.9961301235544
 20
101.9193757023493
 10
-137.9961301235544
 20
96.55938453265356
  0
LWPOLYLINE
  5
4C
330
A
100
AcDbEntity
  8
0
  6
Continuous
 62
     7
 48
0.125
100
AcDbPolyline
 90
        2
 70
   128
 43
0.0
 10
-137.4243451039389
 20
96.56268878788816
 10
-137.4243451039389
 20
102.1424136028318
  0
LWPOLYLINE
  5
50
330
A
100
AcDbEntity
  8
0
  6
Continuous
 62
     7
 48
0.125
100
AcDbPolyline
 90
        2
 70
   128
 43
0.0
 10
-137.9961301235544
 20
96.55938453265356
 10
-137.4243451039389
 20
96.56268878788816
  0
ARC
  5
54
330
A
100
AcDbEntity
  8
0
  6
Continuous
 62
     7
 48
0.125
100
AcDbCircle
 10
-139.2237054566617
 20
105.5794085883588
 30
0.0
 40
3.512261318654898
100
AcDbArc
 50
315.6182980627221
 51
356.893642174608
  0
ARC
  5
55
330
A
100
AcDbEntity
  8
0
  6
Continuous
 62
     7
 48
0.125
100
AcDbCircle
 10
-139.0265469397672
 20
105.4054150913603
 30
0.0
 40
3.635138159254846
100
AcDbArc
 50
296.152001861729
 51
352.3931990284354
  0
ARC
  5
56
330
A
100
AcDbEntity
  8
0
  6
Continuous
 62
     7
 48
0.125
100
AcDbCircle
 10
-139.0265469397672
 20
105.4054150913603
 30
0.0
 40
3.635138159254815
100
AcDbArc
 50
263.9635771056648
 51
286.4668264478933
  0
ARC
  5
57
330
A
100
AcDbEntity
  8
0
  6
Continuous
 62
     7
 48
0.125
100
AcDbCircle
 10
-138.2978959702343
 20
105.6233842630497
 30
0.0
 40
0.8140532936022587
100
AcDbArc
 50
312.9673950795446
 51
51.43213093845266
  0
ARC
  5
58
330
A
100
AcDbEntity
  8
0
  6
Continuous
 62
     7
 48
0.125
100
AcDbCircle
 10
-141.3963679241662
 20
122.4824976174986
 30
0.0
 40
1.790656830158269
100
AcDbArc
 50
328.027164341065
 51
37.49932122904187
  0
ARC
  5
59
330
A
100
AcDbEntity
  8
0
  6
Continuous
 62
     7
 48
0.125
100
AcDbCircle
 10
-139.029468592997
 20
125.8517167026721
 30
0.0
 40
3.154885152644615
100
AcDbArc
 50
3.456931090896307
 51
118.0102816412896
  0
ARC
  5
5A
330
A
100
AcDbEntity
  8
0
  6
Continuous
 62
     7
 48
0.125
100
AcDbCircle
 10
-139.5515358138617
 20
126.1581151266804
 30
0.0
 40
1.809577708296775
100
AcDbArc
 50
218.9620150345855
 51
305.9871006828012
  0
ARC
  5
5B
330
A
100
AcDbEntity
  8
0
  6
Continuous
 62
     7
 48
0.125
100
AcDbCircle
 10
-139.4432309651285
 20
126.3554558910633
 30
0.0
 40
0.4653313365328526
100
AcDbArc
 50
116.0185786338729
 51
195.3137793517565
  0
ARC
  5
5C
330
A
100
AcDbEntity
  8
0
  6
Continuous
 62
     7
 48
0.125
100
AcDbCircle
 10
-139.1236059440357
 20
126.4429780287247
 30
0.0
 40
0.7967227647403093
100
AcDbArc
 50
195.3137793517565
 51
271.7880626833154
  0
ARC
  5
5D
330
A
100
AcDbEntity
  8
0
  6
Continuous
 62
     7
 48
0.125
100
AcDbCircle
 10
-138.9589134078665
 20
125.8162914538106
 30
0.0
 40
3.575361661366156
100
AcDbArc
 50
68.43593710593201
 51
127.6978260614121
  0
ARC
  5
5E
330
A
100
AcDbEntity
  8
0
  6
Continuous
 62
     7
 48
0.125
100
AcDbCircle
 10
-140.6885240005454
 20
122.7403119255689
 30
0.0
 40
1.453418610909703
100
AcDbArc
 50
303.9252606922477
 51
63.62104260517988
  0
ARC
  5
5F
330
A
100
AcDbEntity
  8
0
  6
Continuous
 62
     7
 48
0.125
100
AcDbCircle
 10
-139.6014849306315
 20
126.0650660598449
 30
0.0
 40
2.070248701239492
100
AcDbArc
 50
257.6929096981267
 51
325.5426035379065
  0
ARC
  5
60
330
A
100
AcDbEntity
  8
0
  6
Continuous
 62
     7
 48
0.125
100
AcDbCircle
 10
-139.2051443765373
 20
126.126103294808
 30
0.0
 40
1.147460871658952
100
AcDbArc
 50
78.84491461326603
 51
132.3182590828361
  0
ARC
  5
61
330
A
100
AcDbEntity
  8
0
  6
Continuous
 62
     7
 48
0.125
100
AcDbCircle
 10
-139.5376826151881
 20
126.1888506266589
 30
0.0
 40
0.6941897156735118
100
AcDbArc
 50
216.2050103938186
 51
311.4549372940624
  0
ARC
  5
62
330
A
100
AcDbEntity
  8
0
  6
Continuous
 62
     7
 48
0.125
100
AcDbCircle
 10
-141.5021896586905
 20
118.5948851193785
 30
0.0
 40
2.324558752930252
100
AcDbArc
 50
13.35973526089758
 51
118.6390569683094
  0
ARC
  5
63
330
A
100
AcDbEntity
  8
0
  6
Continuous
 62
     7
 48
0.125
100
AcDbCircle
 10
-142.0160634798895
 20
117.89271550619
 30
0.0
 40
2.631331773355278
100
AcDbArc
 50
329.9012927785574
 51
76.92707950923029
  0
LWPOLYLINE
  5
64
330
A
100
AcDbEntity
  8
0
  6
Continuous
 62
     7
 48
0.125
100
AcDbPolyline
 90
        2
 70
   128
 43
0.0
 10
-139.876958202099
 20
116.136441931291
 10
-139.7395332833777
 20
116.57312573439
  0
ARC
  5
68
330
A
100
AcDbEntity
  8
0
  6
Continuous
 62
     7
 48
0.125
100
AcDbCircle
 10
-136.3990118921766
 20
106.4194100939376
 30
0.0
 40
8.112222027706584
100
AcDbArc
 50
111.7167582077544
 51
141.3751792242965
  0
LWPOLYLINE
  5
69
330
A
100
AcDbEntity
  8
0
  6
Continuous
 62
     7
 48
0.125
100
AcDbPolyline
 90
        2
 70
   128
 43
0.0
 10
-139.6568798846089
 20
115.3603136177621
 10
-142.7366864204851
 20
111.5169605909498
  0
ARC
  5
6D
330
A
100
AcDbEntity
  8
0
  6
Continuous
 62
     7
 48
0.125
100
AcDbCircle
 10
-136.8140600339944
 20
113.7014373062189
 30
0.0
 40
3.291427550478218
100
AcDbArc
 50
73.60244529640424
 51
149.7350713575332
  0
ARC
  5
6E
330
A
100
AcDbEntity
  8
0
  6
Continuous
 62
     7
 48
0.125
100
AcDbCircle
 10
-138.1047008984164
 20
105.8513223951108
 30
0.0
 40
2.772959910719438
100
AcDbArc
 50
78.71721056147684
 51
130.5766121113647
  0
ARC
  5
6F
330
A
100
AcDbEntity
  8
0
  6
Continuous
 62
     7
 48
0.125
100
AcDbCircle
 10
-137.8477168079048
 20
109.2117379385516
 30
0.0
 40
4.651408356195321
100
AcDbArc
 50
89.19838772801288
 51
122.3040654695676
  0
ARC
  5
70
330
A
100
AcDbEntity
  8
0
  6
Continuous
 62
     7
 48
0.125
100
AcDbCircle
 10
-138.7172972433585
 20
126.8327529479694
 30
0.0
 40
2.88246641754332
100
AcDbArc
 50
171.9559580475968
 51
218.9620150345856
  0
ARC
  5
71
330
A
100
AcDbEntity
  8
0
  6
Continuous
 62
     7
 48
0.125
100
AcDbCircle
 10
-139.6327911979706
 20
126.6882558050892
 30
0.0
 40
2.567615158779402
100
AcDbArc
 50
127.6978260614124
 51
234.5559437446008
  0
ARC
  5
72
330
A
100
AcDbEntity
  8
0
  6
Continuous
 62
     7
 48
0.125
100
AcDbCircle
 10
-139.3724241611309
 20
126.309823725123
 30
0.0
 40
0.8989941277094825
100
AcDbArc
 50
132.3182590828328
 51
216.2050103938188
  0
ARC
  5
73
330
A
100
AcDbEntity
  8
0
  6
Continuous
 62
     7
 48
0.125
100
AcDbCircle
 10
-145.2381389807994
 20
111.6903429656381
 30
0.0
 40
2.109695228956028
100
AcDbArc
 50
336.5723409144218
 51
62.37075133717441
  0
ARC
  5
74
330
A
100
AcDbEntity
  8
0
  6
Continuous
 62
     7
 48
0.125
100
AcDbCircle
 10
-135.931716952846
 20
106.1814019483433
 30
0.0
 40
8.236654743563567
100
AcDbArc
 50
122.3040654695674
 51
144.7056511212847
  0
ARC
  5
75
330
A
100
AcDbEntity
  8
0
  6
Continuous
 62
     7
 48
0.125
100
AcDbCircle
 10
-139.5501199684039
 20
107.5177422024979
 30
0.0
 40
4.262195626655574
100
AcDbArc
 50
129.7146167790742
 51
150.5067262403964
  0
ARC
  5
76
330
A
100
AcDbEntity
  8
0
  6
Continuous
 62
     7
 48
0.125
100
AcDbCircle
 10
-141.4915225040232
 20
109.8549594001565
 30
0.0
 40
1.223836195261774
100
AcDbArc
 50
26.37753100967695
 51
129.7146167790738
  0
ARC
  5
77
330
A
100
AcDbEntity
  8
0
  6
Continuous
 62
     7
 48
0.125
100
AcDbCircle
 10
-141.4868888151771
 20
109.4149995058729
 30
0.0
 40
1.920899381670757
100
AcDbArc
 50
71.32368445247469
 51
127.4312913743638
  0
ARC
  5
78
330
A
100
AcDbEntity
  8
0
  6
Continuous
 62
     7
 48
0.125
100
AcDbCircle
 10
-141.4513476872515
 20
110.3503980295294
 30
0.0
 40
1.057346363539828
100
AcDbArc
 50
2.617774785882784
 51
56.76061723914012
  0
ARC
  5
79
330
A
100
AcDbEntity
  8
0
  6
Continuous
 62
     7
 48
0.125
100
AcDbCircle
 10
-144.1076388379781
 20
112.2628193420386
 30
0.0
 40
1.305538067282688
100
AcDbArc
 50
333.7417229316961
 51
96.69179572988625
  0
ARC
  5
7A
330
A
100
AcDbEntity
  8
0
  6
Continuous
 62
     7
 48
0.125
100
AcDbCircle
 10
93.16136924096088
 20
-57.87802067095637
 30
0.0
 40
290.6786021806453
100
AcDbArc
 50
143.6572554963891
 51
144.3144885677513
  0
ARC
  5
7B
330
A
100
AcDbEntity
  8
0
  6
Continuous
 62
     7
 48
0.125
100
AcDbCircle
 10
-140.6165122847896
 20
114.7306113395573
 30
0.0
 40
0.0601523999999914
100
AcDbArc
 50
169.5313904662989
 51
334.4230227019733
  0
ARC
  5
7C
330
A
100
AcDbEntity
  8
0
  6
Continuous
 62
     7
 48
0.125
100
AcDbCircle
 10
-141.2973995421112
 20
114.8564205230355
 30
0.0
 40
0.6322603438423883
100
AcDbArc
 50
349.5313904663077
 51
91.40423114942253
  0
LWPOLYLINE
  5
7D
330
A
100
AcDbEntity
  8
0
  6
Continuous
 62
     7
 48
0.125
100
AcDbPolyline
 90
        2
 70
   128
 43
0.0
 10
-140.5622544545557
 20
114.7046421446513
 10
-139.876958202099
 20
116.136441931291
  0
ARC
  5
81
330
A
100
AcDbEntity
  8
0
  6
Continuous
 62
     7
 48
0.125
100
AcDbCircle
 10
-141.0247426677789
 20
114.4179119687083
 30
0.0
 40
0.0601524000000001
100
AcDbArc
 50
323.6572554965053
 51
347.7682682845004
  0
ARC
  5
82
330
A
100
AcDbEntity
  8
0
  6
Continuous
 62
     7
 48
0.125
100
AcDbCircle
 10
-142.078004767519
 20
114.6462459568596
 30
0.0
 40
1.137880315985309
100
AcDbArc
 50
347.768268284504
 51
47.74740848724674
  0
ARC
  5
83
330
A
100
AcDbEntity
  8
0
  6
Continuous
 62
     7
 48
0.125
100
AcDbCircle
 10
-141.944318819052
 20
119.4044937416722
 30
0.0
 40
1.402092322248746
100
AcDbArc
 50
118.6390569683094
 51
283.2899744337552
  0
ARC
  5
84
330
A
100
AcDbEntity
  8
0
  6
Continuous
 62
     7
 48
0.125
100
AcDbCircle
 10
-141.7738879000221
 20
118.6829563040116
 30
0.0
 40
0.6606997325183976
100
AcDbArc
 50
283.2899744337582
 51
99.38054543054327
  0
ARC
  5
85
330
A
100
AcDbEntity
  8
0
  6
Continuous
 62
     7
 48
0.125
100
AcDbCircle
 10
-142.0828019632811
 20
118.7260850903041
 30
0.0
 40
0.6411327028967675
100
AcDbArc
 50
17.86272933120975
 51
71.70798707823069
  0
ARC
  5
86
330
A
100
AcDbEntity
  8
0
  6
Continuous
 62
     7
 48
0.125
100
AcDbCircle
 10
-141.9434470851924
 20
119.2807983715055
 30
0.0
 40
0.952093773577334
100
AcDbArc
 50
180.8153821610281
 51
274.5221809138406
  0
ARC
  5
87
330
A
100
AcDbEntity
  8
0
  6
Continuous
 62
     7
 48
0.125
100
AcDbCircle
 10
-141.9041283277191
 20
118.7836667774945
 30
0.0
 40
0.4534097188360914
100
AcDbArc
 50
274.5221809138425
 51
17.86272933121004
  0
ARC
  5
88
330
A
100
AcDbEntity
  8
0
  6
Continuous
 62
     7
 48
0.125
100
AcDbCircle
 10
-141.6929099953228
 20
119.2843640314441
 30
0.0
 40
1.202656235512723
100
AcDbArc
 50
76.92707950923085
 51
180.8153821610279
  0
LWPOLYLINE
  5
89
330
A
100
AcDbEntity
  8
0
  6
Continuous
 62
     7
 48
0.125
100
AcDbPolyline
 90
        2
 70
   128
 43
0.0
 10
-141.0531213651357
 20
124.6093826771136
 10
-141.0812640407639
 20
124.6361726039623
  0
ARC
  5
8D
330
A
100
AcDbEntity
  8
0
  6
Continuous
 62
     7
 48
0.125
100
AcDbCircle
 10
-139.7815277058471
 20
126.9831550832309
 30
0.0
 40
1.807660723671249
100
AcDbArc
 50
113.8033469962402
 51
171.9559580475963
  0
ARC
  5
8E
330
A
100
AcDbEntity
  8
0
  6
Continuous
 62
     7
 48
0.125
100
AcDbCircle
 10
-139.1370965188878
 20
125.72830347511
 30
0.0
 40
1.163212739072829
100
AcDbArc
 50
13.24027876177478
 51
116.0185786338714
  0
ARC
  5
8F
330
A
100
AcDbEntity
  8
0
  6
Continuous
 62
     7
 48
0.125
100
AcDbCircle
 10
-140.0983641573568
 20
125.2286653201497
 30
0.0
 40
4.699659276170129
100
AcDbArc
 50
346.6187056558919
 51
48.27367659201109
  0
ARC
  5
90
330
A
100
AcDbEntity
  8
0
  6
Continuous
 62
     7
 48
0.125
100
AcDbCircle
 10
-139.3158271762286
 20
125.5648053514801
 30
0.0
 40
1.719567560425713
100
AcDbArc
 50
33.13049469234064
 51
78.84491461326399
  0
ARC
  5
91
330
A
100
AcDbEntity
  8
0
  6
Continuous
 62
     7
 48
0.125
100
AcDbCircle
 10
-165.842820160053
 20
133.8143261763436
 30
0.0
 40
31.56608110797411
100
AcDbArc
 50
326.0535074577979
 51
339.5299476574843
  0
LWPOLYLINE
  5
92
330
A
100
AcDbEntity
  8
0
  6
Continuous
 62
     7
 48
0.125
100
AcDbPolyline
 90
        2
 70
   128
 43
0.0
 10
-136.8489464731343
 20
120.408521263813
 10
-139.1655237853254
 20
116.2984743444836
  0
ARC
  5
96
330
A
100
AcDbEntity
  8
0
  6
Continuous
 62
     7
 48
0.125
100
AcDbCircle
 10
-143.2044103476931
 20
118.1906228705076
 30
0.0
 40
4.074125339239713
100
AcDbArc
 50
330.5455062033148
 51
13.35973526089803
  0
ARC
  5
97
330
A
100
AcDbEntity
  8
0
  6
Continuous
 62
     7
 48
0.125
100
AcDbCircle
 10
-137.2383567687554
 20
114.899833266319
 30
0.0
 40
2.381211787154768
100
AcDbArc
 50
55.36163321030435
 51
144.0297389377744
  0
ARC
  5
98
330
A
100
AcDbEntity
  8
0
  6
Continuous
 62
     7
 48
0.125
100
AcDbCircle
 10
-137.2762399075186
 20
112.0359082930049
 30
0.0
 40
1.013574939330583
100
AcDbArc
 50
312.2508081249973
 51
5.115085132424388
  0
ARC
  5
99
330
A
100
AcDbEntity
  8
0
  6
Continuous
 62
     7
 48
0.125
100
AcDbCircle
 10
-137.6972655198999
 20
111.7489521278546
 30
0.0
 40
0.8257548464155455
100
AcDbArc
 50
156.6478168228263
 51
257.9987797364756
  0
ARC
  5
9A
330
A
100
AcDbEntity
  8
0
  6
Continuous
 62
     7
 48
0.125
100
AcDbCircle
 10
-137.7921105652148
 20
112.19214525222
 30
0.0
 40
1.86279379035125
100
AcDbArc
 50
339.9906373119185
 51
58.47060149923695
  0
ARC
  5
9B
330
A
100
AcDbEntity
  8
0
  6
Continuous
 62
     7
 48
0.125
100
AcDbCircle
 10
-137.5625366088826
 20
111.8762582623592
 30
0.0
 40
1.243208638305396
100
AcDbArc
 50
166.759408947305
 51
232.8399220404797
  0
ARC
  5
9C
330
A
100
AcDbEntity
  8
0
  6
Continuous
 62
     7
 48
0.125
100
AcDbCircle
 10
-137.4245595314607
 20
112.0582995943008
 30
0.0
 40
1.471630879842786
100
AcDbArc
 50
232.8399220404806
 51
339.9906373119185
  0
ARC
  5
9D
330
A
100
AcDbEntity
  8
0
  6
Continuous
 62
     7
 48
0.125
100
AcDbCircle
 10
-138.1274820786897
 20
106.0084636834104
 30
0.0
 40
2.276310257804988
100
AcDbArc
 50
34.18145509812104
 51
138.5252445252152
  0
ARC
  5
9E
330
A
100
AcDbEntity
  8
0
  6
Continuous
 62
     7
 48
0.125
100
AcDbCircle
 10
-136.9460762648571
 20
109.1366512613356
 30
0.0
 40
0.8365877953486419
100
AcDbArc
 50
119.1828781025026
 51
222.5715791332603
  0
ARC
  5
9F
330
A
100
AcDbEntity
  8
0
  6
Continuous
 62
     7
 48
0.125
100
AcDbCircle
 10
-136.6984823429796
 20
109.4710983260291
 30
0.0
 40
0.7658162257537568
100
AcDbArc
 50
148.8666849699203
 51
238.5110530157272
  0
LWPOLYLINE
  5
A0
330
A
100
AcDbEntity
  8
0
  6
Continuous
 62
     7
 48
0.125
100
AcDbPolyline
 90
        2
 70
   128
 43
0.0
 10
-137.0984942497291
 20
108.8180554743828
 10
-136.5040446554628
 20
108.2041580215825
  0
ARC
  5
A4
330
A
100
AcDbEntity
  8
0
  6
Continuous
 62
     7
 48
0.125
100
AcDbCircle
 10
-137.5679884412
 20
112.3570892777124
 30
0.0
 40
1.447480956623426
100
AcDbArc
 50
257.9987797364746
 51
312.2508081249954
  0
ARC
  5
A5
330
A
100
AcDbEntity
  8
0
  6
Continuous
 62
     7
 48
0.125
100
AcDbCircle
 10
-136.7949838061628
 20
114.4117801306558
 30
0.0
 40
0.6322603438424022
100
AcDbArc
 50
267.9148274824639
 51
1.404231149422484
  0
ARC
  5
A6
330
A
100
AcDbEntity
  8
0
  6
Continuous
 62
     7
 48
0.125
100
AcDbCircle
 10
-137.0051583723387
 20
115.1923853560635
 30
0.0
 40
1.137880315985288
100
AcDbArc
 50
257.1129759777412
 51
317.7474084872466
  0
ARC
  5
A7
330
A
100
AcDbEntity
  8
0
  6
Continuous
 62
     7
 48
0.125
100
AcDbCircle
 10
-138.5673597063884
 20
111.920336272324
 30
0.0
 40
2.309857017814257
100
AcDbArc
 50
5.115085132423755
 51
38.76406681476136
  0
ARC
  5
A8
330
A
100
AcDbEntity
  8
0
  6
Continuous
 62
     7
 48
0.125
100
AcDbCircle
 10
-138.0908593683866
 20
109.9994176597479
 30
0.0
 40
4.167624519266217
100
AcDbArc
 50
78.48555496981255
 51
108.3176969377963
  0
ARC
  5
A9
330
A
100
AcDbEntity
  8
0
  6
Continuous
 62
     7
 48
0.125
100
AcDbCircle
 10
-137.9636784121124
 20
111.8639754029511
 30
0.0
 40
0.535571830112084
100
AcDbArc
 50
1.151987619945029
 51
156.6478168228259
  0
ARC
  5
AA
330
A
100
AcDbEntity
  8
0
  6
Continuous
 62
     7
 48
0.125
100
AcDbCircle
 10
-137.9961025034857
 20
111.9782743350827
 30
0.0
 40
0.797802459568541
100
AcDbArc
 50
78.55600649666182
 51
166.7594089473061
  0
ARC
  5
AB
330
A
100
AcDbEntity
  8
0
  6
Continuous
 62
     7
 48
0.125
100
AcDbCircle
 10
-137.8012111442955
 20
112.5355448246396
 30
0.0
 40
1.327276139698255
100
AcDbArc
 50
38.76406681476126
 51
89.19838772801231
  0
ARC
  5
AC
330
A
100
AcDbEntity
  8
0
  6
Continuous
 62
     7
 48
0.125
100
AcDbCircle
 10
-137.9578540784171
 20
112.1672165216704
 30
0.0
 40
0.6050277415873115
100
AcDbArc
 50
331.0919517524705
 51
78.55600649666293
  0
ARC
  5
AD
330
A
100
AcDbEntity
  8
0
  6
Continuous
 62
     7
 48
0.125
100
AcDbCircle
 10
-149.2475447065727
 20
126.9027002484348
 30
0.0
 40
13.99641378491384
100
AcDbArc
 50
332.3552026285904
 51
348.6201084467433
  0
ARC
  5
AE
330
A
100
AcDbEntity
  8
0
  6
Continuous
 62
     7
 48
0.125
100
AcDbCircle
 10
-139.2244767840803
 20
125.7077438008494
 30
0.0
 40
1.252979163479821
100
AcDbArc
 50
305.9871006828001
 51
13.24027876177401
  0
ARC
  5
AF
330
A
100
AcDbEntity
  8
0
  6
Continuous
 62
     7
 48
0.125
100
AcDbCircle
 10
-139.0885806114722
 20
125.7131179296882
 30
0.0
 40
1.448205031604375
100
AcDbArc
 50
325.5426035379069
 51
33.13049469234115
  0
ARC
  5
B0
330
A
100
AcDbEntity
  8
0
  6
Continuous
 62
     7
 48
0.125
100
AcDbCircle
 10
-142.4411020733314
 20
125.1678260148416
 30
0.0
 40
6.618753827610667
100
AcDbArc
 50
338.8072917346643
 51
7.589102637775037
  0
ARC
  5
B1
330
A
100
AcDbEntity
  8
0
  6
Continuous
 62
     7
 48
0.125
100
AcDbCircle
 10
-136.8303130970252
 20
129.6881843592414
 30
0.0
 40
0.4531779056800989
100
AcDbArc
 50
342.8523107439738
 51
121.6386947698859
  0
ARC
  5
B2
330
A
100
AcDbEntity
  8
0
  6
Continuous
 62
     7
 48
0.125
100
AcDbCircle
 10
-136.9014777212219
 20
129.8855873553329
 30
0.0
 40
0.6031476495177121
100
AcDbArc
 50
326.7142936538725
 51
115.2042711046882
  0
ARC
  5
B3
330
A
100
AcDbEntity
  8
0
  6
Continuous
 62
     7
 48
0.125
100
AcDbCircle
 10
-147.7200965115686
 20
122.5737057694797
 30
0.0
 40
12.39080561646204
100
AcDbArc
 50
29.8243025936831
 51
32.4500715042421
  0
ARC
  5
B4
330
A
100
AcDbEntity
  8
0
  6
Continuous
 62
     7
 48
0.125
100
AcDbCircle
 10
-136.7460872009733
 20
129.5514840664151
 30
0.0
 40
0.6137424460511359
100
AcDbArc
 50
121.638694769885
 51
212.4500715042422
  0
ARC
  5
B5
330
A
100
AcDbEntity
  8
0
  6
Continuous
 62
     7
 48
0.125
100
AcDbCircle
 10
-136.73676518085
 20
129.53562310792
 30
0.0
 40
0.9899359577989422
100
AcDbArc
 50
115.2042711046869
 51
203.4674081892211
  0
LWPOLYLINE
  5
C8
330
A
100
AcDbEntity
  8
0
  6
Continuous
 62
     7
 48
0.125
100
AcDbPolyline
 90
        2
 70
   128
 43
0.0
 10
-144.2597712597422
 20
113.5594632296857
 10
-144.2597712597422
 20
113.5594632296857
  0
LWPOLYLINE
  5
CC
330
A
100
AcDbEntity
  8
0
  6
Continuous
 62
     7
 48
0.125
100
AcDbPolyline
 90
        2
 70
   128
 43
0.0
 10
-144.2597712597422
 20
113.5594632296857
 10
-144.2597712597422
 20
113.5594632296857
  0
LWPOLYLINE
  5
D0
330
A
100
AcDbEntity
  8
0
  6
Continuous
 62
     7
 48
0.125
100
AcDbPolyline
 90
        2
 70
   128
 43
0.0
 10
-137.0644042280425
 20
130.5101950669269
 10
-137.0644042280425
 20
130.5101950669269
  0
LWPOLYLINE
  5
D4
330
A
100
AcDbEntity
  8
0
  6
Continuous
 62
     7
 48
0.125
100
AcDbPolyline
 90
        2
 70
   128
 43
0.0
 10
-137.0644042280425
 20
130.5101950669269
 10
-137.0644042280425
 20
130.5101950669269
  0
LWPOLYLINE
  5
D8
330
A
100
AcDbEntity
  8
0
  6
Continuous
 62
     7
 48
0.125
100
AcDbPolyline
 90
        2
 70
   128
 43
0.0
 10
-137.1583261818511
 20
130.4313125200369
 10
-137.1583261818511
 20
130.4313125200369
  0
LWPOLYLINE
  5
DC
330
A
100
AcDbEntity
  8
0
  6
Continuous
 62
     7
 48
0.125
100
AcDbPolyline
 90
        2
 70
   128
 43
0.0
 10
-137.1583261818511
 20
130.4313125200369
 10
-137.1583261818511
 20
130.4313125200369
  0
ARC
  5
F0
330
A
100
AcDbEntity
  8
0
  6
Continuous
 62
     7
 48
0.125
100
AcDbCircle
 10
-141.5341692905278
 20
122.5928378428862
 30
0.0
 40
0.6606997325183902
100
AcDbArc
 50
238.2899744337582
 51
54.38054543054346
  0
ARC
  5
F1
330
A
100
AcDbEntity
  8
0
  6
Continuous
 62
     7
 48
0.125
100
AcDbCircle
 10
-141.7221078622103
 20
122.8417697290723
 30
0.0
 40
0.6411327028967615
100
AcDbArc
 50
332.8627293312099
 51
26.70798707822934
  0
ARC
  5
F2
330
A
100
AcDbEntity
  8
0
  6
Continuous
 62
     7
 48
0.125
100
AcDbCircle
 10
-141.2313275601706
 20
123.135472472536
 30
0.0
 40
0.9520937735773339
100
AcDbArc
 50
135.8153821610264
 51
229.5221809138424
  0
ARC
  5
F3
330
A
100
AcDbEntity
  8
0
  6
Continuous
 62
     7
 48
0.125
100
AcDbCircle
 10
-141.5550501214007
 20
122.7561447912316
 30
0.0
 40
0.4534097188361189
100
AcDbArc
 50
229.5221809138458
 51
332.8627293312127
  0
ARC
  5
F4
330
A
100
AcDbEntity
  8
0
  6
Continuous
 62
     7
 48
0.125
100
AcDbCircle
 10
-141.051649782663
 20
122.9608372996725
 30
0.0
 40
1.202656235512724
100
AcDbArc
 50
31.92707950923148
 51
135.8153821610278
  0
ARC
  5
F5
330
A
100
AcDbEntity
  8
0
  6
Continuous
 62
     7
 48
0.125
100
AcDbCircle
 10
-141.1444781340479
 20
123.2235547165057
 30
0.0
 40
1.402011407889822
100
AcDbArc
 50
87.92008410014105
 51
238.2899744337553
  0
ARC
  5
F6
330
A
100
AcDbEntity
  8
0
  6
Continuous
 62
     7
 48
0.125
100
AcDbCircle
 10
-141.1444781340479
 20
123.2235547165057
 30
0.0
 40
1.402011407889822
100
AcDbArc
 50
87.92008410014105
 51
238.2899744337553
  0
TEXT
  5
105
330
A
100
AcDbEntity
  8
ADPDIM
100
AcDbText
 10
-171.2946062764758
 20
94.07038735865057
 30
0.0
 40
0.625
  1
J U L I U S  B L U M  &  C O . ,  I N C .      ( 8 0 0 )  5 2 6 - 6 2 9 3        W W W . J U L I U S B L U M . C O M        P A R T  N o .  5 3 8
 41
1.25
  7
ARIAL_WIDE
 72
     1
 11
-139.1210685888905
 21
94.69538735865057
 31
0.0
100
AcDbText
 73
     3
  0
DIMENSION
  5
2CC
330
A
100
AcDbEntity
  8
ADPDIM
  6
Continuous
 62
     3
100
AcDbDimension
  2
*D0
 10
-131.5084478296699
 20
96.51264166037339
 30
0.0
 11
-131.5084478296699
 21
113.5126416603734
 31
0.0
 70
    32
 71
     5
 42
34.0
  3
STANDARD
100
AcDbAlignedDimension
 13
-136.8891171110743
 23
130.5126416603734
 33
0.0
 14
-136.497924154709
 24
96.51264166037339
 34
0.0
 50
90.0
100
AcDbRotatedDimension
1001
ACAD
1000
DSTYLE
1002
{
1070
   276
1070
     2
1070
   277
1070
     5
1070
   289
1070
     3
1002
}
  0
DIMENSION
  5
34B
330
A
100
AcDbEntity
  8
ADPDIM
  6
Continuous
 62
     3
100
AcDbDimension
  2
*D3
 10
-147.1837469448875
 20
101.8859036656901
 30
0.0
 11
-147.1837469448876
 21
116.1984036656901
 31
0.0
 70
   160
 71
     5
 42
28.625
  3
STANDARD
100
AcDbAlignedDimension
 13
-137.1631876089466
 23
130.5109036656901
 33
0.0
 14
-142.0066377521184
 24
101.8859036656901
 34
0.0
 50
90.0
100
AcDbRotatedDimension
1001
ACAD
1000
DSTYLE
1002
{
1070
   276
1070
     2
1070
   277
1070
     5
1070
   289
1070
     3
1002
}
  0
ENDSEC
  0
SECTION
  2
OBJECTS
  0
DICTIONARY
  5
19
330
0
100
AcDbDictionary
281
     1
  3
ACAD_COLOR
350
2C6
  3
ACAD_GROUP
350
1A
  3
ACAD_LAYOUT
350
FC
  3
ACAD_MATERIAL
350
2B1
  3
ACAD_MLINESTYLE
350
1B
  3
ACAD_PLOTSETTINGS
350
FD
  3
ACAD_PLOTSTYLENAME
350
FA
  3
ACAD_TABLESTYLE
350
2C7
  3
ACAD_VISUALSTYLE
350
2B5
  3
AcDbVariableDictionary
350
163
  3
ASE_INDEX_DICTIONARY
350
446
  3
DWGPROPS
350
479
  0
DICTIONARY
  5
159
330
A
100
AcDbDictionary
280
     1
281
     1
  3
ACAD_LAYOUTSELFREF
360
2A6
  0
DICTIONARY
  5
15B
330
B
100
AcDbDictionary
280
     1
281
     1
  3
ACAD_LAYOUTSELFREF
360
2A7
  0
DICTIONARY
  5
2C6
102
{ACAD_REACTORS
330
19
102
}
330
19
100
AcDbDictionary
281
     1
  0
DICTIONARY
  5
1A
102
{ACAD_REACTORS
330
19
102
}
330
19
100
AcDbDictionary
281
     1
  0
DICTIONARY
  5
FC
102
{ACAD_REACTORS
330
19
102
}
330
19
100
AcDbDictionary
281
     1
  3
Layout1
350
FF
  3
Model
350
FE
  0
DICTIONARY
  5
2B1
102
{ACAD_REACTORS
330
19
102
}
330
19
100
AcDbDictionary
281
     1
  3
ByBlock
350
2B3
  3
ByLayer
350
2B2
  3
Global
350
2B4
  0
DICTIONARY
  5
1B
102
{ACAD_REACTORS
330
19
102
}
330
19
100
AcDbDictionary
281
     1
  3
STANDARD
350
1C
  0
DICTIONARY
  5
FD
102
{ACAD_REACTORS
330
19
102
}
330
19
100
AcDbDictionary
281
     1
  0
ACDBDICTIONARYWDFLT
  5
FA
102
{ACAD_REACTORS
330
19
102
}
330
19
100
AcDbDictionary
281
     1
  3
Normal
350
FB
100
AcDbDictionaryWithDefault
340
FB
  0
DICTIONARY
  5
2C7
102
{ACAD_REACTORS
330
19
102
}
330
19
100
AcDbDictionary
281
     1
  3
Standard
350
2C8
  0
DICTIONARY
  5
2B5
102
{ACAD_REACTORS
330
19
102
}
330
19
100
AcDbDictionary
281
     1
  3
2dWireframe
350
2BB
  3
3D Hidden
350
2BD
  3
3dWireframe
350
2BC
  3
Basic
350
2BA
  3
Brighten
350
2C1
  3
ColorChange
350
2C5
  3
Conceptual
350
2BE
  3
Dim
350
2C0
  3
Facepattern
350
2C4
  3
Flat
350
2B6
  3
FlatWithEdges
350
2B7
  3
Gouraud
350
2B8
  3
GouraudWithEdges
350
2B9
  3
Linepattern
350
2C3
  3
Realistic
350
2BF
  3
Thicken
350
2C2
  0
DICTIONARY
  5
163
102
{ACAD_REACTORS
330
19
102
}
330
19
100
AcDbDictionary
281
     1
  3
CTABLESTYLE
350
449
  3
DIMASSOC
350
164
  3
INDEXCTL
350
478
  3
SORTENTS
350
477
  0
DICTIONARY
  5
446
102
{ACAD_REACTORS
330
19
102
}
330
19
100
AcDbDictionary
281
     1
  3
ASEBlockHierarchyIndexRecord
350
448
1001
DCO15
1040
1568306869.556
  0
XRECORD
  5
479
102
{ACAD_REACTORS
330
19
102
}
330
19
100
AcDbXrecord
280
     1
  1
DWGPROPS COOKIE
  2

  3

  4

  6

  7

  8
Yu Hu
  9

300
=
301
=
302
=
303
=
304
=
305
=
306
=
307
=
308
=
309
=
 40
0.0104931365740741
 41
2444971.791666667
 42
2453954.911730972
  1

 90
        0
  0
XRECORD
  5
2A6
102
{ACAD_REACTORS
330
159
102
}
330
159
100
AcDbXrecord
280
     1
340
A
  0
XRECORD
  5
2A7
102
{ACAD_REACTORS
330
15B
102
}
330
15B
100
AcDbXrecord
280
     1
340
B
  0
LAYOUT
  5
FF
102
{ACAD_XDICTIONARY
360
47C
102
}
102
{ACAD_REACTORS
330
FC
102
}
330
FC
100
AcDbPlotSettings
  1

  2
Fax
  4

  6

 40
0.0
 41
0.0
 42
0.0
 43
0.0
 44
0.0
 45
0.0
 46
0.0
 47
0.0
 48
0.0
 49
0.0
140
0.0
141
0.0
142
1.0
143
1.0
 70
   688
 72
     0
 73
     0
 74
     5
  7
Default R14 pen assignments.ctb
 75
    16
147
1.0
148
0.0
149
0.0
100
AcDbLayout
  1
Layout1
 70
     0
 71
     1
 10
0.0
 20
0.0
 11
12.0
 21
9.0
 12
0.0
 22
0.0
 32
0.0
 14
1.000000000000000E+20
 24
1.000000000000000E+20
 34
1.000000000000000E+20
 15
-1.000000000000000E+20
 25
-1.000000000000000E+20
 35
-1.000000000000000E+20
146
0.0
 13
0.0
 23
0.0
 33
0.0
 16
1.0
 26
0.0
 36
0.0
 17
0.0
 27
1.0
 37
0.0
 76
     0
330
B
  0
LAYOUT
  5
FE
102
{ACAD_XDICTIONARY
360
47A
102
}
102
{ACAD_REACTORS
330
FC
102
}
330
FC
100
AcDbPlotSettings
  1

  2
Fax
  4

  6

 40
0.0
 41
0.0
 42
0.0
 43
0.0
 44
0.0
 45
0.0
 46
0.0
 47
0.0
 48
0.0
 49
0.0
140
0.0
141
0.0
142
1.0
143
1.0
 70
  1712
 72
     0
 73
     0
 74
     0
  7
Default R14 pen assignments.ctb
 75
     0
147
1.0
148
0.0
149
0.0
100
AcDbLayout
  1
Model
 70
     1
 71
     0
 10
0.0
 20
0.0
 11
12.0
 21
9.0
 12
0.0
 22
0.0
 32
0.0
 14
0.0
 24
0.0
 34
0.0
 15
0.0
 25
0.0
 35
0.0
146
0.0
 13
0.0
 23
0.0
 33
0.0
 16
1.0
 26
0.0
 36
0.0
 17
0.0
 27
1.0
 37
0.0
 76
     0
330
A
331
283
  0
MATERIAL
  5
2B3
102
{ACAD_XDICTIONARY
360
480
102
}
102
{ACAD_REACTORS
330
2B1
102
}
330
2B1
100
AcDbMaterial
  1
ByBlock
  0
MATERIAL
  5
2B2
102
{ACAD_XDICTIONARY
360
47E
102
}
102
{ACAD_REACTORS
330
2B1
102
}
330
2B1
100
AcDbMaterial
  1
ByLayer
  0
MATERIAL
  5
2B4
102
{ACAD_XDICTIONARY
360
482
102
}
102
{ACAD_REACTORS
330
2B1
102
}
330
2B1
100
AcDbMaterial
  1
Global
  0
MLINESTYLE
  5
1C
102
{ACAD_REACTORS
330
1B
102
}
330
1B
100
AcDbMlineStyle
  2
STANDARD
 70
     0
  3

 62
     0
 51
90.00000000000019
 52
90.00000000000019
 71
     2
 49
0.5
 62
   256
  6
BYLAYER
 49
-0.5
 62
   256
  6
BYLAYER
  0
ACDBPLACEHOLDER
  5
FB
102
{ACAD_REACTORS
330
FA
102
}
330
FA
  0
TABLESTYLE
  5
2C8
102
{ACAD_XDICTIONARY
360
484
102
}
102
{ACAD_REACTORS
330
2C7
102
}
330
2C7
100
AcDbTableStyle
  3
Standard
 70
     0
 71
     0
 40
0.06
 41
0.06
280
     0
281
     0
  7
STANDARD
140
0.18
170
     2
 62
     0
 63
     7
283
     0
274
    -2
284
     1
 64
     0
275
    -2
285
     1
 65
     0
276
    -2
286
     1
 66
     0
277
    -2
287
     1
 67
     0
278
    -2
288
     1
 68
     0
279
    -2
289
     1
 69
     0
  7
STANDARD
140
0.25
170
     5
 62
     0
 63
     7
283
     0
274
    -2
284
     1
 64
     0
275
    -2
285
     1
 65
     0
276
    -2
286
     1
 66
     0
277
    -2
287
     1
 67
     0
278
    -2
288
     1
 68
     0
279
    -2
289
     1
 69
     0
  7
STANDARD
140
0.18
170
     5
 62
     0
 63
     7
283
     0
274
    -2
284
     1
 64
     0
275
    -2
285
     1
 65
     0
276
    -2
286
     1
 66
     0
277
    -2
287
     1
 67
     0
278
    -2
288
     1
 68
     0
279
    -2
289
     1
 69
     0
  0
VISUALSTYLE
  5
2BB
102
{ACAD_REACTORS
330
2B5
102
}
330
2B5
100
AcDbVisualStyle
  2
2dWireframe
 70
     4
 71
     0
 72
     2
 73
     0
 90
        0
 40
-0.6
 41
-30.0
 62
     5
 63
     7
 74
     1
 91
        4
 64
     7
 65
   257
 75
     1
175
     1
 42
1.0
 92
        0
 66
   257
 43
1.0
 76
     1
 77
     6
 78
     2
 67
     7
 79
     5
170
     0
171
     0
290
     0
174
     0
 93
        1
 44
0.0
173
     0
291
     0
 45
0.0
1001
ACAD
1000
AcDbSavedByObjectVersion
1070
     0
  0
VISUALSTYLE
  5
2BD
102
{ACAD_REACTORS
330
2B5
102
}
330
2B5
100
AcDbVisualStyle
  2
3D Hidden
 70
     6
 71
     1
 72
     2
 73
     2
 90
        0
 40
-0.6
 41
-30.0
 62
     5
 63
     7
 74
     2
 91
        2
 64
     7
 65
   257
 75
     2
175
     1
 42
40.0
 92
        0
 66
   257
 43
1.0
 76
     1
 77
     6
 78
     2
 67
     7
 79
     3
170
     0
171
     0
290
     0
174
     0
 93
        1
 44
0.0
173
     0
291
     0
 45
0.0
1001
ACAD
1000
AcDbSavedByObjectVersion
1070
     0
  0
VISUALSTYLE
  5
2BC
102
{ACAD_REACTORS
330
2B5
102
}
330
2B5
100
AcDbVisualStyle
  2
3dWireframe
 70
     5
 71
     0
 72
     2
 73
     0
 90
        0
 40
-0.6
 41
-30.0
 62
     5
 63
     7
 74
     1
 91
        4
 64
     7
 65
   257
 75
     1
175
     1
 42
1.0
 92
        0
 66
   257
 43
1.0
 76
     1
 77
     6
 78
     2
 67
     7
 79
     5
170
     0
171
     0
290
     0
174
     0
 93
        1
 44
0.0
173
     0
291
     0
 45
0.0
1001
ACAD
1000
AcDbSavedByObjectVersion
1070
     0
  0
VISUALSTYLE
  5
2BA
102
{ACAD_REACTORS
330
2B5
102
}
330
2B5
100
AcDbVisualStyle
  2
Basic
 70
     7
 71
     1
 72
     0
 73
     1
 90
        0
 40
-0.6
 41
-30.0
 62
     5
 63
     7
 74
     0
 91
        4
 64
     7
 65
   257
 75
     1
175
     1
 42
1.0
 92
        8
 66
     7
 43
1.0
 76
     1
 77
     6
 78
     2
 67
     7
 79
     5
170
     0
171
     0
290
     0
174
     0
 93
        1
 44
0.0
173
     0
291
     1
 45
0.0
1001
ACAD
1000
AcDbSavedByObjectVersion
1070
     0
  0
VISUALSTYLE
  5
2C1
102
{ACAD_REACTORS
330
2B5
102
}
330
2B5
100
AcDbVisualStyle
  2
Brighten
 70
    12
 71
     2
 72
     2
 73
     0
 90
        0
 40
-0.6
 41
-30.0
 62
     5
 63
     7
 74
     1
 91
        4
 64
     7
 65
   257
 75
     1
175
     1
 42
1.0
 92
        8
 66
     7
 43
1.0
 76
     1
 77
     6
 78
     2
 67
     7
 79
     5
170
     0
171
     0
290
     0
174
     0
 93
        1
 44
50.0
173
     0
291
     1
 45
0.0
1001
ACAD
1000
AcDbSavedByObjectVersion
1070
     0
  0
VISUALSTYLE
  5
2C5
102
{ACAD_REACTORS
330
2B5
102
}
330
2B5
100
AcDbVisualStyle
  2
ColorChange
 70
    16
 71
     2
 72
     2
 73
     3
 90
        0
 40
-0.6
 41
-30.0
 62
     5
 63
     8
 74
     1
 91
        4
 64
     7
 65
   257
 75
     1
175
     1
 42
1.0
 92
        8
 66
     8
 43
1.0
 76
     1
 77
     6
 78
     2
 67
     7
 79
     5
170
     0
171
     0
290
     0
174
     0
 93
        1
 44
0.0
173
     0
291
     1
 45
0.0
1001
ACAD
1000
AcDbSavedByObjectVersion
1070
     0
  0
VISUALSTYLE
  5
2BE
102
{ACAD_REACTORS
330
2B5
102
}
330
2B5
100
AcDbVisualStyle
  2
Conceptual
 70
     9
 71
     3
 72
     2
 73
     0
 90
        0
 40
-0.6
 41
-30.0
 62
     5
 63
     7
 74
     2
 91
        2
 64
     7
 65
   257
 75
     1
175
     1
 42
40.0
 92
        8
 66
     7
 43
1.0
 76
     1
 77
     6
 78
     2
 67
     7
 79
     3
170
     0
171
     0
290
     0
174
     0
 93
        1
 44
0.0
173
     0
291
     0
 45
0.0
1001
ACAD
1000
AcDbSavedByObjectVersion
1070
     0
  0
VISUALSTYLE
  5
2C0
102
{ACAD_REACTORS
330
2B5
102
}
330
2B5
100
AcDbVisualStyle
  2
Dim
 70
    11
 71
     2
 72
     2
 73
     0
 90
        0
 40
-0.6
 41
-30.0
 62
     5
 63
     7
 74
     1
 91
        4
 64
     7
 65
   257
 75
     1
175
     1
 42
1.0
 92
        8
 66
     7
 43
1.0
 76
     1
 77
     6
 78
     2
 67
     7
 79
     5
170
     0
171
     0
290
     0
174
     0
 93
        1
 44
-50.0
173
     0
291
     1
 45
0.0
1001
ACAD
1000
AcDbSavedByObjectVersion
1070
     0
  0
VISUALSTYLE
  5
2C4
102
{ACAD_REACTORS
330
2B5
102
}
330
2B5
100
AcDbVisualStyle
  2
Facepattern
 70
    15
 71
     2
 72
     2
 73
     0
 90
        0
 40
-0.6
 41
-30.0
 62
     5
 63
     7
 74
     1
 91
        4
 64
     7
 65
   257
 75
     1
175
     1
 42
1.0
 92
        8
 66
     7
 43
1.0
 76
     1
 77
     6
 78
     2
 67
     7
 79
     5
170
     0
171
     0
290
     0
174
     0
 93
        1
 44
0.0
173
     0
291
     1
 45
0.0
1001
ACAD
1000
AcDbSavedByObjectVersion
1070
     0
  0
VISUALSTYLE
  5
2B6
102
{ACAD_REACTORS
330
2B5
102
}
330
2B5
100
AcDbVisualStyle
  2
Flat
 70
     0
 71
     2
 72
     1
 73
     1
 90
        2
 40
-0.6
 41
30.0
 62
     5
 63
     7
 74
     0
 91
        4
 64
     7
 65
   257
 75
     1
175
     1
 42
1.0
 92
        8
 66
     7
 43
1.0
 76
     1
 77
     6
 78
     2
 67
     7
 79
     5
170
     0
171
     0
290
     0
174
     0
 93
       13
 44
0.0
173
     0
291
     1
 45
0.0
1001
ACAD
1000
AcDbSavedByObjectVersion
1070
     0
  0
VISUALSTYLE
  5
2B7
102
{ACAD_REACTORS
330
2B5
102
}
330
2B5
100
AcDbVisualStyle
  2
FlatWithEdges
 70
     1
 71
     2
 72
     1
 73
     1
 90
        2
 40
-0.6
 41
30.0
 62
     5
 63
     7
 74
     1
 91
        4
 64
     7
 65
   257
 75
     1
175
     1
 42
1.0
 92
        0
 66
   257
 43
1.0
 76
     1
 77
     6
 78
     2
 67
     7
 79
     5
170
     0
171
     0
290
     0
174
     0
 93
       13
 44
0.0
173
     0
291
     1
 45
0.0
1001
ACAD
1000
AcDbSavedByObjectVersion
1070
     0
  0
VISUALSTYLE
  5
2B8
102
{ACAD_REACTORS
330
2B5
102
}
330
2B5
100
AcDbVisualStyle
  2
Gouraud
 70
     2
 71
     2
 72
     2
 73
     1
 90
        2
 40
-0.6
 41
30.0
 62
     5
 63
     7
 74
     0
 91
        4
 64
     7
 65
   257
 75
     1
175
     1
 42
1.0
 92
        0
 66
     7
 43
1.0
 76
     1
 77
     6
 78
     2
 67
     7
 79
     5
170
     0
171
     0
290
     0
174
     0
 93
       13
 44
0.0
173
     0
291
     1
 45
0.0
1001
ACAD
1000
AcDbSavedByObjectVersion
1070
     0
  0
VISUALSTYLE
  5
2B9
102
{ACAD_REACTORS
330
2B5
102
}
330
2B5
100
AcDbVisualStyle
  2
GouraudWithEdges
 70
     3
 71
     2
 72
     2
 73
     1
 90
        2
 40
-0.6
 41
30.0
 62
     5
 63
     7
 74
     1
 91
        4
 64
     7
 65
   257
 75
     1
175
     1
 42
1.0
 92
        0
 66
   257
 43
1.0
 76
     1
 77
     6
 78
     2
 67
     7
 79
     5
170
     0
171
     0
290
     0
174
     0
 93
       13
 44
0.0
173
     0
291
     1
 45
0.0
1001
ACAD
1000
AcDbSavedByObjectVersion
1070
     0
  0
VISUALSTYLE
  5
2C3
102
{ACAD_REACTORS
330
2B5
102
}
330
2B5
100
AcDbVisualStyle
  2
Linepattern
 70
    14
 71
     2
 72
     2
 73
     0
 90
        0
 40
-0.6
 41
-30.0
 62
     5
 63
     7
 74
     1
 91
        4
 64
     7
 65
   257
 75
     7
175
     7
 42
1.0
 92
        8
 66
     7
 43
1.0
 76
     1
 77
     6
 78
     2
 67
     7
 79
     5
170
     0
171
     0
290
     0
174
     0
 93
        1
 44
0.0
173
     0
291
     1
 45
0.0
1001
ACAD
1000
AcDbSavedByObjectVersion
1070
     0
  0
VISUALSTYLE
  5
2BF
102
{ACAD_REACTORS
330
2B5
102
}
330
2B5
100
AcDbVisualStyle
  2
Realistic
 70
     8
 71
     2
 72
     2
 73
     0
 90
        0
 40
-0.6
 41
-30.0
 62
     5
 63
     7
 74
     1
 91
        0
 64
     7
 65
   257
 75
     1
175
     1
 42
1.0
 92
        8
 66
     8
 43
1.0
 76
     1
 77
     6
 78
     2
 67
     7
 79
     5
170
     0
171
     0
290
     0
174
     0
 93
       13
 44
0.0
173
     0
291
     0
 45
0.0
1001
ACAD
1000
AcDbSavedByObjectVersion
1070
     0
  0
VISUALSTYLE
  5
2C2
102
{ACAD_REACTORS
330
2B5
102
}
330
2B5
100
AcDbVisualStyle
  2
Thicken
 70
    13
 71
     2
 72
     2
 73
     0
 90
        0
 40
-0.6
 41
-30.0
 62
     5
 63
     7
 74
     1
 91
        4
 64
     7
 65
   257
 75
     1
175
     1
 42
1.0
 92
       12
 66
     7
 43
1.0
 76
     1
 77
     6
 78
     2
 67
     7
 79
     5
170
     0
171
     0
290
     0
174
     0
 93
        1
 44
0.0
173
     0
291
     1
 45
0.0
1001
ACAD
1000
AcDbSavedByObjectVersion
1070
     0
  0
DICTIONARYVAR
  5
449
102
{ACAD_REACTORS
330
163
102
}
330
163
100
DictionaryVariables
280
     0
  1
STANDARD
  0
DICTIONARYVAR
  5
164
102
{ACAD_REACTORS
330
163
102
}
330
163
100
DictionaryVariables
280
     0
  1
1
  0
DICTIONARYVAR
  5
478
102
{ACAD_REACTORS
330
163
102
}
330
163
100
DictionaryVariables
280
     0
  1
0
  0
DICTIONARYVAR
  5
477
102
{ACAD_REACTORS
330
163
102
}
330
163
100
DictionaryVariables
280
     0
  1
127
  0
XRECORD
  5
448
102
{ACAD_REACTORS
330
446
102
}
330
446
100
AcDbXrecord
280
     1
  0
DICTIONARY
  5
47C
330
FF
100
AcDbDictionary
280
     1
281
     1
  3
ACAD_XREC_ROUNDTRIP
360
47D
  0
DICTIONARY
  5
47A
330
FE
100
AcDbDictionary
280
     1
281
     1
  3
ACAD_XREC_ROUNDTRIP
360
47B
  0
DICTIONARY
  5
480
330
2B3
100
AcDbDictionary
280
     1
281
     1
  3
ACAD_XREC_ROUNDTRIP
360
481
  0
DICTIONARY
  5
47E
330
2B2
100
AcDbDictionary
280
     1
281
     1
  3
ACAD_XREC_ROUNDTRIP
360
47F
  0
DICTIONARY
  5
482
330
2B4
100
AcDbDictionary
280
     1
281
     1
  3
ACAD_XREC_ROUNDTRIP
360
483
  0
DICTIONARY
  5
484
330
2C8
100
AcDbDictionary
280
     1
281
     1
  3
ACAD_XREC_ROUNDTRIP
360
485
  0
XRECORD
  5
47D
102
{ACAD_REACTORS
330
47C
102
}
330
47C
100
AcDbXrecord
280
     1
102
SHADEPLOT
 70
     0
102
SHADEPLOTRESLEVEL
 70
     2
102
SHADEPLOTCUSTOMDPI
 70
   300
  0
XRECORD
  5
47B
102
{ACAD_REACTORS
330
47A
102
}
330
47A
100
AcDbXrecord
280
     1
102
SHADEPLOT
 70
     0
102
SHADEPLOTRESLEVEL
 70
     2
102
SHADEPLOTCUSTOMDPI
 70
   300
  0
XRECORD
  5
481
102
{ACAD_REACTORS
330
480
102
}
330
480
100
AcDbXrecord
280
     1
102
MATERIAL
148
0.0
149
0.0
149
0.0
 93
        0
 94
       63
282
     0
 72
     1
 77
     1
171
     1
175
     1
179
     1
273
     0
  0
XRECORD
  5
47F
102
{ACAD_REACTORS
330
47E
102
}
330
47E
100
AcDbXrecord
280
     1
102
MATERIAL
148
0.0
149
0.0
149
0.0
 93
        0
 94
       63
282
     0
 72
     1
 77
     1
171
     1
175
     1
179
     1
273
     0
  0
XRECORD
  5
483
102
{ACAD_REACTORS
330
482
102
}
330
482
100
AcDbXrecord
280
     1
102
MATERIAL
148
0.0
149
0.0
149
0.0
 93
        0
 94
       63
282
     0
 72
     1
 77
     1
171
     1
175
     1
179
     1
273
     0
  0
XRECORD
  5
485
102
{ACAD_REACTORS
330
484
102
}
330
484
100
AcDbXrecord
280
     1
102
ACAD_ROUNDTRIP_PRE2007_TABLESTYLE
 90
      512
 91
        0
  1

 92
      512
 93
        0
  2

 94
      512
 95
        0
  3

  0
ENDSEC
  0
EOF
