  0
SECTION
  2
HEADER
  9
$ACADVER
  1
AC1015
  9
$ACADMAINTVER
 70
    20
  9
$DWGCODEPAGE
  3
ANSI_1252
  9
$INSBASE
 10
-153.9426905475456
 20
96.54726272516214
 30
0.0
  9
$EXTMIN
 10
-192.86725421904
 20
92.70166612348733
 30
0.0
  9
$EXTMAX
 10
-102.8018194139133
 20
200.4521626437292
 30
0.0
  9
$LIMMIN
 10
0.0
 20
0.0
  9
$LIMMAX
 10
36.0
 20
36.0
  9
$ORTHOMODE
 70
     1
  9
$REGENMODE
 70
     1
  9
$FILLMODE
 70
     1
  9
$QTEXTMODE
 70
     0
  9
$MIRRTEXT
 70
     1
  9
$LTSCALE
 40
1.0
  9
$ATTMODE
 70
     1
  9
$TEXTSIZE
 40
0.2
  9
$TRACEWID
 40
0.05
  9
$TEXTSTYLE
  7
STANDARD
  9
$CLAYER
  8
ADPDIM
  9
$CELTYPE
  6
BYLAYER
  9
$CECOLOR
 62
   256
  9
$CELTSCALE
 40
1.0
  9
$DISPSILH
 70
     0
  9
$DIMSCALE
 40
1.0
  9
$DIMASZ
 40
0.125
  9
$DIMEXO
 40
0.0625
  9
$DIMDLI
 40
0.38
  9
$DIMRND
 40
0.0
  9
$DIMDLE
 40
0.0
  9
$DIMEXE
 40
0.18
  9
$DIMTP
 40
0.0
  9
$DIMTM
 40
0.0
  9
$DIMTXT
 40
0.125
  9
$DIMCEN
 40
0.1875
  9
$DIMTSZ
 40
0.125
  9
$DIMTOL
 70
     0
  9
$DIMLIM
 70
     0
  9
$DIMTIH
 70
     0
  9
$DIMTOH
 70
     0
  9
$DIMSE1
 70
     0
  9
$DIMSE2
 70
     0
  9
$DIMTAD
 70
     0
  9
$DIMZIN
 70
     3
  9
$DIMBLK
  1

  9
$DIMASO
 70
     1
  9
$DIMSHO
 70
     1
  9
$DIMPOST
  1

  9
$DIMAPOST
  1

  9
$DIMALT
 70
     0
  9
$DIMALTD
 70
     1
  9
$DIMALTF
 40
25.4
  9
$DIMLFAC
 40
1.0
  9
$DIMTOFL
 70
     0
  9
$DIMTVP
 40
0.0
  9
$DIMTIX
 70
     0
  9
$DIMSOXD
 70
     0
  9
$DIMSAH
 70
     0
  9
$DIMBLK1
  1

  9
$DIMBLK2
  1

  9
$DIMSTYLE
  2
STANDARD
  9
$DIMCLRD
 70
     0
  9
$DIMCLRE
 70
     0
  9
$DIMCLRT
 70
     0
  9
$DIMTFAC
 40
1.0
  9
$DIMGAP
 40
0.125
  9
$DIMJUST
 70
     0
  9
$DIMSD1
 70
     0
  9
$DIMSD2
 70
     0
  9
$DIMTOLJ
 70
     1
  9
$DIMTZIN
 70
     0
  9
$DIMALTZ
 70
     0
  9
$DIMALTTZ
 70
     0
  9
$DIMUPT
 70
     0
  9
$DIMDEC
 70
     4
  9
$DIMTDEC
 70
     4
  9
$DIMALTU
 70
     2
  9
$DIMALTTD
 70
     2
  9
$DIMTXSTY
  7
STANDARD
  9
$DIMAUNIT
 70
     0
  9
$DIMADEC
 70
     0
  9
$DIMALTRND
 40
0.0
  9
$DIMAZIN
 70
     0
  9
$DIMDSEP
 70
    46
  9
$DIMATFIT
 70
     3
  9
$DIMFRAC
 70
     0
  9
$DIMLDRBLK
  1

  9
$DIMLUNIT
 70
     2
  9
$DIMLWD
 70
    -2
  9
$DIMLWE
 70
    -2
  9
$DIMTMOVE
 70
     0
  9
$LUNITS
 70
     5
  9
$LUPREC
 70
     4
  9
$SKETCHINC
 40
0.1
  9
$FILLETRAD
 40
0.062
  9
$AUNITS
 70
     0
  9
$AUPREC
 70
     0
  9
$MENU
  1
acad
  9
$ELEVATION
 40
0.0
  9
$PELEVATION
 40
0.0
  9
$THICKNESS
 40
0.0
  9
$LIMCHECK
 70
     0
  9
$CHAMFERA
 40
0.0
  9
$CHAMFERB
 40
0.0
  9
$CHAMFERC
 40
0.0
  9
$CHAMFERD
 40
0.0
  9
$SKPOLY
 70
     0
  9
$TDCREATE
 40
2450407.607786065
  9
$TDUCREATE
 40
2450407.774452731
  9
$TDUPDATE
 40
2453954.900287674
  9
$TDUUPDATE
 40
2453955.066954340
  9
$TDINDWG
 40
0.0277542477
  9
$TDUSRTIMER
 40
0.0277542477
  9
$USRTIMER
 70
     1
  9
$ANGBASE
 50
0.0
  9
$ANGDIR
 70
     0
  9
$PDMODE
 70
     0
  9
$PDSIZE
 40
0.0
  9
$PLINEWID
 40
0.0
  9
$SPLFRAME
 70
     0
  9
$SPLINETYPE
 70
     6
  9
$SPLINESEGS
 70
     8
  9
$HANDSEED
  5
407
  9
$SURFTAB1
 70
     6
  9
$SURFTAB2
 70
     6
  9
$SURFTYPE
 70
     6
  9
$SURFU
 70
     6
  9
$SURFV
 70
     6
  9
$UCSBASE
  2

  9
$UCSNAME
  2

  9
$UCSORG
 10
0.0
 20
0.0
 30
0.0
  9
$UCSXDIR
 10
1.0
 20
0.0
 30
0.0
  9
$UCSYDIR
 10
0.0
 20
1.0
 30
0.0
  9
$UCSORTHOREF
  2

  9
$UCSORTHOVIEW
 70
     0
  9
$UCSORGTOP
 10
0.0
 20
0.0
 30
0.0
  9
$UCSORGBOTTOM
 10
0.0
 20
0.0
 30
0.0
  9
$UCSORGLEFT
 10
0.0
 20
0.0
 30
0.0
  9
$UCSORGRIGHT
 10
0.0
 20
0.0
 30
0.0
  9
$UCSORGFRONT
 10
0.0
 20
0.0
 30
0.0
  9
$UCSORGBACK
 10
0.0
 20
0.0
 30
0.0
  9
$PUCSBASE
  2

  9
$PUCSNAME
  2

  9
$PUCSORG
 10
0.0
 20
0.0
 30
0.0
  9
$PUCSXDIR
 10
1.0
 20
0.0
 30
0.0
  9
$PUCSYDIR
 10
0.0
 20
1.0
 30
0.0
  9
$PUCSORTHOREF
  2

  9
$PUCSORTHOVIEW
 70
     0
  9
$PUCSORGTOP
 10
0.0
 20
0.0
 30
0.0
  9
$PUCSORGBOTTOM
 10
0.0
 20
0.0
 30
0.0
  9
$PUCSORGLEFT
 10
0.0
 20
0.0
 30
0.0
  9
$PUCSORGRIGHT
 10
0.0
 20
0.0
 30
0.0
  9
$PUCSORGFRONT
 10
0.0
 20
0.0
 30
0.0
  9
$PUCSORGBACK
 10
0.0
 20
0.0
 30
0.0
  9
$USERI1
 70
     0
  9
$USERI2
 70
     0
  9
$USERI3
 70
     0
  9
$USERI4
 70
     0
  9
$USERI5
 70
     0
  9
$USERR1
 40
0.0
  9
$USERR2
 40
0.0
  9
$USERR3
 40
0.0
  9
$USERR4
 40
0.0
  9
$USERR5
 40
0.0
  9
$WORLDVIEW
 70
     1
  9
$SHADEDGE
 70
     3
  9
$SHADEDIF
 70
    70
  9
$TILEMODE
 70
     1
  9
$MAXACTVP
 70
    15
  9
$PINSBASE
 10
0.0008545038290322
 20
1.250283272183907
 30
0.0
  9
$PLIMCHECK
 70
     0
  9
$PEXTMIN
 10
1.000000000000000E+20
 20
1.000000000000000E+20
 30
1.000000000000000E+20
  9
$PEXTMAX
 10
-1.000000000000000E+20
 20
-1.000000000000000E+20
 30
-1.000000000000000E+20
  9
$PLIMMIN
 10
0.0
 20
0.0
  9
$PLIMMAX
 10
12.0
 20
9.0
  9
$UNITMODE
 70
     0
  9
$VISRETAIN
 70
     0
  9
$PLINEGEN
 70
     0
  9
$PSLTSCALE
 70
     1
  9
$TREEDEPTH
 70
  3020
  9
$CMLSTYLE
  2
STANDARD
  9
$CMLJUST
 70
     0
  9
$CMLSCALE
 40
1.0
  9
$PROXYGRAPHICS
 70
     1
  9
$MEASUREMENT
 70
     0
  9
$CELWEIGHT
370
    -1
  9
$ENDCAPS
280
     0
  9
$JOINSTYLE
280
     0
  9
$LWDISPLAY
290
     0
  9
$INSUNITS
 70
     0
  9
$HYPERLINKBASE
  1

  9
$STYLESHEET
  1

  9
$XEDIT
290
     1
  9
$CEPSNTYPE
380
     0
  9
$PSTYLEMODE
290
     1
  9
$FINGERPRINTGUID
  2
{BDAFBAF9-DE48-478D-8298-C117DEB4E00D}
  9
$VERSIONGUID
  2
{E2710049-885A-4951-8A91-0E0340ABD9CE}
  9
$EXTNAMES
290
     1
  9
$PSVPSCALE
 40
0.0
  9
$OLESTARTUP
290
     0
  0
ENDSEC
  0
SECTION
  2
CLASSES
  0
CLASS
  1
ACDBDICTIONARYWDFLT
  2
AcDbDictionaryWithDefault
  3
ObjectDBX Classes
 90
        0
280
     0
281
     0
  0
CLASS
  1
ACDBPLACEHOLDER
  2
AcDbPlaceHolder
  3
ObjectDBX Classes
 90
        0
280
     0
281
     0
  0
CLASS
  1
LAYOUT
  2
AcDbLayout
  3
ObjectDBX Classes
 90
        0
280
     0
281
     0
  0
CLASS
  1
DICTIONARYVAR
  2
AcDbDictionaryVar
  3
ObjectDBX Classes
 90
        0
280
     0
281
     0
  0
CLASS
  1
MATERIAL
  2
AcDbMaterial
  3
ObjectDBX Classes
 90
     1024
280
     0
281
     0
  0
CLASS
  1
VISUALSTYLE
  2
AcDbVisualStyle
  3
ObjectDBX Classes
 90
     4095
280
     0
281
     0
  0
CLASS
  1
TABLESTYLE
  2
AcDbTableStyle
  3
ObjectDBX Classes
 90
     4095
280
     0
281
     0
  0
ENDSEC
  0
SECTION
  2
TABLES
  0
TABLE
  2
VPORT
  5
8
330
0
100
AcDbSymbolTable
 70
     1
  0
VPORT
  5
2E5
330
8
100
AcDbSymbolTableRecord
100
AcDbViewportTableRecord
  2
*Active
 70
     0
 10
0.0
 20
0.0
 11
1.0
 21
1.0
 12
-153.034060991891
 22
111.0515678441183
 13
0.0
 23
0.0
 14
0.5740882589684922
 24
0.5740882589684922
 15
0.5
 25
0.5
 16
0.0
 26
0.0
 36
1.0
 17
0.0
 27
0.0
 37
0.0
 40
36.51572881755092
 41
1.774011299435028
 42
50.0
 43
0.0
 44
0.0
 50
0.0
 51
0.0
 71
     0
 72
   100
 73
     1
 74
     0
 75
     0
 76
     0
 77
     0
 78
     0
281
     0
 65
     1
110
0.0
120
0.0
130
0.0
111
1.0
121
0.0
131
0.0
112
0.0
122
1.0
132
0.0
 79
     0
146
0.0
  0
ENDTAB
  0
TABLE
  2
LTYPE
  5
5
330
0
100
AcDbSymbolTable
 70
     1
  0
LTYPE
  5
12
330
5
100
AcDbSymbolTableRecord
100
AcDbLinetypeTableRecord
  2
BYBLOCK
 70
     0
  3

 72
    65
 73
     0
 40
0.0
  0
LTYPE
  5
13
330
5
100
AcDbSymbolTableRecord
100
AcDbLinetypeTableRecord
  2
BYLAYER
 70
     0
  3

 72
    65
 73
     0
 40
0.0
  0
LTYPE
  5
14
330
5
100
AcDbSymbolTableRecord
100
AcDbLinetypeTableRecord
  2
CONTINUOUS
 70
     0
  3
Solid line
 72
    65
 73
     0
 40
0.0
  0
ENDTAB
  0
TABLE
  2
LAYER
  5
2
330
0
100
AcDbSymbolTable
 70
     4
  0
LAYER
  5
F
330
2
100
AcDbSymbolTableRecord
100
AcDbLayerTableRecord
  2
0
 70
     0
 62
     7
  6
CONTINUOUS
370
    -3
390
1C5
  0
LAYER
  5
F1
330
2
100
AcDbSymbolTableRecord
100
AcDbLayerTableRecord
  2
ADP1DETAIL
 70
     0
 62
     7
  6
CONTINUOUS
370
    -3
390
1C5
  0
LAYER
  5
F3
330
2
100
AcDbSymbolTableRecord
100
AcDbLayerTableRecord
  2
DEFPOINTS
 70
     0
 62
     7
  6
CONTINUOUS
290
     0
370
    -3
390
1C5
  0
LAYER
  5
F7
330
2
100
AcDbSymbolTableRecord
100
AcDbLayerTableRecord
  2
ADPDIM
 70
     0
 62
     3
  6
CONTINUOUS
370
    -3
390
1C5
  0
ENDTAB
  0
TABLE
  2
STYLE
  5
3
330
0
100
AcDbSymbolTable
 70
     2
  0
STYLE
  5
10
330
3
100
AcDbSymbolTableRecord
100
AcDbTextStyleTableRecord
  2
STANDARD
 70
     0
 40
0.0
 41
1.0
 50
0.0
 71
     0
 42
0.2
  3
txt
  4

  0
STYLE
  5
1CC
330
3
100
AcDbSymbolTableRecord
100
AcDbTextStyleTableRecord
  2
ARIAL_WIDE
 70
     0
 40
0.0
 41
1.25
 50
0.0
 71
     0
 42
0.2
  3
ARIAL.TTF
  4

1001
ACAD
1000
Arial
1071
       34
  0
ENDTAB
  0
TABLE
  2
VIEW
  5
6
330
0
100
AcDbSymbolTable
 70
     0
  0
ENDTAB
  0
TABLE
  2
UCS
  5
7
330
0
100
AcDbSymbolTable
 70
     0
  0
ENDTAB
  0
TABLE
  2
APPID
  5
9
330
0
100
AcDbSymbolTable
 70
     2
  0
APPID
  5
11
330
9
100
AcDbSymbolTableRecord
100
AcDbRegAppTableRecord
  2
ACAD
 70
     0
  0
APPID
  5
358
330
9
100
AcDbSymbolTableRecord
100
AcDbRegAppTableRecord
  2
DCO15
 70
     0
  0
ENDTAB
  0
TABLE
  2
DIMSTYLE
  5
A
330
0
100
AcDbSymbolTable
 70
     1
100
AcDbDimStyleTable
 71
     1
340
1C0
  0
DIMSTYLE
105
1C0
102
{ACAD_REACTORS
330
32C
330
386
102
}
330
A
100
AcDbSymbolTableRecord
100
AcDbDimStyleTableRecord
  2
STANDARD
 70
     0
340
10
  0
ENDTAB
  0
TABLE
  2
BLOCK_RECORD
  5
1
330
0
100
AcDbSymbolTable
 70
     8
  0
BLOCK_RECORD
  5
18
102
{ACAD_XDICTIONARY
360
221
102
}
330
1
100
AcDbSymbolTableRecord
100
AcDbBlockTableRecord
  2
*MODEL_SPACE
340
1C8
  0
BLOCK_RECORD
  5
15
102
{ACAD_XDICTIONARY
360
21F
102
}
330
1
100
AcDbSymbolTableRecord
100
AcDbBlockTableRecord
  2
*PAPER_SPACE
340
1C9
  0
BLOCK_RECORD
  5
A4
330
1
100
AcDbSymbolTableRecord
100
AcDbBlockTableRecord
  2
CLIP_ACF5F901
340
0
  0
BLOCK_RECORD
  5
C9
330
1
100
AcDbSymbolTableRecord
100
AcDbBlockTableRecord
  2
*D1
340
0
  0
BLOCK_RECORD
  5
EB
330
1
100
AcDbSymbolTableRecord
100
AcDbBlockTableRecord
  2
*D2
340
0
  0
BLOCK_RECORD
  5
EC
330
1
100
AcDbSymbolTableRecord
100
AcDbBlockTableRecord
  2
*D3
340
0
  0
BLOCK_RECORD
  5
ED
330
1
100
AcDbSymbolTableRecord
100
AcDbBlockTableRecord
  2
*D4
340
0
  0
BLOCK_RECORD
  5
32D
330
1
100
AcDbSymbolTableRecord
100
AcDbBlockTableRecord
  2
*D5
340
0
  0
BLOCK_RECORD
  5
387
330
1
100
AcDbSymbolTableRecord
100
AcDbBlockTableRecord
  2
*D7
340
0
  0
ENDTAB
  0
ENDSEC
  0
SECTION
  2
BLOCKS
  0
BLOCK
  5
FA
330
18
100
AcDbEntity
  8
0
100
AcDbBlockBegin
  2
*MODEL_SPACE
 70
     0
 10
0.0
 20
0.0
 30
0.0
  3
*MODEL_SPACE
  1

  0
ENDBLK
  5
FB
330
18
100
AcDbEntity
  8
0
100
AcDbBlockEnd
  0
BLOCK
  5
F8
330
15
100
AcDbEntity
 67
     1
  8
0
100
AcDbBlockBegin
  2
*PAPER_SPACE
 70
     0
 10
0.0
 20
0.0
 30
0.0
  3
*PAPER_SPACE
  1

  0
ENDBLK
  5
F9
330
15
100
AcDbEntity
 67
     1
  8
0
100
AcDbBlockEnd
  0
BLOCK
  5
FD
330
A4
100
AcDbEntity
  8
0
100
AcDbBlockBegin
  2
CLIP_ACF5F901
 70
     0
 10
0.0
 20
0.0
 30
0.0
  3
CLIP_ACF5F901
  1

  0
LWPOLYLINE
  5
FE
330
A4
100
AcDbEntity
  8
0
100
AcDbPolyline
 90
        9
 70
     0
 43
0.0
 10
4.364247391890472
 20
32.707527922547
 42
-0.0884649174015128
 10
5.268642239124867
 20
32.43133427820155
 42
-0.3360700864263771
 10
7.831094627060121
 20
28.06245333429569
 42
-0.1203126428462607
 10
6.122793163411739
 20
22.36282127682573
 10
5.017421469611166
 20
20.32903193626861
 42
0.290195230088576
 10
5.620351431921656
 20
17.82822422355009
 42
-0.3022178107017612
 10
6.448938749032659
 20
16.65291529733956
 42
-0.6141482532057272
 10
5.262706557755985
 20
16.18453355257191
 42
-0.9288975503756999
 10
5.728233683439168
 20
16.48240793891828
 42
1.286627195648272
  0
LWPOLYLINE
  5
109
330
A4
100
AcDbEntity
  8
0
100
AcDbPolyline
 90
        9
 70
     0
 43
0.0
 10
4.615468161404173
 20
25.2000830607022
 42
0.8609435531667827
 10
4.163270737786976
 20
24.59747879257726
 42
0.7112731432265496
 10
5.695717701268304
 20
25.32562563801642
 42
0.2176125043869944
 10
4.916933238790759
 20
26.63126813313438
 42
-0.0077830282206804
 10
4.213514853197179
 20
27.13343844239126
 10
2.304236542982618
 20
27.88669377754744
 42
-0.3635015673326009
 10
0.6210570408079981
 20
30.34732782948125
 42
-0.3463033506646132
 10
3.334241967436545
 20
32.63220232466681
 42
-0.0521230273588994
 10
3.886927814336832
 20
32.72240147521224
 42
-0.3360700864263771
  0
LWPOLYLINE
  5
114
330
A4
100
AcDbEntity
  8
0
100
AcDbPolyline
 90
        9
 70
     0
 43
0.0
 10
2.982532774639754
 20
11.5360312166045
 42
0.8609435531667827
 10
3.434730198256954
 20
12.13863548472945
 42
0.7112731432265496
 10
1.902283234775627
 20
11.41048863929028
 42
0.2176125043869944
 10
2.681067697253169
 20
10.10484614417233
 42
-0.0077830282206804
 10
3.384486082846748
 20
9.602675834915448
 10
5.293764393061309
 20
8.849420499759268
 42
-0.3635015673326009
 10
6.97694389523593
 20
6.388786447825456
 42
-0.3463033506646132
 10
4.263758968607383
 20
4.103911952639894
 42
-0.0077650978181605
 10
4.182719577553643
 20
4.083184909105195
 42
-0.3360700864263771
  0
LWPOLYLINE
  5
11F
330
A4
100
AcDbEntity
  8
0
100
AcDbPolyline
 90
       11
 70
     0
 43
0.0
 10
4.46473562271088
 20
20.56505191982936
 42
0.1179396996903355
 10
7.353775049506481
 20
26.46555202376459
 42
0.1591129373431583
 10
7.127676433929224
 20
30.29711085004722
 42
0.2224103578992207
 10
4.163270737786976
 20
32.43133427820155
 42
0.2033892906923938
 10
1.500329926568631
 20
31.4772108965801
 42
0.287343733096932
 10
1.048132502951434
 20
29.14211929323137
 42
0.2925175228557992
 10
2.831800235946462
 20
28.1628874218929
 42
0.3023813307083521
 10
4.062782314503886
 20
28.94125124676609
 42
0.4133712022681971
 10
3.761317429579982
 20
30.22178525216703
 42
0.3164920481539306
 10
2.681067889715851
 20
30.27200236033021
 42
0.7395200644827708
 10
2.882044543819348
 20
29.54385551489104
 42
-3.445041108214757
  0
LWPOLYLINE
  5
12C
330
A4
100
AcDbEntity
  8
0
100
AcDbPolyline
 90
       10
 70
     0
 43
0.0
 10
3.384486082846749
 20
29.54385551489104
 42
-0.884843337904997
 10
2.228870273635972
 20
29.99580871598475
 42
-0.428566135317509
 10
3.484974506129839
 20
30.69884694297776
 42
-0.7871657707386125
 10
3.309119813500102
 20
27.88669377754744
 42
-0.0759723801118792
 10
5.620351431921656
 20
26.43040008666911
 42
-0.727609090435095
 10
4.640590315340616
 20
24.12041710176653
 42
-0.2511537459608903
 10
3.836683698926628
 20
24.64769577201129
 42
-0.3279298485442392
 10
3.912049775810593
 20
25.2000830607022
 42
-0.7597550588713369
 10
4.891811084854316
 20
25.22519155041922
 42
-0.2845491336223437
 10
4.766200700097466
 20
24.74812985960849
 42
2.507695743683368
  0
LWPOLYLINE
  5
138
330
A4
100
AcDbEntity
  8
0
100
AcDbPolyline
 90
       11
 70
     0
 43
0.0
 10
3.133265313333048
 20
16.17106235747734
 42
0.1179396996903355
 10
0.2442258865374463
 20
10.27056225354212
 42
0.1591129373431583
 10
0.4703245021147034
 20
6.439003427259489
 42
0.2224103578992207
 10
3.434730198256954
 20
4.304779999105161
 42
0.2033892906923938
 10
6.097671009475295
 20
5.258903380726614
 42
0.287343733096932
 10
6.549868433092491
 20
7.593994984075344
 42
0.2925175228557992
 10
4.766200700097463
 20
8.57322685541381
 42
0.3023813307083521
 10
3.535218621540042
 20
7.794863030540614
 42
0.4133712022681971
 10
3.836683506463945
 20
6.514329025139677
 42
0.3164920481539306
 10
4.916933046328075
 20
6.464111916976502
 42
0.7395200644827708
 10
4.715956392224576
 20
7.192258762415669
 42
-3.445041108214757
  0
LWPOLYLINE
  5
145
330
A4
100
AcDbEntity
  8
0
100
AcDbPolyline
 90
        5
 70
     0
 43
0.0
 10
5.745961816678505
 20
16.39703902238877
 42
0.8138612470156301
 10
5.846450239961598
 20
16.3468219142256
 42
0.5096380972177942
 10
5.896694355371799
 20
17.15029435754495
 42
0.2566578164785957
 10
4.84156677698143
 20
17.35116240401022
 42
0.1464667664914435
 10
3.133265313333048
 20
16.19617084719436
 42
-0.4740671809985212
  0
LWPOLYLINE
  5
14C
330
A4
100
AcDbEntity
  8
0
100
AcDbPolyline
 90
        9
 70
     0
 43
0.0
 10
3.7054
 20
4.013391539013301
 42
-0.1328684550166869
 10
2.329358696919062
 20
4.304779999105161
 42
-0.3360700864263771
 10
-0.2330936910161903
 20
8.673660943011014
 42
-0.1203126428462607
 10
1.475207772632188
 20
14.37329300048097
 10
2.580579466432762
 20
16.40708234103809
 42
0.290195230088576
 10
1.977649504122272
 20
18.90789005375662
 42
-0.3608969450768683
 10
1.206085763666903
 20
20.06331967693926
 42
-0.765141546433203
 10
2.377673099983764
 20
20.37069515704508
 42
-1.495070120278001
 10
1.865103600577576
 20
20.31214752761123
 42
1.125233083992966
  0
LWPOLYLINE
  5
157
330
A4
100
AcDbEntity
  8
0
100
AcDbPolyline
 90
        2
 70
     0
 43
0.0
 10
2.153504004289327
 20
19.05854112078785
 42
-0.2907451822027459
 10
2.957410620703313
 20
16.52258159970299
 42
-0.7296350632113389
  0
LWPOLYLINE
  5
15B
330
A4
100
AcDbEntity
  8
0
100
AcDbPolyline
 90
        4
 70
     0
 43
0.0
 10
2.932288659229552
 20
16.52258159970299
 42
-0.1422080794038377
 10
5.419374777818156
 20
17.72779013595288
 42
-0.2555149937523287
 10
4.665712276814375
 20
20.21353267760371
 42
-0.2784712248354099
 10
2.153504004289327
 20
19.05854112078785
 42
-17.79907528534329
  0
LWPOLYLINE
  5
161
330
A4
100
AcDbEntity
  8
0
100
AcDbPolyline
 90
       10
 70
     0
 43
0.0
 10
4.213514853197178
 20
7.192258762415669
 42
-0.884843337904997
 10
5.369130662407954
 20
6.74030556132196
 42
-0.428566135317509
 10
4.113026429914089
 20
6.037267334328948
 42
-0.7871657707386125
 10
4.288881122543827
 20
8.849420499759268
 42
-0.0759723801118792
 10
1.977649504122272
 20
10.3057141906376
 42
-0.727609090435095
 10
2.957410620703313
 20
12.61569717554017
 42
-0.2511537459608903
 10
3.7613172371173
 20
12.08841850529542
 42
-0.3279298485442392
 10
3.685951160233337
 20
11.5360312166045
 42
-0.7597550588713369
 10
2.706189851189613
 20
11.51092272688749
 42
-0.2845491336223437
 10
2.831800235946463
 20
11.98798441769821
 42
2.507695743683368
  0
CIRCLE
  5
16D
330
A4
100
AcDbEntity
  8
0
100
AcDbCircle
 10
4.464735622710875
 20
7.116933293264619
 30
0.0
 40
0.2716353277933742
  0
LWPOLYLINE
  5
16E
330
A4
100
AcDbEntity
  8
0
100
AcDbPolyline
 90
        3
 70
     0
 43
0.0
 10
3.7054
 20
4.013391539013301
 10
3.7054
 20
0.0
 10
4.182719577553643
 20
0.0
  0
LWPOLYLINE
  5
173
330
A4
100
AcDbEntity
  8
0
100
AcDbPolyline
 90
        2
 70
     0
 43
0.0
 10
4.182719577553643
 20
0.0
 10
4.182719577553643
 20
4.083184909105195
  0
CIRCLE
  5
177
330
A4
100
AcDbEntity
  8
0
100
AcDbCircle
 10
2.907166505293108
 20
11.73689926306977
 30
0.0
 40
0.2486286930692951
  0
LWPOLYLINE
  5
178
330
A4
100
AcDbEntity
  8
0
100
AcDbPolyline
 90
        5
 70
     0
 43
0.0
 10
1.852039119365421
 20
20.33907525491793
 42
0.8138612470156301
 10
1.751550696082332
 20
20.3892923630811
 42
0.5096380972177942
 10
1.701306580672128
 20
19.58581991976175
 42
0.2566578164785957
 10
2.756434159062498
 20
19.38495187329648
 42
0.1464667664914435
 10
4.46473562271088
 20
20.53994343011234
 42
-0.4740671809985212
  0
CIRCLE
  5
17F
330
A4
100
AcDbEntity
  8
0
100
AcDbCircle
 10
3.133265313333049
 20
29.61918098404209
 30
0.0
 40
0.2716353277933742
  0
CIRCLE
  5
180
330
A4
100
AcDbEntity
  8
0
100
AcDbCircle
 10
4.690834430750819
 20
24.99921501423694
 30
0.0
 40
0.2486286930692951
  0
LWPOLYLINE
  5
181
330
A4
100
AcDbEntity
  8
0
100
AcDbPolyline
 90
        3
 70
     0
 43
0.0
 10
4.364247391890472
 20
32.707527922547
 10
4.364247391890472
 20
36.9056709046647
 10
3.886927814336832
 20
36.9056709046647
  0
LWPOLYLINE
  5
186
330
A4
100
AcDbEntity
  8
0
100
AcDbPolyline
 90
        2
 70
     0
 43
0.0
 10
3.886927814336832
 20
36.9056709046647
 10
3.886927814336832
 20
32.72240147521224
  0
ENDBLK
  5
18A
330
A4
100
AcDbEntity
  8
0
100
AcDbBlockEnd
  0
BLOCK
  5
18B
330
C9
100
AcDbEntity
  8
0
100
AcDbBlockBegin
  2
*D1
 70
     1
 10
0.0
 20
0.0
 30
0.0
  3
*D1
  1

  0
LINE
  5
18C
330
C9
100
AcDbEntity
  8
0
  6
ByBlock
 62
     0
100
AcDbLine
 10
-154.1813503363224
 20
96.48476272516214
 30
0.0
 11
-154.1813503363224
 21
95.55537127681596
 31
0.0
  0
LINE
  5
18D
330
C9
100
AcDbEntity
  8
0
  6
ByBlock
 62
     0
100
AcDbLine
 10
-153.7040307587688
 20
96.48476272516214
 30
0.0
 11
-153.7040307587688
 21
95.55537127681596
 31
0.0
  0
LINE
  5
18E
330
C9
100
AcDbEntity
  8
0
  6
ByBlock
 62
     0
100
AcDbLine
 10
-154.1813503363224
 20
95.73537127681596
 30
0.0
 11
-154.4313503363224
 21
95.73537127681596
 31
0.0
  0
LINE
  5
18F
330
C9
100
AcDbEntity
  8
0
  6
ByBlock
 62
     0
100
AcDbLine
 10
-153.7040307587688
 20
95.73537127681596
 30
0.0
 11
-153.4540307587688
 21
95.73537127681596
 31
0.0
  0
LINE
  5
190
330
C9
100
AcDbEntity
  8
0
  6
ByBlock
 62
     0
100
AcDbLine
 10
-154.3063503363224
 20
95.61037127681597
 30
0.0
 11
-154.0563503363224
 21
95.86037127681597
 31
0.0
  0
LINE
  5
191
330
C9
100
AcDbEntity
  8
0
  6
ByBlock
 62
     0
100
AcDbLine
 10
-153.8290307587688
 20
95.61037127681597
 30
0.0
 11
-153.5790307587688
 21
95.86037127681597
 31
0.0
  0
TEXT
  5
192
330
C9
100
AcDbEntity
  8
0
  6
ByBlock
 62
     0
100
AcDbText
 10
-153.3290307587688
 20
95.67287127681597
 30
0.0
 40
0.125
  1
.0.500
 72
     1
 11
-153.0894474254354
 21
95.73537127681596
 31
0.0
100
AcDbText
 73
     2
  0
POINT
  5
193
330
C9
100
AcDbEntity
  8
DEFPOINTS
  6
ByBlock
 62
     0
100
AcDbPoint
 10
-154.1813503363224
 20
96.54726272516214
 30
0.0
  0
POINT
  5
194
330
C9
100
AcDbEntity
  8
DEFPOINTS
  6
ByBlock
 62
     0
100
AcDbPoint
 10
-153.7040307587688
 20
96.54726272516214
 30
0.0
  0
POINT
  5
195
330
C9
100
AcDbEntity
  8
DEFPOINTS
  6
ByBlock
 62
     0
100
AcDbPoint
 10
-153.7040307587688
 20
95.73537127681596
 30
0.0
  0
ENDBLK
  5
196
330
C9
100
AcDbEntity
  8
0
100
AcDbBlockEnd
  0
BLOCK
  5
197
330
EB
100
AcDbEntity
  8
0
100
AcDbBlockBegin
  2
*D2
 70
     1
 10
0.0
 20
0.0
 30
0.0
  3
*D2
  1

  0
LINE
  5
198
330
EB
100
AcDbEntity
  8
0
  6
ByBlock
 62
     0
100
AcDbLine
 10
-153.6415307587688
 20
96.48476272516214
 30
0.0
 11
-149.6494988391818
 21
96.48476272516214
 31
0.0
  0
LINE
  5
199
330
EB
100
AcDbEntity
  8
0
  6
ByBlock
 62
     0
100
AcDbLine
 10
-153.6415307587688
 20
133.4847627251621
 30
0.0
 11
-149.6494988391818
 21
133.4847627251621
 31
0.0
  0
LINE
  5
19A
330
EB
100
AcDbEntity
  8
0
  6
ByBlock
 62
     0
100
AcDbLine
 10
-149.8294988391818
 20
96.48476272516214
 30
0.0
 11
-149.8294988391818
 21
114.7555960584954
 31
0.0
  0
LINE
  5
19B
330
EB
100
AcDbEntity
  8
0
  6
ByBlock
 62
     0
100
AcDbLine
 10
-149.8294988391818
 20
133.4847627251621
 30
0.0
 11
-149.8294988391818
 21
115.2139293918288
 31
0.0
  0
LINE
  5
19C
330
EB
100
AcDbEntity
  8
0
  6
ByBlock
 62
     0
100
AcDbLine
 10
-149.7044988391818
 20
96.35976272516215
 30
0.0
 11
-149.9544988391818
 21
96.60976272516215
 31
0.0
  0
LINE
  5
19D
330
EB
100
AcDbEntity
  8
0
  6
ByBlock
 62
     0
100
AcDbLine
 10
-149.7044988391818
 20
133.3597627251621
 30
0.0
 11
-149.9544988391818
 21
133.6097627251621
 31
0.0
  0
TEXT
  5
19E
330
EB
100
AcDbEntity
  8
0
  6
ByBlock
 62
     0
100
AcDbText
 10
-149.7669988391819
 20
114.8805960584954
 30
0.0
 40
0.125
  1
37
 50
90.0
 72
     1
 11
-149.8294988391818
 21
114.9847627251621
 31
0.0
100
AcDbText
 73
     2
  0
POINT
  5
19F
330
EB
100
AcDbEntity
  8
DEFPOINTS
  6
ByBlock
 62
     0
100
AcDbPoint
 10
-153.7040307587688
 20
96.48476272516214
 30
0.0
  0
POINT
  5
1A0
330
EB
100
AcDbEntity
  8
DEFPOINTS
  6
ByBlock
 62
     0
100
AcDbPoint
 10
-153.7040307587688
 20
133.4847627251621
 30
0.0
  0
POINT
  5
1A1
330
EB
100
AcDbEntity
  8
DEFPOINTS
  6
ByBlock
 62
     0
100
AcDbPoint
 10
-149.8294988391818
 20
133.4847627251621
 30
0.0
  0
ENDBLK
  5
1A2
330
EB
100
AcDbEntity
  8
0
100
AcDbBlockEnd
  0
BLOCK
  5
1A3
330
EC
100
AcDbEntity
  8
0
100
AcDbBlockBegin
  2
*D3
 70
     1
 10
0.0
 20
0.0
 30
0.0
  3
*D3
  1

  0
LINE
  5
1A4
330
EC
100
AcDbEntity
  8
0
  6
ByBlock
 62
     0
100
AcDbLine
 10
-158.1589752624736
 20
105.0264008195494
 30
0.0
 11
-158.1589752624736
 21
94.69085718593566
 31
0.0
  0
LINE
  5
1A5
330
EC
100
AcDbEntity
  8
0
  6
ByBlock
 62
     0
100
AcDbLine
 10
-150.8800756656659
 20
103.107728011837
 30
0.0
 11
-150.8800756656659
 21
94.69085718593566
 31
0.0
  0
LINE
  5
1A6
330
EC
100
AcDbEntity
  8
0
  6
ByBlock
 62
     0
100
AcDbLine
 10
-158.1589752624736
 20
94.87085718593567
 30
0.0
 11
-154.9153587974031
 21
94.87085718593567
 31
0.0
  0
LINE
  5
1A7
330
EC
100
AcDbEntity
  8
0
  6
ByBlock
 62
     0
100
AcDbLine
 10
-150.8800756656659
 20
94.87085718593567
 30
0.0
 11
-154.1236921307365
 21
94.87085718593567
 31
0.0
  0
LINE
  5
1A8
330
EC
100
AcDbEntity
  8
0
  6
ByBlock
 62
     0
100
AcDbLine
 10
-158.2839752624736
 20
94.74585718593568
 30
0.0
 11
-158.0339752624736
 21
94.99585718593568
 31
0.0
  0
LINE
  5
1A9
330
EC
100
AcDbEntity
  8
0
  6
ByBlock
 62
     0
100
AcDbLine
 10
-151.0050756656659
 20
94.74585718593568
 30
0.0
 11
-150.7550756656659
 21
94.99585718593568
 31
0.0
  0
TEXT
  5
1AA
330
EC
100
AcDbEntity
  8
0
  6
ByBlock
 62
     0
100
AcDbText
 10
-154.7903587974031
 20
94.80835718593567
 30
0.0
 40
0.125
  1
7 1/4
 72
     1
 11
-154.5195254640698
 21
94.87085718593567
 31
0.0
100
AcDbText
 73
     2
  0
POINT
  5
1AB
330
EC
100
AcDbEntity
  8
DEFPOINTS
  6
ByBlock
 62
     0
100
AcDbPoint
 10
-158.1589752624736
 20
105.0889008195494
 30
0.0
  0
POINT
  5
1AC
330
EC
100
AcDbEntity
  8
DEFPOINTS
  6
ByBlock
 62
     0
100
AcDbPoint
 10
-150.8800756656659
 20
103.170228011837
 30
0.0
  0
POINT
  5
1AD
330
EC
100
AcDbEntity
  8
DEFPOINTS
  6
ByBlock
 62
     0
100
AcDbPoint
 10
-150.8800756656659
 20
94.87085718593567
 30
0.0
  0
ENDBLK
  5
1AE
330
EC
100
AcDbEntity
  8
0
100
AcDbBlockEnd
  0
BLOCK
  5
1AF
330
ED
100
AcDbEntity
  8
0
100
AcDbBlockBegin
  2
*D4
 70
     1
 10
0.0
 20
0.0
 30
0.0
  3
*D4
  1

  0
LINE
  5
1B0
330
ED
100
AcDbEntity
  8
0
  6
ByBlock
 62
     0
100
AcDbLine
 10
-154.2438503363224
 20
100.5606542641754
 30
0.0
 11
-158.7912267303422
 21
100.5606542641754
 31
0.0
  0
LINE
  5
1B1
330
ED
100
AcDbEntity
  8
0
  6
ByBlock
 62
     0
100
AcDbLine
 10
-154.2438503363224
 20
129.1856542641754
 30
0.0
 11
-158.7912267303422
 21
129.1856542641754
 31
0.0
  0
LINE
  5
1B2
330
ED
100
AcDbEntity
  8
0
  6
ByBlock
 62
     0
100
AcDbLine
 10
-158.6112267303422
 20
100.5606542641754
 30
0.0
 11
-158.6112267303422
 21
114.3939875975088
 31
0.0
  0
LINE
  5
1B3
330
ED
100
AcDbEntity
  8
0
  6
ByBlock
 62
     0
100
AcDbLine
 10
-158.6112267303422
 20
129.1856542641754
 30
0.0
 11
-158.6112267303422
 21
115.3523209308421
 31
0.0
  0
LINE
  5
1B4
330
ED
100
AcDbEntity
  8
0
  6
ByBlock
 62
     0
100
AcDbLine
 10
-158.4862267303422
 20
100.4356542641754
 30
0.0
 11
-158.7362267303422
 21
100.6856542641754
 31
0.0
  0
LINE
  5
1B5
330
ED
100
AcDbEntity
  8
0
  6
ByBlock
 62
     0
100
AcDbLine
 10
-158.4862267303422
 20
129.0606542641754
 30
0.0
 11
-158.7362267303422
 21
129.3106542641754
 31
0.0
  0
TEXT
  5
1B6
330
ED
100
AcDbEntity
  8
0
  6
ByBlock
 62
     0
100
AcDbText
 10
-158.5487267303422
 20
114.5189875975088
 30
0.0
 40
0.125
  1
28 5/8
 50
90.0
 72
     1
 11
-158.6112267303422
 21
114.8731542641754
 31
0.0
100
AcDbText
 73
     2
  0
POINT
  5
1B7
330
ED
100
AcDbEntity
  8
DEFPOINTS
  6
ByBlock
 62
     0
100
AcDbPoint
 10
-154.1813503363224
 20
100.5606542641754
 30
0.0
  0
POINT
  5
1B8
330
ED
100
AcDbEntity
  8
DEFPOINTS
  6
ByBlock
 62
     0
100
AcDbPoint
 10
-154.1813503363224
 20
129.1856542641754
 30
0.0
  0
POINT
  5
1B9
330
ED
100
AcDbEntity
  8
DEFPOINTS
  6
ByBlock
 62
     0
100
AcDbPoint
 10
-158.6112267303422
 20
129.1856542641754
 30
0.0
  0
ENDBLK
  5
1BA
330
ED
100
AcDbEntity
  8
0
100
AcDbBlockEnd
  0
BLOCK
  5
338
330
32D
100
AcDbEntity
  8
0
 62
     3
100
AcDbBlockBegin
  2
*D5
 70
     1
 10
0.0
 20
0.0
 30
0.0
  3
*D5
  1

  0
LINE
  5
3D0
330
32D
100
AcDbEntity
  8
ADPDIM
 62
     0
370
    -2
100
AcDbLine
 10
-152.2387187742087
 20
112.3963840388539
 30
0.0
 11
-153.6034105056947
 21
112.3963840388539
 31
0.0
  0
LINE
  5
3D1
330
32D
100
AcDbEntity
  8
ADPDIM
 62
     0
370
    -2
100
AcDbLine
 10
-154.5938644603513
 20
108.8963840388539
 30
0.0
 11
-153.2434105056947
 21
108.8963840388539
 31
0.0
  0
LINE
  5
3D2
330
32D
100
AcDbEntity
  8
ADPDIM
 62
     0
370
    -2
100
AcDbLine
 10
-153.4234105056947
 20
112.3963840388539
 30
0.0
 11
-153.4234105056947
 21
111.0422173721872
 31
0.0
  0
LINE
  5
3D3
330
32D
100
AcDbEntity
  8
ADPDIM
 62
     0
370
    -2
100
AcDbLine
 10
-153.4234105056947
 20
108.8963840388539
 30
0.0
 11
-153.4234105056947
 21
110.2505507055206
 31
0.0
  0
LINE
  5
3D4
330
32D
100
AcDbEntity
  8
ADPDIM
 62
     0
370
    -2
100
AcDbLine
 10
-153.2984105056947
 20
108.7713840388539
 30
0.0
 11
-153.5484105056947
 21
109.0213840388539
 31
0.0
  0
LINE
  5
3D5
330
32D
100
AcDbEntity
  8
ADPDIM
 62
     0
370
    -2
100
AcDbLine
 10
-153.2984105056947
 20
112.2713840388539
 30
0.0
 11
-153.5484105056947
 21
112.5213840388539
 31
0.0
  0
MTEXT
  5
3D6
330
32D
100
AcDbEntity
  8
ADPDIM
 62
     0
100
AcDbMText
 10
-153.4234105056948
 20
110.6463840388539
 30
0.0
 40
0.125
 41
0.0
 71
     5
 72
     1
  1
\A1;3 1/2
 11
0.0000000000000001
 21
1.0
 31
0.0
 73
     1
 44
1.0
1001
ACAD
1000
MTEXTBEGIN
1070
    73
1070
     1
1070
    44
1040
1.0
1070
    74
1070
     0
1000
MTEXTEND
  0
POINT
  5
3D7
330
32D
100
AcDbEntity
  8
DEFPOINTS
 62
     0
100
AcDbPoint
 10
-152.1762187742087
 20
112.3963840388539
 30
0.0
  0
POINT
  5
3D8
330
32D
100
AcDbEntity
  8
DEFPOINTS
 62
     0
100
AcDbPoint
 10
-154.6563644603513
 20
108.8963840388539
 30
0.0
  0
POINT
  5
3D9
330
32D
100
AcDbEntity
  8
DEFPOINTS
 62
     0
100
AcDbPoint
 10
-153.4234105056947
 20
108.8963840388539
 30
0.0
  0
ENDBLK
  5
339
330
32D
100
AcDbEntity
  8
0
 62
     3
100
AcDbBlockEnd
  0
BLOCK
  5
392
330
387
100
AcDbEntity
  8
0
 62
     3
100
AcDbBlockBegin
  2
*D7
 70
     1
 10
0.0
 20
0.0
 30
0.0
  3
*D7
  1

  0
LINE
  5
3C6
330
387
100
AcDbEntity
  8
ADPDIM
 62
     0
370
    -2
100
AcDbLine
 10
-157.4620695149292
 20
121.4912103796621
 30
0.0
 11
-157.4620695149292
 21
118.8139448966614
 31
0.0
  0
LINE
  5
3C7
330
387
100
AcDbEntity
  8
ADPDIM
 62
     0
370
    -2
100
AcDbLine
 10
-154.0870695149292
 20
120.0838057308358
 30
0.0
 11
-154.0870695149292
 21
118.8139448966614
 31
0.0
  0
LINE
  5
3C8
330
387
100
AcDbEntity
  8
ADPDIM
 62
     0
370
    -2
100
AcDbLine
 10
-157.4620695149292
 20
118.9939448966614
 30
0.0
 11
-156.1912361815959
 21
118.9939448966614
 31
0.0
  0
LINE
  5
3C9
330
387
100
AcDbEntity
  8
ADPDIM
 62
     0
370
    -2
100
AcDbLine
 10
-154.0870695149292
 20
118.9939448966614
 30
0.0
 11
-155.3579028482626
 21
118.9939448966614
 31
0.0
  0
LINE
  5
3CA
330
387
100
AcDbEntity
  8
ADPDIM
 62
     0
370
    -2
100
AcDbLine
 10
-154.2120695149292
 20
118.8689448966614
 30
0.0
 11
-153.9620695149292
 21
119.1189448966614
 31
0.0
  0
LINE
  5
3CB
330
387
100
AcDbEntity
  8
ADPDIM
 62
     0
370
    -2
100
AcDbLine
 10
-157.5870695149292
 20
118.8689448966614
 30
0.0
 11
-157.3370695149292
 21
119.1189448966614
 31
0.0
  0
MTEXT
  5
3CC
330
387
100
AcDbEntity
  8
ADPDIM
 62
     0
100
AcDbMText
 10
-155.7745695149292
 20
118.9939448966614
 30
0.0
 40
0.125
 41
0.0
 71
     5
 72
     1
  1
\A1;3 3/8
 73
     1
 44
1.0
1001
ACAD
1000
MTEXTBEGIN
1070
    73
1070
     1
1070
    44
1040
1.0
1070
    74
1070
     0
1000
MTEXTEND
  0
POINT
  5
3CD
330
387
100
AcDbEntity
  8
DEFPOINTS
 62
     0
100
AcDbPoint
 10
-157.4620695149292
 20
121.5537103796621
 30
0.0
  0
POINT
  5
3CE
330
387
100
AcDbEntity
  8
DEFPOINTS
 62
     0
100
AcDbPoint
 10
-154.0870695149292
 20
120.1463057308358
 30
0.0
  0
POINT
  5
3CF
330
387
100
AcDbEntity
  8
DEFPOINTS
 62
     0
100
AcDbPoint
 10
-154.0870695149292
 20
118.9939448966614
 30
0.0
  0
ENDBLK
  5
393
330
387
100
AcDbEntity
  8
0
 62
     3
100
AcDbBlockEnd
  0
ENDSEC
  0
SECTION
  2
ENTITIES
  0
DIMENSION
  5
1BB
330
18
100
AcDbEntity
  8
ADPDIM
100
AcDbDimension
  2
*D4
 10
-158.6112267303422
 20
129.1856542641754
 30
0.0
 11
-158.6112267303422
 21
114.8731542641754
 31
0.0
 71
     5
 42
-1.0
100
AcDbAlignedDimension
 13
-154.1813503363224
 23
100.5606542641754
 33
0.0
 14
-154.1813503363224
 24
129.1856542641754
 34
0.0
 50
90.0
100
AcDbRotatedDimension
  0
DIMENSION
  5
1BC
330
18
100
AcDbEntity
  8
ADPDIM
100
AcDbDimension
  2
*D2
 10
-149.8294988391818
 20
133.4847627251621
 30
0.0
 11
-149.8294988391818
 21
114.9847627251621
 31
0.0
 71
     5
 42
-1.0
100
AcDbAlignedDimension
 13
-153.7040307587688
 23
96.48476272516214
 33
0.0
 14
-153.7040307587688
 24
133.4847627251621
 34
0.0
 50
90.0
100
AcDbRotatedDimension
  0
DIMENSION
  5
1BE
330
18
100
AcDbEntity
  8
ADPDIM
100
AcDbDimension
  2
*D3
 10
-150.8800756656659
 20
94.87085718593567
 30
0.0
 11
-154.5195254640698
 21
94.87085718593567
 31
0.0
 71
     5
 42
-1.0
100
AcDbAlignedDimension
 13
-158.1589752624736
 23
105.0889008195494
 33
0.0
 14
-150.8800756656659
 24
103.170228011837
 34
0.0
100
AcDbRotatedDimension
  0
DIMENSION
  5
1BF
330
18
100
AcDbEntity
  8
ADPDIM
100
AcDbDimension
  2
*D1
 10
-153.7040307587688
 20
95.73537127681596
 30
0.0
 11
-153.0894474254354
 21
95.73537127681596
 31
0.0
  1
.0.500
 71
     5
 42
-1.0
100
AcDbAlignedDimension
 13
-154.1813503363224
 23
96.54726272516214
 33
0.0
 14
-153.7040307587688
 24
96.54726272516214
 34
0.0
100
AcDbRotatedDimension
  0
TEXT
  5
1CD
330
18
100
AcDbEntity
  8
ADPDIM
100
AcDbText
 10
-192.86725421904
 20
92.92369886564285
 30
0.0
 40
0.75
  1
J U L I U S  B L U M  &  C O . ,  I N C .      ( 8 0 0 )  5 2 6 - 6 2 9 3        W W W . J U L I U S B L U M . C O M        P A R T  N o .  5 3 7
 41
1.25
  7
ARIAL_WIDE
 72
     1
 11
-154.2590089939376
 21
93.67369886564285
 31
0.0
100
AcDbText
 73
     3
  0
DIMENSION
  5
32C
330
18
100
AcDbEntity
  8
ADPDIM
 62
     3
100
AcDbDimension
  2
*D5
 10
-153.4234105056947
 20
108.8963840388539
 30
0.0
 11
-153.4234105056948
 21
110.6463840388539
 31
0.0
 70
   160
 71
     5
 42
3.5
  3
STANDARD
100
AcDbAlignedDimension
 13
-152.1762187742087
 23
112.3963840388539
 33
0.0
 14
-154.6563644603513
 24
108.8963840388539
 34
0.0
 50
90.0
100
AcDbRotatedDimension
1001
ACAD
1000
DSTYLE
1002
{
1070
   276
1070
     2
1070
   277
1070
     5
1070
    41
1040
0.125
1070
    73
1070
     0
1070
    74
1070
     0
1070
    78
1070
     3
1070
   140
1040
0.125
1070
   141
1040
0.1875
1070
   142
1040
0.125
1070
   147
1040
0.125
1070
   171
1070
     1
1002
}
  0
SPLINE
  5
35F
330
18
100
AcDbEntity
  8
ADP1DETAIL
 62
     7
100
AcDbSpline
210
0.0
220
0.0
230
1.0
 70
    11
 71
     3
 72
    29
 73
    25
 74
     0
 42
0.0000000001
 43
0.0000000001
 40
0.0
 40
0.0
 40
0.0
 40
0.0
 40
1.0
 40
1.0
 40
1.0
 40
2.0
 40
2.0
 40
2.0
 40
3.0
 40
3.0
 40
3.0
 40
4.0
 40
4.0
 40
4.0
 40
5.0
 40
5.0
 40
5.0
 40
6.0
 40
6.0
 40
6.0
 40
7.0
 40
7.0
 40
7.0
 40
8.0
 40
8.0
 40
8.0
 40
8.0
 10
-152.728767703832
 20
114.1187240448506
 30
0.0
 10
-152.728767703832
 20
114.1187240448506
 30
0.0
 10
-153.5195056831557
 20
114.1187240448506
 30
0.0
 10
-153.9987351018807
 20
113.8218787556733
 30
0.0
 10
-154.4779645206057
 20
113.525033466496
 30
0.0
 10
-154.8853000880944
 20
112.9313294046734
 30
0.0
 10
-154.8853000880944
 20
112.9313294046734
 30
0.0
 10
-154.8853000880944
 20
112.9313294046734
 30
0.0
 10
-154.7894595977366
 20
113.8488659168229
 30
0.0
 10
-154.9811540619201
 20
114.5505051397758
 30
0.0
 10
-155.1728485261036
 20
115.2521308792607
 30
0.0
 10
-155.460383480645
 20
115.4410410073076
 30
0.0
 10
-155.460383480645
 20
115.4410410073076
 30
0.0
 10
-155.460383480645
 20
115.4410410073076
 30
0.0
 10
-155.1728485261036
 20
115.3870734267425
 30
0.0
 10
-154.334190301601
 20
115.8458349410833
 30
0.0
 10
-153.4955320770983
 20
116.304596455424
 30
0.0
 10
-153.3278112189722
 20
116.68240322805
 30
0.0
 10
-153.3278112189722
 20
116.68240322805
 30
0.0
 10
-153.3278112189722
 20
116.68240322805
 30
0.0
 10
-153.4476118319194
 20
115.8728288439668
 30
0.0
 10
-153.2798774903252
 20
115.1441957181303
 30
0.0
 10
-153.112156632199
 20
114.4155693340279
 30
0.0
 10
-152.728767703832
 20
114.1187240448506
 30
0.0
 10
-152.728767703832
 20
114.1187240448506
 30
0.0
  0
SPLINE
  5
360
330
18
100
AcDbEntity
  8
ADP1DETAIL
 62
     7
100
AcDbSpline
210
0.0
220
0.0
230
1.0
 70
    11
 71
     3
 72
   347
 73
   343
 74
     0
 42
0.0000000001
 43
0.0000000001
 40
0.0
 40
0.0
 40
0.0
 40
0.0
 40
1.0
 40
1.0
 40
1.0
 40
2.0
 40
2.0
 40
2.0
 40
3.0
 40
3.0
 40
3.0
 40
4.0
 40
4.0
 40
4.0
 40
5.0
 40
5.0
 40
5.0
 40
6.0
 40
6.0
 40
6.0
 40
7.0
 40
7.0
 40
7.0
 40
8.0
 40
8.0
 40
8.0
 40
9.0
 40
9.0
 40
9.0
 40
10.0
 40
10.0
 40
10.0
 40
11.0
 40
11.0
 40
11.0
 40
12.0
 40
12.0
 40
12.0
 40
13.0
 40
13.0
 40
13.0
 40
14.0
 40
14.0
 40
14.0
 40
15.0
 40
15.0
 40
15.0
 40
16.0
 40
16.0
 40
16.0
 40
17.0
 40
17.0
 40
17.0
 40
18.0
 40
18.0
 40
18.0
 40
19.0
 40
19.0
 40
19.0
 40
20.0
 40
20.0
 40
20.0
 40
21.0
 40
21.0
 40
21.0
 40
22.0
 40
22.0
 40
22.0
 40
23.0
 40
23.0
 40
23.0
 40
24.0
 40
24.0
 40
24.0
 40
25.0
 40
25.0
 40
25.0
 40
26.0
 40
26.0
 40
26.0
 40
27.0
 40
27.0
 40
27.0
 40
28.0
 40
28.0
 40
28.0
 40
29.0
 40
29.0
 40
29.0
 40
30.0
 40
30.0
 40
30.0
 40
31.0
 40
31.0
 40
31.0
 40
32.0
 40
32.0
 40
32.0
 40
33.0
 40
33.0
 40
33.0
 40
34.0
 40
34.0
 40
34.0
 40
35.0
 40
35.0
 40
35.0
 40
36.0
 40
36.0
 40
36.0
 40
37.0
 40
37.0
 40
37.0
 40
38.0
 40
38.0
 40
38.0
 40
39.0
 40
39.0
 40
39.0
 40
40.0
 40
40.0
 40
40.0
 40
41.0
 40
41.0
 40
41.0
 40
42.0
 40
42.0
 40
42.0
 40
43.0
 40
43.0
 40
43.0
 40
44.0
 40
44.0
 40
44.0
 40
45.0
 40
45.0
 40
45.0
 40
46.0
 40
46.0
 40
46.0
 40
47.0
 40
47.0
 40
47.0
 40
48.0
 40
48.0
 40
48.0
 40
49.0
 40
49.0
 40
49.0
 40
50.0
 40
50.0
 40
50.0
 40
51.0
 40
51.0
 40
51.0
 40
52.0
 40
52.0
 40
52.0
 40
53.0
 40
53.0
 40
53.0
 40
54.0
 40
54.0
 40
54.0
 40
55.0
 40
55.0
 40
55.0
 40
56.0
 40
56.0
 40
56.0
 40
57.0
 40
57.0
 40
57.0
 40
58.0
 40
58.0
 40
58.0
 40
59.0
 40
59.0
 40
59.0
 40
60.0
 40
60.0
 40
60.0
 40
61.0
 40
61.0
 40
61.0
 40
62.0
 40
62.0
 40
62.0
 40
63.0
 40
63.0
 40
63.0
 40
64.0
 40
64.0
 40
64.0
 40
65.0
 40
65.0
 40
65.0
 40
66.0
 40
66.0
 40
66.0
 40
67.0
 40
67.0
 40
67.0
 40
68.0
 40
68.0
 40
68.0
 40
69.0
 40
69.0
 40
69.0
 40
70.0
 40
70.0
 40
70.0
 40
71.0
 40
71.0
 40
71.0
 40
72.0
 40
72.0
 40
72.0
 40
73.0
 40
73.0
 40
73.0
 40
74.0
 40
74.0
 40
74.0
 40
75.0
 40
75.0
 40
75.0
 40
76.0
 40
76.0
 40
76.0
 40
77.0
 40
77.0
 40
77.0
 40
78.0
 40
78.0
 40
78.0
 40
79.0
 40
79.0
 40
79.0
 40
80.0
 40
80.0
 40
80.0
 40
81.0
 40
81.0
 40
81.0
 40
82.0
 40
82.0
 40
82.0
 40
83.0
 40
83.0
 40
83.0
 40
84.0
 40
84.0
 40
84.0
 40
85.0
 40
85.0
 40
85.0
 40
86.0
 40
86.0
 40
86.0
 40
87.0
 40
87.0
 40
87.0
 40
88.0
 40
88.0
 40
88.0
 40
89.0
 40
89.0
 40
89.0
 40
90.0
 40
90.0
 40
90.0
 40
91.0
 40
91.0
 40
91.0
 40
92.0
 40
92.0
 40
92.0
 40
93.0
 40
93.0
 40
93.0
 40
94.0
 40
94.0
 40
94.0
 40
95.0
 40
95.0
 40
95.0
 40
96.0
 40
96.0
 40
96.0
 40
97.0
 40
97.0
 40
97.0
 40
98.0
 40
98.0
 40
98.0
 40
99.0
 40
99.0
 40
99.0
 40
100.0
 40
100.0
 40
100.0
 40
101.0
 40
101.0
 40
101.0
 40
102.0
 40
102.0
 40
102.0
 40
103.0
 40
103.0
 40
103.0
 40
104.0
 40
104.0
 40
104.0
 40
105.0
 40
105.0
 40
105.0
 40
106.0
 40
106.0
 40
106.0
 40
107.0
 40
107.0
 40
107.0
 40
108.0
 40
108.0
 40
108.0
 40
109.0
 40
109.0
 40
109.0
 40
110.0
 40
110.0
 40
110.0
 40
111.0
 40
111.0
 40
111.0
 40
112.0
 40
112.0
 40
112.0
 40
113.0
 40
113.0
 40
113.0
 40
114.0
 40
114.0
 40
114.0
 40
114.0
 10
-151.7942689889714
 20
119.3270371529642
 30
0.0
 10
-151.6025745247878
 20
119.7318378284737
 30
0.0
 10
-150.6201555647484
 20
121.7827676915653
 30
0.0
 10
-150.5003414683332
 20
124.1575569719197
 30
0.0
 10
-150.380540855386
 20
126.5323260270721
 30
0.0
 10
-151.0993849834734
 20
128.2864038592524
 30
0.0
 10
-153.591386050924
 20
129.1229856296871
 30
0.0
 10
-153.591386050924
 20
129.1229856296871
 30
0.0
 10
-153.591386050924
 20
133.2788466451054
 30
0.0
 10
-153.591386050924
 20
133.2788466451054
 30
0.0
 10
-153.591386050924
 20
133.2788466451054
 30
0.0
 10
-154.0226952244701
 20
133.2788466451054
 30
0.0
 10
-154.0226952244701
 20
133.2788466451054
 30
0.0
 10
-154.0226952244701
 20
133.2788466451054
 30
0.0
 10
-154.0226952244701
 20
129.3148890876243
 30
0.0
 10
-154.0226952244701
 20
129.3148890876243
 30
0.0
 10
-154.0139983876271
 20
129.2459481158743
 30
0.0
 10
-154.0519004161014
 20
129.125102534159
 30
0.0
 10
-154.334190301601
 20
129.069018049122
 30
0.0
 10
-154.7415393525576
 20
128.9880498239393
 30
0.0
 10
-156.2213027705448
 20
128.6563565117836
 30
0.0
 10
-157.0644509898828
 20
126.9881144367246
 30
0.0
 10
-157.6962188817954
 20
125.7381025712771
 30
0.0
 10
-157.3113063215473
 20
124.1739730941778
 30
0.0
 10
-156.8272228543516
 20
123.601478527478
 30
0.0
 10
-156.7082042825469
 20
123.4607246052995
 30
0.0
 10
-156.430175172927
 20
123.285453005108
 30
0.0
 10
-156.101245971706
 20
123.1097769008772
 30
0.0
 10
-155.5807503992472
 20
122.7468154264904
 30
0.0
 10
-155.4583205100451
 20
121.9781566259737
 30
0.0
 10
-155.6512621950163
 20
121.4586048962731
 30
0.0
 10
-155.8640178361749
 20
120.8854159309726
 30
0.0
 10
-156.6359328942072
 20
120.8730852995105
 30
0.0
 10
-156.8741453229006
 20
121.0028906456944
 30
0.0
 10
-157.1977215873359
 20
121.1792072146539
 30
0.0
 10
-157.2961913539486
 20
121.476119921171
 30
0.0
 10
-157.1396887411766
 20
121.7164222874002
 30
0.0
 10
-157.0168813148712
 20
121.9048942027381
 30
0.0
 10
-156.7226046263429
 20
121.7639649954758
 30
0.0
 10
-156.7226046263429
 20
121.7639649954758
 30
0.0
 10
-156.8807926726116
 20
121.6389462804227
 30
0.0
 10
-156.8130247625752
 20
121.4838863987239
 30
0.0
 10
-156.7250451340462
 20
121.3776164458884
 30
0.0
 10
-156.6370520220491
 20
121.2713195261169
 30
0.0
 10
-156.402399228901
 20
121.3259680218148
 30
0.0
 10
-156.3412786685757
 20
121.4724928682861
 30
0.0
 10
-156.2800637239746
 20
121.6190177147574
 30
0.0
 10
-156.3502721417142
 20
121.8947816017577
 30
0.0
 10
-156.5569332553488
 20
122.0340388589911
 30
0.0
 10
-156.7635134681754
 20
122.1732826327566
 30
0.0
 10
-157.1104835495453
 20
122.2725344405118
 30
0.0
 10
-157.3564624557915
 20
121.8312609841331
 30
0.0
 10
-157.6773285431641
 20
121.255813537947
 30
0.0
 10
-157.2784066596911
 20
120.8591164266897
 30
0.0
 10
-156.8242564913974
 20
120.6782761542251
 30
0.0
 10
-156.3702950916554
 20
120.4974898156323
 30
0.0
 10
-155.5119914543148
 20
120.6944563157936
 30
0.0
 10
-155.3527786644802
 20
121.5391349087466
 30
0.0
 10
-155.2193327819434
 20
122.247199004189
 30
0.0
 10
-155.402236025008
 20
122.6858971181847
 30
0.0
 10
-155.4525563274863
 20
122.7888973300366
 30
0.0
 10
-154.8714930168891
 20
122.5188639169253
 30
0.0
 10
-154.335215045167
 20
122.3061419844365
 30
0.0
 10
-154.335215045167
 20
122.3061419844365
 30
0.0
 10
-154.335215045167
 20
122.3061419844365
 30
0.0
 10
-152.5529837318574
 20
121.5640388740943
 30
0.0
 10
-152.4172726267011
 20
120.5790445716718
 30
0.0
 10
-152.2810761166977
 20
119.5909490716154
 30
0.0
 10
-153.0628610732868
 20
119.5159135723412
 30
0.0
 10
-153.3278112189722
 20
119.5159135723412
 30
0.0
 10
-153.5887702581372
 20
119.5159135723412
 30
0.0
 10
-153.8469112524956
 20
119.7406357913266
 30
0.0
 10
-153.8469112524956
 20
119.9448766224599
 30
0.0
 10
-153.8469112524956
 20
120.2147347504876
 30
0.0
 10
-153.6872265412819
 20
120.4171216047744
 30
0.0
 10
-153.3996915867405
 20
120.3361668630597
 30
0.0
 10
-153.3996915867405
 20
120.3361668630597
 30
0.0
 10
-153.6632664186924
 20
120.0932958961816
 30
0.0
 10
-153.4715719545088
 20
119.9583600904336
 30
0.0
 10
-153.2798774903252
 20
119.8234310264198
 30
0.0
 10
-153.112156632199
 20
119.9043857681345
 30
0.0
 10
-153.112156632199
 20
120.1472634767467
 30
0.0
 10
-153.112156632199
 20
120.3901411853588
 30
0.0
 10
-153.3038510963827
 20
120.7949418608684
 30
0.0
 10
-153.639306296103
 20
120.6599993133866
 30
0.0
 10
-153.9747614958232
 20
120.5250769911067
 30
0.0
 10
-154.2143896886537
 20
120.2175595370281
 30
0.0
 10
-154.0226952244701
 20
119.7857717003689
 30
0.0
 10
-153.8310007602865
 20
119.3540040889118
 30
0.0
 10
-153.1963878566314
 20
119.1471811736616
 30
0.0
 10
-152.7048075812425
 20
119.461945991776
 30
0.0
 10
-152.1216745583113
 20
119.8352695113008
 30
0.0
 10
-151.8990085681919
 20
120.8329315318846
 30
0.0
 10
-152.6089670908846
 20
121.6584905672507
 30
0.0
 10
-153.223907614766
 20
122.3736132581774
 30
0.0
 10
-154.7904978247705
 20
122.8998460462591
 30
0.0
 10
-154.9821788054861
 20
122.8998460462591
 30
0.0
 10
-154.9821788054861
 20
122.8998460462591
 30
0.0
 10
-153.9518261167997
 20
123.5862287251996
 30
0.0
 10
-153.9518261167997
 20
124.449777431582
 30
0.0
 10
-153.9518261167997
 20
125.3133396214323
 30
0.0
 10
-154.4790027476397
 20
125.7603772603698
 30
0.0
 10
-154.9582321663646
 20
125.8143448409349
 30
0.0
 10
-155.4374548433557
 20
125.8683056797661
 30
0.0
 10
-156.0135629794724
 20
125.5443316530255
 30
0.0
 10
-155.94064438467
 20
124.869821167636
 30
0.0
 10
-155.8846745091108
 20
124.3526088196287
 30
0.0
 10
-155.5332953337135
 20
124.2761373310153
 30
0.0
 10
-155.293680624351
 20
124.3031244921649
 30
0.0
 10
-155.0540726567224
 20
124.3301049115805
 30
0.0
 10
-154.8863383151283
 20
124.5459954590431
 30
0.0
 10
-154.8863383151283
 20
124.7079184259404
 30
0.0
 10
-154.8863383151283
 20
124.869821167636
 30
0.0
 10
-155.0780192958439
 20
125.0317441345334
 30
0.0
 10
-155.1978401339931
 20
124.9777832957022
 30
0.0
 10
-155.3176407469404
 20
124.923808973403
 30
0.0
 10
-155.4374548433557
 20
124.8158603288047
 30
0.0
 10
-155.3416008695299
 20
124.6269502007578
 30
0.0
 10
-155.3416008695299
 20
124.6269502007578
 30
0.0
 10
-155.6611590605091
 20
124.6404538939335
 30
0.0
 10
-155.7010296753076
 20
124.869821167636
 30
0.0
 10
-155.7519432503767
 20
125.1623584887956
 30
0.0
 10
-155.4853750885345
 20
125.5400034598059
 30
0.0
 10
-155.1259395410228
 20
125.5444799711733
 30
0.0
 10
-154.861259064697
 20
125.5478103877628
 30
0.0
 10
-154.1674807035728
 20
125.1666799402812
 30
0.0
 10
-154.1914543096303
 20
124.5459954590431
 30
0.0
 10
-154.2154279156877
 20
123.9253177195389
 30
0.0
 10
-154.6462382009187
 20
123.2506656577355
 30
0.0
 10
-155.4134947207661
 20
123.2506656577355
 30
0.0
 10
-156.2843851754602
 20
123.2506656577355
 30
0.0
 10
-157.1147578088931
 20
124.1197358442532
 30
0.0
 10
-157.1147578088931
 20
125.5464890079013
 30
0.0
 10
-157.1147578088931
 20
126.7608438422921
 30
0.0
 10
-155.9156527767806
 20
128.7181984376455
 30
0.0
 10
-153.9508013732338
 20
128.8261470822438
 30
0.0
 10
-153.9508013732338
 20
128.8261470822438
 30
0.0
 10
-151.2351095720978
 20
128.6956877878633
 30
0.0
 10
-150.7798402759622
 20
125.1605045119492
 30
0.0
 10
-150.7798402759622
 20
125.1605045119492
 30
0.0
 10
-150.5482751969801
 20
122.6733103008312
 30
0.0
 10
-152.0338836983339
 20
119.4889601198616
 30
0.0
 10
-152.0338836983339
 20
119.4889601198616
 30
0.0
 10
-153.7111866638713
 20
115.6029639742051
 30
0.0
 10
-155.4364233580557
 20
115.7648667159006
 30
0.0
 10
-155.4364233580557
 20
115.7648667159006
 30
0.0
 10
-156.0833871183747
 20
115.7378862964849
 30
0.0
 10
-156.1073472409642
 20
116.493499841737
 30
0.0
 10
-156.1073472409642
 20
116.493499841737
 30
0.0
 10
-156.1073472409642
 20
116.8983005172466
 30
0.0
 10
-155.8197988029549
 20
116.8443127114795
 30
0.0
 10
-155.8197988029549
 20
116.8443127114795
 30
0.0
 10
-155.9156527767806
 20
116.4665126805874
 30
0.0
 10
-155.6520779448287
 20
116.4395255194379
 30
0.0
 10
-155.3885031128768
 20
116.4125451000223
 30
0.0
 10
-155.3885031128768
 20
116.5744545834517
 30
0.0
 10
-155.3885031128768
 20
116.7093903891996
 30
0.0
 10
-155.3885031128768
 20
116.8443127114795
 30
0.0
 10
-155.4620689141418
 20
117.1279913941803
 30
0.0
 10
-155.6760380674181
 20
117.1681586452743
 30
0.0
 10
-155.987533144549
 20
117.2266094789408
 30
0.0
 10
-156.3948821955056
 20
116.9792485172273
 30
0.0
 10
-156.3948821955056
 20
116.5474674223021
 30
0.0
 10
-156.3948821955056
 20
116.115699810845
 30
0.0
 10
-156.203187731322
 20
115.7378862964849
 30
0.0
 10
-155.7718785577759
 20
115.4410410073076
 30
0.0
 10
-155.3405693842299
 20
115.1441957181303
 30
0.0
 10
-154.7894595977366
 20
113.4980395636124
 30
0.0
 10
-155.3885031128768
 20
112.1217482788562
 30
0.0
 10
-155.987533144549
 20
110.745463735834
 30
0.0
 10
-157.0418459558247
 20
108.6675332281249
 30
0.0
 10
-157.3293809103661
 20
107.0213905570749
 30
0.0
 10
-157.6169158649075
 20
105.375227660823
 30
0.0
 10
-157.6408759874969
 20
101.0304497756238
 30
0.0
 10
-154.2037781993584
 20
100.571715228219
 30
0.0
 10
-154.2037781993584
 20
100.571715228219
 30
0.0
 10
-154.2037781993584
 20
96.49679547104753
 30
0.0
 10
-154.2037781993584
 20
96.49679547104753
 30
0.0
 10
-154.2037781993584
 20
96.49679547104753
 30
0.0
 10
-153.7111866638713
 20
96.49679547104753
 30
0.0
 10
-153.7111866638713
 20
96.49679547104753
 30
0.0
 10
-153.7111866638713
 20
96.49679547104753
 30
0.0
 10
-153.7111866638713
 20
100.505835003699
 30
0.0
 10
-153.7111866638713
 20
100.5986821641666
 30
0.0
 10
-153.0497012085444
 20
100.5986821641666
 30
0.0
 10
-151.3302489221209
 20
101.4532373974104
 30
0.0
 10
-151.0673752305036
 20
103.4209607796356
 30
0.0
 10
-150.8737256634638
 20
104.8704807789576
 30
0.0
 10
-151.4971877391045
 20
105.569780620217
 30
0.0
 10
-152.1531584560302
 20
105.9146877309869
 30
0.0
 10
-152.4104769588423
 20
106.0917795993549
 30
0.0
 10
-153.0436201644882
 20
106.6396803204705
 30
0.0
 10
-152.6851756518726
 20
107.6046988650897
 30
0.0
 10
-152.4723391099061
 20
108.17795524773
 30
0.0
 10
-151.7005184361496
 20
108.190279137458
 30
0.0
 10
-151.4622116231805
 20
108.0603996322004
 30
0.0
 10
-151.138729743021
 20
107.8841572223147
 30
0.0
 10
-151.0401655921324
 20
107.4146426422649
 30
0.0
 10
-151.1967625891802
 20
107.1742998256318
 30
0.0
 10
-151.3195565320177
 20
106.98582116856
 30
0.0
 10
-151.6138332205459
 20
107.1267571175562
 30
0.0
 10
-151.6138332205459
 20
107.1267571175562
 30
0.0
 10
-151.4556586577452
 20
107.2517758326093
 30
0.0
 10
-151.5233321835058
 20
107.4068357143081
 30
0.0
 10
-151.6113118120349
 20
107.5130989254097
 30
0.0
 10
-151.6993858248398
 20
107.619463262521
 30
0.0
 10
-151.9339442337121
 20
107.5647473494833
 30
0.0
 10
-151.9951591783131
 20
107.4183303707557
 30
0.0
 10
-152.0563741229142
 20
107.2718055242844
 30
0.0
 10
-151.9861791886426
 20
106.9960348955502
 30
0.0
 10
-151.7795045915401
 20
106.8567911217847
 30
0.0
 10
-151.5728434779056
 20
106.7174327385414
 30
0.0
 10
-151.2259677808115
 20
106.6182416063921
 30
0.0
 10
-150.9799753910973
 20
107.0595015793029
 30
0.0
 10
-150.6591227871927
 20
107.6349490254889
 30
0.0
 10
-151.0580446706657
 20
108.2043019441508
 30
0.0
 10
-151.5121004546836
 20
108.3850815410096
 30
0.0
 10
-151.9661427552335
 20
108.5658611378684
 30
0.0
 10
-152.8243654917662
 20
108.3688474455692
 30
0.0
 10
-152.9835782816009
 20
107.5241553691481
 30
0.0
 10
-153.1372628495663
 20
106.7092010813434
 30
0.0
 10
-152.8482312300798
 20
106.1748579872755
 30
0.0
 10
-152.8482312300798
 20
106.1748579872755
 30
0.0
 10
-152.8482312300798
 20
106.1748579872755
 30
0.0
 10
-152.8370804020655
 20
106.1703208003023
 30
0.0
 10
-152.8370804020655
 20
106.1703208003023
 30
0.0
 10
-153.3282426899473
 20
106.3135084884501
 30
0.0
 10
-154.2647504415359
 20
106.5957646652798
 30
0.0
 10
-154.6456853787318
 20
106.9247410586387
 30
0.0
 10
-154.9130220982485
 20
107.1556184807541
 30
0.0
 10
-155.6520779448287
 20
108.0989556088715
 30
0.0
 10
-155.6760380674181
 20
108.9085502181566
 30
0.0
 10
-155.6990678307174
 20
109.688184561604
 30
0.0
 10
-155.2216991305728
 20
110.0014796817093
 30
0.0
 10
-155.029074307099
 20
110.0014796817093
 30
0.0
 10
-154.5702049250144
 20
110.0014796817093
 30
0.0
 10
-154.3821105467799
 20
109.6641502799407
 30
0.0
 10
-154.3821105467799
 20
109.4212860547965
 30
0.0
 10
-154.3821105467799
 20
109.1784083461843
 30
0.0
 10
-154.5738050109635
 20
109.1109438141774
 30
0.0
 10
-154.6936191073787
 20
109.137930975327
 30
0.0
 10
-154.6936191073787
 20
109.137930975327
 30
0.0
 10
-154.6217252561424
 20
109.2863502490487
 30
0.0
 10
-154.6217252561424
 20
109.394292151913
 30
0.0
 10
-154.6217252561424
 20
109.5022407965112
 30
0.0
 10
-154.7415393525576
 20
109.6101759576415
 30
0.0
 10
-154.8613399655049
 20
109.5831955382259
 30
0.0
 10
-154.9811540619201
 20
109.5562083770764
 30
0.0
 10
-155.1009546748674
 20
109.3673049907634
 30
0.0
 10
-155.0769945522779
 20
109.2323826684835
 30
0.0
 10
-155.0530344296885
 20
109.0974401210016
 30
0.0
 10
-154.9092736941517
 20
108.9625245404558
 30
0.0
 10
-154.7175792299682
 20
108.9355373793062
 30
0.0
 10
-154.3861421037041
 20
108.8889317722547
 30
0.0
 10
-154.2288574497897
 20
109.1115707954382
 30
0.0
 10
-154.2011489231034
 20
109.4051193766959
 30
0.0
 10
-154.1826226381075
 20
109.6014117034586
 30
0.0
 10
-154.1424958374174
 20
110.2848347611789
 30
0.0
 10
-154.8853000880944
 20
110.2848347611789
 30
0.0
 10
-155.6281178222393
 20
110.2848347611789
 30
0.0
 10
-156.0114932671384
 20
109.6371631187911
 30
0.0
 10
-155.9635730219595
 20
108.9625245404558
 30
0.0
 10
-155.9156527767806
 20
108.2878657369184
 30
0.0
 10
-155.5801840935924
 20
106.5739281888962
 30
0.0
 10
-153.3517713415615
 20
106.0072180299572
 30
0.0
 10
-153.3517713415615
 20
106.0072180299572
 30
0.0
 10
-154.7268423724662
 20
105.6552927741069
 30
0.0
 10
-154.4060706693693
 20
104.3087257944989
 30
0.0
 10
-154.1424958374174
 20
103.2022993795044
 30
0.0
 10
-153.2079971225569
 20
103.3911757988815
 30
0.0
 10
-153.2079971225569
 20
103.3911757988815
 30
0.0
 10
-153.2079971225569
 20
103.3911757988815
 30
0.0
 10
-152.5370732396484
 20
103.4856409755059
 30
0.0
 10
-152.5370732396484
 20
104.1872869401929
 30
0.0
 10
-152.5370732396484
 20
104.8889261631458
 30
0.0
 10
-152.9204621680155
 20
104.7674940505737
 30
0.0
 10
-153.112156632199
 20
104.7944744699892
 30
0.0
 10
-153.3038510963827
 20
104.8214616311388
 30
0.0
 10
-153.7111866638713
 20
104.6055710836762
 30
0.0
 10
-153.4476118319194
 20
104.2277710527842
 30
0.0
 10
-153.1840369999675
 20
103.8499642801582
 30
0.0
 10
-153.112156632199
 20
104.2547582139338
 30
0.0
 10
-153.112156632199
 20
104.3896737944796
 30
0.0
 10
-153.112156632199
 20
104.3896737944796
 30
0.0
 10
-152.8006480716002
 20
104.4436481167788
 30
0.0
 10
-152.8006480716002
 20
104.173789988751
 30
0.0
 10
-152.8006480716002
 20
103.9039251189894
 30
0.0
 10
-153.0881965096097
 20
103.6340669909616
 30
0.0
 10
-153.3278112189722
 20
103.6340669909616
 30
0.0
 10
-153.5674259283346
 20
103.6340669909616
 30
0.0
 10
-154.1424958374174
 20
103.7420156355599
 30
0.0
 10
-154.1904160825963
 20
104.6595386642413
 30
0.0
 10
-154.2228033726694
 20
105.2791646932436
 30
0.0
 10
-153.639306296103
 20
105.7913274824946
 30
0.0
 10
-153.0163026583733
 20
105.7913274824946
 30
0.0
 10
-153.0163026583733
 20
105.7913274824946
 30
0.0
 10
-151.3869199380148
 20
105.7373599019294
 30
0.0
 10
-151.3150395702464
 20
103.9562746833976
 30
0.0
 10
-151.243159202478
 20
102.1751962065998
 30
0.0
 10
-153.0617014950411
 20
100.8205795966115
 30
0.0
 10
-153.854960882876
 20
100.8685672591303
 30
0.0
 10
-154.6989855276323
 20
100.9196291523471
 30
0.0
 10
-156.6344969048681
 20
101.1653923231056
 30
0.0
 10
-157.0897662010036
 20
104.5116789544407
 30
0.0
 10
-157.0897662010036
 20
104.5116789544407
 30
0.0
 10
-157.4731551293708
 20
106.3827798051656
 30
0.0
 10
-156.5146962919208
 20
108.910410936737
 30
0.0
 10
-155.4623520669693
 20
111.6856524741794
 30
0.0
 10
-155.029074307099
 20
112.2297036651884
 30
0.0
 10
-154.7894595977366
 20
112.5535361155153
 30
0.0
 10
-154.549844888374
 20
112.8773618241082
 30
0.0
 10
-153.9028811280549
 20
114.0377693031359
 30
0.0
 10
-152.6329272134742
 20
113.7679111751081
 30
0.0
 10
-152.6329272134742
 20
113.7679111751081
 30
0.0
 10
-152.1377738190721
 20
113.556436463407
 30
0.0
 10
-152.0338836983339
 20
113.2821557578838
 30
0.0
 10
-151.9563807244205
 20
113.0774497471055
 30
0.0
 10
-152.0338836983339
 20
112.7154388572108
 30
0.0
 10
-152.4172726267011
 20
112.6614712766457
 30
0.0
 10
-152.4172726267011
 20
112.6614712766457
 30
0.0
 10
-152.3453787754647
 20
112.9853172104405
 30
0.0
 10
-152.5849934848273
 20
112.9853172104405
 30
0.0
 10
-152.8246081941897
 20
112.9853172104405
 30
0.0
 10
-152.8246081941897
 20
112.8631300236619
 30
0.0
 10
-152.8246081941897
 20
112.7424395018284
 30
0.0
 10
-152.8246081941897
 20
112.51304526119
 30
0.0
 10
-152.6568873360635
 20
112.3646259874684
 30
0.0
 10
-152.4172726267011
 20
112.3916131486179
 30
0.0
 10
-152.1776579173386
 20
112.4185935680335
 30
0.0
 10
-151.7703088663819
 20
112.6074969543465
 30
0.0
 10
-151.7703088663819
 20
112.9853172104405
 30
0.0
 10
-151.7703088663819
 20
113.3631104995986
 30
0.0
 10
-151.83413960377
 20
113.6464723208021
 30
0.0
 10
-152.3214186528752
 20
114.1457044642662
 30
0.0
 10
-152.4986992897949
 20
114.3273402613413
 30
0.0
 10
-152.8965020454261
 20
114.6044794620749
 30
0.0
 10
-153.0402627809627
 20
115.2251504598451
 30
0.0
 10
-153.1840369999675
 20
115.8458349410833
 30
0.0
 10
-153.0402627809627
 20
116.68240322805
 30
0.0
 10
-153.0402627809627
 20
116.68240322805
 30
0.0
 10
-153.0402627809627
 20
116.68240322805
 30
0.0
 10
-151.985963453155
 20
118.9222364774546
 30
0.0
 10
-151.7942689889714
 20
119.3270371529642
 30
0.0
  0
DIMENSION
  5
386
330
18
100
AcDbEntity
  8
ADPDIM
 62
     3
100
AcDbDimension
  2
*D7
 10
-154.0870695149292
 20
118.9939448966614
 30
0.0
 11
-155.7745695149292
 21
118.9939448966614
 31
0.0
 70
    32
 71
     5
 42
3.375
  3
STANDARD
100
AcDbAlignedDimension
 13
-157.4620695149292
 23
121.5537103796621
 33
0.0
 14
-154.0870695149292
 24
120.1463057308358
 34
0.0
100
AcDbRotatedDimension
1001
ACAD
1000
DSTYLE
1002
{
1070
   276
1070
     2
1070
   277
1070
     5
1070
    41
1040
0.125
1070
    73
1070
     0
1070
    74
1070
     0
1070
    78
1070
     3
1070
   140
1040
0.125
1070
   141
1040
0.1875
1070
   142
1040
0.125
1070
   147
1040
0.125
1070
   171
1070
     1
1002
}
  0
ENDSEC
  0
SECTION
  2
OBJECTS
  0
DICTIONARY
  5
C
330
0
100
AcDbDictionary
281
     1
  3
ACAD_COLOR
350
326
  3
ACAD_GROUP
350
D
  3
ACAD_LAYOUT
350
1C6
  3
ACAD_MATERIAL
350
311
  3
ACAD_MLINESTYLE
350
E
  3
ACAD_PLOTSETTINGS
350
1C7
  3
ACAD_PLOTSTYLENAME
350
1C4
  3
ACAD_TABLESTYLE
350
327
  3
ACAD_VISUALSTYLE
350
315
  3
AcDbVariableDictionary
350
227
  3
ASE_INDEX_DICTIONARY
350
3DB
  3
DWGPROPS
350
3FA
  0
DICTIONARY
  5
221
330
18
100
AcDbDictionary
280
     1
281
     1
  3
ACAD_LAYOUTSELFREF
360
30B
  0
DICTIONARY
  5
21F
330
15
100
AcDbDictionary
280
     1
281
     1
  3
ACAD_LAYOUTSELFREF
360
30A
  0
DICTIONARY
  5
326
102
{ACAD_REACTORS
330
C
102
}
330
C
100
AcDbDictionary
281
     1
  0
DICTIONARY
  5
D
102
{ACAD_REACTORS
330
C
102
}
330
C
100
AcDbDictionary
281
     1
  0
DICTIONARY
  5
1C6
102
{ACAD_REACTORS
330
C
102
}
330
C
100
AcDbDictionary
281
     1
  3
Layout1
350
1C9
  3
Model
350
1C8
  0
DICTIONARY
  5
311
102
{ACAD_REACTORS
330
C
102
}
330
C
100
AcDbDictionary
281
     1
  3
ByBlock
350
313
  3
ByLayer
350
312
  3
Global
350
314
  0
DICTIONARY
  5
E
102
{ACAD_REACTORS
330
C
102
}
330
C
100
AcDbDictionary
281
     1
  3
STANDARD
350
1B
  0
DICTIONARY
  5
1C7
102
{ACAD_REACTORS
330
C
102
}
330
C
100
AcDbDictionary
281
     1
  0
ACDBDICTIONARYWDFLT
  5
1C4
102
{ACAD_REACTORS
330
C
102
}
330
C
100
AcDbDictionary
281
     1
  3
Normal
350
1C5
100
AcDbDictionaryWithDefault
340
1C5
  0
DICTIONARY
  5
327
102
{ACAD_REACTORS
330
C
102
}
330
C
100
AcDbDictionary
281
     1
  3
Standard
350
328
  0
DICTIONARY
  5
315
102
{ACAD_REACTORS
330
C
102
}
330
C
100
AcDbDictionary
281
     1
  3
2dWireframe
350
31B
  3
3D Hidden
350
31D
  3
3dWireframe
350
31C
  3
Basic
350
31A
  3
Brighten
350
321
  3
ColorChange
350
325
  3
Conceptual
350
31E
  3
Dim
350
320
  3
Facepattern
350
324
  3
Flat
350
316
  3
FlatWithEdges
350
317
  3
Gouraud
350
318
  3
GouraudWithEdges
350
319
  3
Linepattern
350
323
  3
Realistic
350
31F
  3
Thicken
350
322
  0
DICTIONARY
  5
227
102
{ACAD_REACTORS
330
C
102
}
330
C
100
AcDbDictionary
281
     1
  3
CTABLESTYLE
350
3F7
  3
DIMASSOC
350
228
  3
INDEXCTL
350
3F9
  3
SORTENTS
350
3F8
  0
DICTIONARY
  5
3DB
102
{ACAD_REACTORS
330
C
102
}
330
C
100
AcDbDictionary
281
     1
  3
ASEBlockHierarchyIndexRecord
350
3DC
1001
DCO15
1040
1568305880.855
  0
XRECORD
  5
3FA
102
{ACAD_REACTORS
330
C
102
}
330
C
100
AcDbXrecord
280
     1
  1
DWGPROPS COOKIE
  2

  3

  4

  6

  7

  8
Yu Hu
  9

300
=
301
=
302
=
303
=
304
=
305
=
306
=
307
=
308
=
309
=
 40
0.0277542476851852
 41
2450407.607786065
 42
2453954.900287674
  1

 90
        0
  0
XRECORD
  5
30B
102
{ACAD_REACTORS
330
221
102
}
330
221
100
AcDbXrecord
280
     1
340
18
  0
XRECORD
  5
30A
102
{ACAD_REACTORS
330
21F
102
}
330
21F
100
AcDbXrecord
280
     1
340
15
  0
LAYOUT
  5
1C9
102
{ACAD_XDICTIONARY
360
3FD
102
}
102
{ACAD_REACTORS
330
1C6
102
}
330
1C6
100
AcDbPlotSettings
  1

  2
Fax
  4

  6

 40
0.0
 41
0.0
 42
0.0
 43
0.0
 44
0.0
 45
0.0
 46
0.0
 47
0.0
 48
0.0
 49
0.0
140
0.0
141
0.0
142
1.0
143
1.0
 70
   688
 72
     0
 73
     0
 74
     5
  7
Default R14 pen assignments.ctb
 75
    16
147
1.0
148
0.0
149
0.0
100
AcDbLayout
  1
Layout1
 70
     1
 71
     1
 10
0.0
 20
0.0
 11
12.0
 21
9.0
 12
0.0008545038290322
 22
1.250283272183907
 32
0.0
 14
1.000000000000000E+20
 24
1.000000000000000E+20
 34
1.000000000000000E+20
 15
-1.000000000000000E+20
 25
-1.000000000000000E+20
 35
-1.000000000000000E+20
146
0.0
 13
0.0
 23
0.0
 33
0.0
 16
1.0
 26
0.0
 36
0.0
 17
0.0
 27
1.0
 37
0.0
 76
     0
330
15
  0
LAYOUT
  5
1C8
102
{ACAD_XDICTIONARY
360
3FB
102
}
102
{ACAD_REACTORS
330
1C6
102
}
330
1C6
100
AcDbPlotSettings
  1

  2
Fax
  4

  6

 40
0.0
 41
0.0
 42
0.0
 43
0.0
 44
0.0
 45
0.0
 46
0.0
 47
0.0
 48
0.0
 49
0.0
140
0.0
141
0.0
142
1.0
143
1.0
 70
  1712
 72
     0
 73
     0
 74
     0
  7
Default R14 pen assignments.ctb
 75
     0
147
1.0
148
0.0
149
0.0
100
AcDbLayout
  1
Model
 70
     1
 71
     0
 10
0.0
 20
0.0
 11
12.0
 21
9.0
 12
0.0
 22
0.0
 32
0.0
 14
0.0
 24
0.0
 34
0.0
 15
0.0
 25
0.0
 35
0.0
146
0.0
 13
0.0
 23
0.0
 33
0.0
 16
1.0
 26
0.0
 36
0.0
 17
0.0
 27
1.0
 37
0.0
 76
     0
330
18
331
2E5
  0
MATERIAL
  5
313
102
{ACAD_XDICTIONARY
360
401
102
}
102
{ACAD_REACTORS
330
311
102
}
330
311
100
AcDbMaterial
  1
ByBlock
  0
MATERIAL
  5
312
102
{ACAD_XDICTIONARY
360
3FF
102
}
102
{ACAD_REACTORS
330
311
102
}
330
311
100
AcDbMaterial
  1
ByLayer
  0
MATERIAL
  5
314
102
{ACAD_XDICTIONARY
360
403
102
}
102
{ACAD_REACTORS
330
311
102
}
330
311
100
AcDbMaterial
  1
Global
  0
MLINESTYLE
  5
1B
102
{ACAD_REACTORS
330
E
102
}
330
E
100
AcDbMlineStyle
  2
STANDARD
 70
     0
  3

 62
     0
 51
90.0
 52
90.0
 71
     2
 49
0.5
 62
   256
  6
BYLAYER
 49
-0.5
 62
   256
  6
BYLAYER
  0
ACDBPLACEHOLDER
  5
1C5
102
{ACAD_REACTORS
330
1C4
102
}
330
1C4
  0
TABLESTYLE
  5
328
102
{ACAD_XDICTIONARY
360
405
102
}
102
{ACAD_REACTORS
330
327
102
}
330
327
100
AcDbTableStyle
  3
Standard
 70
     0
 71
     0
 40
0.06
 41
0.06
280
     0
281
     0
  7
STANDARD
140
0.18
170
     2
 62
     0
 63
     7
283
     0
274
    -2
284
     1
 64
     0
275
    -2
285
     1
 65
     0
276
    -2
286
     1
 66
     0
277
    -2
287
     1
 67
     0
278
    -2
288
     1
 68
     0
279
    -2
289
     1
 69
     0
  7
STANDARD
140
0.25
170
     5
 62
     0
 63
     7
283
     0
274
    -2
284
     1
 64
     0
275
    -2
285
     1
 65
     0
276
    -2
286
     1
 66
     0
277
    -2
287
     1
 67
     0
278
    -2
288
     1
 68
     0
279
    -2
289
     1
 69
     0
  7
STANDARD
140
0.18
170
     5
 62
     0
 63
     7
283
     0
274
    -2
284
     1
 64
     0
275
    -2
285
     1
 65
     0
276
    -2
286
     1
 66
     0
277
    -2
287
     1
 67
     0
278
    -2
288
     1
 68
     0
279
    -2
289
     1
 69
     0
  0
VISUALSTYLE
  5
31B
102
{ACAD_REACTORS
330
315
102
}
330
315
100
AcDbVisualStyle
  2
2dWireframe
 70
     4
 71
     0
 72
     2
 73
     0
 90
        0
 40
-0.6
 41
-30.0
 62
     5
 63
     7
 74
     1
 91
        4
 64
     7
 65
   257
 75
     1
175
     1
 42
1.0
 92
        0
 66
   257
 43
1.0
 76
     1
 77
     6
 78
     2
 67
     7
 79
     5
170
     0
171
     0
290
     0
174
     0
 93
        1
 44
0.0
173
     0
291
     0
 45
0.0
1001
ACAD
1000
AcDbSavedByObjectVersion
1070
     0
  0
VISUALSTYLE
  5
31D
102
{ACAD_REACTORS
330
315
102
}
330
315
100
AcDbVisualStyle
  2
3D Hidden
 70
     6
 71
     1
 72
     2
 73
     2
 90
        0
 40
-0.6
 41
-30.0
 62
     5
 63
     7
 74
     2
 91
        2
 64
     7
 65
   257
 75
     2
175
     1
 42
40.0
 92
        0
 66
   257
 43
1.0
 76
     1
 77
     6
 78
     2
 67
     7
 79
     3
170
     0
171
     0
290
     0
174
     0
 93
        1
 44
0.0
173
     0
291
     0
 45
0.0
1001
ACAD
1000
AcDbSavedByObjectVersion
1070
     0
  0
VISUALSTYLE
  5
31C
102
{ACAD_REACTORS
330
315
102
}
330
315
100
AcDbVisualStyle
  2
3dWireframe
 70
     5
 71
     0
 72
     2
 73
     0
 90
        0
 40
-0.6
 41
-30.0
 62
     5
 63
     7
 74
     1
 91
        4
 64
     7
 65
   257
 75
     1
175
     1
 42
1.0
 92
        0
 66
   257
 43
1.0
 76
     1
 77
     6
 78
     2
 67
     7
 79
     5
170
     0
171
     0
290
     0
174
     0
 93
        1
 44
0.0
173
     0
291
     0
 45
0.0
1001
ACAD
1000
AcDbSavedByObjectVersion
1070
     0
  0
VISUALSTYLE
  5
31A
102
{ACAD_REACTORS
330
315
102
}
330
315
100
AcDbVisualStyle
  2
Basic
 70
     7
 71
     1
 72
     0
 73
     1
 90
        0
 40
-0.6
 41
-30.0
 62
     5
 63
     7
 74
     0
 91
        4
 64
     7
 65
   257
 75
     1
175
     1
 42
1.0
 92
        8
 66
     7
 43
1.0
 76
     1
 77
     6
 78
     2
 67
     7
 79
     5
170
     0
171
     0
290
     0
174
     0
 93
        1
 44
0.0
173
     0
291
     1
 45
0.0
1001
ACAD
1000
AcDbSavedByObjectVersion
1070
     0
  0
VISUALSTYLE
  5
321
102
{ACAD_REACTORS
330
315
102
}
330
315
100
AcDbVisualStyle
  2
Brighten
 70
    12
 71
     2
 72
     2
 73
     0
 90
        0
 40
-0.6
 41
-30.0
 62
     5
 63
     7
 74
     1
 91
        4
 64
     7
 65
   257
 75
     1
175
     1
 42
1.0
 92
        8
 66
     7
 43
1.0
 76
     1
 77
     6
 78
     2
 67
     7
 79
     5
170
     0
171
     0
290
     0
174
     0
 93
        1
 44
50.0
173
     0
291
     1
 45
0.0
1001
ACAD
1000
AcDbSavedByObjectVersion
1070
     0
  0
VISUALSTYLE
  5
325
102
{ACAD_REACTORS
330
315
102
}
330
315
100
AcDbVisualStyle
  2
ColorChange
 70
    16
 71
     2
 72
     2
 73
     3
 90
        0
 40
-0.6
 41
-30.0
 62
     5
 63
     8
 74
     1
 91
        4
 64
     7
 65
   257
 75
     1
175
     1
 42
1.0
 92
        8
 66
     8
 43
1.0
 76
     1
 77
     6
 78
     2
 67
     7
 79
     5
170
     0
171
     0
290
     0
174
     0
 93
        1
 44
0.0
173
     0
291
     1
 45
0.0
1001
ACAD
1000
AcDbSavedByObjectVersion
1070
     0
  0
VISUALSTYLE
  5
31E
102
{ACAD_REACTORS
330
315
102
}
330
315
100
AcDbVisualStyle
  2
Conceptual
 70
     9
 71
     3
 72
     2
 73
     0
 90
        0
 40
-0.6
 41
-30.0
 62
     5
 63
     7
 74
     2
 91
        2
 64
     7
 65
   257
 75
     1
175
     1
 42
40.0
 92
        8
 66
     7
 43
1.0
 76
     1
 77
     6
 78
     2
 67
     7
 79
     3
170
     0
171
     0
290
     0
174
     0
 93
        1
 44
0.0
173
     0
291
     0
 45
0.0
1001
ACAD
1000
AcDbSavedByObjectVersion
1070
     0
  0
VISUALSTYLE
  5
320
102
{ACAD_REACTORS
330
315
102
}
330
315
100
AcDbVisualStyle
  2
Dim
 70
    11
 71
     2
 72
     2
 73
     0
 90
        0
 40
-0.6
 41
-30.0
 62
     5
 63
     7
 74
     1
 91
        4
 64
     7
 65
   257
 75
     1
175
     1
 42
1.0
 92
        8
 66
     7
 43
1.0
 76
     1
 77
     6
 78
     2
 67
     7
 79
     5
170
     0
171
     0
290
     0
174
     0
 93
        1
 44
-50.0
173
     0
291
     1
 45
0.0
1001
ACAD
1000
AcDbSavedByObjectVersion
1070
     0
  0
VISUALSTYLE
  5
324
102
{ACAD_REACTORS
330
315
102
}
330
315
100
AcDbVisualStyle
  2
Facepattern
 70
    15
 71
     2
 72
     2
 73
     0
 90
        0
 40
-0.6
 41
-30.0
 62
     5
 63
     7
 74
     1
 91
        4
 64
     7
 65
   257
 75
     1
175
     1
 42
1.0
 92
        8
 66
     7
 43
1.0
 76
     1
 77
     6
 78
     2
 67
     7
 79
     5
170
     0
171
     0
290
     0
174
     0
 93
        1
 44
0.0
173
     0
291
     1
 45
0.0
1001
ACAD
1000
AcDbSavedByObjectVersion
1070
     0
  0
VISUALSTYLE
  5
316
102
{ACAD_REACTORS
330
315
102
}
330
315
100
AcDbVisualStyle
  2
Flat
 70
     0
 71
     2
 72
     1
 73
     1
 90
        2
 40
-0.6
 41
30.0
 62
     5
 63
     7
 74
     0
 91
        4
 64
     7
 65
   257
 75
     1
175
     1
 42
1.0
 92
        8
 66
     7
 43
1.0
 76
     1
 77
     6
 78
     2
 67
     7
 79
     5
170
     0
171
     0
290
     0
174
     0
 93
       13
 44
0.0
173
     0
291
     1
 45
0.0
1001
ACAD
1000
AcDbSavedByObjectVersion
1070
     0
  0
VISUALSTYLE
  5
317
102
{ACAD_REACTORS
330
315
102
}
330
315
100
AcDbVisualStyle
  2
FlatWithEdges
 70
     1
 71
     2
 72
     1
 73
     1
 90
        2
 40
-0.6
 41
30.0
 62
     5
 63
     7
 74
     1
 91
        4
 64
     7
 65
   257
 75
     1
175
     1
 42
1.0
 92
        0
 66
   257
 43
1.0
 76
     1
 77
     6
 78
     2
 67
     7
 79
     5
170
     0
171
     0
290
     0
174
     0
 93
       13
 44
0.0
173
     0
291
     1
 45
0.0
1001
ACAD
1000
AcDbSavedByObjectVersion
1070
     0
  0
VISUALSTYLE
  5
318
102
{ACAD_REACTORS
330
315
102
}
330
315
100
AcDbVisualStyle
  2
Gouraud
 70
     2
 71
     2
 72
     2
 73
     1
 90
        2
 40
-0.6
 41
30.0
 62
     5
 63
     7
 74
     0
 91
        4
 64
     7
 65
   257
 75
     1
175
     1
 42
1.0
 92
        0
 66
     7
 43
1.0
 76
     1
 77
     6
 78
     2
 67
     7
 79
     5
170
     0
171
     0
290
     0
174
     0
 93
       13
 44
0.0
173
     0
291
     1
 45
0.0
1001
ACAD
1000
AcDbSavedByObjectVersion
1070
     0
  0
VISUALSTYLE
  5
319
102
{ACAD_REACTORS
330
315
102
}
330
315
100
AcDbVisualStyle
  2
GouraudWithEdges
 70
     3
 71
     2
 72
     2
 73
     1
 90
        2
 40
-0.6
 41
30.0
 62
     5
 63
     7
 74
     1
 91
        4
 64
     7
 65
   257
 75
     1
175
     1
 42
1.0
 92
        0
 66
   257
 43
1.0
 76
     1
 77
     6
 78
     2
 67
     7
 79
     5
170
     0
171
     0
290
     0
174
     0
 93
       13
 44
0.0
173
     0
291
     1
 45
0.0
1001
ACAD
1000
AcDbSavedByObjectVersion
1070
     0
  0
VISUALSTYLE
  5
323
102
{ACAD_REACTORS
330
315
102
}
330
315
100
AcDbVisualStyle
  2
Linepattern
 70
    14
 71
     2
 72
     2
 73
     0
 90
        0
 40
-0.6
 41
-30.0
 62
     5
 63
     7
 74
     1
 91
        4
 64
     7
 65
   257
 75
     7
175
     7
 42
1.0
 92
        8
 66
     7
 43
1.0
 76
     1
 77
     6
 78
     2
 67
     7
 79
     5
170
     0
171
     0
290
     0
174
     0
 93
        1
 44
0.0
173
     0
291
     1
 45
0.0
1001
ACAD
1000
AcDbSavedByObjectVersion
1070
     0
  0
VISUALSTYLE
  5
31F
102
{ACAD_REACTORS
330
315
102
}
330
315
100
AcDbVisualStyle
  2
Realistic
 70
     8
 71
     2
 72
     2
 73
     0
 90
        0
 40
-0.6
 41
-30.0
 62
     5
 63
     7
 74
     1
 91
        0
 64
     7
 65
   257
 75
     1
175
     1
 42
1.0
 92
        8
 66
     8
 43
1.0
 76
     1
 77
     6
 78
     2
 67
     7
 79
     5
170
     0
171
     0
290
     0
174
     0
 93
       13
 44
0.0
173
     0
291
     0
 45
0.0
1001
ACAD
1000
AcDbSavedByObjectVersion
1070
     0
  0
VISUALSTYLE
  5
322
102
{ACAD_REACTORS
330
315
102
}
330
315
100
AcDbVisualStyle
  2
Thicken
 70
    13
 71
     2
 72
     2
 73
     0
 90
        0
 40
-0.6
 41
-30.0
 62
     5
 63
     7
 74
     1
 91
        4
 64
     7
 65
   257
 75
     1
175
     1
 42
1.0
 92
       12
 66
     7
 43
1.0
 76
     1
 77
     6
 78
     2
 67
     7
 79
     5
170
     0
171
     0
290
     0
174
     0
 93
        1
 44
0.0
173
     0
291
     1
 45
0.0
1001
ACAD
1000
AcDbSavedByObjectVersion
1070
     0
  0
DICTIONARYVAR
  5
3F7
102
{ACAD_REACTORS
330
227
102
}
330
227
100
DictionaryVariables
280
     0
  1
STANDARD
  0
DICTIONARYVAR
  5
228
102
{ACAD_REACTORS
330
227
102
}
330
227
100
DictionaryVariables
280
     0
  1
1
  0
DICTIONARYVAR
  5
3F9
102
{ACAD_REACTORS
330
227
102
}
330
227
100
DictionaryVariables
280
     0
  1
0
  0
DICTIONARYVAR
  5
3F8
102
{ACAD_REACTORS
330
227
102
}
330
227
100
DictionaryVariables
280
     0
  1
127
  0
XRECORD
  5
3DC
102
{ACAD_REACTORS
330
3DB
102
}
330
3DB
100
AcDbXrecord
280
     1
  0
DICTIONARY
  5
3FD
330
1C9
100
AcDbDictionary
280
     1
281
     1
  3
ACAD_XREC_ROUNDTRIP
360
3FE
  0
DICTIONARY
  5
3FB
330
1C8
100
AcDbDictionary
280
     1
281
     1
  3
ACAD_XREC_ROUNDTRIP
360
3FC
  0
DICTIONARY
  5
401
330
313
100
AcDbDictionary
280
     1
281
     1
  3
ACAD_XREC_ROUNDTRIP
360
402
  0
DICTIONARY
  5
3FF
330
312
100
AcDbDictionary
280
     1
281
     1
  3
ACAD_XREC_ROUNDTRIP
360
400
  0
DICTIONARY
  5
403
330
314
100
AcDbDictionary
280
     1
281
     1
  3
ACAD_XREC_ROUNDTRIP
360
404
  0
DICTIONARY
  5
405
330
328
100
AcDbDictionary
280
     1
281
     1
  3
ACAD_XREC_ROUNDTRIP
360
406
  0
XRECORD
  5
3FE
102
{ACAD_REACTORS
330
3FD
102
}
330
3FD
100
AcDbXrecord
280
     1
102
SHADEPLOT
 70
     0
102
SHADEPLOTRESLEVEL
 70
     2
102
SHADEPLOTCUSTOMDPI
 70
   300
  0
XRECORD
  5
3FC
102
{ACAD_REACTORS
330
3FB
102
}
330
3FB
100
AcDbXrecord
280
     1
102
SHADEPLOT
 70
     0
102
SHADEPLOTRESLEVEL
 70
     2
102
SHADEPLOTCUSTOMDPI
 70
   300
  0
XRECORD
  5
402
102
{ACAD_REACTORS
330
401
102
}
330
401
100
AcDbXrecord
280
     1
102
MATERIAL
148
0.0
149
0.0
149
0.0
 93
        0
 94
       63
282
     0
 72
     1
 77
     1
171
     1
175
     1
179
     1
273
     0
  0
XRECORD
  5
400
102
{ACAD_REACTORS
330
3FF
102
}
330
3FF
100
AcDbXrecord
280
     1
102
MATERIAL
148
0.0
149
0.0
149
0.0
 93
        0
 94
       63
282
     0
 72
     1
 77
     1
171
     1
175
     1
179
     1
273
     0
  0
XRECORD
  5
404
102
{ACAD_REACTORS
330
403
102
}
330
403
100
AcDbXrecord
280
     1
102
MATERIAL
148
0.0
149
0.0
149
0.0
 93
        0
 94
       63
282
     0
 72
     1
 77
     1
171
     1
175
     1
179
     1
273
     0
  0
XRECORD
  5
406
102
{ACAD_REACTORS
330
405
102
}
330
405
100
AcDbXrecord
280
     1
102
ACAD_ROUNDTRIP_PRE2007_TABLESTYLE
 90
      512
 91
        0
  1

 92
      512
 93
        0
  2

 94
      512
 95
        0
  3

  0
ENDSEC
  0
EOF
