  0
SECTION
  2
HEADER
  9
$ACADVER
  1
AC1015
  9
$ACADMAINTVER
 70
    20
  9
$DWGCODEPAGE
  3
ANSI_1252
  9
$INSBASE
 10
8.098983336965087
 20
2.305200504107973
 30
0.0
  9
$EXTMIN
 10
-0.1282126276640838
 20
-2.696793667562104
 30
-0.0015258207003583
  9
$EXTMAX
 10
19.45239883835427
 20
7.61833625371905
 30
0.0000000349246037
  9
$LIMMIN
 10
0.0
 20
0.0
  9
$LIMMAX
 10
36.0
 20
36.0
  9
$ORTHOMODE
 70
     1
  9
$REGENMODE
 70
     1
  9
$FILLMODE
 70
     1
  9
$QTEXTMODE
 70
     0
  9
$MIRRTEXT
 70
     1
  9
$LTSCALE
 40
1.0
  9
$ATTMODE
 70
     1
  9
$TEXTSIZE
 40
0.2
  9
$TRACEWID
 40
0.05
  9
$TEXTSTYLE
  7
STANDARD
  9
$CLAYER
  8
ADP1DETAIL
  9
$CELTYPE
  6
BYLAYER
  9
$CECOLOR
 62
   256
  9
$CELTSCALE
 40
1.0
  9
$DISPSILH
 70
     0
  9
$DIMSCALE
 40
1.0
  9
$DIMASZ
 40
0.125
  9
$DIMEXO
 40
0.0625
  9
$DIMDLI
 40
0.38
  9
$DIMRND
 40
0.0
  9
$DIMDLE
 40
0.0
  9
$DIMEXE
 40
0.18
  9
$DIMTP
 40
0.0
  9
$DIMTM
 40
0.0
  9
$DIMTXT
 40
0.125
  9
$DIMCEN
 40
0.1875
  9
$DIMTSZ
 40
0.125
  9
$DIMTOL
 70
     0
  9
$DIMLIM
 70
     0
  9
$DIMTIH
 70
     0
  9
$DIMTOH
 70
     0
  9
$DIMSE1
 70
     0
  9
$DIMSE2
 70
     0
  9
$DIMTAD
 70
     0
  9
$DIMZIN
 70
     3
  9
$DIMBLK
  1

  9
$DIMASO
 70
     1
  9
$DIMSHO
 70
     1
  9
$DIMPOST
  1

  9
$DIMAPOST
  1

  9
$DIMALT
 70
     0
  9
$DIMALTD
 70
     1
  9
$DIMALTF
 40
25.4
  9
$DIMLFAC
 40
1.0
  9
$DIMTOFL
 70
     0
  9
$DIMTVP
 40
0.0
  9
$DIMTIX
 70
     0
  9
$DIMSOXD
 70
     0
  9
$DIMSAH
 70
     0
  9
$DIMBLK1
  1

  9
$DIMBLK2
  1

  9
$DIMSTYLE
  2
STANDARD
  9
$DIMCLRD
 70
     0
  9
$DIMCLRE
 70
     0
  9
$DIMCLRT
 70
     0
  9
$DIMTFAC
 40
1.0
  9
$DIMGAP
 40
0.125
  9
$DIMJUST
 70
     0
  9
$DIMSD1
 70
     0
  9
$DIMSD2
 70
     0
  9
$DIMTOLJ
 70
     1
  9
$DIMTZIN
 70
     0
  9
$DIMALTZ
 70
     0
  9
$DIMALTTZ
 70
     0
  9
$DIMUPT
 70
     0
  9
$DIMDEC
 70
     4
  9
$DIMTDEC
 70
     4
  9
$DIMALTU
 70
     2
  9
$DIMALTTD
 70
     2
  9
$DIMTXSTY
  7
STANDARD
  9
$DIMAUNIT
 70
     0
  9
$DIMADEC
 70
     0
  9
$DIMALTRND
 40
0.0
  9
$DIMAZIN
 70
     0
  9
$DIMDSEP
 70
    46
  9
$DIMATFIT
 70
     3
  9
$DIMFRAC
 70
     0
  9
$DIMLDRBLK
  1

  9
$DIMLUNIT
 70
     2
  9
$DIMLWD
 70
    -2
  9
$DIMLWE
 70
    -2
  9
$DIMTMOVE
 70
     0
  9
$LUNITS
 70
     5
  9
$LUPREC
 70
     4
  9
$SKETCHINC
 40
0.1
  9
$FILLETRAD
 40
0.125
  9
$AUNITS
 70
     0
  9
$AUPREC
 70
     0
  9
$MENU
  1
acad
  9
$ELEVATION
 40
0.0
  9
$PELEVATION
 40
0.0
  9
$THICKNESS
 40
0.0
  9
$LIMCHECK
 70
     0
  9
$CHAMFERA
 40
0.0
  9
$CHAMFERB
 40
0.0
  9
$CHAMFERC
 40
0.0
  9
$CHAMFERD
 40
0.0
  9
$SKPOLY
 70
     0
  9
$TDCREATE
 40
2450256.666315775
  9
$TDUCREATE
 40
2450256.832982443
  9
$TDUPDATE
 40
2453963.023963044
  9
$TDUUPDATE
 40
2453963.190629711
  9
$TDINDWG
 40
0.0609764583
  9
$TDUSRTIMER
 40
0.0609764583
  9
$USRTIMER
 70
     1
  9
$ANGBASE
 50
0.0
  9
$ANGDIR
 70
     0
  9
$PDMODE
 70
     0
  9
$PDSIZE
 40
0.0
  9
$PLINEWID
 40
0.0
  9
$SPLFRAME
 70
     0
  9
$SPLINETYPE
 70
     6
  9
$SPLINESEGS
 70
     8
  9
$HANDSEED
  5
2BC
  9
$SURFTAB1
 70
     6
  9
$SURFTAB2
 70
     6
  9
$SURFTYPE
 70
     6
  9
$SURFU
 70
     6
  9
$SURFV
 70
     6
  9
$UCSBASE
  2

  9
$UCSNAME
  2

  9
$UCSORG
 10
0.0
 20
0.0
 30
0.0
  9
$UCSXDIR
 10
1.0
 20
0.0
 30
0.0
  9
$UCSYDIR
 10
0.0
 20
1.0
 30
0.0
  9
$UCSORTHOREF
  2

  9
$UCSORTHOVIEW
 70
     0
  9
$UCSORGTOP
 10
0.0
 20
0.0
 30
0.0
  9
$UCSORGBOTTOM
 10
0.0
 20
0.0
 30
0.0
  9
$UCSORGLEFT
 10
0.0
 20
0.0
 30
0.0
  9
$UCSORGRIGHT
 10
0.0
 20
0.0
 30
0.0
  9
$UCSORGFRONT
 10
0.0
 20
0.0
 30
0.0
  9
$UCSORGBACK
 10
0.0
 20
0.0
 30
0.0
  9
$PUCSBASE
  2

  9
$PUCSNAME
  2

  9
$PUCSORG
 10
0.0
 20
0.0
 30
0.0
  9
$PUCSXDIR
 10
1.0
 20
0.0
 30
0.0
  9
$PUCSYDIR
 10
0.0
 20
1.0
 30
0.0
  9
$PUCSORTHOREF
  2

  9
$PUCSORTHOVIEW
 70
     0
  9
$PUCSORGTOP
 10
0.0
 20
0.0
 30
0.0
  9
$PUCSORGBOTTOM
 10
0.0
 20
0.0
 30
0.0
  9
$PUCSORGLEFT
 10
0.0
 20
0.0
 30
0.0
  9
$PUCSORGRIGHT
 10
0.0
 20
0.0
 30
0.0
  9
$PUCSORGFRONT
 10
0.0
 20
0.0
 30
0.0
  9
$PUCSORGBACK
 10
0.0
 20
0.0
 30
0.0
  9
$USERI1
 70
     0
  9
$USERI2
 70
     0
  9
$USERI3
 70
     0
  9
$USERI4
 70
     0
  9
$USERI5
 70
     0
  9
$USERR1
 40
0.0
  9
$USERR2
 40
0.0
  9
$USERR3
 40
0.0
  9
$USERR4
 40
0.0
  9
$USERR5
 40
0.0
  9
$WORLDVIEW
 70
     1
  9
$SHADEDGE
 70
     3
  9
$SHADEDIF
 70
    70
  9
$TILEMODE
 70
     1
  9
$MAXACTVP
 70
    15
  9
$PINSBASE
 10
0.7500119209289564
 20
0.0
 30
0.0
  9
$PLIMCHECK
 70
     0
  9
$PEXTMIN
 10
1.000000000000000E+20
 20
1.000000000000000E+20
 30
1.000000000000000E+20
  9
$PEXTMAX
 10
-1.000000000000000E+20
 20
-1.000000000000000E+20
 30
-1.000000000000000E+20
  9
$PLIMMIN
 10
0.0
 20
0.0
  9
$PLIMMAX
 10
12.0
 20
9.0
  9
$UNITMODE
 70
     0
  9
$VISRETAIN
 70
     0
  9
$PLINEGEN
 70
     0
  9
$PSLTSCALE
 70
     1
  9
$TREEDEPTH
 70
  3020
  9
$CMLSTYLE
  2
STANDARD
  9
$CMLJUST
 70
     0
  9
$CMLSCALE
 40
1.0
  9
$PROXYGRAPHICS
 70
     1
  9
$MEASUREMENT
 70
     0
  9
$CELWEIGHT
370
    -1
  9
$ENDCAPS
280
     0
  9
$JOINSTYLE
280
     0
  9
$LWDISPLAY
290
     0
  9
$INSUNITS
 70
     0
  9
$HYPERLINKBASE
  1

  9
$STYLESHEET
  1

  9
$XEDIT
290
     1
  9
$CEPSNTYPE
380
     0
  9
$PSTYLEMODE
290
     1
  9
$FINGERPRINTGUID
  2
{7418CD67-0A2C-4C35-83B6-6FFD800299A8}
  9
$VERSIONGUID
  2
{433F7852-3E5B-4779-89FE-E7B1360B5BAF}
  9
$EXTNAMES
290
     1
  9
$PSVPSCALE
 40
0.0
  9
$OLESTARTUP
290
     0
  0
ENDSEC
  0
SECTION
  2
CLASSES
  0
CLASS
  1
ACDBDICTIONARYWDFLT
  2
AcDbDictionaryWithDefault
  3
ObjectDBX Classes
 90
        0
280
     0
281
     0
  0
CLASS
  1
ACDBPLACEHOLDER
  2
AcDbPlaceHolder
  3
ObjectDBX Classes
 90
        0
280
     0
281
     0
  0
CLASS
  1
LAYOUT
  2
AcDbLayout
  3
ObjectDBX Classes
 90
        0
280
     0
281
     0
  0
CLASS
  1
DICTIONARYVAR
  2
AcDbDictionaryVar
  3
ObjectDBX Classes
 90
        0
280
     0
281
     0
  0
CLASS
  1
MATERIAL
  2
AcDbMaterial
  3
ObjectDBX Classes
 90
     1024
280
     0
281
     0
  0
CLASS
  1
VISUALSTYLE
  2
AcDbVisualStyle
  3
ObjectDBX Classes
 90
     4095
280
     0
281
     0
  0
CLASS
  1
TABLESTYLE
  2
AcDbTableStyle
  3
ObjectDBX Classes
 90
     4095
280
     0
281
     0
  0
ENDSEC
  0
SECTION
  2
TABLES
  0
TABLE
  2
VPORT
  5
8
330
0
100
AcDbSymbolTable
 70
     1
  0
VPORT
  5
1CF
330
8
100
AcDbSymbolTableRecord
100
AcDbViewportTableRecord
  2
*Active
 70
     0
 10
0.0
 20
0.0
 11
1.0
 21
1.0
 12
10.31841194080567
 22
4.192102845328236
 13
0.0
 23
0.0
 14
0.5740882589684922
 24
0.5740882589684922
 15
0.5
 25
0.5
 16
0.0
 26
0.0
 36
1.0
 17
0.0
 27
0.0
 37
0.0
 40
6.328229267335266
 41
1.726930320150659
 42
50.0
 43
0.0
 44
0.0
 50
0.0
 51
0.0
 71
     0
 72
   100
 73
     1
 74
     0
 75
     0
 76
     0
 77
     0
 78
     0
281
     0
 65
     1
110
0.0
120
0.0
130
0.0
111
1.0
121
0.0
131
0.0
112
0.0
122
1.0
132
0.0
 79
     0
146
0.0
  0
ENDTAB
  0
TABLE
  2
LTYPE
  5
5
330
0
100
AcDbSymbolTable
 70
     3
  0
LTYPE
  5
12
330
5
100
AcDbSymbolTableRecord
100
AcDbLinetypeTableRecord
  2
BYBLOCK
 70
     0
  3

 72
    65
 73
     0
 40
0.0
  0
LTYPE
  5
13
330
5
100
AcDbSymbolTableRecord
100
AcDbLinetypeTableRecord
  2
BYLAYER
 70
     0
  3

 72
    65
 73
     0
 40
0.0
  0
LTYPE
  5
14
330
5
100
AcDbSymbolTableRecord
100
AcDbLinetypeTableRecord
  2
CONTINUOUS
 70
     0
  3
Solid line
 72
    65
 73
     0
 40
0.0
  0
LTYPE
  5
42
330
5
100
AcDbSymbolTableRecord
100
AcDbLinetypeTableRecord
  2
HIDDEN2
 70
     0
  3
_ _ _ _ _ _ _ _ _ _ _ _ _ _ _ _ _ _ _ _ _ _ _ _
 72
    65
 73
     2
 40
0.1875
 49
0.125
 74
     0
 49
-0.0625
 74
     0
  0
ENDTAB
  0
TABLE
  2
LAYER
  5
2
330
0
100
AcDbSymbolTable
 70
     5
  0
LAYER
  5
F
330
2
100
AcDbSymbolTableRecord
100
AcDbLayerTableRecord
  2
0
 70
     0
 62
     7
  6
CONTINUOUS
370
    -3
390
B3
  0
LAYER
  5
43
330
2
100
AcDbSymbolTableRecord
100
AcDbLayerTableRecord
  2
ADP2DETAIL
 70
     0
 62
     5
  6
CONTINUOUS
370
    -3
390
B3
  0
LAYER
  5
44
330
2
100
AcDbSymbolTableRecord
100
AcDbLayerTableRecord
  2
ADPDIM
 70
     0
 62
     3
  6
CONTINUOUS
370
    -3
390
B3
  0
LAYER
  5
46
330
2
100
AcDbSymbolTableRecord
100
AcDbLayerTableRecord
  2
ADP1DETAIL
 70
     0
 62
     7
  6
CONTINUOUS
370
    -3
390
B3
  0
LAYER
  5
48
330
2
100
AcDbSymbolTableRecord
100
AcDbLayerTableRecord
  2
DEFPOINTS
 70
     0
 62
     7
  6
CONTINUOUS
290
     0
370
    -3
390
B3
  0
ENDTAB
  0
TABLE
  2
STYLE
  5
3
330
0
100
AcDbSymbolTable
 70
     2
  0
STYLE
  5
10
330
3
100
AcDbSymbolTableRecord
100
AcDbTextStyleTableRecord
  2
STANDARD
 70
     0
 40
0.0
 41
1.0
 50
0.0
 71
     0
 42
0.2
  3
txt
  4

  0
STYLE
  5
BA
330
3
100
AcDbSymbolTableRecord
100
AcDbTextStyleTableRecord
  2
ARIAL_WIDE
 70
     0
 40
0.0
 41
1.25
 50
0.0
 71
     0
 42
0.2
  3
ARIAL.TTF
  4

1001
ACAD
1000
Arial
1071
       34
  0
ENDTAB
  0
TABLE
  2
VIEW
  5
6
330
0
100
AcDbSymbolTable
 70
     0
  0
ENDTAB
  0
TABLE
  2
UCS
  5
7
330
0
100
AcDbSymbolTable
 70
     0
  0
ENDTAB
  0
TABLE
  2
APPID
  5
9
330
0
100
AcDbSymbolTable
 70
     2
  0
APPID
  5
11
330
9
100
AcDbSymbolTableRecord
100
AcDbRegAppTableRecord
  2
ACAD
 70
     0
  0
APPID
  5
28E
330
9
100
AcDbSymbolTableRecord
100
AcDbRegAppTableRecord
  2
DCO15
 70
     0
  0
ENDTAB
  0
TABLE
  2
DIMSTYLE
  5
A
330
0
100
AcDbSymbolTable
 70
     2
100
AcDbDimStyleTable
 71
     1
340
AE
  0
DIMSTYLE
105
AE
102
{ACAD_REACTORS
330
224
330
232
102
}
330
A
100
AcDbSymbolTableRecord
100
AcDbDimStyleTableRecord
  2
STANDARD
 70
     0
340
10
  0
ENDTAB
  0
TABLE
  2
BLOCK_RECORD
  5
1
330
0
100
AcDbSymbolTable
 70
     6
  0
BLOCK_RECORD
  5
18
102
{ACAD_XDICTIONARY
360
10F
102
}
330
1
100
AcDbSymbolTableRecord
100
AcDbBlockTableRecord
  2
*MODEL_SPACE
340
B6
  0
BLOCK_RECORD
  5
15
102
{ACAD_XDICTIONARY
360
10D
102
}
330
1
100
AcDbSymbolTableRecord
100
AcDbBlockTableRecord
  2
*PAPER_SPACE
340
B7
  0
BLOCK_RECORD
  5
2D
330
1
100
AcDbSymbolTableRecord
100
AcDbBlockTableRecord
  2
*D0
340
0
  0
BLOCK_RECORD
  5
2E
330
1
100
AcDbSymbolTableRecord
100
AcDbBlockTableRecord
  2
*D1
340
0
  0
BLOCK_RECORD
  5
217
330
1
100
AcDbSymbolTableRecord
100
AcDbBlockTableRecord
  2
*D2
340
0
  0
BLOCK_RECORD
  5
225
330
1
100
AcDbSymbolTableRecord
100
AcDbBlockTableRecord
  2
*D3
340
0
  0
BLOCK_RECORD
  5
233
330
1
100
AcDbSymbolTableRecord
100
AcDbBlockTableRecord
  2
*D4
340
0
  0
ENDTAB
  0
ENDSEC
  0
SECTION
  2
BLOCKS
  0
BLOCK
  5
4B
330
18
100
AcDbEntity
  8
0
100
AcDbBlockBegin
  2
*MODEL_SPACE
 70
     0
 10
0.0
 20
0.0
 30
0.0
  3
*MODEL_SPACE
  1

  0
ENDBLK
  5
4C
330
18
100
AcDbEntity
  8
0
100
AcDbBlockEnd
  0
BLOCK
  5
49
330
15
100
AcDbEntity
 67
     1
  8
0
100
AcDbBlockBegin
  2
*PAPER_SPACE
 70
     0
 10
0.0
 20
0.0
 30
0.0
  3
*PAPER_SPACE
  1

  0
ENDBLK
  5
4A
330
15
100
AcDbEntity
 67
     1
  8
0
100
AcDbBlockEnd
  0
BLOCK
  5
4E
330
2D
100
AcDbEntity
  8
0
100
AcDbBlockBegin
  2
*D0
 70
     1
 10
0.0
 20
0.0
 30
0.0
  3
*D0
  1

  0
LINE
  5
4F
330
2D
100
AcDbEntity
  8
0
  6
ByBlock
 62
     0
100
AcDbLine
 10
11.28648333696508
 20
2.305200504107973
 30
0.0
 11
11.832040241747
 21
2.305200504107973
 31
0.0
  0
LINE
  5
50
330
2D
100
AcDbEntity
  8
0
  6
ByBlock
 62
     0
100
AcDbLine
 10
9.973983336965087
 20
6.923803263986797
 30
0.0
 11
11.832040241747
 21
6.923803263986797
 31
0.0
  0
LINE
  5
51
330
2D
100
AcDbEntity
  8
0
  6
ByBlock
 62
     0
100
AcDbLine
 10
11.652040241747
 20
2.305200504107973
 30
0.0
 11
11.652040241747
 21
4.197835217380718
 31
0.0
  0
LINE
  5
52
330
2D
100
AcDbEntity
  8
0
  6
ByBlock
 62
     0
100
AcDbLine
 10
11.652040241747
 20
6.923803263986797
 30
0.0
 11
11.652040241747
 21
5.031168550714052
 31
0.0
  0
LINE
  5
53
330
2D
100
AcDbEntity
  8
0
  6
ByBlock
 62
     0
100
AcDbLine
 10
11.777040241747
 20
2.180200504107973
 30
0.0
 11
11.527040241747
 21
2.430200504107973
 31
0.0
  0
LINE
  5
54
330
2D
100
AcDbEntity
  8
0
  6
ByBlock
 62
     0
100
AcDbLine
 10
11.777040241747
 20
6.798803263986797
 30
0.0
 11
11.527040241747
 21
7.048803263986797
 31
0.0
  0
TEXT
  5
55
330
2D
100
AcDbEntity
  8
0
  6
ByBlock
 62
     0
100
AcDbText
 10
11.714540241747
 20
4.322835217380718
 30
0.0
 40
0.125
  1
4 5/8
 50
90.0
 72
     1
 11
11.652040241747
 21
4.614501884047385
 31
0.0
100
AcDbText
 73
     2
  0
POINT
  5
56
330
2D
100
AcDbEntity
  8
DEFPOINTS
  6
ByBlock
 62
     0
100
AcDbPoint
 10
11.22398333696509
 20
2.305200504107973
 30
0.0
  0
POINT
  5
57
330
2D
100
AcDbEntity
  8
DEFPOINTS
  6
ByBlock
 62
     0
100
AcDbPoint
 10
9.911483336965087
 20
6.923803263986797
 30
0.0
  0
POINT
  5
58
330
2D
100
AcDbEntity
  8
DEFPOINTS
  6
ByBlock
 62
     0
100
AcDbPoint
 10
11.652040241747
 20
6.923803263986797
 30
0.0
  0
ENDBLK
  5
59
330
2D
100
AcDbEntity
  8
0
100
AcDbBlockEnd
  0
BLOCK
  5
5A
330
2E
100
AcDbEntity
  8
0
100
AcDbBlockBegin
  2
*D1
 70
     1
 10
0.0
 20
0.0
 30
0.0
  3
*D1
  1

  0
LINE
  5
5B
330
2E
100
AcDbEntity
  8
0
  6
ByBlock
 62
     0
100
AcDbLine
 10
8.098983336965087
 20
2.242700504107972
 30
0.0
 11
8.098983336965087
 21
1.793185402151191
 31
0.0
  0
LINE
  5
5C
330
2E
100
AcDbEntity
  8
0
  6
ByBlock
 62
     0
100
AcDbLine
 10
11.22398333696509
 20
2.242700504107973
 30
0.0
 11
11.22398333696509
 21
1.793185402151191
 31
0.0
  0
LINE
  5
5D
330
2E
100
AcDbEntity
  8
0
  6
ByBlock
 62
     0
100
AcDbLine
 10
8.098983336965087
 20
1.973185402151191
 30
0.0
 11
9.265650003631753
 21
1.973185402151191
 31
0.0
  0
LINE
  5
5E
330
2E
100
AcDbEntity
  8
0
  6
ByBlock
 62
     0
100
AcDbLine
 10
11.22398333696509
 20
1.973185402151191
 30
0.0
 11
10.05731667029842
 21
1.973185402151191
 31
0.0
  0
LINE
  5
5F
330
2E
100
AcDbEntity
  8
0
  6
ByBlock
 62
     0
100
AcDbLine
 10
7.973983336965087
 20
1.848185402151191
 30
0.0
 11
8.223983336965087
 21
2.098185402151191
 31
0.0
  0
LINE
  5
60
330
2E
100
AcDbEntity
  8
0
  6
ByBlock
 62
     0
100
AcDbLine
 10
11.09898333696508
 20
1.848185402151191
 30
0.0
 11
11.34898333696509
 21
2.098185402151191
 31
0.0
  0
TEXT
  5
61
330
2E
100
AcDbEntity
  8
0
  6
ByBlock
 62
     0
100
AcDbText
 10
9.390650003631753
 20
1.910685402151191
 30
0.0
 40
0.125
  1
3 1/8
 72
     1
 11
9.661483336965087
 21
1.973185402151191
 31
0.0
100
AcDbText
 73
     2
  0
POINT
  5
62
330
2E
100
AcDbEntity
  8
DEFPOINTS
  6
ByBlock
 62
     0
100
AcDbPoint
 10
8.098983336965087
 20
2.305200504107972
 30
0.0
  0
POINT
  5
63
330
2E
100
AcDbEntity
  8
DEFPOINTS
  6
ByBlock
 62
     0
100
AcDbPoint
 10
11.22398333696509
 20
2.305200504107973
 30
0.0
  0
POINT
  5
64
330
2E
100
AcDbEntity
  8
DEFPOINTS
  6
ByBlock
 62
     0
100
AcDbPoint
 10
11.22398333696509
 20
1.973185402151191
 30
0.0
  0
ENDBLK
  5
65
330
2E
100
AcDbEntity
  8
0
100
AcDbBlockEnd
  0
BLOCK
  5
222
330
217
100
AcDbEntity
  8
0
 62
     3
100
AcDbBlockBegin
  2
*D2
 70
     1
 10
0.0
 20
0.0
 30
0.0
  3
*D2
  1

  0
LINE
  5
218
330
217
100
AcDbEntity
  8
ADPDIM
 62
     0
370
    -2
100
AcDbLine
 10
8.574796822115629
 20
5.915740586128464
 30
0.0
 11
8.574796822115629
 21
7.390803884999748
 31
0.0
  0
LINE
  5
219
330
217
100
AcDbEntity
  8
ADPDIM
 62
     0
370
    -2
100
AcDbLine
 10
9.762296822115629
 20
5.915740586128464
 30
0.0
 11
9.762296822115629
 21
7.390803884999748
 31
0.0
  0
LINE
  5
21A
330
217
100
AcDbEntity
  8
ADPDIM
 62
     0
370
    -2
100
AcDbLine
 10
8.574796822115629
 20
7.210803884999748
 30
0.0
 11
8.772713488782295
 21
7.210803884999748
 31
0.0
  0
LINE
  5
21B
330
217
100
AcDbEntity
  8
ADPDIM
 62
     0
370
    -2
100
AcDbLine
 10
9.762296822115629
 20
7.210803884999748
 30
0.0
 11
9.564380155448963
 21
7.210803884999748
 31
0.0
  0
LINE
  5
21C
330
217
100
AcDbEntity
  8
ADPDIM
 62
     0
370
    -2
100
AcDbLine
 10
9.637296822115629
 20
7.085803884999748
 30
0.0
 11
9.887296822115629
 21
7.335803884999748
 31
0.0
  0
LINE
  5
21D
330
217
100
AcDbEntity
  8
ADPDIM
 62
     0
370
    -2
100
AcDbLine
 10
8.449796822115629
 20
7.085803884999748
 30
0.0
 11
8.699796822115629
 21
7.335803884999748
 31
0.0
  0
MTEXT
  5
21E
330
217
100
AcDbEntity
  8
ADPDIM
 62
     0
100
AcDbMText
 10
9.168546822115629
 20
7.210803884999748
 30
0.0
 40
0.125
 41
0.0
 71
     5
 72
     1
  1
\A1;1.1875
 73
     1
 44
1.0
1001
ACAD
1000
MTEXTBEGIN
1070
    73
1070
     1
1070
    44
1040
1.0
1070
    74
1070
     0
1000
MTEXTEND
  0
POINT
  5
21F
330
217
100
AcDbEntity
  8
DEFPOINTS
 62
     0
100
AcDbPoint
 10
8.574796822115629
 20
5.853240586128464
 30
0.0
  0
POINT
  5
220
330
217
100
AcDbEntity
  8
DEFPOINTS
 62
     0
100
AcDbPoint
 10
9.762296822115629
 20
5.853240586128464
 30
0.0
  0
POINT
  5
221
330
217
100
AcDbEntity
  8
DEFPOINTS
 62
     0
100
AcDbPoint
 10
9.762296822115629
 20
7.210803884999748
 30
0.0
  0
ENDBLK
  5
223
330
217
100
AcDbEntity
  8
0
 62
     3
100
AcDbBlockEnd
  0
BLOCK
  5
230
330
225
100
AcDbEntity
  8
0
 62
     3
100
AcDbBlockBegin
  2
*D3
 70
     1
 10
0.0
 20
0.0
 30
0.0
  3
*D3
  1

  0
LINE
  5
278
330
225
100
AcDbEntity
  8
ADPDIM
 62
     0
370
    -2
100
AcDbLine
 10
8.574796822115629
 20
5.915740586128464
 30
0.0
 11
8.574796822115629
 21
7.617064410465786
 31
0.0
  0
LINE
  5
279
330
225
100
AcDbEntity
  8
ADPDIM
 62
     0
370
    -2
100
AcDbLine
 10
10.76229682211563
 20
5.915740586128464
 30
0.0
 11
10.76229682211563
 21
7.617064410465786
 31
0.0
  0
LINE
  5
27A
330
225
100
AcDbEntity
  8
ADPDIM
 62
     0
370
    -2
100
AcDbLine
 10
8.574796822115629
 20
7.437064410465787
 30
0.0
 11
9.210213488782295
 21
7.437064410465787
 31
0.0
  0
LINE
  5
27B
330
225
100
AcDbEntity
  8
ADPDIM
 62
     0
370
    -2
100
AcDbLine
 10
10.76229682211563
 20
7.437064410465787
 30
0.0
 11
10.12688015544896
 21
7.437064410465787
 31
0.0
  0
LINE
  5
27C
330
225
100
AcDbEntity
  8
ADPDIM
 62
     0
370
    -2
100
AcDbLine
 10
10.63729682211563
 20
7.312064410465787
 30
0.0
 11
10.88729682211563
 21
7.562064410465787
 31
0.0
  0
LINE
  5
27D
330
225
100
AcDbEntity
  8
ADPDIM
 62
     0
370
    -2
100
AcDbLine
 10
8.449796822115629
 20
7.312064410465787
 30
0.0
 11
8.699796822115629
 21
7.562064410465787
 31
0.0
  0
MTEXT
  5
27E
330
225
100
AcDbEntity
  8
ADPDIM
 62
     0
100
AcDbMText
 10
9.668546822115629
 20
7.437064410465787
 30
0.0
 40
0.125
 41
0.0
 71
     5
 72
     1
  1
\A1;2 3/16
 73
     1
 44
1.0
1001
ACAD
1000
MTEXTBEGIN
1070
    73
1070
     1
1070
    44
1040
1.0
1070
    74
1070
     0
1000
MTEXTEND
  0
POINT
  5
27F
330
225
100
AcDbEntity
  8
DEFPOINTS
 62
     0
100
AcDbPoint
 10
8.574796822115629
 20
5.853240586128464
 30
0.0
  0
POINT
  5
280
330
225
100
AcDbEntity
  8
DEFPOINTS
 62
     0
100
AcDbPoint
 10
10.76229682211563
 20
5.853240586128464
 30
0.0
  0
POINT
  5
281
330
225
100
AcDbEntity
  8
DEFPOINTS
 62
     0
100
AcDbPoint
 10
10.76229682211563
 20
7.437064410465787
 30
0.0
  0
ENDBLK
  5
231
330
225
100
AcDbEntity
  8
0
 62
     3
100
AcDbBlockEnd
  0
BLOCK
  5
23E
330
233
100
AcDbEntity
  8
0
 62
     3
100
AcDbBlockBegin
  2
*D4
 70
     1
 10
0.0
 20
0.0
 30
0.0
  3
*D4
  1

  0
LINE
  5
282
330
233
100
AcDbEntity
  8
ADPDIM
 62
     0
370
    -2
100
AcDbLine
 10
8.170272605391609
 20
2.267628503470717
 30
0.0
 11
8.170272605391609
 21
1.863396529534451
 31
0.0
  0
LINE
  5
283
330
233
100
AcDbEntity
  8
ADPDIM
 62
     0
370
    -2
100
AcDbLine
 10
11.17027260539161
 20
2.267628503470717
 30
0.0
 11
11.17027260539161
 21
1.863396529534451
 31
0.0
  0
LINE
  5
284
330
233
100
AcDbEntity
  8
ADPDIM
 62
     0
370
    -2
100
AcDbLine
 10
8.170272605391609
 20
2.043396529534451
 30
0.0
 11
9.503605938724943
 21
2.043396529534451
 31
0.0
  0
LINE
  5
285
330
233
100
AcDbEntity
  8
ADPDIM
 62
     0
370
    -2
100
AcDbLine
 10
11.17027260539161
 20
2.043396529534451
 30
0.0
 11
9.836939272058275
 21
2.043396529534451
 31
0.0
  0
LINE
  5
286
330
233
100
AcDbEntity
  8
ADPDIM
 62
     0
370
    -2
100
AcDbLine
 10
11.04527260539161
 20
1.918396529534451
 30
0.0
 11
11.29527260539161
 21
2.168396529534451
 31
0.0
  0
LINE
  5
287
330
233
100
AcDbEntity
  8
ADPDIM
 62
     0
370
    -2
100
AcDbLine
 10
8.045272605391609
 20
1.918396529534451
 30
0.0
 11
8.295272605391609
 21
2.168396529534451
 31
0.0
  0
MTEXT
  5
288
330
233
100
AcDbEntity
  8
ADPDIM
 62
     0
100
AcDbMText
 10
9.670272605391609
 20
2.043396529534451
 30
0.0
 40
0.125
 41
0.0
 71
     5
 72
     1
  1
\A1;3
 73
     1
 44
1.0
1001
ACAD
1000
MTEXTBEGIN
1070
    73
1070
     1
1070
    44
1040
1.0
1070
    74
1070
     0
1000
MTEXTEND
  0
POINT
  5
289
330
233
100
AcDbEntity
  8
DEFPOINTS
 62
     0
100
AcDbPoint
 10
8.170272605391609
 20
2.330128503470717
 30
0.0
  0
POINT
  5
28A
330
233
100
AcDbEntity
  8
DEFPOINTS
 62
     0
100
AcDbPoint
 10
11.17027260539161
 20
2.330128503470717
 30
0.0
  0
POINT
  5
28B
330
233
100
AcDbEntity
  8
DEFPOINTS
 62
     0
100
AcDbPoint
 10
11.17027260539161
 20
2.043396529534451
 30
0.0
  0
ENDBLK
  5
23F
330
233
100
AcDbEntity
  8
0
 62
     3
100
AcDbBlockEnd
  0
ENDSEC
  0
SECTION
  2
ENTITIES
  0
ARC
  5
66
330
18
100
AcDbEntity
  8
ADP2DETAIL
  6
HIDDEN2
100
AcDbCircle
 10
9.661483336965087
 20
5.836450504107974
 30
0.0
 40
0.84375
100
AcDbArc
 50
305.8533549888311
 51
234.1466450111688
  0
DIMENSION
  5
67
330
18
100
AcDbEntity
  8
ADPDIM
100
AcDbDimension
  2
*D0
 10
11.652040241747
 20
6.923803263986797
 30
0.0
 11
11.652040241747
 21
4.614501884047385
 31
0.0
 71
     5
 42
-1.0
100
AcDbAlignedDimension
 13
11.22398333696509
 23
2.305200504107973
 33
0.0
 14
9.911483336965087
 24
6.923803263986797
 34
0.0
 50
90.0
100
AcDbRotatedDimension
  0
ARC
  5
68
330
18
100
AcDbEntity
  8
ADP1DETAIL
100
AcDbCircle
 10
9.661483336965087
 20
5.836450504107974
 30
0.0
 40
1.09375
100
AcDbArc
 50
305.8533549888311
 51
234.1466450111688
  0
LINE
  5
69
330
18
100
AcDbEntity
  8
ADP1DETAIL
100
AcDbLine
 10
8.098983336965087
 20
-1.385447969593428
 30
0.0
 11
8.098983336965087
 21
1.239552030406571
 31
0.0
  0
LINE
  5
6A
330
18
100
AcDbEntity
  8
ADP1DETAIL
100
AcDbLine
 10
7.973983336965087
 20
-1.510447969593428
 30
0.0
 11
7.973983336965087
 21
1.364552030406571
 31
0.0
  0
LINE
  5
6B
330
18
100
AcDbEntity
  8
ADP1DETAIL
100
AcDbLine
 10
11.34898333696509
 20
1.364552030406571
 30
0.0
 11
11.34898333696509
 21
-1.510447969593428
 31
0.0
  0
LINE
  5
6C
330
18
100
AcDbEntity
  8
ADP1DETAIL
100
AcDbLine
 10
11.22398333696509
 20
1.239552030406571
 30
0.0
 11
11.22398333696509
 21
-1.385447969593428
 31
0.0
  0
CIRCLE
  5
6D
330
18
100
AcDbEntity
  8
ADP2DETAIL
  6
HIDDEN2
100
AcDbCircle
 10
9.664646113549981
 20
-0.0729479695934283
 30
0.0
 40
0.8412463789716593
  0
CIRCLE
  5
6E
330
18
100
AcDbEntity
  8
ADP1DETAIL
100
AcDbCircle
 10
9.664646113549981
 20
-0.0729479695934283
 30
0.0
 40
1.181598279706513
  0
CIRCLE
  5
6F
330
18
100
AcDbEntity
  8
ADP1DETAIL
100
AcDbCircle
 10
9.664646113549981
 20
-0.0729479695934283
 30
0.0
 40
1.066016629019073
  0
LINE
  5
70
330
18
100
AcDbEntity
  8
ADP1DETAIL
100
AcDbLine
 10
11.09898333696508
 20
-1.760447969593428
 30
0.0
 11
8.223983336965087
 21
-1.760447969593428
 31
0.0
  0
LINE
  5
71
330
18
100
AcDbEntity
  8
ADP1DETAIL
100
AcDbLine
 10
10.97398333696508
 20
-1.635447969593428
 30
0.0
 11
8.348983336965087
 21
-1.635447969593428
 31
0.0
  0
ARC
  5
72
330
18
100
AcDbEntity
  8
ADP1DETAIL
100
AcDbCircle
 10
8.223983336965087
 20
-1.510447969593428
 30
0.0
 40
0.25
100
AcDbArc
 50
180.0
 51
270.0
  0
ARC
  5
73
330
18
100
AcDbEntity
  8
ADP1DETAIL
100
AcDbCircle
 10
8.348983336965087
 20
-1.385447969593428
 30
0.0
 40
0.25
100
AcDbArc
 50
180.0
 51
270.0
  0
ARC
  5
74
330
18
100
AcDbEntity
  8
ADP1DETAIL
100
AcDbCircle
 10
11.09898333696508
 20
-1.510447969593428
 30
0.0
 40
0.25
100
AcDbArc
 50
270.0
 51
0.0
  0
ARC
  5
75
330
18
100
AcDbEntity
  8
ADP1DETAIL
100
AcDbCircle
 10
10.97398333696508
 20
-1.385447969593428
 30
0.0
 40
0.25
100
AcDbArc
 50
270.0
 51
0.0
  0
LINE
  5
76
330
18
100
AcDbEntity
  8
ADP1DETAIL
100
AcDbLine
 10
8.348983336965087
 20
1.489552030406571
 30
0.0
 11
10.97398333696508
 21
1.489552030406571
 31
0.0
  0
LINE
  5
77
330
18
100
AcDbEntity
  8
ADP1DETAIL
100
AcDbLine
 10
8.223983336965087
 20
1.614552030406571
 30
0.0
 11
11.09898333696508
 21
1.614552030406571
 31
0.0
  0
LWPOLYLINE
  5
78
330
18
100
AcDbEntity
  8
ADP2DETAIL
  6
HIDDEN2
100
AcDbPolyline
 90
        5
 70
     0
 43
0.0
 10
8.170876367909329
 20
3.058388012556507
 10
8.400468566293218
 20
3.058388012556507
 42
-0.4349189342890749
 10
8.699008226822911
 20
3.456298403372499
 42
0.2781167243660151
 10
9.182358153394796
 20
4.29475245818793
 42
0.1004346484083882
 10
9.168141979083857
 20
5.13320649762631
 42
-1.244680134476131
  0
LINE
  5
80
330
18
100
AcDbEntity
  8
ADP1DETAIL
100
AcDbLine
 10
8.098983336965087
 20
2.305200504107973
 30
0.0
 11
11.22398333696509
 21
2.305200504107973
 31
0.0
  0
LINE
  5
81
330
18
100
AcDbEntity
  8
ADP1DETAIL
100
AcDbLine
 10
8.098983336965089
 20
3.180200504107973
 30
0.0
 11
11.22398333696508
 21
3.180200504107972
 31
0.0
  0
LINE
  5
82
330
18
100
AcDbEntity
  8
ADP1DETAIL
100
AcDbLine
 10
8.484610071030679
 20
3.555200504107972
 30
0.0
 11
10.83835660289949
 21
3.555200504107972
 31
0.0
  0
LINE
  5
83
330
18
100
AcDbEntity
  8
ADP1DETAIL
100
AcDbLine
 10
8.48961007103068
 20
3.680200504107973
 30
0.0
 11
10.83335660289949
 21
3.680200504107973
 31
0.0
  0
LINE
  5
84
330
18
100
AcDbEntity
  8
ADP1DETAIL
100
AcDbLine
 10
8.61461007103068
 20
4.699945628969921
 30
0.0
 11
10.70835660289949
 21
4.699945628969921
 31
0.0
  0
LINE
  5
85
330
18
100
AcDbEntity
  8
ADP1DETAIL
100
AcDbLine
 10
10.30210660289949
 20
4.949945628969921
 30
0.0
 11
9.02086007103068
 21
4.949945628969921
 31
0.0
  0
LINE
  5
86
330
18
100
AcDbEntity
  8
ADP1DETAIL
100
AcDbLine
 10
9.02086007103068
 20
4.949945628969921
 30
0.0
 11
10.30210660289949
 21
4.949945628969921
 31
0.0
  0
ARC
  5
87
330
18
100
AcDbEntity
  8
ADP1DETAIL
100
AcDbCircle
 10
8.484610071030679
 20
3.185200504107972
 30
0.0
 40
0.37
100
AcDbArc
 50
90.0
 51
180.0
  0
ARC
  5
88
330
18
100
AcDbEntity
  8
ADP1DETAIL
100
AcDbCircle
 10
8.223983336965087
 20
1.364552030406571
 30
0.0
 40
0.25
100
AcDbArc
 50
90.0
 51
180.0
  0
ARC
  5
89
330
18
100
AcDbEntity
  8
ADP1DETAIL
100
AcDbCircle
 10
8.348983336965087
 20
1.239552030406571
 30
0.0
 40
0.25
100
AcDbArc
 50
90.0
 51
180.0
  0
LINE
  5
8A
330
18
100
AcDbEntity
  8
ADP2DETAIL
  6
HIDDEN2
100
AcDbLine
 10
8.170876367909329
 20
3.058388012556507
 30
0.0
 11
8.170876367909329
 21
2.305200504107972
 31
0.0
  0
LINE
  5
8B
330
18
100
AcDbEntity
  8
ADP1DETAIL
100
AcDbLine
 10
7.973983336965087
 20
2.430200504107973
 30
0.0
 11
7.973983336965089
 21
3.055200504107972
 31
0.0
  0
ARC
  5
8C
330
18
100
AcDbEntity
  8
ADP1DETAIL
100
AcDbCircle
 10
8.098983336965087
 20
2.430200504107973
 30
0.0
 40
0.125
100
AcDbArc
 50
179.9999999999998
 51
270.0
  0
ARC
  5
8D
330
18
100
AcDbEntity
  8
ADP1DETAIL
100
AcDbCircle
 10
8.098983336965089
 20
3.055200504107972
 30
0.0
 40
0.125
100
AcDbArc
 50
90.0
 51
180.0
  0
LWPOLYLINE
  5
8E
330
18
100
AcDbEntity
  8
ADP1DETAIL
100
AcDbPolyline
 90
        2
 70
     0
 43
0.0
 10
9.02086007103068
 20
4.949945628969921
 42
0.2495982808683189
 10
8.61461007103068
 20
4.699945628969921
 42
-2.159919181622342
  0
LWPOLYLINE
  5
92
330
18
100
AcDbEntity
  8
ADP1DETAIL
100
AcDbPolyline
 90
        2
 70
     0
 43
0.0
 10
8.61461007103068
 20
4.699945628969921
 42
-0.8575944227573907
 10
8.48961007103068
 20
3.680200504107973
 42
-1.031544389899767
  0
LINE
  5
96
330
18
100
AcDbEntity
  8
ADP1DETAIL
100
AcDbLine
 10
8.48961007103068
 20
3.680200504107973
 30
0.0
 11
8.48961007103068
 21
3.555200504107972
 31
0.0
  0
LWPOLYLINE
  5
97
330
18
100
AcDbEntity
  8
ADP2DETAIL
  6
HIDDEN2
100
AcDbPolyline
 90
        5
 70
     0
 43
0.0
 10
11.16714798466326
 20
3.058388012556507
 10
10.92249810763695
 20
3.058388012556507
 42
0.4349189342890749
 10
10.62395844710726
 20
3.456298403372499
 42
-0.2781167243660151
 10
10.14060852053538
 20
4.29475245818793
 42
-0.1004346484083882
 10
10.15482469484632
 20
5.13320649762631
 42
1.244680134476131
  0
ARC
  5
9E
330
18
100
AcDbEntity
  8
ADP1DETAIL
100
AcDbCircle
 10
10.83835660289949
 20
3.185200504107972
 30
0.0
 40
0.37
100
AcDbArc
 50
0.0
 51
90.0
  0
ARC
  5
9F
330
18
100
AcDbEntity
  8
ADP1DETAIL
100
AcDbCircle
 10
11.09898333696508
 20
1.364552030406571
 30
0.0
 40
0.25
100
AcDbArc
 50
0.0
 51
90.0
  0
ARC
  5
A0
330
18
100
AcDbEntity
  8
ADP1DETAIL
100
AcDbCircle
 10
10.97398333696508
 20
1.239552030406571
 30
0.0
 40
0.25
100
AcDbArc
 50
0.0
 51
90.0
  0
ARC
  5
A1
330
18
100
AcDbEntity
  8
ADP1DETAIL
100
AcDbCircle
 10
11.22398333696509
 20
2.430200504107973
 30
0.0
 40
0.125
100
AcDbArc
 50
270.0
 51
0.0000000000001272
  0
ARC
  5
A2
330
18
100
AcDbEntity
  8
ADP1DETAIL
100
AcDbCircle
 10
11.22398333696508
 20
3.055200504107972
 30
0.0
 40
0.125
100
AcDbArc
 50
0.0
 51
90.0
  0
LINE
  5
A3
330
18
100
AcDbEntity
  8
ADP2DETAIL
  6
HIDDEN2
100
AcDbLine
 10
11.16714798466326
 20
3.058388012556507
 30
0.0
 11
11.16714798466326
 21
2.305200504107972
 31
0.0
  0
LINE
  5
A4
330
18
100
AcDbEntity
  8
ADP1DETAIL
100
AcDbLine
 10
11.34898333696509
 20
2.430200504107973
 30
0.0
 11
11.34898333696508
 21
3.055200504107972
 31
0.0
  0
LWPOLYLINE
  5
A5
330
18
100
AcDbEntity
  8
ADP1DETAIL
100
AcDbPolyline
 90
        2
 70
     0
 43
0.0
 10
10.70835660289949
 20
4.699945628969921
 42
0.8575944227573907
 10
10.83335660289949
 20
3.680200504107973
 42
1.031544389899767
  0
LWPOLYLINE
  5
A9
330
18
100
AcDbEntity
  8
ADP1DETAIL
100
AcDbPolyline
 90
        2
 70
     0
 43
0.0
 10
10.30210660289949
 20
4.949945628969921
 42
-0.2495982808683189
 10
10.70835660289949
 20
4.699945628969921
 42
2.159919181622342
  0
LINE
  5
AD
330
18
100
AcDbEntity
  8
ADP1DETAIL
100
AcDbLine
 10
10.83335660289949
 20
3.680200504107973
 30
0.0
 11
10.83335660289949
 21
3.555200504107972
 31
0.0
  0
TEXT
  5
BB
330
18
100
AcDbEntity
  8
ADPDIM
100
AcDbText
 10
-0.1271101998698381
 20
-2.64010467572851
 30
0.0
 40
0.1875
  1
J U L I U S  B L U M  &  C O . ,  I N C .      ( 8 0 0 )  5 2 6 - 6 2 9 3        W W W . J U L I U S B L U M . C O M        P A R T  N o .  5 3 3 0
 41
1.25
  7
ARIAL_WIDE
 72
     1
 11
9.661483336965087
 21
-2.45260467572851
 31
0.0
100
AcDbText
 73
     3
  0
DIMENSION
  5
224
330
18
100
AcDbEntity
  8
ADPDIM
 62
     3
100
AcDbDimension
  2
*D3
 10
10.76229682211563
 20
7.437064410465787
 30
0.0
 11
9.668546822115629
 21
7.437064410465787
 31
0.0
 70
    32
 71
     5
 42
2.1875
  3
STANDARD
100
AcDbAlignedDimension
 13
8.574796822115629
 23
5.853240586128464
 33
0.0
 14
10.76229682211563
 24
5.853240586128464
 34
0.0
100
AcDbRotatedDimension
1001
ACAD
1000
DSTYLE
1002
{
1070
   276
1070
     2
1070
   277
1070
     5
1070
    41
1040
0.125
1070
    73
1070
     0
1070
    74
1070
     0
1070
    78
1070
     3
1070
   140
1040
0.125
1070
   141
1040
0.1875
1070
   142
1040
0.125
1070
   147
1040
0.125
1070
   171
1070
     1
1002
}
  0
DIMENSION
  5
232
330
18
100
AcDbEntity
  8
ADPDIM
 62
     3
100
AcDbDimension
  2
*D4
 10
11.17027260539161
 20
2.043396529534451
 30
0.0
 11
9.670272605391609
 21
2.043396529534451
 31
0.0
 70
    32
 71
     5
 42
3.0
  3
STANDARD
100
AcDbAlignedDimension
 13
8.170272605391609
 23
2.330128503470717
 33
0.0
 14
11.17027260539161
 24
2.330128503470717
 34
0.0
100
AcDbRotatedDimension
1001
ACAD
1000
DSTYLE
1002
{
1070
   276
1070
     2
1070
   277
1070
     5
1070
    41
1040
0.125
1070
    73
1070
     0
1070
    74
1070
     0
1070
    78
1070
     3
1070
   140
1040
0.125
1070
   141
1040
0.1875
1070
   142
1040
0.125
1070
   147
1040
0.125
1070
   171
1070
     1
1002
}
  0
ENDSEC
  0
SECTION
  2
OBJECTS
  0
DICTIONARY
  5
C
330
0
100
AcDbDictionary
281
     1
  3
ACAD_COLOR
350
210
  3
ACAD_GROUP
350
D
  3
ACAD_LAYOUT
350
B4
  3
ACAD_MATERIAL
350
1FB
  3
ACAD_MLINESTYLE
350
E
  3
ACAD_PLOTSETTINGS
350
B5
  3
ACAD_PLOTSTYLENAME
350
B2
  3
ACAD_TABLESTYLE
350
211
  3
ACAD_VISUALSTYLE
350
1FF
  3
AcDbVariableDictionary
350
115
  3
ASE_INDEX_DICTIONARY
350
28D
  3
DWGPROPS
350
2AF
  0
DICTIONARY
  5
10F
330
18
100
AcDbDictionary
280
     1
281
     1
  3
ACAD_LAYOUTSELFREF
360
1F5
  0
DICTIONARY
  5
10D
330
15
100
AcDbDictionary
280
     1
281
     1
  3
ACAD_LAYOUTSELFREF
360
1F4
  0
DICTIONARY
  5
210
102
{ACAD_REACTORS
330
C
102
}
330
C
100
AcDbDictionary
281
     1
  0
DICTIONARY
  5
D
102
{ACAD_REACTORS
330
C
102
}
330
C
100
AcDbDictionary
281
     1
  0
DICTIONARY
  5
B4
102
{ACAD_REACTORS
330
C
102
}
330
C
100
AcDbDictionary
281
     1
  3
Layout1
350
B7
  3
Model
350
B6
  0
DICTIONARY
  5
1FB
102
{ACAD_REACTORS
330
C
102
}
330
C
100
AcDbDictionary
281
     1
  3
ByBlock
350
1FD
  3
ByLayer
350
1FC
  3
Global
350
1FE
  0
DICTIONARY
  5
E
102
{ACAD_REACTORS
330
C
102
}
330
C
100
AcDbDictionary
281
     1
  3
STANDARD
350
1B
  0
DICTIONARY
  5
B5
102
{ACAD_REACTORS
330
C
102
}
330
C
100
AcDbDictionary
281
     1
  0
ACDBDICTIONARYWDFLT
  5
B2
102
{ACAD_REACTORS
330
C
102
}
330
C
100
AcDbDictionary
281
     1
  3
Normal
350
B3
100
AcDbDictionaryWithDefault
340
B3
  0
DICTIONARY
  5
211
102
{ACAD_REACTORS
330
C
102
}
330
C
100
AcDbDictionary
281
     1
  3
Standard
350
212
  0
DICTIONARY
  5
1FF
102
{ACAD_REACTORS
330
C
102
}
330
C
100
AcDbDictionary
281
     1
  3
2dWireframe
350
205
  3
3D Hidden
350
207
  3
3dWireframe
350
206
  3
Basic
350
204
  3
Brighten
350
20B
  3
ColorChange
350
20F
  3
Conceptual
350
208
  3
Dim
350
20A
  3
Facepattern
350
20E
  3
Flat
350
200
  3
FlatWithEdges
350
201
  3
Gouraud
350
202
  3
GouraudWithEdges
350
203
  3
Linepattern
350
20D
  3
Realistic
350
209
  3
Thicken
350
20C
  0
DICTIONARY
  5
115
102
{ACAD_REACTORS
330
C
102
}
330
C
100
AcDbDictionary
281
     1
  3
CTABLESTYLE
350
2AC
  3
DIMASSOC
350
116
  3
INDEXCTL
350
2AE
  3
SORTENTS
350
2AD
  0
DICTIONARY
  5
28D
102
{ACAD_REACTORS
330
C
102
}
330
C
100
AcDbDictionary
281
     1
  3
ASEBlockHierarchyIndexRecord
350
28F
1001
DCO15
1040
1569007766.407
  0
XRECORD
  5
2AF
102
{ACAD_REACTORS
330
C
102
}
330
C
100
AcDbXrecord
280
     1
  1
DWGPROPS COOKIE
  2

  3

  4

  6

  7

  8
Yu Hu
  9

300
=
301
=
302
=
303
=
304
=
305
=
306
=
307
=
308
=
309
=
 40
0.0609764583333333
 41
2450256.666315775
 42
2453963.023963044
  1

 90
        0
  0
XRECORD
  5
1F5
102
{ACAD_REACTORS
330
10F
102
}
330
10F
100
AcDbXrecord
280
     1
340
18
  0
XRECORD
  5
1F4
102
{ACAD_REACTORS
330
10D
102
}
330
10D
100
AcDbXrecord
280
     1
340
15
  0
LAYOUT
  5
B7
102
{ACAD_XDICTIONARY
360
2B2
102
}
102
{ACAD_REACTORS
330
B4
102
}
330
B4
100
AcDbPlotSettings
  1

  2
Fax
  4

  6

 40
0.0
 41
0.0
 42
0.0
 43
0.0
 44
0.0
 45
0.0
 46
0.0
 47
0.0
 48
0.0
 49
0.0
140
0.0
141
0.0
142
1.0
143
1.0
 70
   688
 72
     0
 73
     0
 74
     5
  7
Default R14 pen assignments.ctb
 75
    16
147
1.0
148
0.0
149
0.0
100
AcDbLayout
  1
Layout1
 70
     1
 71
     1
 10
0.0
 20
0.0
 11
12.0
 21
9.0
 12
0.7500119209289564
 22
0.0
 32
0.0
 14
1.000000000000000E+20
 24
1.000000000000000E+20
 34
1.000000000000000E+20
 15
-1.000000000000000E+20
 25
-1.000000000000000E+20
 35
-1.000000000000000E+20
146
0.0
 13
0.0
 23
0.0
 33
0.0
 16
1.0
 26
0.0
 36
0.0
 17
0.0
 27
1.0
 37
0.0
 76
     0
330
15
  0
LAYOUT
  5
B6
102
{ACAD_XDICTIONARY
360
2B0
102
}
102
{ACAD_REACTORS
330
B4
102
}
330
B4
100
AcDbPlotSettings
  1

  2
Fax
  4

  6

 40
0.0
 41
0.0
 42
0.0
 43
0.0
 44
0.0
 45
0.0
 46
0.0
 47
0.0
 48
0.0
 49
0.0
140
0.0
141
0.0
142
1.0
143
1.0
 70
  1712
 72
     0
 73
     0
 74
     0
  7
Default R14 pen assignments.ctb
 75
     0
147
1.0
148
0.0
149
0.0
100
AcDbLayout
  1
Model
 70
     1
 71
     0
 10
0.0
 20
0.0
 11
12.0
 21
9.0
 12
0.0
 22
0.0
 32
0.0
 14
0.0
 24
0.0
 34
0.0
 15
0.0
 25
0.0
 35
0.0
146
0.0
 13
0.0
 23
0.0
 33
0.0
 16
1.0
 26
0.0
 36
0.0
 17
0.0
 27
1.0
 37
0.0
 76
     0
330
18
331
1CF
  0
MATERIAL
  5
1FD
102
{ACAD_XDICTIONARY
360
2B6
102
}
102
{ACAD_REACTORS
330
1FB
102
}
330
1FB
100
AcDbMaterial
  1
ByBlock
  0
MATERIAL
  5
1FC
102
{ACAD_XDICTIONARY
360
2B4
102
}
102
{ACAD_REACTORS
330
1FB
102
}
330
1FB
100
AcDbMaterial
  1
ByLayer
  0
MATERIAL
  5
1FE
102
{ACAD_XDICTIONARY
360
2B8
102
}
102
{ACAD_REACTORS
330
1FB
102
}
330
1FB
100
AcDbMaterial
  1
Global
  0
MLINESTYLE
  5
1B
102
{ACAD_REACTORS
330
E
102
}
330
E
100
AcDbMlineStyle
  2
STANDARD
 70
     0
  3

 62
     0
 51
90.0
 52
90.0
 71
     2
 49
0.5
 62
   256
  6
BYLAYER
 49
-0.5
 62
   256
  6
BYLAYER
  0
ACDBPLACEHOLDER
  5
B3
102
{ACAD_REACTORS
330
B2
102
}
330
B2
  0
TABLESTYLE
  5
212
102
{ACAD_XDICTIONARY
360
2BA
102
}
102
{ACAD_REACTORS
330
211
102
}
330
211
100
AcDbTableStyle
  3
Standard
 70
     0
 71
     0
 40
0.06
 41
0.06
280
     0
281
     0
  7
STANDARD
140
0.18
170
     2
 62
     0
 63
     7
283
     0
274
    -2
284
     1
 64
     0
275
    -2
285
     1
 65
     0
276
    -2
286
     1
 66
     0
277
    -2
287
     1
 67
     0
278
    -2
288
     1
 68
     0
279
    -2
289
     1
 69
     0
  7
STANDARD
140
0.25
170
     5
 62
     0
 63
     7
283
     0
274
    -2
284
     1
 64
     0
275
    -2
285
     1
 65
     0
276
    -2
286
     1
 66
     0
277
    -2
287
     1
 67
     0
278
    -2
288
     1
 68
     0
279
    -2
289
     1
 69
     0
  7
STANDARD
140
0.18
170
     5
 62
     0
 63
     7
283
     0
274
    -2
284
     1
 64
     0
275
    -2
285
     1
 65
     0
276
    -2
286
     1
 66
     0
277
    -2
287
     1
 67
     0
278
    -2
288
     1
 68
     0
279
    -2
289
     1
 69
     0
  0
VISUALSTYLE
  5
205
102
{ACAD_REACTORS
330
1FF
102
}
330
1FF
100
AcDbVisualStyle
  2
2dWireframe
 70
     4
 71
     0
 72
     2
 73
     0
 90
        0
 40
-0.6
 41
-30.0
 62
     5
 63
     7
 74
     1
 91
        4
 64
     7
 65
   257
 75
     1
175
     1
 42
1.0
 92
        0
 66
   257
 43
1.0
 76
     1
 77
     6
 78
     2
 67
     7
 79
     5
170
     0
171
     0
290
     0
174
     0
 93
        1
 44
0.0
173
     0
291
     0
 45
0.0
1001
ACAD
1000
AcDbSavedByObjectVersion
1070
     0
  0
VISUALSTYLE
  5
207
102
{ACAD_REACTORS
330
1FF
102
}
330
1FF
100
AcDbVisualStyle
  2
3D Hidden
 70
     6
 71
     1
 72
     2
 73
     2
 90
        0
 40
-0.6
 41
-30.0
 62
     5
 63
     7
 74
     2
 91
        2
 64
     7
 65
   257
 75
     2
175
     1
 42
40.0
 92
        0
 66
   257
 43
1.0
 76
     1
 77
     6
 78
     2
 67
     7
 79
     3
170
     0
171
     0
290
     0
174
     0
 93
        1
 44
0.0
173
     0
291
     0
 45
0.0
1001
ACAD
1000
AcDbSavedByObjectVersion
1070
     0
  0
VISUALSTYLE
  5
206
102
{ACAD_REACTORS
330
1FF
102
}
330
1FF
100
AcDbVisualStyle
  2
3dWireframe
 70
     5
 71
     0
 72
     2
 73
     0
 90
        0
 40
-0.6
 41
-30.0
 62
     5
 63
     7
 74
     1
 91
        4
 64
     7
 65
   257
 75
     1
175
     1
 42
1.0
 92
        0
 66
   257
 43
1.0
 76
     1
 77
     6
 78
     2
 67
     7
 79
     5
170
     0
171
     0
290
     0
174
     0
 93
        1
 44
0.0
173
     0
291
     0
 45
0.0
1001
ACAD
1000
AcDbSavedByObjectVersion
1070
     0
  0
VISUALSTYLE
  5
204
102
{ACAD_REACTORS
330
1FF
102
}
330
1FF
100
AcDbVisualStyle
  2
Basic
 70
     7
 71
     1
 72
     0
 73
     1
 90
        0
 40
-0.6
 41
-30.0
 62
     5
 63
     7
 74
     0
 91
        4
 64
     7
 65
   257
 75
     1
175
     1
 42
1.0
 92
        8
 66
     7
 43
1.0
 76
     1
 77
     6
 78
     2
 67
     7
 79
     5
170
     0
171
     0
290
     0
174
     0
 93
        1
 44
0.0
173
     0
291
     1
 45
0.0
1001
ACAD
1000
AcDbSavedByObjectVersion
1070
     0
  0
VISUALSTYLE
  5
20B
102
{ACAD_REACTORS
330
1FF
102
}
330
1FF
100
AcDbVisualStyle
  2
Brighten
 70
    12
 71
     2
 72
     2
 73
     0
 90
        0
 40
-0.6
 41
-30.0
 62
     5
 63
     7
 74
     1
 91
        4
 64
     7
 65
   257
 75
     1
175
     1
 42
1.0
 92
        8
 66
     7
 43
1.0
 76
     1
 77
     6
 78
     2
 67
     7
 79
     5
170
     0
171
     0
290
     0
174
     0
 93
        1
 44
50.0
173
     0
291
     1
 45
0.0
1001
ACAD
1000
AcDbSavedByObjectVersion
1070
     0
  0
VISUALSTYLE
  5
20F
102
{ACAD_REACTORS
330
1FF
102
}
330
1FF
100
AcDbVisualStyle
  2
ColorChange
 70
    16
 71
     2
 72
     2
 73
     3
 90
        0
 40
-0.6
 41
-30.0
 62
     5
 63
     8
 74
     1
 91
        4
 64
     7
 65
   257
 75
     1
175
     1
 42
1.0
 92
        8
 66
     8
 43
1.0
 76
     1
 77
     6
 78
     2
 67
     7
 79
     5
170
     0
171
     0
290
     0
174
     0
 93
        1
 44
0.0
173
     0
291
     1
 45
0.0
1001
ACAD
1000
AcDbSavedByObjectVersion
1070
     0
  0
VISUALSTYLE
  5
208
102
{ACAD_REACTORS
330
1FF
102
}
330
1FF
100
AcDbVisualStyle
  2
Conceptual
 70
     9
 71
     3
 72
     2
 73
     0
 90
        0
 40
-0.6
 41
-30.0
 62
     5
 63
     7
 74
     2
 91
        2
 64
     7
 65
   257
 75
     1
175
     1
 42
40.0
 92
        8
 66
     7
 43
1.0
 76
     1
 77
     6
 78
     2
 67
     7
 79
     3
170
     0
171
     0
290
     0
174
     0
 93
        1
 44
0.0
173
     0
291
     0
 45
0.0
1001
ACAD
1000
AcDbSavedByObjectVersion
1070
     0
  0
VISUALSTYLE
  5
20A
102
{ACAD_REACTORS
330
1FF
102
}
330
1FF
100
AcDbVisualStyle
  2
Dim
 70
    11
 71
     2
 72
     2
 73
     0
 90
        0
 40
-0.6
 41
-30.0
 62
     5
 63
     7
 74
     1
 91
        4
 64
     7
 65
   257
 75
     1
175
     1
 42
1.0
 92
        8
 66
     7
 43
1.0
 76
     1
 77
     6
 78
     2
 67
     7
 79
     5
170
     0
171
     0
290
     0
174
     0
 93
        1
 44
-50.0
173
     0
291
     1
 45
0.0
1001
ACAD
1000
AcDbSavedByObjectVersion
1070
     0
  0
VISUALSTYLE
  5
20E
102
{ACAD_REACTORS
330
1FF
102
}
330
1FF
100
AcDbVisualStyle
  2
Facepattern
 70
    15
 71
     2
 72
     2
 73
     0
 90
        0
 40
-0.6
 41
-30.0
 62
     5
 63
     7
 74
     1
 91
        4
 64
     7
 65
   257
 75
     1
175
     1
 42
1.0
 92
        8
 66
     7
 43
1.0
 76
     1
 77
     6
 78
     2
 67
     7
 79
     5
170
     0
171
     0
290
     0
174
     0
 93
        1
 44
0.0
173
     0
291
     1
 45
0.0
1001
ACAD
1000
AcDbSavedByObjectVersion
1070
     0
  0
VISUALSTYLE
  5
200
102
{ACAD_REACTORS
330
1FF
102
}
330
1FF
100
AcDbVisualStyle
  2
Flat
 70
     0
 71
     2
 72
     1
 73
     1
 90
        2
 40
-0.6
 41
30.0
 62
     5
 63
     7
 74
     0
 91
        4
 64
     7
 65
   257
 75
     1
175
     1
 42
1.0
 92
        8
 66
     7
 43
1.0
 76
     1
 77
     6
 78
     2
 67
     7
 79
     5
170
     0
171
     0
290
     0
174
     0
 93
       13
 44
0.0
173
     0
291
     1
 45
0.0
1001
ACAD
1000
AcDbSavedByObjectVersion
1070
     0
  0
VISUALSTYLE
  5
201
102
{ACAD_REACTORS
330
1FF
102
}
330
1FF
100
AcDbVisualStyle
  2
FlatWithEdges
 70
     1
 71
     2
 72
     1
 73
     1
 90
        2
 40
-0.6
 41
30.0
 62
     5
 63
     7
 74
     1
 91
        4
 64
     7
 65
   257
 75
     1
175
     1
 42
1.0
 92
        0
 66
   257
 43
1.0
 76
     1
 77
     6
 78
     2
 67
     7
 79
     5
170
     0
171
     0
290
     0
174
     0
 93
       13
 44
0.0
173
     0
291
     1
 45
0.0
1001
ACAD
1000
AcDbSavedByObjectVersion
1070
     0
  0
VISUALSTYLE
  5
202
102
{ACAD_REACTORS
330
1FF
102
}
330
1FF
100
AcDbVisualStyle
  2
Gouraud
 70
     2
 71
     2
 72
     2
 73
     1
 90
        2
 40
-0.6
 41
30.0
 62
     5
 63
     7
 74
     0
 91
        4
 64
     7
 65
   257
 75
     1
175
     1
 42
1.0
 92
        0
 66
     7
 43
1.0
 76
     1
 77
     6
 78
     2
 67
     7
 79
     5
170
     0
171
     0
290
     0
174
     0
 93
       13
 44
0.0
173
     0
291
     1
 45
0.0
1001
ACAD
1000
AcDbSavedByObjectVersion
1070
     0
  0
VISUALSTYLE
  5
203
102
{ACAD_REACTORS
330
1FF
102
}
330
1FF
100
AcDbVisualStyle
  2
GouraudWithEdges
 70
     3
 71
     2
 72
     2
 73
     1
 90
        2
 40
-0.6
 41
30.0
 62
     5
 63
     7
 74
     1
 91
        4
 64
     7
 65
   257
 75
     1
175
     1
 42
1.0
 92
        0
 66
   257
 43
1.0
 76
     1
 77
     6
 78
     2
 67
     7
 79
     5
170
     0
171
     0
290
     0
174
     0
 93
       13
 44
0.0
173
     0
291
     1
 45
0.0
1001
ACAD
1000
AcDbSavedByObjectVersion
1070
     0
  0
VISUALSTYLE
  5
20D
102
{ACAD_REACTORS
330
1FF
102
}
330
1FF
100
AcDbVisualStyle
  2
Linepattern
 70
    14
 71
     2
 72
     2
 73
     0
 90
        0
 40
-0.6
 41
-30.0
 62
     5
 63
     7
 74
     1
 91
        4
 64
     7
 65
   257
 75
     7
175
     7
 42
1.0
 92
        8
 66
     7
 43
1.0
 76
     1
 77
     6
 78
     2
 67
     7
 79
     5
170
     0
171
     0
290
     0
174
     0
 93
        1
 44
0.0
173
     0
291
     1
 45
0.0
1001
ACAD
1000
AcDbSavedByObjectVersion
1070
     0
  0
VISUALSTYLE
  5
209
102
{ACAD_REACTORS
330
1FF
102
}
330
1FF
100
AcDbVisualStyle
  2
Realistic
 70
     8
 71
     2
 72
     2
 73
     0
 90
        0
 40
-0.6
 41
-30.0
 62
     5
 63
     7
 74
     1
 91
        0
 64
     7
 65
   257
 75
     1
175
     1
 42
1.0
 92
        8
 66
     8
 43
1.0
 76
     1
 77
     6
 78
     2
 67
     7
 79
     5
170
     0
171
     0
290
     0
174
     0
 93
       13
 44
0.0
173
     0
291
     0
 45
0.0
1001
ACAD
1000
AcDbSavedByObjectVersion
1070
     0
  0
VISUALSTYLE
  5
20C
102
{ACAD_REACTORS
330
1FF
102
}
330
1FF
100
AcDbVisualStyle
  2
Thicken
 70
    13
 71
     2
 72
     2
 73
     0
 90
        0
 40
-0.6
 41
-30.0
 62
     5
 63
     7
 74
     1
 91
        4
 64
     7
 65
   257
 75
     1
175
     1
 42
1.0
 92
       12
 66
     7
 43
1.0
 76
     1
 77
     6
 78
     2
 67
     7
 79
     5
170
     0
171
     0
290
     0
174
     0
 93
        1
 44
0.0
173
     0
291
     1
 45
0.0
1001
ACAD
1000
AcDbSavedByObjectVersion
1070
     0
  0
DICTIONARYVAR
  5
2AC
102
{ACAD_REACTORS
330
115
102
}
330
115
100
DictionaryVariables
280
     0
  1
STANDARD
  0
DICTIONARYVAR
  5
116
102
{ACAD_REACTORS
330
115
102
}
330
115
100
DictionaryVariables
280
     0
  1
1
  0
DICTIONARYVAR
  5
2AE
102
{ACAD_REACTORS
330
115
102
}
330
115
100
DictionaryVariables
280
     0
  1
0
  0
DICTIONARYVAR
  5
2AD
102
{ACAD_REACTORS
330
115
102
}
330
115
100
DictionaryVariables
280
     0
  1
127
  0
XRECORD
  5
28F
102
{ACAD_REACTORS
330
28D
102
}
330
28D
100
AcDbXrecord
280
     1
  0
DICTIONARY
  5
2B2
330
B7
100
AcDbDictionary
280
     1
281
     1
  3
ACAD_XREC_ROUNDTRIP
360
2B3
  0
DICTIONARY
  5
2B0
330
B6
100
AcDbDictionary
280
     1
281
     1
  3
ACAD_XREC_ROUNDTRIP
360
2B1
  0
DICTIONARY
  5
2B6
330
1FD
100
AcDbDictionary
280
     1
281
     1
  3
ACAD_XREC_ROUNDTRIP
360
2B7
  0
DICTIONARY
  5
2B4
330
1FC
100
AcDbDictionary
280
     1
281
     1
  3
ACAD_XREC_ROUNDTRIP
360
2B5
  0
DICTIONARY
  5
2B8
330
1FE
100
AcDbDictionary
280
     1
281
     1
  3
ACAD_XREC_ROUNDTRIP
360
2B9
  0
DICTIONARY
  5
2BA
330
212
100
AcDbDictionary
280
     1
281
     1
  3
ACAD_XREC_ROUNDTRIP
360
2BB
  0
XRECORD
  5
2B3
102
{ACAD_REACTORS
330
2B2
102
}
330
2B2
100
AcDbXrecord
280
     1
102
SHADEPLOT
 70
     0
102
SHADEPLOTRESLEVEL
 70
     2
102
SHADEPLOTCUSTOMDPI
 70
   300
  0
XRECORD
  5
2B1
102
{ACAD_REACTORS
330
2B0
102
}
330
2B0
100
AcDbXrecord
280
     1
102
SHADEPLOT
 70
     0
102
SHADEPLOTRESLEVEL
 70
     2
102
SHADEPLOTCUSTOMDPI
 70
   300
  0
XRECORD
  5
2B7
102
{ACAD_REACTORS
330
2B6
102
}
330
2B6
100
AcDbXrecord
280
     1
102
MATERIAL
148
0.0
149
0.0
149
0.0
 93
        0
 94
       63
282
     0
 72
     1
 77
     1
171
     1
175
     1
179
     1
273
     0
  0
XRECORD
  5
2B5
102
{ACAD_REACTORS
330
2B4
102
}
330
2B4
100
AcDbXrecord
280
     1
102
MATERIAL
148
0.0
149
0.0
149
0.0
 93
        0
 94
       63
282
     0
 72
     1
 77
     1
171
     1
175
     1
179
     1
273
     0
  0
XRECORD
  5
2B9
102
{ACAD_REACTORS
330
2B8
102
}
330
2B8
100
AcDbXrecord
280
     1
102
MATERIAL
148
0.0
149
0.0
149
0.0
 93
        0
 94
       63
282
     0
 72
     1
 77
     1
171
     1
175
     1
179
     1
273
     0
  0
XRECORD
  5
2BB
102
{ACAD_REACTORS
330
2BA
102
}
330
2BA
100
AcDbXrecord
280
     1
102
ACAD_ROUNDTRIP_PRE2007_TABLESTYLE
 90
      512
 91
        0
  1

 92
      512
 93
        0
  2

 94
      512
 95
        0
  3

  0
ENDSEC
  0
EOF
