  0
SECTION
  2
HEADER
  9
$ACADVER
  1
AC1014
  9
$ACADMAINTVER
 70
     9
  9
$DWGCODEPAGE
  3
ANSI_1252
  9
$INSBASE
 10
64.91798542078059
 20
3.149494127232915
 30
0.0
  9
$EXTMIN
 10
32.40795569577587
 20
-0.1506517697040492
 30
0.0
  9
$EXTMAX
 10
96.75503107094641
 20
39.27449412723291
 30
0.0
  9
$LIMMIN
 10
0.0
 20
0.0
  9
$LIMMAX
 10
36.0
 20
36.0
  9
$ORTHOMODE
 70
     1
  9
$REGENMODE
 70
     1
  9
$FILLMODE
 70
     1
  9
$QTEXTMODE
 70
     0
  9
$MIRRTEXT
 70
     1
  9
$DRAGMODE
 70
     0
  9
$LTSCALE
 40
1.0
  9
$OSMODE
 70
    37
  9
$ATTMODE
 70
     1
  9
$TEXTSIZE
 40
0.2
  9
$TRACEWID
 40
0.05
  9
$TEXTSTYLE
  7
STANDARD
  9
$CLAYER
  8
ADPDIM
  9
$CELTYPE
  6
BYLAYER
  9
$CECOLOR
 62
   256
  9
$CELTSCALE
 40
1.0
  9
$DELOBJ
 70
     1
  9
$DISPSILH
 70
     0
  9
$DIMSCALE
 40
1.0
  9
$DIMASZ
 40
0.125
  9
$DIMEXO
 40
0.0625
  9
$DIMDLI
 40
0.38
  9
$DIMRND
 40
0.0
  9
$DIMDLE
 40
0.0
  9
$DIMEXE
 40
0.18
  9
$DIMTP
 40
0.0
  9
$DIMTM
 40
0.0
  9
$DIMTXT
 40
0.125
  9
$DIMCEN
 40
0.1875
  9
$DIMTSZ
 40
0.125
  9
$DIMTOL
 70
     0
  9
$DIMLIM
 70
     0
  9
$DIMTIH
 70
     0
  9
$DIMTOH
 70
     0
  9
$DIMSE1
 70
     0
  9
$DIMSE2
 70
     0
  9
$DIMTAD
 70
     0
  9
$DIMZIN
 70
     3
  9
$DIMBLK
  1

  9
$DIMASO
 70
     1
  9
$DIMSHO
 70
     1
  9
$DIMPOST
  1

  9
$DIMAPOST
  1

  9
$DIMALT
 70
     0
  9
$DIMALTD
 70
     1
  9
$DIMALTF
 40
25.4
  9
$DIMLFAC
 40
1.0
  9
$DIMTOFL
 70
     0
  9
$DIMTVP
 40
0.0
  9
$DIMTIX
 70
     0
  9
$DIMSOXD
 70
     0
  9
$DIMSAH
 70
     0
  9
$DIMBLK1
  1

  9
$DIMBLK2
  1

  9
$DIMSTYLE
  2
STANDARD
  9
$DIMCLRD
 70
     0
  9
$DIMCLRE
 70
     0
  9
$DIMCLRT
 70
     0
  9
$DIMTFAC
 40
1.0
  9
$DIMGAP
 40
0.125
  9
$DIMJUST
 70
     0
  9
$DIMSD1
 70
     0
  9
$DIMSD2
 70
     0
  9
$DIMTOLJ
 70
     1
  9
$DIMTZIN
 70
     0
  9
$DIMALTZ
 70
     0
  9
$DIMALTTZ
 70
     0
  9
$DIMFIT
 70
     3
  9
$DIMUPT
 70
     0
  9
$DIMUNIT
 70
     2
  9
$DIMDEC
 70
     4
  9
$DIMTDEC
 70
     4
  9
$DIMALTU
 70
     2
  9
$DIMALTTD
 70
     2
  9
$DIMTXSTY
  7
STANDARD
  9
$DIMAUNIT
 70
     0
  9
$LUNITS
 70
     5
  9
$LUPREC
 70
     4
  9
$SKETCHINC
 40
0.1
  9
$FILLETRAD
 40
0.062
  9
$AUNITS
 70
     0
  9
$AUPREC
 70
     0
  9
$MENU
  1
acad
  9
$ELEVATION
 40
0.0
  9
$PELEVATION
 40
0.0
  9
$THICKNESS
 40
0.0
  9
$LIMCHECK
 70
     0
  9
$BLIPMODE
 70
     0
  9
$CHAMFERA
 40
0.0
  9
$CHAMFERB
 40
0.0
  9
$CHAMFERC
 40
0.0
  9
$CHAMFERD
 40
0.0
  9
$SKPOLY
 70
     0
  9
$TDCREATE
 40
2450374.521441932
  9
$TDUPDATE
 40
2452297.072277916
  9
$TDINDWG
 40
0.0239594097
  9
$TDUSRTIMER
 40
0.0239594097
  9
$USRTIMER
 70
     1
  9
$ANGBASE
 50
0.0
  9
$ANGDIR
 70
     0
  9
$PDMODE
 70
     0
  9
$PDSIZE
 40
0.0
  9
$PLINEWID
 40
0.0
  9
$COORDS
 70
     2
  9
$SPLFRAME
 70
     0
  9
$SPLINETYPE
 70
     6
  9
$SPLINESEGS
 70
     8
  9
$ATTDIA
 70
     0
  9
$ATTREQ
 70
     1
  9
$HANDLING
 70
 22529
  9
$HANDSEED
  5
280
  9
$SURFTAB1
 70
     6
  9
$SURFTAB2
 70
     6
  9
$SURFTYPE
 70
     6
  9
$SURFU
 70
     6
  9
$SURFV
 70
     6
  9
$UCSNAME
  2

  9
$UCSORG
 10
0.0
 20
0.0
 30
0.0
  9
$UCSXDIR
 10
1.0
 20
0.0
 30
0.0
  9
$UCSYDIR
 10
0.0
 20
1.0
 30
0.0
  9
$PUCSNAME
  2

  9
$PUCSORG
 10
0.0
 20
0.0
 30
0.0
  9
$PUCSXDIR
 10
1.0
 20
0.0
 30
0.0
  9
$PUCSYDIR
 10
0.0
 20
1.0
 30
0.0
  9
$USERI1
 70
     0
  9
$USERI2
 70
     0
  9
$USERI3
 70
     0
  9
$USERI4
 70
     0
  9
$USERI5
 70
     0
  9
$USERR1
 40
0.0
  9
$USERR2
 40
0.0
  9
$USERR3
 40
0.0
  9
$USERR4
 40
0.0
  9
$USERR5
 40
0.0
  9
$WORLDVIEW
 70
     1
  9
$SHADEDGE
 70
     3
  9
$SHADEDIF
 70
    70
  9
$TILEMODE
 70
     1
  9
$MAXACTVP
 70
    15
  9
$PINSBASE
 10
0.0
 20
0.0
 30
0.0
  9
$PLIMCHECK
 70
     0
  9
$PEXTMIN
 10
1.000000000000000E+20
 20
1.000000000000000E+20
 30
1.000000000000000E+20
  9
$PEXTMAX
 10
-1.000000000000000E+20
 20
-1.000000000000000E+20
 30
-1.000000000000000E+20
  9
$PLIMMIN
 10
0.0
 20
0.0
  9
$PLIMMAX
 10
12.0
 20
9.0
  9
$UNITMODE
 70
     0
  9
$VISRETAIN
 70
     0
  9
$PLINEGEN
 70
     0
  9
$PSLTSCALE
 70
     1
  9
$TREEDEPTH
 70
  3020
  9
$PICKSTYLE
 70
     1
  9
$CMLSTYLE
  2
STANDARD
  9
$CMLJUST
 70
     0
  9
$CMLSCALE
 40
1.0
  9
$PROXYGRAPHICS
 70
     1
  9
$MEASUREMENT
 70
     0
  0
ENDSEC
  0
SECTION
  2
CLASSES
  0
CLASS
  1
ACDBDICTIONARYWDFLT
  2
AcDbDictionaryWithDefault
  3
AutoCAD 2000
 90
        0
280
     0
281
     0
  0
CLASS
  1
ACDBPLACEHOLDER
  2
AcDbPlaceHolder
  3
AutoCAD 2000
 90
        0
280
     0
281
     0
  0
CLASS
  1
LAYOUT
  2
AcDbLayout
  3
AutoCAD 2000
 90
        0
280
     0
281
     0
  0
CLASS
  1
DICTIONARYVAR
  2
AcDbDictionaryVar
  3
AutoCAD 2000
 90
        0
280
     0
281
     0
  0
CLASS
  1
LONG_TRANSACTION
  2
AcDbLongTransaction
  3
AutoCAD 2000
 90
        0
280
     0
281
     0
  0
CLASS
  1
LWPOLYLINE
  2
AcDbPolyline
  3
AutoCAD 2000
 90
        0
280
     0
281
     1
  0
CLASS
  1
HATCH
  2
AcDbHatch
  3
AutoCAD 2000
 90
        0
280
     0
281
     1
  0
CLASS
  1
XRECORD
  2
AcDbXrecord
  3
AutoCAD 2000
 90
        0
280
     0
281
     0
  0
CLASS
  1
LONG_TRANSACTION
  2
AcDbLongTransaction
  3
AutoCAD 2000
 90
        0
280
     0
281
     0
  0
CLASS
  1
LWPOLYLINE
  2
AcDbPolyline
  3
AutoCAD 2000
 90
        0
280
     0
281
     1
  0
CLASS
  1
HATCH
  2
AcDbHatch
  3
AutoCAD 2000
 90
        0
280
     0
281
     1
  0
CLASS
  1
XRECORD
  2
AcDbXrecord
  3
AutoCAD 2000
 90
        0
280
     0
281
     0
  0
CLASS
  1
LONG_TRANSACTION
  2
AcDbLongTransaction
  3
AutoCAD 2000
 90
        0
280
     0
281
     0
  0
CLASS
  1
LWPOLYLINE
  2
AcDbPolyline
  3
AutoCAD 2000
 90
        0
280
     0
281
     1
  0
CLASS
  1
HATCH
  2
AcDbHatch
  3
AutoCAD 2000
 90
        0
280
     0
281
     1
  0
CLASS
  1
XRECORD
  2
AcDbXrecord
  3
AutoCAD 2000
 90
        0
280
     0
281
     0
  0
CLASS
  1
LONG_TRANSACTION
  2
AcDbLongTransaction
  3
AutoCAD 2000
 90
        0
280
     0
281
     0
  0
CLASS
  1
LWPOLYLINE
  2
AcDbPolyline
  3
AutoCAD 2000
 90
        0
280
     0
281
     1
  0
CLASS
  1
HATCH
  2
AcDbHatch
  3
AutoCAD 2000
 90
        0
280
     0
281
     1
  0
CLASS
  1
XRECORD
  2
AcDbXrecord
  3
AutoCAD 2000
 90
        0
280
     0
281
     0
  0
CLASS
  1
LONG_TRANSACTION
  2
AcDbLongTransaction
  3
AutoCAD 2000
 90
        0
280
     0
281
     0
  0
CLASS
  1
LWPOLYLINE
  2
AcDbPolyline
  3
AutoCAD 2000
 90
        0
280
     0
281
     1
  0
CLASS
  1
HATCH
  2
AcDbHatch
  3
AutoCAD 2000
 90
        0
280
     0
281
     1
  0
CLASS
  1
XRECORD
  2
AcDbXrecord
  3
AutoCAD 2000
 90
        0
280
     0
281
     0
  0
CLASS
  1
LONG_TRANSACTION
  2
AcDbLongTransaction
  3
AutoCAD 2000
 90
        0
280
     0
281
     0
  0
CLASS
  1
LWPOLYLINE
  2
AcDbPolyline
  3
AutoCAD 2000
 90
        0
280
     0
281
     1
  0
CLASS
  1
HATCH
  2
AcDbHatch
  3
AutoCAD 2000
 90
        0
280
     0
281
     1
  0
CLASS
  1
XRECORD
  2
AcDbXrecord
  3
AutoCAD 2000
 90
        0
280
     0
281
     0
  0
ENDSEC
  0
SECTION
  2
TABLES
  0
TABLE
  2
VPORT
  5
8
330
0
100
AcDbSymbolTable
 70
     2
  0
VPORT
  5
25D
330
8
100
AcDbSymbolTableRecord
100
AcDbViewportTableRecord
  2
*ACTIVE
 70
     0
 10
0.0
 20
0.0
 11
1.0
 21
1.0
 12
64.63239503515701
 22
19.56240792448581
 13
0.0
 23
0.0
 14
0.5740882589684922
 24
0.5740882589684922
 15
0.5
 25
0.5
 16
0.0
 26
0.0
 36
1.0
 17
0.0
 27
0.0
 37
0.0
 40
41.23736630497317
 41
1.570528967254407
 42
50.0
 43
0.0
 44
0.0
 50
0.0
 51
0.0
 71
     0
 72
   100
 73
     1
 74
     0
 75
     0
 76
     0
 77
     0
 78
     0
  0
ENDTAB
  0
TABLE
  2
LTYPE
  5
5
330
0
100
AcDbSymbolTable
 70
     1
  0
LTYPE
  5
12
330
5
100
AcDbSymbolTableRecord
100
AcDbLinetypeTableRecord
  2
BYBLOCK
 70
     0
  3

 72
    65
 73
     0
 40
0.0
  0
LTYPE
  5
13
330
5
100
AcDbSymbolTableRecord
100
AcDbLinetypeTableRecord
  2
BYLAYER
 70
     0
  3

 72
    65
 73
     0
 40
0.0
  0
LTYPE
  5
14
330
5
100
AcDbSymbolTableRecord
100
AcDbLinetypeTableRecord
  2
CONTINUOUS
 70
     0
  3
Solid line
 72
    65
 73
     0
 40
0.0
  0
ENDTAB
  0
TABLE
  2
LAYER
  5
2
330
0
100
AcDbSymbolTable
 70
     4
  0
LAYER
  5
F
330
2
100
AcDbSymbolTableRecord
100
AcDbLayerTableRecord
  2
0
 70
     0
 62
     7
  6
CONTINUOUS
  0
LAYER
  5
52
330
2
100
AcDbSymbolTableRecord
100
AcDbLayerTableRecord
  2
ADPDIM
 70
     0
 62
     3
  6
CONTINUOUS
  0
LAYER
  5
54
330
2
100
AcDbSymbolTableRecord
100
AcDbLayerTableRecord
  2
ADP1DETAIL
 70
     0
 62
     7
  6
CONTINUOUS
  0
LAYER
  5
56
330
2
100
AcDbSymbolTableRecord
100
AcDbLayerTableRecord
  2
DEFPOINTS
 70
     0
 62
     7
  6
CONTINUOUS
  0
ENDTAB
  0
TABLE
  2
STYLE
  5
3
330
0
100
AcDbSymbolTable
 70
     2
  0
STYLE
  5
10
330
3
100
AcDbSymbolTableRecord
100
AcDbTextStyleTableRecord
  2
STANDARD
 70
     0
 40
0.0
 41
1.0
 50
0.0
 71
     0
 42
0.2
  3
txt
  4

  0
STYLE
  5
115
330
3
100
AcDbSymbolTableRecord
100
AcDbTextStyleTableRecord
  2
ARIAL_WIDE
 70
     0
 40
0.0
 41
1.25
 50
0.0
 71
     0
 42
0.2
  3
ARIAL.TTF
  4

1001
ACAD
1000
Arial
1071
       34
  0
ENDTAB
  0
TABLE
  2
VIEW
  5
6
330
0
100
AcDbSymbolTable
 70
     0
  0
ENDTAB
  0
TABLE
  2
UCS
  5
7
330
0
100
AcDbSymbolTable
 70
     0
  0
ENDTAB
  0
TABLE
  2
APPID
  5
9
330
0
100
AcDbSymbolTable
 70
     1
  0
APPID
  5
11
330
9
100
AcDbSymbolTableRecord
100
AcDbRegAppTableRecord
  2
ACAD
 70
     0
  0
ENDTAB
  0
TABLE
  2
DIMSTYLE
  5
A
330
0
100
AcDbSymbolTable
 70
     1
  0
DIMSTYLE
105
109
330
A
100
AcDbSymbolTableRecord
100
AcDbDimStyleTableRecord
  2
STANDARD
 70
     0
  3

  4

  5

  6

  7

 40
1.0
 41
0.18
 42
0.0625
 43
0.38
 44
0.18
 45
0.0
 46
0.0
 47
0.0
 48
0.0
140
0.18
141
0.09
142
0.0
143
25.4
144
1.0
145
0.0
146
1.0
147
0.09
 71
     0
 72
     0
 73
     1
 74
     1
 75
     0
 76
     0
 77
     0
 78
     0
170
     0
171
     2
172
     0
173
     0
174
     0
175
     0
176
     0
177
     0
178
     0
270
     2
271
     4
272
     4
273
     2
274
     2
340
10
275
     0
280
     0
281
     0
282
     0
283
     1
284
     0
285
     0
286
     0
287
     3
288
     0
  0
ENDTAB
  0
TABLE
  2
BLOCK_RECORD
  5
1
330
0
100
AcDbSymbolTable
 70
     2
  0
BLOCK_RECORD
  5
18
102
{ACAD_XDICTIONARY
360
16A
102
}
330
1
100
AcDbSymbolTableRecord
100
AcDbBlockTableRecord
  2
*MODEL_SPACE
  0
BLOCK_RECORD
  5
15
102
{ACAD_XDICTIONARY
360
168
102
}
330
1
100
AcDbSymbolTableRecord
100
AcDbBlockTableRecord
  2
*PAPER_SPACE
  0
BLOCK_RECORD
  5
4F
330
1
100
AcDbSymbolTableRecord
100
AcDbBlockTableRecord
  2
*D0
  0
BLOCK_RECORD
  5
50
330
1
100
AcDbSymbolTableRecord
100
AcDbBlockTableRecord
  2
*D1
  0
ENDTAB
  0
ENDSEC
  0
SECTION
  2
BLOCKS
  0
BLOCK
  5
59
330
18
100
AcDbEntity
  8
0
100
AcDbBlockBegin
  2
*MODEL_SPACE
 70
     0
 10
0.0
 20
0.0
 30
0.0
  3
*MODEL_SPACE
  1

  0
ENDBLK
  5
5A
330
18
100
AcDbEntity
  8
0
100
AcDbBlockEnd
  0
BLOCK
  5
57
330
15
100
AcDbEntity
 67
     1
  8
0
100
AcDbBlockBegin
  2
*PAPER_SPACE
 70
     0
 10
0.0
 20
0.0
 30
0.0
  3
*PAPER_SPACE
  1

  0
ENDBLK
  5
58
330
15
100
AcDbEntity
 67
     1
  8
0
100
AcDbBlockEnd
  0
BLOCK
  5
5C
330
4F
100
AcDbEntity
  8
0
100
AcDbBlockBegin
  2
*D0
 70
     1
 10
0.0
 20
0.0
 30
0.0
  3
*D0
  1

  0
LINE
  5
5D
330
4F
100
AcDbEntity
  8
0
  6
BYBLOCK
 62
     0
100
AcDbLine
 10
64.24215208744726
 20
3.149494127232915
 30
0.0
 11
60.23526106119111
 21
3.149494127232916
 31
0.0
  0
LINE
  5
5E
330
4F
100
AcDbEntity
  8
0
  6
BYBLOCK
 62
     0
100
AcDbLine
 10
64.24215208744726
 20
39.14949412723291
 30
0.0
 11
60.23526106119111
 21
39.14949412723291
 31
0.0
  0
LINE
  5
5F
330
4F
100
AcDbEntity
  8
0
  6
BYBLOCK
 62
     0
100
AcDbLine
 10
60.41526106119111
 20
3.149494127232916
 30
0.0
 11
60.41526106119111
 21
20.92032746056625
 31
0.0
  0
LINE
  5
60
330
4F
100
AcDbEntity
  8
0
  6
BYBLOCK
 62
     0
100
AcDbLine
 10
60.41526106119111
 20
39.14949412723291
 30
0.0
 11
60.41526106119111
 21
21.37866079389958
 31
0.0
  0
LINE
  5
61
330
4F
100
AcDbEntity
  8
0
  6
BYBLOCK
 62
     0
100
AcDbLine
 10
60.54026106119111
 20
3.024494127232916
 30
0.0
 11
60.29026106119111
 21
3.274494127232916
 31
0.0
  0
LINE
  5
62
330
4F
100
AcDbEntity
  8
0
  6
BYBLOCK
 62
     0
100
AcDbLine
 10
60.54026106119111
 20
39.02449412723291
 30
0.0
 11
60.29026106119111
 21
39.27449412723291
 31
0.0
  0
TEXT
  5
63
330
4F
100
AcDbEntity
  8
0
  6
BYBLOCK
 62
     0
100
AcDbText
 10
60.47776106119111
 20
21.04532746056624
 30
0.0
 40
0.125
  1
36
 50
90.0
 72
     1
 11
60.41526106119111
 21
21.14949412723291
 31
0.0
100
AcDbText
 73
     2
  0
POINT
  5
64
330
4F
100
AcDbEntity
  8
DEFPOINTS
  6
BYBLOCK
 62
     0
100
AcDbPoint
 10
64.30465208744727
 20
3.149494127232915
 30
0.0
  0
POINT
  5
65
330
4F
100
AcDbEntity
  8
DEFPOINTS
  6
BYBLOCK
 62
     0
100
AcDbPoint
 10
64.30465208744727
 20
39.14949412723291
 30
0.0
  0
POINT
  5
66
330
4F
100
AcDbEntity
  8
DEFPOINTS
  6
BYBLOCK
 62
     0
100
AcDbPoint
 10
60.41526106119111
 20
39.14949412723291
 30
0.0
  0
ENDBLK
  5
67
330
4F
100
AcDbEntity
  8
0
100
AcDbBlockEnd
  0
BLOCK
  5
68
330
50
100
AcDbEntity
  8
0
100
AcDbBlockBegin
  2
*D1
 70
     1
 10
0.0
 20
0.0
 30
0.0
  3
*D1
  1

  0
LINE
  5
69
330
50
100
AcDbEntity
  8
0
  6
BYBLOCK
 62
     0
100
AcDbLine
 10
64.30465208744727
 20
3.086994127232915
 30
0.0
 11
64.30465208744727
 21
2.435717294352615
 31
0.0
  0
LINE
  5
6A
330
50
100
AcDbEntity
  8
0
  6
BYBLOCK
 62
     0
100
AcDbLine
 10
64.91798542078059
 20
3.086994127232915
 30
0.0
 11
64.91798542078059
 21
2.435717294352615
 31
0.0
  0
LINE
  5
6B
330
50
100
AcDbEntity
  8
0
  6
BYBLOCK
 62
     0
100
AcDbLine
 10
64.30465208744727
 20
2.615717294352615
 30
0.0
 11
64.05465208744726
 21
2.615717294352615
 31
0.0
  0
LINE
  5
6C
330
50
100
AcDbEntity
  8
0
  6
BYBLOCK
 62
     0
100
AcDbLine
 10
64.91798542078059
 20
2.615717294352615
 30
0.0
 11
65.1679854207806
 21
2.615717294352615
 31
0.0
  0
LINE
  5
6D
330
50
100
AcDbEntity
  8
0
  6
BYBLOCK
 62
     0
100
AcDbLine
 10
64.17965208744726
 20
2.490717294352615
 30
0.0
 11
64.42965208744727
 21
2.740717294352615
 31
0.0
  0
LINE
  5
6E
330
50
100
AcDbEntity
  8
0
  6
BYBLOCK
 62
     0
100
AcDbLine
 10
64.79298542078059
 20
2.490717294352615
 30
0.0
 11
65.0429854207806
 21
2.740717294352615
 31
0.0
  0
TEXT
  5
6F
330
50
100
AcDbEntity
  8
0
  6
BYBLOCK
 62
     0
100
AcDbText
 10
65.29298542078059
 20
2.553217294352615
 30
0.0
 40
0.125
  1
5/8
 72
     1
 11
65.45965208744727
 21
2.615717294352615
 31
0.0
100
AcDbText
 73
     2
  0
POINT
  5
70
330
50
100
AcDbEntity
  8
DEFPOINTS
  6
BYBLOCK
 62
     0
100
AcDbPoint
 10
64.30465208744727
 20
3.149494127232915
 30
0.0
  0
POINT
  5
71
330
50
100
AcDbEntity
  8
DEFPOINTS
  6
BYBLOCK
 62
     0
100
AcDbPoint
 10
64.91798542078059
 20
3.149494127232915
 30
0.0
  0
POINT
  5
72
330
50
100
AcDbEntity
  8
DEFPOINTS
  6
BYBLOCK
 62
     0
100
AcDbPoint
 10
64.91798542078059
 20
2.615717294352615
 30
0.0
  0
ENDBLK
  5
73
330
50
100
AcDbEntity
  8
0
100
AcDbBlockEnd
  0
ENDSEC
  0
SECTION
  2
ENTITIES
  0
DIMENSION
  5
74
330
18
100
AcDbEntity
  8
ADPDIM
100
AcDbDimension
  2
*D0
 10
60.41526106119111
 20
39.14949412723291
 30
0.0
 11
60.41526106119111
 21
21.14949412723291
 31
0.0
100
AcDbAlignedDimension
 13
64.30465208744727
 23
3.149494127232915
 33
0.0
 14
64.30465208744727
 24
39.14949412723291
 34
0.0
 50
90.0
100
AcDbRotatedDimension
  0
LWPOLYLINE
  5
75
330
18
100
AcDbEntity
  8
0
 62
     7
100
AcDbPolyline
 90
       19
 70
     0
 43
0.0
 10
64.30465208744727
 20
25.92282746056625
 42
-0.2414812207354922
 10
64.01591071040376
 20
25.46899390530217
 42
0.1745067939076013
 10
62.44409910652397
 20
24.60276223475811
 42
0.3894640672122562
 10
62.3559601393959
 20
25.45431199133281
 42
0.2178417641437605
 10
61.73898736949936
 20
25.7626317459125
 42
0.4808080578488535
 10
61.29829253385898
 20
25.24876550917381
 42
0.2764625723913884
 10
61.53332977953385
 20
24.98449143381979
 42
-0.2439644275201656
 10
61.69491790936441
 20
25.32217495365579
 42
-0.5424402660622829
 10
62.23844151655846
 20
24.7789449516608
 42
-0.2053596665656058
 10
61.97402461517423
 20
24.16230547384261
 42
0.3284228535738642
 10
62.25313136784222
 20
20.8295158920258
 42
0.118968314343215
 10
62.73789566361756
 20
20.52119616878731
 42
0.1348353652768862
 10
62.19437205642351
 20
20.68269697172064
 42
0.2874554406638019
 10
61.44519081240577
 20
20.06605749390245
 42
0.4203759914515556
 10
61.75367722078313
 20
19.46409989871242
 42
0.4372316371353453
 10
62.13561274500479
 20
19.68432829484077
 42
-0.6251036610387125
 10
61.90057549932992
 20
20.13946696972564
 42
-0.2664445882783302
 10
62.44409910652397
 20
20.35969533451279
 42
-0.2053241020791562
 10
64.30465208744727
 20
19.52282746056625
  0
LWPOLYLINE
  5
8A
330
18
100
AcDbEntity
  8
0
 62
     7
100
AcDbPolyline
 90
       21
 70
     0
 43
0.0
 10
64.91199023296829
 20
19.52282746056625
 42
-0.1290447123865346
 10
65.35268506860866
 20
19.90455669096913
 42
0.1340963778891238
 10
66.74821869137412
 20
21.1378356466055
 42
0.0846805208480961
 10
66.52787129698302
 20
20.57992373064114
 42
0.1200390762823897
 10
66.79228819836724
 20
19.8458290977741
 42
0.3412658322491184
 10
67.43864062397314
 20
19.62560073298695
 42
0.3704087199847066
 10
67.73243718106673
 20
20.12478505575628
 42
-0.2866720947712904
 10
67.33581185241948
 20
20.00732993204862
 42
-0.3395294426622459
 10
66.89511696992091
 20
20.55055993404363
 42
-0.1026682367307198
 10
67.10077460674461
 20
21.69574756256986
 42
0.4373864693850768
 10
66.48380178998988
 20
24.6761717105813
 42
0.1829533445823591
 10
67.07139495103525
 20
24.55871655553244
 42
0.333187775427406
 10
67.70305752535737
 20
25.2194017125763
 42
0.3593677728216982
 10
67.33581185241948
 20
25.79199551116881
 42
0.435093028145738
 10
66.9685661326234
 20
25.58644902900982
 42
-0.2255351906884206
 10
67.26236268971698
 20
25.39558442947898
 42
-0.4265318365731342
 10
67.17422372258892
 20
25.05790090964298
 42
-0.2932008256505605
 10
66.86573731421155
 20
24.86703631011214
 42
-0.1479083469026583
 10
66.32221370701751
 20
24.91108198933781
 42
0.0799135118648676
 10
65.24985625019681
 20
25.4249482260765
 42
-0.3730857960298368
 10
64.91798542078059
 20
25.92282746056625
  0
LWPOLYLINE
  5
A1
330
18
100
AcDbEntity
  8
0
 62
     7
100
AcDbPolyline
 90
        5
 70
     0
 43
0.0
 10
62.75258551490132
 20
20.52119616878731
 42
0.1176911911693506
 10
62.28251102355159
 20
20.57992373064114
 42
0.2461671791916608
 10
61.60677894223634
 20
20.12478505575628
 42
0.3574503939324582
 10
61.69491790936441
 20
19.66964641221262
 42
0.3793439088595889
 10
62.15030254943038
 20
19.68432829484077
 42
-0.3978925686584223
  0
LINE
  5
A8
330
18
100
AcDbEntity
  8
0
 62
     7
100
AcDbLine
 10
64.30465208744727
 20
19.52282746056625
 30
0.0
 11
64.30465208744727
 21
3.149494127232915
 31
0.0
  0
LINE
  5
A9
330
18
100
AcDbEntity
  8
0
 62
     7
100
AcDbLine
 10
64.91798542078059
 20
3.149494127232915
 30
0.0
 11
64.91798542078059
 21
19.52282746056625
 31
0.0
  0
LWPOLYLINE
  5
AA
330
18
100
AcDbEntity
  8
ADP1DETAIL
100
AcDbPolyline
 90
        4
 70
     1
 43
0.0
 10
64.30465208744727
 20
1.57115495881891
 10
64.30465208744727
 20
2.19615495881891
 10
64.92965208744727
 20
2.19615495881891
 10
64.92965208744727
 20
1.57115495881891
  0
DIMENSION
  5
B0
330
18
100
AcDbEntity
  8
ADPDIM
100
AcDbDimension
  2
*D1
 10
64.91798542078059
 20
2.615717294352615
 30
0.0
 11
65.45965208744727
 21
2.615717294352615
 31
0.0
100
AcDbAlignedDimension
 13
64.30465208744727
 23
3.149494127232915
 33
0.0
 14
64.91798542078059
 24
3.149494127232915
 34
0.0
100
AcDbRotatedDimension
  0
LINE
  5
B1
330
18
100
AcDbEntity
  8
0
 62
     7
100
AcDbLine
 10
64.30465208744727
 20
3.149494127232915
 30
0.0
 11
64.91798542078059
 21
3.149494127232915
 31
0.0
  0
LINE
  5
B2
330
18
100
AcDbEntity
  8
0
 62
     7
100
AcDbLine
 10
64.91798542078059
 20
25.92282746056625
 30
0.0
 11
64.91798542078059
 21
39.14949412723291
 31
0.0
  0
LINE
  5
B3
330
18
100
AcDbEntity
  8
0
 62
     7
100
AcDbLine
 10
64.30465208744727
 20
39.14949412723291
 30
0.0
 11
64.30465208744727
 21
25.92282746056625
 31
0.0
  0
LWPOLYLINE
  5
B4
330
18
100
AcDbEntity
  8
0
 62
     7
100
AcDbPolyline
 90
        3
 70
     0
 43
0.0
 10
64.25094795607861
 20
23.97144087431177
 42
-0.344301582212034
 10
65.02950885580571
 20
22.92902651820624
 42
0.2187841990674412
 10
65.22047659448746
 20
22.48856972594953
 42
2.239621859187632
  0
LWPOLYLINE
  5
B9
330
18
100
AcDbEntity
  8
0
 62
     7
100
AcDbPolyline
 90
        4
 70
     0
 43
0.0
 10
64.26563780736239
 20
24.01548655353744
 42
-0.1301830219366626
 10
64.83854107026579
 20
23.88334951586043
 42
0.5492300785686448
 10
65.35268506860866
 20
24.17698735647077
 42
0.3716651903113509
 10
65.08826816722444
 20
24.51467087630677
 42
3.388524482343213
  0
LWPOLYLINE
  5
BF
330
18
100
AcDbEntity
  8
0
 62
     7
100
AcDbPolyline
 90
        4
 70
     0
 43
0.0
 10
63.13452103912299
 20
23.35480139649358
 42
-0.1064057518553959
 10
63.78087346472888
 20
23.86866763323227
 42
-0.3496106616281133
 10
64.64757333158406
 20
23.41352895834741
 42
-0.280641078309437
 10
64.58881402016533
 20
22.97307219743191
 42
0.7129059213752891
  0
LWPOLYLINE
  5
C5
330
18
100
AcDbEntity
  8
0
 62
     7
100
AcDbPolyline
 90
       22
 70
     0
 43
0.0
 10
66.92449662563027
 20
21.9893854031802
 42
-0.2287025654407923
 10
65.14702747864316
 20
20.6973788543488
 42
-0.2530211960587503
 10
63.42831759621658
 20
21.26997265294131
 42
-0.2747903686106357
 10
62.9876227605762
 20
23.26671003804225
 42
-0.4451698412495335
 10
64.691642791719
 20
24.01548655353744
 42
-1.190008229532929
 10
65.67586128141162
 20
23.86866763323227
 42
-0.2731826579417518
 10
65.22047659448746
 20
23.47225652020124
 42
-0.468323448619064
 10
65.42613418445298
 20
23.04648164191389
 42
0.1638322021235149
 10
65.35268506860866
 20
22.56197920177271
 42
0.358615776954789
 10
65.60241211870913
 20
22.56197920177271
 42
-0.2782067815914655
 10
65.38206472431802
 20
22.12152244085721
 42
-0.1663284967004531
 10
64.73571229871213
 20
22.31238704038805
 42
-0.4021538442694583
 10
64.60350382459093
 20
23.00243596268822
 42
-0.5089658964759822
 10
63.92777174327568
 20
22.91434460423688
 42
-0.4916680198652798
 10
64.00122090597816
 20
23.38416516174989
 42
-0.6851826522872426
 10
64.28032761178798
 20
23.14925488299338
 42
-0.4947971817711199
 10
64.10404967753184
 20
23.09052732113956
 42
0.8687086225505826
 10
64.38315643019982
 20
23.11989111773708
 42
0.6976627863340511
 10
64.07467002182247
 20
23.60439355787825
 42
0.3923770063847648
 10
63.31079897337914
 20
22.72348000470604
 42
0.5352079690689358
 10
65.70524093712098
 20
21.240608887685
 42
0.5639340977263418
 10
66.39566282286182
 20
24.3384881907453
 42
-2.492362085347279
  0
LWPOLYLINE
  5
DD
330
18
100
AcDbEntity
  8
0
 62
     7
100
AcDbPolyline
 90
        7
 70
     0
 43
0.0
 10
64.57412416888158
 20
25.45431199133281
 42
-0.1608441320760273
 10
63.98653105469439
 20
25.04321902701482
 42
0.109978608806416
 10
62.64975669648948
 20
24.29444251151962
 42
0.2584739189329084
 10
62.07685343358607
 20
22.65007056022406
 42
0.1766153249125368
 10
62.7085160079082
 20
20.91760725047715
 42
0.0796507398205622
 10
63.54583621905401
 20
20.4918323721898
 42
-0.1355599728832971
 10
64.61819367587469
 20
19.81646533251779
 42
2.432441008080407
  0
LWPOLYLINE
  5
E6
330
18
100
AcDbEntity
  8
0
 62
     7
100
AcDbPolyline
 90
        4
 70
     0
 43
0.0
 10
62.45878895780774
 20
24.61744414872748
 42
0.2316294694155565
 10
62.2090618608491
 20
25.45431199133281
 42
0.3346179107529093
 10
61.56270943524321
 20
25.57176714638167
 42
0.5645753207728203
 10
61.51863997510826
 20
24.99917334778915
 42
0.2513882396404049
  0
LWPOLYLINE
  5
EC
330
18
100
AcDbEntity
  8
0
 62
     7
100
AcDbPolyline
 90
        2
 70
     0
 43
0.0
 10
64.60350382459093
 20
22.95839028346255
 42
0.7739779013678135
 10
65.61710196999289
 20
22.5326154051752
 42
11.53243821121926
  0
LWPOLYLINE
  5
F0
330
18
100
AcDbEntity
  8
0
 62
     7
100
AcDbPolyline
 90
        4
 70
     0
 43
0.0
 10
66.90980682120468
 20
21.96002160658268
 42
-0.1230780559865641
 10
66.07248661005886
 20
20.94697104707467
 42
0.0075005780449444
 10
65.39675452874361
 20
20.43310481033598
 42
0.1120486384343115
 10
64.60350382459093
 20
19.80178341854843
 42
2.082421246614467
  0
LWPOLYLINE
  5
F6
330
18
100
AcDbEntity
  8
0
 62
     7
100
AcDbPolyline
 90
        4
 70
     0
 43
0.0
 10
66.73352888694854
 20
21.12315373263614
 42
0.1875489815213306
 10
66.66007972424605
 20
20.50651425481795
 42
0.3063263147205092
 10
67.18891357387268
 20
19.75773773932276
 42
0.5137226933703209
 10
67.71774737664114
 20
20.11010317312812
 42
-0.9666500214719377
  0
LWPOLYLINE
  5
FC
330
18
100
AcDbEntity
  8
0
 62
     7
100
AcDbPolyline
 90
        3
 70
     0
 43
0.0
 10
64.57412416888158
 20
25.45431199133281
 42
0.1501005356127434
 10
65.27923590590617
 20
24.96980955119163
 42
-0.1034665725860375
 10
66.38097301843622
 20
24.35317007337345
 42
-0.4878697372550286
  0
LWPOLYLINE
  5
101
330
18
100
AcDbEntity
  8
0
 62
     7
100
AcDbPolyline
 90
        5
 70
     0
 43
0.0
 10
66.49849164127366
 20
24.66148979661194
 42
0.1923184990384244
 10
66.90980682120468
 20
24.61744414872748
 42
0.2369572605169922
 10
67.57084909809434
 20
25.2194017125763
 42
0.4876707359509532
 10
67.30643219671012
 20
25.65985850483301
 42
0.1747607420356457
 10
66.98325593704899
 20
25.58644902900982
 42
0.6076959344715332
  0
LINE
  5
108
330
18
100
AcDbEntity
  8
0
 62
     7
100
AcDbLine
 10
64.91798542078059
 20
39.14949412723291
 30
0.0
 11
64.30465208744727
 21
39.14949412723291
 31
0.0
  0
TEXT
  5
116
330
18
100
AcDbEntity
  8
ADPDIM
100
AcDbText
 10
32.40795569577587
 20
0.0343755154255552
 30
0.0
 40
0.625
  1
J U L I U S  B L U M  &  C O . ,  I N C .      ( 8 0 0 )  5 2 6 - 6 2 9 3        W W W . J U L I U S B L U M . C O M        P A R T  N o .  5 3 2
 41
1.25
  7
ARIAL_WIDE
 72
     1
 11
64.58149338336113
 21
0.6593755154255553
 31
0.0
100
AcDbText
 73
     3
  0
ENDSEC
  0
SECTION
  2
OBJECTS
  0
DICTIONARY
  5
C
330
0
100
AcDbDictionary
  3
ACAD_GROUP
350
D
  3
ACAD_LAYOUT
350
10F
  3
ACAD_MLINESTYLE
350
E
  3
ACAD_PLOTSETTINGS
350
110
  3
ACAD_PLOTSTYLENAME
350
10D
  3
ACDBHEADERROUNDTRIPXREC
350
25E
  3
ACDBVARIABLEDICTIONARY
350
170
  0
DICTIONARY
  5
16A
330
18
100
AcDbDictionary
280
     1
  3
ACAD_LAYOUTSELFREF
360
27F
  0
DICTIONARY
  5
168
330
15
100
AcDbDictionary
280
     1
  3
ACAD_LAYOUTSELFREF
360
27E
  0
DICTIONARY
  5
D
102
{ACAD_REACTORS
330
C
102
}
330
C
100
AcDbDictionary
  0
DICTIONARY
  5
10F
102
{ACAD_REACTORS
330
C
102
}
330
C
100
AcDbDictionary
  0
DICTIONARY
  5
E
102
{ACAD_REACTORS
330
C
102
}
330
C
100
AcDbDictionary
  3
STANDARD
350
1B
  0
DICTIONARY
  5
110
102
{ACAD_REACTORS
330
C
102
}
330
C
100
AcDbDictionary
  0
ACDBDICTIONARYWDFLT
  5
10D
102
{ACAD_REACTORS
330
C
102
}
330
C
100
AcDbDictionary
281
     1
  3
Normal
350
10E
100
AcDbDictionaryWithDefault
340
10E
  0
DICTIONARY
  5
25E
102
{ACAD_REACTORS
330
C
102
}
330
C
100
AcDbDictionary
  3
CEPSNTYPE
350
268
  3
FINGERPRINTGUID
350
269
  3
HYPERLINKBASE
350
261
  3
INSUNITS
350
267
  3
LAYOUTDICT
350
263
  3
LWETCUNION
350
266
  3
PLOTSETDICT
350
264
  3
PLOTSTYLNAMDICT
350
265
  3
PSVPSCALE
350
26B
  3
PUCSBASE
350
26E
  3
PUCSORGBACK
350
274
  3
PUCSORGBOTTOM
350
270
  3
PUCSORGFRONT
350
273
  3
PUCSORGLEFT
350
271
  3
PUCSORGRIGHT
350
272
  3
PUCSORGTOP
350
26F
  3
PUCSORTHOREF
350
26C
  3
PUCSORTHOVIEW
350
26D
  3
STYLESHEET
350
262
  3
TSTACKALIGN
350
25F
  3
TSTACKSIZE
350
260
  3
UCSBASE
350
277
  3
UCSORGBACK
350
27D
  3
UCSORGBOTTOM
350
279
  3
UCSORGFRONT
350
27C
  3
UCSORGLEFT
350
27A
  3
UCSORGRIGHT
350
27B
  3
UCSORGTOP
350
278
  3
UCSORTHOREF
350
275
  3
UCSORTHOVIEW
350
276
  3
VERSIONGUID
350
26A
  0
DICTIONARY
  5
170
102
{ACAD_REACTORS
330
C
102
}
330
C
100
AcDbDictionary
  3
DIMASSOC
350
171
  0
XRECORD
  5
27F
102
{ACAD_REACTORS
330
16A
102
}
330
16A
100
AcDbXrecord
340
18
  0
XRECORD
  5
27E
102
{ACAD_REACTORS
330
168
102
}
330
168
100
AcDbXrecord
340
15
  0
MLINESTYLE
  5
1B
102
{ACAD_REACTORS
330
E
102
}
330
E
100
AcDbMlineStyle
  2
STANDARD
 70
     0
  3

 62
     0
 51
90.0
 52
90.0
 71
     2
 49
0.5
 62
   256
  6
BYLAYER
 49
-0.5
 62
   256
  6
BYLAYER
  0
ACDBPLACEHOLDER
  5
10E
102
{ACAD_REACTORS
330
10D
102
}
330
10D
100
AcDbPlaceHolder
280
     0
  0
XRECORD
  5
268
102
{ACAD_REACTORS
330
25E
102
}
330
25E
100
AcDbXrecord
 90
        0
  0
XRECORD
  5
269
102
{ACAD_REACTORS
330
25E
102
}
330
25E
100
AcDbXrecord
  1
{1202EAEF-4E33-410B-8EB0-34AD154AD0B8}
  0
XRECORD
  5
261
102
{ACAD_REACTORS
330
25E
102
}
330
25E
100
AcDbXrecord
  1

  0
XRECORD
  5
267
102
{ACAD_REACTORS
330
25E
102
}
330
25E
100
AcDbXrecord
 90
        0
  0
XRECORD
  5
263
102
{ACAD_REACTORS
330
25E
102
}
330
25E
100
AcDbXrecord
340
10F
  0
XRECORD
  5
266
102
{ACAD_REACTORS
330
25E
102
}
330
25E
100
AcDbXrecord
 90
    14877
  0
XRECORD
  5
264
102
{ACAD_REACTORS
330
25E
102
}
330
25E
100
AcDbXrecord
340
110
  0
XRECORD
  5
265
102
{ACAD_REACTORS
330
25E
102
}
330
25E
100
AcDbXrecord
340
10D
  0
XRECORD
  5
26B
102
{ACAD_REACTORS
330
25E
102
}
330
25E
100
AcDbXrecord
 40
0.0
  0
XRECORD
  5
26E
102
{ACAD_REACTORS
330
25E
102
}
330
25E
100
AcDbXrecord
340
0
  0
XRECORD
  5
274
102
{ACAD_REACTORS
330
25E
102
}
330
25E
100
AcDbXrecord
 10
0.0
 20
0.0
 30
0.0
  0
XRECORD
  5
270
102
{ACAD_REACTORS
330
25E
102
}
330
25E
100
AcDbXrecord
 10
0.0
 20
0.0
 30
0.0
  0
XRECORD
  5
273
102
{ACAD_REACTORS
330
25E
102
}
330
25E
100
AcDbXrecord
 10
0.0
 20
0.0
 30
0.0
  0
XRECORD
  5
271
102
{ACAD_REACTORS
330
25E
102
}
330
25E
100
AcDbXrecord
 10
0.0
 20
0.0
 30
0.0
  0
XRECORD
  5
272
102
{ACAD_REACTORS
330
25E
102
}
330
25E
100
AcDbXrecord
 10
0.0
 20
0.0
 30
0.0
  0
XRECORD
  5
26F
102
{ACAD_REACTORS
330
25E
102
}
330
25E
100
AcDbXrecord
 10
0.0
 20
0.0
 30
0.0
  0
XRECORD
  5
26C
102
{ACAD_REACTORS
330
25E
102
}
330
25E
100
AcDbXrecord
340
0
  0
XRECORD
  5
26D
102
{ACAD_REACTORS
330
25E
102
}
330
25E
100
AcDbXrecord
 70
     0
  0
XRECORD
  5
262
102
{ACAD_REACTORS
330
25E
102
}
330
25E
100
AcDbXrecord
  1

  0
XRECORD
  5
25F
102
{ACAD_REACTORS
330
25E
102
}
330
25E
100
AcDbXrecord
 90
        1
  0
XRECORD
  5
260
102
{ACAD_REACTORS
330
25E
102
}
330
25E
100
AcDbXrecord
 90
       70
  0
XRECORD
  5
277
102
{ACAD_REACTORS
330
25E
102
}
330
25E
100
AcDbXrecord
340
0
  0
XRECORD
  5
27D
102
{ACAD_REACTORS
330
25E
102
}
330
25E
100
AcDbXrecord
 10
0.0
 20
0.0
 30
0.0
  0
XRECORD
  5
279
102
{ACAD_REACTORS
330
25E
102
}
330
25E
100
AcDbXrecord
 10
0.0
 20
0.0
 30
0.0
  0
XRECORD
  5
27C
102
{ACAD_REACTORS
330
25E
102
}
330
25E
100
AcDbXrecord
 10
0.0
 20
0.0
 30
0.0
  0
XRECORD
  5
27A
102
{ACAD_REACTORS
330
25E
102
}
330
25E
100
AcDbXrecord
 10
0.0
 20
0.0
 30
0.0
  0
XRECORD
  5
27B
102
{ACAD_REACTORS
330
25E
102
}
330
25E
100
AcDbXrecord
 10
0.0
 20
0.0
 30
0.0
  0
XRECORD
  5
278
102
{ACAD_REACTORS
330
25E
102
}
330
25E
100
AcDbXrecord
 10
0.0
 20
0.0
 30
0.0
  0
XRECORD
  5
275
102
{ACAD_REACTORS
330
25E
102
}
330
25E
100
AcDbXrecord
340
0
  0
XRECORD
  5
276
102
{ACAD_REACTORS
330
25E
102
}
330
25E
100
AcDbXrecord
 70
     0
  0
XRECORD
  5
26A
102
{ACAD_REACTORS
330
25E
102
}
330
25E
100
AcDbXrecord
  1
{DDD557EA-A7EA-4227-A239-2C61C93657FE}
  0
DICTIONARYVAR
  5
171
102
{ACAD_REACTORS
330
170
102
}
330
170
100
DictionaryVariables
280
     0
  1
1
  0
ENDSEC
  0
EOF
