  0
SECTION
  2
HEADER
  9
$ACADVER
  1
AC1014
  9
$ACADMAINTVER
 70
     9
  9
$DWGCODEPAGE
  3
ANSI_1252
  9
$INSBASE
 10
64.07586440974182
 20
-0.9682126027901112
 30
0.0
  9
$EXTMIN
 10
32.13744655983153
 20
-4.749017847333266
 30
0.0
  9
$EXTMAX
 10
96.48452193500206
 20
35.1567872683486
 30
0.0
  9
$LIMMIN
 10
0.0
 20
0.0
  9
$LIMMAX
 10
36.0
 20
36.0
  9
$ORTHOMODE
 70
     1
  9
$REGENMODE
 70
     1
  9
$FILLMODE
 70
     1
  9
$QTEXTMODE
 70
     0
  9
$MIRRTEXT
 70
     1
  9
$DRAGMODE
 70
     0
  9
$LTSCALE
 40
1.0
  9
$OSMODE
 70
    37
  9
$ATTMODE
 70
     1
  9
$TEXTSIZE
 40
0.2
  9
$TRACEWID
 40
0.05
  9
$TEXTSTYLE
  7
STANDARD
  9
$CLAYER
  8
ADPDIM
  9
$CELTYPE
  6
BYLAYER
  9
$CECOLOR
 62
   256
  9
$CELTSCALE
 40
1.0
  9
$DELOBJ
 70
     1
  9
$DISPSILH
 70
     0
  9
$DIMSCALE
 40
1.0
  9
$DIMASZ
 40
0.125
  9
$DIMEXO
 40
0.0625
  9
$DIMDLI
 40
0.38
  9
$DIMRND
 40
0.0
  9
$DIMDLE
 40
0.0
  9
$DIMEXE
 40
0.18
  9
$DIMTP
 40
0.0
  9
$DIMTM
 40
0.0
  9
$DIMTXT
 40
0.125
  9
$DIMCEN
 40
0.1875
  9
$DIMTSZ
 40
0.125
  9
$DIMTOL
 70
     0
  9
$DIMLIM
 70
     0
  9
$DIMTIH
 70
     0
  9
$DIMTOH
 70
     0
  9
$DIMSE1
 70
     0
  9
$DIMSE2
 70
     0
  9
$DIMTAD
 70
     0
  9
$DIMZIN
 70
     3
  9
$DIMBLK
  1

  9
$DIMASO
 70
     1
  9
$DIMSHO
 70
     1
  9
$DIMPOST
  1

  9
$DIMAPOST
  1

  9
$DIMALT
 70
     0
  9
$DIMALTD
 70
     1
  9
$DIMALTF
 40
25.4
  9
$DIMLFAC
 40
1.0
  9
$DIMTOFL
 70
     0
  9
$DIMTVP
 40
0.0
  9
$DIMTIX
 70
     0
  9
$DIMSOXD
 70
     0
  9
$DIMSAH
 70
     0
  9
$DIMBLK1
  1

  9
$DIMBLK2
  1

  9
$DIMSTYLE
  2
STANDARD
  9
$DIMCLRD
 70
     0
  9
$DIMCLRE
 70
     0
  9
$DIMCLRT
 70
     0
  9
$DIMTFAC
 40
1.0
  9
$DIMGAP
 40
0.125
  9
$DIMJUST
 70
     0
  9
$DIMSD1
 70
     0
  9
$DIMSD2
 70
     0
  9
$DIMTOLJ
 70
     1
  9
$DIMTZIN
 70
     0
  9
$DIMALTZ
 70
     0
  9
$DIMALTTZ
 70
     0
  9
$DIMFIT
 70
     3
  9
$DIMUPT
 70
     0
  9
$DIMUNIT
 70
     2
  9
$DIMDEC
 70
     4
  9
$DIMTDEC
 70
     4
  9
$DIMALTU
 70
     2
  9
$DIMALTTD
 70
     2
  9
$DIMTXSTY
  7
STANDARD
  9
$DIMAUNIT
 70
     0
  9
$LUNITS
 70
     5
  9
$LUPREC
 70
     4
  9
$SKETCHINC
 40
0.1
  9
$FILLETRAD
 40
0.062
  9
$AUNITS
 70
     0
  9
$AUPREC
 70
     0
  9
$MENU
  1
acad
  9
$ELEVATION
 40
0.0
  9
$PELEVATION
 40
0.0
  9
$THICKNESS
 40
0.0
  9
$LIMCHECK
 70
     0
  9
$BLIPMODE
 70
     0
  9
$CHAMFERA
 40
0.0
  9
$CHAMFERB
 40
0.0
  9
$CHAMFERC
 40
0.0
  9
$CHAMFERD
 40
0.0
  9
$SKPOLY
 70
     0
  9
$TDCREATE
 40
2450374.517379433
  9
$TDUPDATE
 40
2452297.072250972
  9
$TDINDWG
 40
0.0244660417
  9
$TDUSRTIMER
 40
0.0244660417
  9
$USRTIMER
 70
     1
  9
$ANGBASE
 50
0.0
  9
$ANGDIR
 70
     0
  9
$PDMODE
 70
     0
  9
$PDSIZE
 40
0.0
  9
$PLINEWID
 40
0.0
  9
$COORDS
 70
     2
  9
$SPLFRAME
 70
     0
  9
$SPLINETYPE
 70
     6
  9
$SPLINESEGS
 70
     8
  9
$ATTDIA
 70
     0
  9
$ATTREQ
 70
     1
  9
$HANDLING
 70
 22529
  9
$HANDSEED
  5
257
  9
$SURFTAB1
 70
     6
  9
$SURFTAB2
 70
     6
  9
$SURFTYPE
 70
     6
  9
$SURFU
 70
     6
  9
$SURFV
 70
     6
  9
$UCSNAME
  2

  9
$UCSORG
 10
0.0
 20
0.0
 30
0.0
  9
$UCSXDIR
 10
1.0
 20
0.0
 30
0.0
  9
$UCSYDIR
 10
0.0
 20
1.0
 30
0.0
  9
$PUCSNAME
  2

  9
$PUCSORG
 10
0.0
 20
0.0
 30
0.0
  9
$PUCSXDIR
 10
1.0
 20
0.0
 30
0.0
  9
$PUCSYDIR
 10
0.0
 20
1.0
 30
0.0
  9
$USERI1
 70
     0
  9
$USERI2
 70
     0
  9
$USERI3
 70
     0
  9
$USERI4
 70
     0
  9
$USERI5
 70
     0
  9
$USERR1
 40
0.0
  9
$USERR2
 40
0.0
  9
$USERR3
 40
0.0
  9
$USERR4
 40
0.0
  9
$USERR5
 40
0.0
  9
$WORLDVIEW
 70
     1
  9
$SHADEDGE
 70
     3
  9
$SHADEDIF
 70
    70
  9
$TILEMODE
 70
     1
  9
$MAXACTVP
 70
    15
  9
$PINSBASE
 10
0.0
 20
0.0
 30
0.0
  9
$PLIMCHECK
 70
     0
  9
$PEXTMIN
 10
1.000000000000000E+20
 20
1.000000000000000E+20
 30
1.000000000000000E+20
  9
$PEXTMAX
 10
-1.000000000000000E+20
 20
-1.000000000000000E+20
 30
-1.000000000000000E+20
  9
$PLIMMIN
 10
0.0
 20
0.0
  9
$PLIMMAX
 10
12.0
 20
9.0
  9
$UNITMODE
 70
     0
  9
$VISRETAIN
 70
     0
  9
$PLINEGEN
 70
     0
  9
$PSLTSCALE
 70
     1
  9
$TREEDEPTH
 70
  3020
  9
$PICKSTYLE
 70
     1
  9
$CMLSTYLE
  2
STANDARD
  9
$CMLJUST
 70
     0
  9
$CMLSCALE
 40
1.0
  9
$PROXYGRAPHICS
 70
     1
  9
$MEASUREMENT
 70
     0
  0
ENDSEC
  0
SECTION
  2
CLASSES
  0
CLASS
  1
ACDBDICTIONARYWDFLT
  2
AcDbDictionaryWithDefault
  3
AutoCAD 2000
 90
        0
280
     0
281
     0
  0
CLASS
  1
ACDBPLACEHOLDER
  2
AcDbPlaceHolder
  3
AutoCAD 2000
 90
        0
280
     0
281
     0
  0
CLASS
  1
LAYOUT
  2
AcDbLayout
  3
AutoCAD 2000
 90
        0
280
     0
281
     0
  0
CLASS
  1
DICTIONARYVAR
  2
AcDbDictionaryVar
  3
AutoCAD 2000
 90
        0
280
     0
281
     0
  0
CLASS
  1
LONG_TRANSACTION
  2
AcDbLongTransaction
  3
AutoCAD 2000
 90
        0
280
     0
281
     0
  0
CLASS
  1
LWPOLYLINE
  2
AcDbPolyline
  3
AutoCAD 2000
 90
        0
280
     0
281
     1
  0
CLASS
  1
HATCH
  2
AcDbHatch
  3
AutoCAD 2000
 90
        0
280
     0
281
     1
  0
CLASS
  1
XRECORD
  2
AcDbXrecord
  3
AutoCAD 2000
 90
        0
280
     0
281
     0
  0
CLASS
  1
LONG_TRANSACTION
  2
AcDbLongTransaction
  3
AutoCAD 2000
 90
        0
280
     0
281
     0
  0
CLASS
  1
LWPOLYLINE
  2
AcDbPolyline
  3
AutoCAD 2000
 90
        0
280
     0
281
     1
  0
CLASS
  1
HATCH
  2
AcDbHatch
  3
AutoCAD 2000
 90
        0
280
     0
281
     1
  0
CLASS
  1
XRECORD
  2
AcDbXrecord
  3
AutoCAD 2000
 90
        0
280
     0
281
     0
  0
CLASS
  1
LONG_TRANSACTION
  2
AcDbLongTransaction
  3
AutoCAD 2000
 90
        0
280
     0
281
     0
  0
CLASS
  1
LWPOLYLINE
  2
AcDbPolyline
  3
AutoCAD 2000
 90
        0
280
     0
281
     1
  0
CLASS
  1
HATCH
  2
AcDbHatch
  3
AutoCAD 2000
 90
        0
280
     0
281
     1
  0
CLASS
  1
XRECORD
  2
AcDbXrecord
  3
AutoCAD 2000
 90
        0
280
     0
281
     0
  0
CLASS
  1
LONG_TRANSACTION
  2
AcDbLongTransaction
  3
AutoCAD 2000
 90
        0
280
     0
281
     0
  0
CLASS
  1
LWPOLYLINE
  2
AcDbPolyline
  3
AutoCAD 2000
 90
        0
280
     0
281
     1
  0
CLASS
  1
HATCH
  2
AcDbHatch
  3
AutoCAD 2000
 90
        0
280
     0
281
     1
  0
CLASS
  1
XRECORD
  2
AcDbXrecord
  3
AutoCAD 2000
 90
        0
280
     0
281
     0
  0
CLASS
  1
LONG_TRANSACTION
  2
AcDbLongTransaction
  3
AutoCAD 2000
 90
        0
280
     0
281
     0
  0
CLASS
  1
LWPOLYLINE
  2
AcDbPolyline
  3
AutoCAD 2000
 90
        0
280
     0
281
     1
  0
CLASS
  1
HATCH
  2
AcDbHatch
  3
AutoCAD 2000
 90
        0
280
     0
281
     1
  0
CLASS
  1
XRECORD
  2
AcDbXrecord
  3
AutoCAD 2000
 90
        0
280
     0
281
     0
  0
CLASS
  1
LONG_TRANSACTION
  2
AcDbLongTransaction
  3
AutoCAD 2000
 90
        0
280
     0
281
     0
  0
CLASS
  1
LWPOLYLINE
  2
AcDbPolyline
  3
AutoCAD 2000
 90
        0
280
     0
281
     1
  0
CLASS
  1
HATCH
  2
AcDbHatch
  3
AutoCAD 2000
 90
        0
280
     0
281
     1
  0
CLASS
  1
XRECORD
  2
AcDbXrecord
  3
AutoCAD 2000
 90
        0
280
     0
281
     0
  0
ENDSEC
  0
SECTION
  2
TABLES
  0
TABLE
  2
VPORT
  5
8
330
0
100
AcDbSymbolTable
 70
     2
  0
VPORT
  5
234
330
8
100
AcDbSymbolTableRecord
100
AcDbViewportTableRecord
  2
*ACTIVE
 70
     0
 10
0.0
 20
0.0
 11
1.0
 21
1.0
 12
64.36562629182599
 22
15.20478492887094
 13
0.0
 23
0.0
 14
0.5740882589684922
 24
0.5740882589684922
 15
0.5
 25
0.5
 16
0.0
 26
0.0
 36
1.0
 17
0.0
 27
0.0
 37
0.0
 40
41.239011964049
 41
1.570528967254408
 42
50.0
 43
0.0
 44
0.0
 50
0.0
 51
0.0
 71
     0
 72
   100
 73
     1
 74
     0
 75
     0
 76
     0
 77
     0
 78
     0
  0
ENDTAB
  0
TABLE
  2
LTYPE
  5
5
330
0
100
AcDbSymbolTable
 70
     1
  0
LTYPE
  5
12
330
5
100
AcDbSymbolTableRecord
100
AcDbLinetypeTableRecord
  2
BYBLOCK
 70
     0
  3

 72
    65
 73
     0
 40
0.0
  0
LTYPE
  5
13
330
5
100
AcDbSymbolTableRecord
100
AcDbLinetypeTableRecord
  2
BYLAYER
 70
     0
  3

 72
    65
 73
     0
 40
0.0
  0
LTYPE
  5
14
330
5
100
AcDbSymbolTableRecord
100
AcDbLinetypeTableRecord
  2
CONTINUOUS
 70
     0
  3
Solid line
 72
    65
 73
     0
 40
0.0
  0
ENDTAB
  0
TABLE
  2
LAYER
  5
2
330
0
100
AcDbSymbolTable
 70
     4
  0
LAYER
  5
F
330
2
100
AcDbSymbolTableRecord
100
AcDbLayerTableRecord
  2
0
 70
     0
 62
     7
  6
CONTINUOUS
  0
LAYER
  5
4A
330
2
100
AcDbSymbolTableRecord
100
AcDbLayerTableRecord
  2
ADPDIM
 70
     0
 62
     3
  6
CONTINUOUS
  0
LAYER
  5
4C
330
2
100
AcDbSymbolTableRecord
100
AcDbLayerTableRecord
  2
ADP1DETAIL
 70
     0
 62
     7
  6
CONTINUOUS
  0
LAYER
  5
4E
330
2
100
AcDbSymbolTableRecord
100
AcDbLayerTableRecord
  2
DEFPOINTS
 70
     0
 62
     7
  6
CONTINUOUS
  0
ENDTAB
  0
TABLE
  2
STYLE
  5
3
330
0
100
AcDbSymbolTable
 70
     2
  0
STYLE
  5
10
330
3
100
AcDbSymbolTableRecord
100
AcDbTextStyleTableRecord
  2
STANDARD
 70
     0
 40
0.0
 41
1.0
 50
0.0
 71
     0
 42
0.2
  3
txt
  4

  0
STYLE
  5
EC
330
3
100
AcDbSymbolTableRecord
100
AcDbTextStyleTableRecord
  2
ARIAL_WIDE
 70
     0
 40
0.0
 41
1.25
 50
0.0
 71
     0
 42
0.2
  3
ARIAL.TTF
  4

1001
ACAD
1000
Arial
1071
       34
  0
ENDTAB
  0
TABLE
  2
VIEW
  5
6
330
0
100
AcDbSymbolTable
 70
     0
  0
ENDTAB
  0
TABLE
  2
UCS
  5
7
330
0
100
AcDbSymbolTable
 70
     0
  0
ENDTAB
  0
TABLE
  2
APPID
  5
9
330
0
100
AcDbSymbolTable
 70
     1
  0
APPID
  5
11
330
9
100
AcDbSymbolTableRecord
100
AcDbRegAppTableRecord
  2
ACAD
 70
     0
  0
ENDTAB
  0
TABLE
  2
DIMSTYLE
  5
A
330
0
100
AcDbSymbolTable
 70
     1
  0
DIMSTYLE
105
E0
330
A
100
AcDbSymbolTableRecord
100
AcDbDimStyleTableRecord
  2
STANDARD
 70
     0
  3

  4

  5

  6

  7

 40
1.0
 41
0.18
 42
0.0625
 43
0.38
 44
0.18
 45
0.0
 46
0.0
 47
0.0
 48
0.0
140
0.18
141
0.09
142
0.0
143
25.4
144
1.0
145
0.0
146
1.0
147
0.09
 71
     0
 72
     0
 73
     1
 74
     1
 75
     0
 76
     0
 77
     0
 78
     0
170
     0
171
     2
172
     0
173
     0
174
     0
175
     0
176
     0
177
     0
178
     0
270
     2
271
     4
272
     4
273
     2
274
     2
340
10
275
     0
280
     0
281
     0
282
     0
283
     1
284
     0
285
     0
286
     0
287
     3
288
     0
  0
ENDTAB
  0
TABLE
  2
BLOCK_RECORD
  5
1
330
0
100
AcDbSymbolTable
 70
     2
  0
BLOCK_RECORD
  5
18
102
{ACAD_XDICTIONARY
360
141
102
}
330
1
100
AcDbSymbolTableRecord
100
AcDbBlockTableRecord
  2
*MODEL_SPACE
  0
BLOCK_RECORD
  5
15
102
{ACAD_XDICTIONARY
360
13F
102
}
330
1
100
AcDbSymbolTableRecord
100
AcDbBlockTableRecord
  2
*PAPER_SPACE
  0
BLOCK_RECORD
  5
42
330
1
100
AcDbSymbolTableRecord
100
AcDbBlockTableRecord
  2
*D0
  0
BLOCK_RECORD
  5
48
330
1
100
AcDbSymbolTableRecord
100
AcDbBlockTableRecord
  2
*D1
  0
ENDTAB
  0
ENDSEC
  0
SECTION
  2
BLOCKS
  0
BLOCK
  5
51
330
18
100
AcDbEntity
  8
0
100
AcDbBlockBegin
  2
*MODEL_SPACE
 70
     0
 10
0.0
 20
0.0
 30
0.0
  3
*MODEL_SPACE
  1

  0
ENDBLK
  5
52
330
18
100
AcDbEntity
  8
0
100
AcDbBlockEnd
  0
BLOCK
  5
4F
330
15
100
AcDbEntity
 67
     1
  8
0
100
AcDbBlockBegin
  2
*PAPER_SPACE
 70
     0
 10
0.0
 20
0.0
 30
0.0
  3
*PAPER_SPACE
  1

  0
ENDBLK
  5
50
330
15
100
AcDbEntity
 67
     1
  8
0
100
AcDbBlockEnd
  0
BLOCK
  5
54
330
42
100
AcDbEntity
  8
0
100
AcDbBlockBegin
  2
*D0
 70
     1
 10
0.0
 20
0.0
 30
0.0
  3
*D0
  1

  0
LINE
  5
55
330
42
100
AcDbEntity
  8
0
  6
BYBLOCK
 62
     0
100
AcDbLine
 10
64.01336440974183
 20
-0.9682126027901112
 30
0.0
 11
61.45546217737468
 21
-0.968212602790111
 31
0.0
  0
LINE
  5
56
330
42
100
AcDbEntity
  8
0
  6
BYBLOCK
 62
     0
100
AcDbLine
 10
64.0103184267514
 20
35.0317872683486
 30
0.0
 11
61.45546217737468
 21
35.0317872683486
 31
0.0
  0
LINE
  5
57
330
42
100
AcDbEntity
  8
0
  6
BYBLOCK
 62
     0
100
AcDbLine
 10
61.63546217737469
 20
-0.968212602790111
 30
0.0
 11
61.63546217737469
 21
16.80262066611257
 31
0.0
  0
LINE
  5
58
330
42
100
AcDbEntity
  8
0
  6
BYBLOCK
 62
     0
100
AcDbLine
 10
61.63546217737469
 20
35.0317872683486
 30
0.0
 11
61.63546217737469
 21
17.26095399944591
 31
0.0
  0
LINE
  5
59
330
42
100
AcDbEntity
  8
0
  6
BYBLOCK
 62
     0
100
AcDbLine
 10
61.76046217737468
 20
-1.093212602790111
 30
0.0
 11
61.51046217737468
 21
-0.843212602790111
 31
0.0
  0
LINE
  5
5A
330
42
100
AcDbEntity
  8
0
  6
BYBLOCK
 62
     0
100
AcDbLine
 10
61.76046217737468
 20
34.9067872683486
 30
0.0
 11
61.51046217737468
 21
35.1567872683486
 31
0.0
  0
TEXT
  5
5B
330
42
100
AcDbEntity
  8
0
  6
BYBLOCK
 62
     0
100
AcDbText
 10
61.69796217737468
 20
16.92762066611257
 30
0.0
 40
0.125
  1
36
 50
90.0
 72
     1
 11
61.63546217737469
 21
17.03178733277924
 31
0.0
100
AcDbText
 73
     2
  0
POINT
  5
5C
330
42
100
AcDbEntity
  8
DEFPOINTS
  6
BYBLOCK
 62
     0
100
AcDbPoint
 10
64.07586440974182
 20
-0.9682126027901112
 30
0.0
  0
POINT
  5
5D
330
42
100
AcDbEntity
  8
DEFPOINTS
  6
BYBLOCK
 62
     0
100
AcDbPoint
 10
64.07281842675139
 20
35.0317872683486
 30
0.0
  0
POINT
  5
5E
330
42
100
AcDbEntity
  8
DEFPOINTS
  6
BYBLOCK
 62
     0
100
AcDbPoint
 10
61.63546217737469
 20
35.0317872683486
 30
0.0
  0
ENDBLK
  5
5F
330
42
100
AcDbEntity
  8
0
100
AcDbBlockEnd
  0
BLOCK
  5
60
330
48
100
AcDbEntity
  8
0
100
AcDbBlockBegin
  2
*D1
 70
     1
 10
0.0
 20
0.0
 30
0.0
  3
*D1
  1

  0
LINE
  5
61
330
48
100
AcDbEntity
  8
0
  6
BYBLOCK
 62
     0
100
AcDbLine
 10
64.07586440974182
 20
-2.555789134921323
 30
0.0
 11
64.07586440974182
 21
-3.054558384540067
 31
0.0
  0
LINE
  5
62
330
48
100
AcDbEntity
  8
0
  6
BYBLOCK
 62
     0
100
AcDbLine
 10
64.70086440974182
 20
-2.555789134921323
 30
0.0
 11
64.70086440974182
 21
-3.054558384540067
 31
0.0
  0
LINE
  5
63
330
48
100
AcDbEntity
  8
0
  6
BYBLOCK
 62
     0
100
AcDbLine
 10
64.07586440974182
 20
-2.874558384540067
 30
0.0
 11
63.82586440974183
 21
-2.874558384540067
 31
0.0
  0
LINE
  5
64
330
48
100
AcDbEntity
  8
0
  6
BYBLOCK
 62
     0
100
AcDbLine
 10
64.70086440974182
 20
-2.874558384540067
 30
0.0
 11
64.95086440974183
 21
-2.874558384540067
 31
0.0
  0
LINE
  5
65
330
48
100
AcDbEntity
  8
0
  6
BYBLOCK
 62
     0
100
AcDbLine
 10
63.95086440974182
 20
-2.999558384540067
 30
0.0
 11
64.20086440974182
 21
-2.749558384540067
 31
0.0
  0
LINE
  5
66
330
48
100
AcDbEntity
  8
0
  6
BYBLOCK
 62
     0
100
AcDbLine
 10
64.57586440974182
 20
-2.999558384540067
 30
0.0
 11
64.82586440974182
 21
-2.749558384540067
 31
0.0
  0
TEXT
  5
67
330
48
100
AcDbEntity
  8
0
  6
BYBLOCK
 62
     0
100
AcDbText
 10
65.07586440974183
 20
-2.937058384540067
 30
0.0
 40
0.125
  1
5/8
 72
     1
 11
65.24253107640849
 21
-2.874558384540067
 31
0.0
100
AcDbText
 73
     2
  0
POINT
  5
68
330
48
100
AcDbEntity
  8
DEFPOINTS
  6
BYBLOCK
 62
     0
100
AcDbPoint
 10
64.07586440974182
 20
-2.493289134921323
 30
0.0
  0
POINT
  5
69
330
48
100
AcDbEntity
  8
DEFPOINTS
  6
BYBLOCK
 62
     0
100
AcDbPoint
 10
64.70086440974182
 20
-2.493289134921323
 30
0.0
  0
POINT
  5
6A
330
48
100
AcDbEntity
  8
DEFPOINTS
  6
BYBLOCK
 62
     0
100
AcDbPoint
 10
64.70086440974182
 20
-2.874558384540067
 30
0.0
  0
ENDBLK
  5
6B
330
48
100
AcDbEntity
  8
0
100
AcDbBlockEnd
  0
ENDSEC
  0
SECTION
  2
ENTITIES
  0
LWPOLYLINE
  5
6C
330
18
100
AcDbEntity
  8
0
 62
     7
100
AcDbPolyline
 90
        2
 70
     0
 43
0.0
 10
66.68207838815916
 20
18.54088922429177
 42
0.5532532438291651
 10
65.33022803511713
 20
19.46214777814111
 42
-0.1676035518075675
  0
LWPOLYLINE
  5
70
330
18
100
AcDbEntity
  8
0
 62
     7
100
AcDbPolyline
 90
        2
 70
     0
 43
0.0
 10
62.06921896345122
 20
18.56438082608822
 42
-0.5532532438291651
 10
63.43038221880823
 20
19.47182299632624
 42
0.1676035518075675
  0
LWPOLYLINE
  5
74
330
18
100
AcDbEntity
  8
0
 62
     7
100
AcDbPolyline
 90
        6
 70
     0
 43
0.0
 10
62.38949267059404
 20
18.56438082608822
 42
-0.5658585449231448
 10
63.64389802357012
 20
19.15154928918341
 10
63.80403487714154
 20
19.33837561835006
 42
-0.3986998293789781
 10
63.69727697476059
 20
20.40595464215948
 10
64.28444543785577
 20
21.09988100763561
 42
0.1622776601683686
 10
64.39120334023673
 20
21.60698104394509
 42
-1.713199472345048
  0
LWPOLYLINE
  5
7C
330
18
100
AcDbEntity
  8
0
 62
     7
100
AcDbPolyline
 90
        3
 70
     0
 43
0.0
 10
63.43038221880823
 20
19.47182299632624
 42
-0.3937723680009738
 10
63.45707169440347
 20
20.6461599225166
 42
0.3181649556032074
 10
64.0709296330939
 20
22.06070212906409
 42
12.58714455521037
  0
LWPOLYLINE
  5
81
330
18
100
AcDbEntity
  8
0
 62
     7
100
AcDbPolyline
 90
        6
 70
     0
 43
0.0
 10
66.36182129312793
 20
18.54415121282375
 42
0.5658585449231448
 10
65.11346131656435
 20
19.14406534213122
 10
64.9552355956924
 20
19.33251297516542
 42
0.3986998293789781
 10
65.07286125580941
 20
20.39894929575877
 10
64.49279089007148
 20
21.09881998063502
 42
-0.1622776601683686
 10
64.39120334023673
 20
21.60698104394509
 42
1.713199472345048
  0
LWPOLYLINE
  5
89
330
18
100
AcDbEntity
  8
0
 62
     7
100
AcDbPolyline
 90
        3
 70
     0
 43
0.0
 10
65.33022803511713
 20
19.46214777814111
 42
0.3937723680009738
 10
65.31550056848181
 20
20.63669562563319
 42
-0.3181649556032074
 10
64.71608158568824
 20
22.05741660670732
 42
-12.58714455521037
  0
DIMENSION
  5
8E
330
18
100
AcDbEntity
  8
ADPDIM
100
AcDbDimension
  2
*D0
 10
61.63546217737469
 20
35.0317872683486
 30
0.0
 11
61.63546217737469
 21
17.03178733277924
 31
0.0
100
AcDbAlignedDimension
 13
64.07586440974182
 23
-0.9682126027901112
 33
0.0
 14
64.07281842675139
 24
35.0317872683486
 34
0.0
 50
90.0
100
AcDbRotatedDimension
  0
LINE
  5
8F
330
18
100
AcDbEntity
  8
0
 62
     7
100
AcDbLine
 10
64.07586440974182
 20
-0.9682126027901112
 30
0.0
 11
64.07397561608433
 21
14.27151340350743
 31
0.0
  0
LINE
  5
90
330
18
100
AcDbEntity
  8
0
 62
     7
100
AcDbLine
 10
64.68783355477473
 20
14.29820287910267
 30
0.0
 11
64.68783355477473
 21
-0.9682126027901112
 31
0.0
  0
LINE
  5
91
330
18
100
AcDbEntity
  8
0
 62
     7
100
AcDbLine
 10
64.68783355477473
 20
-0.9682126027901112
 30
0.0
 11
64.07586440974182
 21
-0.9682126027901112
 31
0.0
  0
DIMENSION
  5
92
330
18
100
AcDbEntity
  8
ADPDIM
100
AcDbDimension
  2
*D1
 10
64.70086440974182
 20
-2.874558384540067
 30
0.0
 11
65.24253107640849
 21
-2.874558384540067
 31
0.0
100
AcDbAlignedDimension
 13
64.07586440974182
 23
-2.493289134921323
 33
0.0
 14
64.70086440974182
 24
-2.493289134921323
 34
0.0
100
AcDbRotatedDimension
  0
LWPOLYLINE
  5
93
330
18
100
AcDbEntity
  8
ADP1DETAIL
100
AcDbPolyline
 90
        4
 70
     1
 43
0.0
 10
64.07586440974182
 20
-1.868289134921323
 10
64.07586440974182
 20
-2.493289134921323
 10
64.70086440974182
 20
-2.493289134921323
 10
64.70086440974182
 20
-1.868289134921323
  0
LINE
  5
99
330
18
100
AcDbEntity
  8
0
 62
     7
100
AcDbLine
 10
64.71452303036997
 20
14.91206081779309
 30
0.0
 11
64.07397561608433
 21
14.91206081779309
 31
0.0
  0
LINE
  5
9A
330
18
100
AcDbEntity
  8
0
 62
     7
100
AcDbLine
 10
64.07397561608433
 20
15.01881872017404
 30
0.0
 11
64.71452303036997
 21
15.01881872017404
 31
0.0
  0
LINE
  5
9B
330
18
100
AcDbEntity
  8
0
 62
     7
100
AcDbLine
 10
64.63445460358427
 20
14.96543976898356
 30
0.0
 11
64.12735456727479
 21
14.96543976898356
 31
0.0
  0
LINE
  5
9C
330
18
100
AcDbEntity
  8
0
 62
     7
100
AcDbLine
 10
64.71452303036997
 20
14.45833973267409
 30
0.0
 11
64.07397561608433
 21
14.45833973267409
 31
0.0
  0
LINE
  5
9D
330
18
100
AcDbEntity
  8
0
 62
     7
100
AcDbLine
 10
64.68783355477473
 20
14.29820287910267
 30
0.0
 11
64.07397561608433
 21
14.29820287910267
 31
0.0
  0
LINE
  5
9E
330
18
100
AcDbEntity
  8
0
 62
     7
100
AcDbLine
 10
64.63445460358427
 20
14.37827130588838
 30
0.0
 11
64.15404404287002
 21
14.37827130588838
 31
0.0
  0
LWPOLYLINE
  5
9F
330
18
100
AcDbEntity
  8
0
 62
     7
100
AcDbPolyline
 90
        6
 70
     0
 43
0.0
 10
62.38951459958207
 20
18.5136840961775
 42
0.5658585449231448
 10
63.64442744522026
 20
17.9276010444853
 10
63.8047258631612
 20
17.74091332033806
 42
0.3986998293789781
 10
63.698891568119
 20
16.67324233928089
 10
64.28666013029728
 20
15.97982419553835
 42
-0.1622776601683686
 10
64.39385668723919
 20
15.47281670572617
 42
1.713199472345048
  0
LWPOLYLINE
  5
A7
330
18
100
AcDbEntity
  8
0
 62
     7
100
AcDbPolyline
 90
        3
 70
     0
 43
0.0
 10
63.43118879057352
 20
17.60714274371191
 42
0.3937723680009738
 10
63.45889418031007
 20
16.43282934614663
 42
-0.3181649556032074
 10
64.07397561608433
 20
15.01881872017404
 42
-12.58714455521037
  0
LINE
  5
AC
330
18
100
AcDbEntity
  8
0
 62
     7
100
AcDbLine
 10
64.07397561608433
 20
14.91206081779309
 30
0.0
 11
64.07397561608433
 21
14.45833973267409
 31
0.0
  0
LINE
  5
AD
330
18
100
AcDbEntity
  8
0
 62
     7
100
AcDbLine
 10
64.07397561608433
 20
14.45833973267409
 30
0.0
 11
64.15404404287002
 21
14.37827130588838
 31
0.0
  0
LINE
  5
AE
330
18
100
AcDbEntity
  8
0
 62
     7
100
AcDbLine
 10
64.15404404287002
 20
14.37827130588838
 30
0.0
 11
64.07397561608433
 21
14.29820287910267
 31
0.0
  0
LINE
  5
AF
330
18
100
AcDbEntity
  8
0
 62
     7
100
AcDbLine
 10
64.07397561608433
 20
14.29820287910267
 30
0.0
 11
64.07397561608433
 21
14.27151340350743
 31
0.0
  0
LINE
  5
B0
330
18
100
AcDbEntity
  8
0
 62
     7
100
AcDbLine
 10
64.12735456727479
 20
14.96543976898356
 30
0.0
 11
64.07397561608433
 21
14.91206081779309
 31
0.0
  0
LINE
  5
B1
330
18
100
AcDbEntity
  8
0
 62
     7
100
AcDbLine
 10
64.07397561608433
 20
15.01881872017404
 30
0.0
 11
64.12735456727479
 21
14.96543976898356
 31
0.0
  0
LWPOLYLINE
  5
B2
330
18
100
AcDbEntity
  8
0
 62
     7
100
AcDbPolyline
 90
        2
 70
     0
 43
0.0
 10
62.06924101228661
 20
18.51340702596061
 42
0.5532532438291651
 10
63.43118879057352
 20
17.60714274371191
 42
-0.1676035518075675
  0
LWPOLYLINE
  5
B6
330
18
100
AcDbEntity
  8
0
 62
     7
100
AcDbPolyline
 90
        6
 70
     0
 43
0.0
 10
66.36182423492996
 20
18.53735018113476
 42
-0.5658585449231448
 10
65.11398371390351
 20
17.93635631451628
 10
64.95592107913051
 20
17.74777187022075
 42
-0.3986998293789781
 10
65.07446927406362
 20
16.68143770717581
 10
64.49500458665031
 20
15.98106546272471
 42
0.1622776601683686
 10
64.39385668723919
 20
15.47281670572617
 42
-1.713199472345048
  0
LWPOLYLINE
  5
BE
330
18
100
AcDbEntity
  8
0
 62
     7
100
AcDbPolyline
 90
        3
 70
     0
 43
0.0
 10
65.33102552587997
 20
17.61846152339177
 42
-0.3937723680009738
 10
65.31731417135327
 20
16.44390137462167
 42
0.3181649556032074
 10
64.7191244849408
 20
15.02266236514183
 42
12.58714455521037
  0
LINE
  5
C3
330
18
100
AcDbEntity
  8
0
 62
     7
100
AcDbLine
 10
64.71452303036997
 20
14.45833973267409
 30
0.0
 11
64.71452303036997
 21
14.91206081779309
 31
0.0
  0
LINE
  5
C4
330
18
100
AcDbEntity
  8
0
 62
     7
100
AcDbLine
 10
64.63445460358427
 20
14.37827130588838
 30
0.0
 11
64.71452303036997
 21
14.45833973267409
 31
0.0
  0
LINE
  5
C5
330
18
100
AcDbEntity
  8
0
 62
     7
100
AcDbLine
 10
64.68783355477473
 20
14.29820287910267
 30
0.0
 11
64.63445460358427
 21
14.37827130588838
 31
0.0
  0
LINE
  5
C6
330
18
100
AcDbEntity
  8
0
 62
     7
100
AcDbLine
 10
64.63445460358427
 20
14.96543976898356
 30
0.0
 11
64.71452303036997
 21
15.01881872017404
 31
0.0
  0
LINE
  5
C7
330
18
100
AcDbEntity
  8
0
 62
     7
100
AcDbLine
 10
64.71452303036997
 20
14.91206081779309
 30
0.0
 11
64.63445460358427
 21
14.96543976898356
 31
0.0
  0
LWPOLYLINE
  5
C8
330
18
100
AcDbEntity
  8
0
 62
     7
100
AcDbPolyline
 90
        2
 70
     0
 43
0.0
 10
66.68207838815916
 20
18.54088922429177
 42
-0.5532532438291651
 10
65.33102552587997
 20
17.61846152339177
 42
0.1676035518075675
  0
LINE
  5
CC
330
18
100
AcDbEntity
  8
0
 62
     7
100
AcDbLine
 10
64.68478757178431
 20
22.78131797013545
 30
0.0
 11
64.68478757178431
 21
35.0317872683486
 31
0.0
  0
LINE
  5
CD
330
18
100
AcDbEntity
  8
0
 62
     7
100
AcDbLine
 10
64.07281842675141
 20
35.0317872683486
 30
0.0
 11
64.0709296330939
 21
22.8080074457307
 31
0.0
  0
LINE
  5
CE
330
18
100
AcDbEntity
  8
0
 62
     7
100
AcDbLine
 10
64.63140862059384
 20
22.70124954334975
 30
0.0
 11
64.1509980598796
 21
22.70124954334975
 31
0.0
  0
LINE
  5
CF
330
18
100
AcDbEntity
  8
0
 62
     7
100
AcDbLine
 10
64.68478757178431
 20
22.78131797013545
 30
0.0
 11
64.0709296330939
 21
22.78131797013545
 31
0.0
  0
LINE
  5
D0
330
18
100
AcDbEntity
  8
0
 62
     7
100
AcDbLine
 10
64.0709296330939
 20
22.06070212906409
 30
0.0
 11
64.71147704737955
 21
22.06070212906409
 31
0.0
  0
LINE
  5
D1
330
18
100
AcDbEntity
  8
0
 62
     7
100
AcDbLine
 10
64.71147704737955
 20
22.16746003144504
 30
0.0
 11
64.0709296330939
 21
22.16746003144504
 31
0.0
  0
LINE
  5
D2
330
18
100
AcDbEntity
  8
0
 62
     7
100
AcDbLine
 10
64.63140862059384
 20
22.11408108025457
 30
0.0
 11
64.12430858428436
 21
22.11408108025457
 31
0.0
  0
LINE
  5
D3
330
18
100
AcDbEntity
  8
0
 62
     7
100
AcDbLine
 10
64.71147704737955
 20
22.62118111656404
 30
0.0
 11
64.0709296330939
 21
22.62118111656404
 31
0.0
  0
LINE
  5
D4
330
18
100
AcDbEntity
  8
0
 62
     7
100
AcDbLine
 10
64.1509980598796
 20
22.70124954334975
 30
0.0
 11
64.0709296330939
 21
22.78131797013545
 31
0.0
  0
LINE
  5
D5
330
18
100
AcDbEntity
  8
0
 62
     7
100
AcDbLine
 10
64.0709296330939
 20
22.78131797013545
 30
0.0
 11
64.0709296330939
 21
22.8080074457307
 31
0.0
  0
LINE
  5
D6
330
18
100
AcDbEntity
  8
0
 62
     7
100
AcDbLine
 10
64.0709296330939
 20
22.16746003144504
 30
0.0
 11
64.0709296330939
 21
22.62118111656404
 31
0.0
  0
LINE
  5
D7
330
18
100
AcDbEntity
  8
0
 62
     7
100
AcDbLine
 10
64.0709296330939
 20
22.06070212906409
 30
0.0
 11
64.12430858428436
 21
22.11408108025457
 31
0.0
  0
LINE
  5
D8
330
18
100
AcDbEntity
  8
0
 62
     7
100
AcDbLine
 10
64.12430858428436
 20
22.11408108025457
 30
0.0
 11
64.0709296330939
 21
22.16746003144504
 31
0.0
  0
LINE
  5
D9
330
18
100
AcDbEntity
  8
0
 62
     7
100
AcDbLine
 10
64.0709296330939
 20
22.62118111656404
 30
0.0
 11
64.1509980598796
 21
22.70124954334975
 31
0.0
  0
LINE
  5
DA
330
18
100
AcDbEntity
  8
0
 62
     7
100
AcDbLine
 10
64.68478757178431
 20
22.78131797013545
 30
0.0
 11
64.63140862059384
 21
22.70124954334975
 31
0.0
  0
LINE
  5
DB
330
18
100
AcDbEntity
  8
0
 62
     7
100
AcDbLine
 10
64.71147704737955
 20
22.62118111656404
 30
0.0
 11
64.71147704737955
 21
22.16746003144504
 31
0.0
  0
LINE
  5
DC
330
18
100
AcDbEntity
  8
0
 62
     7
100
AcDbLine
 10
64.71147704737955
 20
22.16746003144504
 30
0.0
 11
64.63140862059384
 21
22.11408108025457
 31
0.0
  0
LINE
  5
DD
330
18
100
AcDbEntity
  8
0
 62
     7
100
AcDbLine
 10
64.63140862059384
 20
22.11408108025457
 30
0.0
 11
64.71147704737955
 21
22.06070212906409
 31
0.0
  0
LINE
  5
DE
330
18
100
AcDbEntity
  8
0
 62
     7
100
AcDbLine
 10
64.63140862059384
 20
22.70124954334975
 30
0.0
 11
64.71147704737955
 21
22.62118111656404
 31
0.0
  0
LINE
  5
DF
330
18
100
AcDbEntity
  8
0
 62
     7
100
AcDbLine
 10
64.68478757178431
 20
35.0317872683486
 30
0.0
 11
64.07281842675141
 21
35.0317872683486
 31
0.0
  0
TEXT
  5
ED
330
18
100
AcDbEntity
  8
ADPDIM
100
AcDbText
 10
32.13744655983153
 20
-4.563990562203661
 30
0.0
 40
0.625
  1
J U L I U S  B L U M  &  C O . ,  I N C .      ( 8 0 0 )  5 2 6 - 6 2 9 3        W W W . J U L I U S B L U M . C O M        P A R T  N o .  5 3 1
 41
1.25
  7
ARIAL_WIDE
 72
     1
 11
64.3109842474168
 21
-3.938990562203661
 31
0.0
100
AcDbText
 73
     3
  0
ENDSEC
  0
SECTION
  2
OBJECTS
  0
DICTIONARY
  5
C
330
0
100
AcDbDictionary
  3
ACAD_GROUP
350
D
  3
ACAD_LAYOUT
350
E6
  3
ACAD_MLINESTYLE
350
E
  3
ACAD_PLOTSETTINGS
350
E7
  3
ACAD_PLOTSTYLENAME
350
E4
  3
ACDBHEADERROUNDTRIPXREC
350
235
  3
ACDBVARIABLEDICTIONARY
350
147
  0
DICTIONARY
  5
141
330
18
100
AcDbDictionary
280
     1
  3
ACAD_LAYOUTSELFREF
360
256
  0
DICTIONARY
  5
13F
330
15
100
AcDbDictionary
280
     1
  3
ACAD_LAYOUTSELFREF
360
255
  0
DICTIONARY
  5
D
102
{ACAD_REACTORS
330
C
102
}
330
C
100
AcDbDictionary
  0
DICTIONARY
  5
E6
102
{ACAD_REACTORS
330
C
102
}
330
C
100
AcDbDictionary
  0
DICTIONARY
  5
E
102
{ACAD_REACTORS
330
C
102
}
330
C
100
AcDbDictionary
  3
STANDARD
350
1B
  0
DICTIONARY
  5
E7
102
{ACAD_REACTORS
330
C
102
}
330
C
100
AcDbDictionary
  0
ACDBDICTIONARYWDFLT
  5
E4
102
{ACAD_REACTORS
330
C
102
}
330
C
100
AcDbDictionary
281
     1
  3
Normal
350
E5
100
AcDbDictionaryWithDefault
340
E5
  0
DICTIONARY
  5
235
102
{ACAD_REACTORS
330
C
102
}
330
C
100
AcDbDictionary
  3
CEPSNTYPE
350
23F
  3
FINGERPRINTGUID
350
240
  3
HYPERLINKBASE
350
238
  3
INSUNITS
350
23E
  3
LAYOUTDICT
350
23A
  3
LWETCUNION
350
23D
  3
PLOTSETDICT
350
23B
  3
PLOTSTYLNAMDICT
350
23C
  3
PSVPSCALE
350
242
  3
PUCSBASE
350
245
  3
PUCSORGBACK
350
24B
  3
PUCSORGBOTTOM
350
247
  3
PUCSORGFRONT
350
24A
  3
PUCSORGLEFT
350
248
  3
PUCSORGRIGHT
350
249
  3
PUCSORGTOP
350
246
  3
PUCSORTHOREF
350
243
  3
PUCSORTHOVIEW
350
244
  3
STYLESHEET
350
239
  3
TSTACKALIGN
350
236
  3
TSTACKSIZE
350
237
  3
UCSBASE
350
24E
  3
UCSORGBACK
350
254
  3
UCSORGBOTTOM
350
250
  3
UCSORGFRONT
350
253
  3
UCSORGLEFT
350
251
  3
UCSORGRIGHT
350
252
  3
UCSORGTOP
350
24F
  3
UCSORTHOREF
350
24C
  3
UCSORTHOVIEW
350
24D
  3
VERSIONGUID
350
241
  0
DICTIONARY
  5
147
102
{ACAD_REACTORS
330
C
102
}
330
C
100
AcDbDictionary
  3
DIMASSOC
350
148
  0
XRECORD
  5
256
102
{ACAD_REACTORS
330
141
102
}
330
141
100
AcDbXrecord
340
18
  0
XRECORD
  5
255
102
{ACAD_REACTORS
330
13F
102
}
330
13F
100
AcDbXrecord
340
15
  0
MLINESTYLE
  5
1B
102
{ACAD_REACTORS
330
E
102
}
330
E
100
AcDbMlineStyle
  2
STANDARD
 70
     0
  3

 62
     0
 51
90.0
 52
90.0
 71
     2
 49
0.5
 62
   256
  6
BYLAYER
 49
-0.5
 62
   256
  6
BYLAYER
  0
ACDBPLACEHOLDER
  5
E5
102
{ACAD_REACTORS
330
E4
102
}
330
E4
100
AcDbPlaceHolder
280
     0
  0
XRECORD
  5
23F
102
{ACAD_REACTORS
330
235
102
}
330
235
100
AcDbXrecord
 90
        0
  0
XRECORD
  5
240
102
{ACAD_REACTORS
330
235
102
}
330
235
100
AcDbXrecord
  1
{5EC91F76-1516-4D2A-9614-4350DFCF11AF}
  0
XRECORD
  5
238
102
{ACAD_REACTORS
330
235
102
}
330
235
100
AcDbXrecord
  1

  0
XRECORD
  5
23E
102
{ACAD_REACTORS
330
235
102
}
330
235
100
AcDbXrecord
 90
        0
  0
XRECORD
  5
23A
102
{ACAD_REACTORS
330
235
102
}
330
235
100
AcDbXrecord
340
E6
  0
XRECORD
  5
23D
102
{ACAD_REACTORS
330
235
102
}
330
235
100
AcDbXrecord
 90
    14877
  0
XRECORD
  5
23B
102
{ACAD_REACTORS
330
235
102
}
330
235
100
AcDbXrecord
340
E7
  0
XRECORD
  5
23C
102
{ACAD_REACTORS
330
235
102
}
330
235
100
AcDbXrecord
340
E4
  0
XRECORD
  5
242
102
{ACAD_REACTORS
330
235
102
}
330
235
100
AcDbXrecord
 40
0.0
  0
XRECORD
  5
245
102
{ACAD_REACTORS
330
235
102
}
330
235
100
AcDbXrecord
340
0
  0
XRECORD
  5
24B
102
{ACAD_REACTORS
330
235
102
}
330
235
100
AcDbXrecord
 10
0.0
 20
0.0
 30
0.0
  0
XRECORD
  5
247
102
{ACAD_REACTORS
330
235
102
}
330
235
100
AcDbXrecord
 10
0.0
 20
0.0
 30
0.0
  0
XRECORD
  5
24A
102
{ACAD_REACTORS
330
235
102
}
330
235
100
AcDbXrecord
 10
0.0
 20
0.0
 30
0.0
  0
XRECORD
  5
248
102
{ACAD_REACTORS
330
235
102
}
330
235
100
AcDbXrecord
 10
0.0
 20
0.0
 30
0.0
  0
XRECORD
  5
249
102
{ACAD_REACTORS
330
235
102
}
330
235
100
AcDbXrecord
 10
0.0
 20
0.0
 30
0.0
  0
XRECORD
  5
246
102
{ACAD_REACTORS
330
235
102
}
330
235
100
AcDbXrecord
 10
0.0
 20
0.0
 30
0.0
  0
XRECORD
  5
243
102
{ACAD_REACTORS
330
235
102
}
330
235
100
AcDbXrecord
340
0
  0
XRECORD
  5
244
102
{ACAD_REACTORS
330
235
102
}
330
235
100
AcDbXrecord
 70
     0
  0
XRECORD
  5
239
102
{ACAD_REACTORS
330
235
102
}
330
235
100
AcDbXrecord
  1

  0
XRECORD
  5
236
102
{ACAD_REACTORS
330
235
102
}
330
235
100
AcDbXrecord
 90
        1
  0
XRECORD
  5
237
102
{ACAD_REACTORS
330
235
102
}
330
235
100
AcDbXrecord
 90
       70
  0
XRECORD
  5
24E
102
{ACAD_REACTORS
330
235
102
}
330
235
100
AcDbXrecord
340
0
  0
XRECORD
  5
254
102
{ACAD_REACTORS
330
235
102
}
330
235
100
AcDbXrecord
 10
0.0
 20
0.0
 30
0.0
  0
XRECORD
  5
250
102
{ACAD_REACTORS
330
235
102
}
330
235
100
AcDbXrecord
 10
0.0
 20
0.0
 30
0.0
  0
XRECORD
  5
253
102
{ACAD_REACTORS
330
235
102
}
330
235
100
AcDbXrecord
 10
0.0
 20
0.0
 30
0.0
  0
XRECORD
  5
251
102
{ACAD_REACTORS
330
235
102
}
330
235
100
AcDbXrecord
 10
0.0
 20
0.0
 30
0.0
  0
XRECORD
  5
252
102
{ACAD_REACTORS
330
235
102
}
330
235
100
AcDbXrecord
 10
0.0
 20
0.0
 30
0.0
  0
XRECORD
  5
24F
102
{ACAD_REACTORS
330
235
102
}
330
235
100
AcDbXrecord
 10
0.0
 20
0.0
 30
0.0
  0
XRECORD
  5
24C
102
{ACAD_REACTORS
330
235
102
}
330
235
100
AcDbXrecord
340
0
  0
XRECORD
  5
24D
102
{ACAD_REACTORS
330
235
102
}
330
235
100
AcDbXrecord
 70
     0
  0
XRECORD
  5
241
102
{ACAD_REACTORS
330
235
102
}
330
235
100
AcDbXrecord
  1
{3EA275E6-EA8B-4431-A1B8-21706394E2EA}
  0
DICTIONARYVAR
  5
148
102
{ACAD_REACTORS
330
147
102
}
330
147
100
DictionaryVariables
280
     0
  1
1
  0
ENDSEC
  0
EOF
