  0
SECTION
  2
HEADER
  9
$ACADVER
  1
AC1014
  9
$ACADMAINTVER
 70
     9
  9
$DWGCODEPAGE
  3
ANSI_1252
  9
$INSBASE
 10
58.43243418423485
 20
-0.8919588694523023
 30
0.0
  9
$EXTMIN
 10
26.48298891403245
 20
-4.351796058865181
 30
0.0
  9
$EXTMAX
 10
90.83006428920297
 20
35.2330411305477
 30
0.0
  9
$LIMMIN
 10
0.0
 20
0.0
  9
$LIMMAX
 10
36.0
 20
36.0
  9
$ORTHOMODE
 70
     1
  9
$REGENMODE
 70
     1
  9
$FILLMODE
 70
     1
  9
$QTEXTMODE
 70
     0
  9
$MIRRTEXT
 70
     1
  9
$DRAGMODE
 70
     0
  9
$LTSCALE
 40
1.0
  9
$OSMODE
 70
    37
  9
$ATTMODE
 70
     1
  9
$TEXTSIZE
 40
0.2
  9
$TRACEWID
 40
0.05
  9
$TEXTSTYLE
  7
STANDARD
  9
$CLAYER
  8
ADPDIM
  9
$CELTYPE
  6
BYLAYER
  9
$CECOLOR
 62
   256
  9
$CELTSCALE
 40
1.0
  9
$DELOBJ
 70
     1
  9
$DISPSILH
 70
     0
  9
$DIMSCALE
 40
1.0
  9
$DIMASZ
 40
0.125
  9
$DIMEXO
 40
0.0625
  9
$DIMDLI
 40
0.38
  9
$DIMRND
 40
0.0
  9
$DIMDLE
 40
0.0
  9
$DIMEXE
 40
0.18
  9
$DIMTP
 40
0.0
  9
$DIMTM
 40
0.0
  9
$DIMTXT
 40
0.125
  9
$DIMCEN
 40
0.1875
  9
$DIMTSZ
 40
0.125
  9
$DIMTOL
 70
     0
  9
$DIMLIM
 70
     0
  9
$DIMTIH
 70
     0
  9
$DIMTOH
 70
     0
  9
$DIMSE1
 70
     0
  9
$DIMSE2
 70
     0
  9
$DIMTAD
 70
     0
  9
$DIMZIN
 70
     3
  9
$DIMBLK
  1

  9
$DIMASO
 70
     1
  9
$DIMSHO
 70
     1
  9
$DIMPOST
  1

  9
$DIMAPOST
  1

  9
$DIMALT
 70
     0
  9
$DIMALTD
 70
     1
  9
$DIMALTF
 40
25.4
  9
$DIMLFAC
 40
1.0
  9
$DIMTOFL
 70
     0
  9
$DIMTVP
 40
0.0
  9
$DIMTIX
 70
     0
  9
$DIMSOXD
 70
     0
  9
$DIMSAH
 70
     0
  9
$DIMBLK1
  1

  9
$DIMBLK2
  1

  9
$DIMSTYLE
  2
STANDARD
  9
$DIMCLRD
 70
     0
  9
$DIMCLRE
 70
     0
  9
$DIMCLRT
 70
     0
  9
$DIMTFAC
 40
1.0
  9
$DIMGAP
 40
0.125
  9
$DIMJUST
 70
     0
  9
$DIMSD1
 70
     0
  9
$DIMSD2
 70
     0
  9
$DIMTOLJ
 70
     1
  9
$DIMTZIN
 70
     0
  9
$DIMALTZ
 70
     0
  9
$DIMALTTZ
 70
     0
  9
$DIMFIT
 70
     3
  9
$DIMUPT
 70
     0
  9
$DIMUNIT
 70
     2
  9
$DIMDEC
 70
     4
  9
$DIMTDEC
 70
     4
  9
$DIMALTU
 70
     2
  9
$DIMALTTD
 70
     2
  9
$DIMTXSTY
  7
STANDARD
  9
$DIMAUNIT
 70
     0
  9
$LUNITS
 70
     5
  9
$LUPREC
 70
     4
  9
$SKETCHINC
 40
0.1
  9
$FILLETRAD
 40
0.062
  9
$AUNITS
 70
     0
  9
$AUPREC
 70
     0
  9
$MENU
  1
acad
  9
$ELEVATION
 40
0.0
  9
$PELEVATION
 40
0.0
  9
$THICKNESS
 40
0.0
  9
$LIMCHECK
 70
     0
  9
$BLIPMODE
 70
     0
  9
$CHAMFERA
 40
0.0
  9
$CHAMFERB
 40
0.0
  9
$CHAMFERC
 40
0.0
  9
$CHAMFERD
 40
0.0
  9
$SKPOLY
 70
     0
  9
$TDCREATE
 40
2450374.517042430
  9
$TDUPDATE
 40
2452297.072227639
  9
$TDINDWG
 40
0.0246440625
  9
$TDUSRTIMER
 40
0.0246440625
  9
$USRTIMER
 70
     1
  9
$ANGBASE
 50
0.0
  9
$ANGDIR
 70
     0
  9
$PDMODE
 70
     0
  9
$PDSIZE
 40
0.0
  9
$PLINEWID
 40
0.0
  9
$COORDS
 70
     2
  9
$SPLFRAME
 70
     0
  9
$SPLINETYPE
 70
     6
  9
$SPLINESEGS
 70
     8
  9
$ATTDIA
 70
     0
  9
$ATTREQ
 70
     1
  9
$HANDLING
 70
 22529
  9
$HANDSEED
  5
27B
  9
$SURFTAB1
 70
     6
  9
$SURFTAB2
 70
     6
  9
$SURFTYPE
 70
     6
  9
$SURFU
 70
     6
  9
$SURFV
 70
     6
  9
$UCSNAME
  2

  9
$UCSORG
 10
0.0
 20
0.0
 30
0.0
  9
$UCSXDIR
 10
1.0
 20
0.0
 30
0.0
  9
$UCSYDIR
 10
0.0
 20
1.0
 30
0.0
  9
$PUCSNAME
  2

  9
$PUCSORG
 10
0.0
 20
0.0
 30
0.0
  9
$PUCSXDIR
 10
1.0
 20
0.0
 30
0.0
  9
$PUCSYDIR
 10
0.0
 20
1.0
 30
0.0
  9
$USERI1
 70
     0
  9
$USERI2
 70
     0
  9
$USERI3
 70
     0
  9
$USERI4
 70
     0
  9
$USERI5
 70
     0
  9
$USERR1
 40
0.0
  9
$USERR2
 40
0.0
  9
$USERR3
 40
0.0
  9
$USERR4
 40
0.0
  9
$USERR5
 40
0.0
  9
$WORLDVIEW
 70
     1
  9
$SHADEDGE
 70
     3
  9
$SHADEDIF
 70
    70
  9
$TILEMODE
 70
     1
  9
$MAXACTVP
 70
    15
  9
$PINSBASE
 10
0.0
 20
0.0
 30
0.0
  9
$PLIMCHECK
 70
     0
  9
$PEXTMIN
 10
1.000000000000000E+20
 20
1.000000000000000E+20
 30
1.000000000000000E+20
  9
$PEXTMAX
 10
-1.000000000000000E+20
 20
-1.000000000000000E+20
 30
-1.000000000000000E+20
  9
$PLIMMIN
 10
0.0
 20
0.0
  9
$PLIMMAX
 10
12.0
 20
9.0
  9
$UNITMODE
 70
     0
  9
$VISRETAIN
 70
     0
  9
$PLINEGEN
 70
     0
  9
$PSLTSCALE
 70
     1
  9
$TREEDEPTH
 70
  3020
  9
$PICKSTYLE
 70
     1
  9
$CMLSTYLE
  2
STANDARD
  9
$CMLJUST
 70
     0
  9
$CMLSCALE
 40
1.0
  9
$PROXYGRAPHICS
 70
     1
  9
$MEASUREMENT
 70
     0
  0
ENDSEC
  0
SECTION
  2
CLASSES
  0
CLASS
  1
ACDBDICTIONARYWDFLT
  2
AcDbDictionaryWithDefault
  3
AutoCAD 2000
 90
        0
280
     0
281
     0
  0
CLASS
  1
ACDBPLACEHOLDER
  2
AcDbPlaceHolder
  3
AutoCAD 2000
 90
        0
280
     0
281
     0
  0
CLASS
  1
LAYOUT
  2
AcDbLayout
  3
AutoCAD 2000
 90
        0
280
     0
281
     0
  0
CLASS
  1
DICTIONARYVAR
  2
AcDbDictionaryVar
  3
AutoCAD 2000
 90
        0
280
     0
281
     0
  0
CLASS
  1
LONG_TRANSACTION
  2
AcDbLongTransaction
  3
AutoCAD 2000
 90
        0
280
     0
281
     0
  0
CLASS
  1
LWPOLYLINE
  2
AcDbPolyline
  3
AutoCAD 2000
 90
        0
280
     0
281
     1
  0
CLASS
  1
HATCH
  2
AcDbHatch
  3
AutoCAD 2000
 90
        0
280
     0
281
     1
  0
CLASS
  1
XRECORD
  2
AcDbXrecord
  3
AutoCAD 2000
 90
        0
280
     0
281
     0
  0
CLASS
  1
LONG_TRANSACTION
  2
AcDbLongTransaction
  3
AutoCAD 2000
 90
        0
280
     0
281
     0
  0
CLASS
  1
LWPOLYLINE
  2
AcDbPolyline
  3
AutoCAD 2000
 90
        0
280
     0
281
     1
  0
CLASS
  1
HATCH
  2
AcDbHatch
  3
AutoCAD 2000
 90
        0
280
     0
281
     1
  0
CLASS
  1
XRECORD
  2
AcDbXrecord
  3
AutoCAD 2000
 90
        0
280
     0
281
     0
  0
CLASS
  1
LONG_TRANSACTION
  2
AcDbLongTransaction
  3
AutoCAD 2000
 90
        0
280
     0
281
     0
  0
CLASS
  1
LWPOLYLINE
  2
AcDbPolyline
  3
AutoCAD 2000
 90
        0
280
     0
281
     1
  0
CLASS
  1
HATCH
  2
AcDbHatch
  3
AutoCAD 2000
 90
        0
280
     0
281
     1
  0
CLASS
  1
XRECORD
  2
AcDbXrecord
  3
AutoCAD 2000
 90
        0
280
     0
281
     0
  0
CLASS
  1
LONG_TRANSACTION
  2
AcDbLongTransaction
  3
AutoCAD 2000
 90
        0
280
     0
281
     0
  0
CLASS
  1
LWPOLYLINE
  2
AcDbPolyline
  3
AutoCAD 2000
 90
        0
280
     0
281
     1
  0
CLASS
  1
HATCH
  2
AcDbHatch
  3
AutoCAD 2000
 90
        0
280
     0
281
     1
  0
CLASS
  1
XRECORD
  2
AcDbXrecord
  3
AutoCAD 2000
 90
        0
280
     0
281
     0
  0
CLASS
  1
LONG_TRANSACTION
  2
AcDbLongTransaction
  3
AutoCAD 2000
 90
        0
280
     0
281
     0
  0
CLASS
  1
LWPOLYLINE
  2
AcDbPolyline
  3
AutoCAD 2000
 90
        0
280
     0
281
     1
  0
CLASS
  1
HATCH
  2
AcDbHatch
  3
AutoCAD 2000
 90
        0
280
     0
281
     1
  0
CLASS
  1
XRECORD
  2
AcDbXrecord
  3
AutoCAD 2000
 90
        0
280
     0
281
     0
  0
CLASS
  1
LONG_TRANSACTION
  2
AcDbLongTransaction
  3
AutoCAD 2000
 90
        0
280
     0
281
     0
  0
CLASS
  1
LWPOLYLINE
  2
AcDbPolyline
  3
AutoCAD 2000
 90
        0
280
     0
281
     1
  0
CLASS
  1
HATCH
  2
AcDbHatch
  3
AutoCAD 2000
 90
        0
280
     0
281
     1
  0
CLASS
  1
XRECORD
  2
AcDbXrecord
  3
AutoCAD 2000
 90
        0
280
     0
281
     0
  0
ENDSEC
  0
SECTION
  2
TABLES
  0
TABLE
  2
VPORT
  5
8
330
0
100
AcDbSymbolTable
 70
     2
  0
VPORT
  5
258
330
8
100
AcDbSymbolTableRecord
100
AcDbViewportTableRecord
  2
*ACTIVE
 70
     0
 10
0.0
 20
0.0
 11
1.0
 21
1.0
 12
58.7072245131625
 22
15.43962564465271
 13
0.0
 23
0.0
 14
0.5740882589684922
 24
0.5740882589684922
 15
0.5
 25
0.5
 16
0.0
 26
0.0
 36
1.0
 17
0.0
 27
0.0
 37
0.0
 40
41.24186333881382
 41
1.570528967254408
 42
50.0
 43
0.0
 44
0.0
 50
0.0
 51
0.0
 71
     0
 72
   100
 73
     1
 74
     0
 75
     0
 76
     0
 77
     0
 78
     0
  0
ENDTAB
  0
TABLE
  2
LTYPE
  5
5
330
0
100
AcDbSymbolTable
 70
     1
  0
LTYPE
  5
12
330
5
100
AcDbSymbolTableRecord
100
AcDbLinetypeTableRecord
  2
BYBLOCK
 70
     0
  3

 72
    65
 73
     0
 40
0.0
  0
LTYPE
  5
13
330
5
100
AcDbSymbolTableRecord
100
AcDbLinetypeTableRecord
  2
BYLAYER
 70
     0
  3

 72
    65
 73
     0
 40
0.0
  0
LTYPE
  5
14
330
5
100
AcDbSymbolTableRecord
100
AcDbLinetypeTableRecord
  2
CONTINUOUS
 70
     0
  3
Solid line
 72
    65
 73
     0
 40
0.0
  0
ENDTAB
  0
TABLE
  2
LAYER
  5
2
330
0
100
AcDbSymbolTable
 70
     4
  0
LAYER
  5
F
330
2
100
AcDbSymbolTableRecord
100
AcDbLayerTableRecord
  2
0
 70
     0
 62
     7
  6
CONTINUOUS
  0
LAYER
  5
49
330
2
100
AcDbSymbolTableRecord
100
AcDbLayerTableRecord
  2
ADPDIM
 70
     0
 62
     3
  6
CONTINUOUS
  0
LAYER
  5
4B
330
2
100
AcDbSymbolTableRecord
100
AcDbLayerTableRecord
  2
ADP1DETAIL
 70
     0
 62
     7
  6
CONTINUOUS
  0
LAYER
  5
4D
330
2
100
AcDbSymbolTableRecord
100
AcDbLayerTableRecord
  2
DEFPOINTS
 70
     0
 62
     7
  6
CONTINUOUS
  0
ENDTAB
  0
TABLE
  2
STYLE
  5
3
330
0
100
AcDbSymbolTable
 70
     2
  0
STYLE
  5
10
330
3
100
AcDbSymbolTableRecord
100
AcDbTextStyleTableRecord
  2
STANDARD
 70
     0
 40
0.0
 41
1.0
 50
0.0
 71
     0
 42
0.2
  3
txt
  4

  0
STYLE
  5
110
330
3
100
AcDbSymbolTableRecord
100
AcDbTextStyleTableRecord
  2
ARIAL_WIDE
 70
     0
 40
0.0
 41
1.25
 50
0.0
 71
     0
 42
0.2
  3
ARIAL.TTF
  4

1001
ACAD
1000
Arial
1071
       34
  0
ENDTAB
  0
TABLE
  2
VIEW
  5
6
330
0
100
AcDbSymbolTable
 70
     0
  0
ENDTAB
  0
TABLE
  2
UCS
  5
7
330
0
100
AcDbSymbolTable
 70
     0
  0
ENDTAB
  0
TABLE
  2
APPID
  5
9
330
0
100
AcDbSymbolTable
 70
     1
  0
APPID
  5
11
330
9
100
AcDbSymbolTableRecord
100
AcDbRegAppTableRecord
  2
ACAD
 70
     0
  0
ENDTAB
  0
TABLE
  2
DIMSTYLE
  5
A
330
0
100
AcDbSymbolTable
 70
     1
  0
DIMSTYLE
105
104
330
A
100
AcDbSymbolTableRecord
100
AcDbDimStyleTableRecord
  2
STANDARD
 70
     0
  3

  4

  5

  6

  7

 40
1.0
 41
0.18
 42
0.0625
 43
0.38
 44
0.18
 45
0.0
 46
0.0
 47
0.0
 48
0.0
140
0.18
141
0.09
142
0.0
143
25.4
144
1.0
145
0.0
146
1.0
147
0.09
 71
     0
 72
     0
 73
     1
 74
     1
 75
     0
 76
     0
 77
     0
 78
     0
170
     0
171
     2
172
     0
173
     0
174
     0
175
     0
176
     0
177
     0
178
     0
270
     2
271
     4
272
     4
273
     2
274
     2
340
10
275
     0
280
     0
281
     0
282
     0
283
     1
284
     0
285
     0
286
     0
287
     3
288
     0
  0
ENDTAB
  0
TABLE
  2
BLOCK_RECORD
  5
1
330
0
100
AcDbSymbolTable
 70
     2
  0
BLOCK_RECORD
  5
18
102
{ACAD_XDICTIONARY
360
165
102
}
330
1
100
AcDbSymbolTableRecord
100
AcDbBlockTableRecord
  2
*MODEL_SPACE
  0
BLOCK_RECORD
  5
15
102
{ACAD_XDICTIONARY
360
163
102
}
330
1
100
AcDbSymbolTableRecord
100
AcDbBlockTableRecord
  2
*PAPER_SPACE
  0
BLOCK_RECORD
  5
41
330
1
100
AcDbSymbolTableRecord
100
AcDbBlockTableRecord
  2
*D0
  0
BLOCK_RECORD
  5
47
330
1
100
AcDbSymbolTableRecord
100
AcDbBlockTableRecord
  2
*D1
  0
ENDTAB
  0
ENDSEC
  0
SECTION
  2
BLOCKS
  0
BLOCK
  5
50
330
18
100
AcDbEntity
  8
0
100
AcDbBlockBegin
  2
*MODEL_SPACE
 70
     0
 10
0.0
 20
0.0
 30
0.0
  3
*MODEL_SPACE
  1

  0
ENDBLK
  5
51
330
18
100
AcDbEntity
  8
0
100
AcDbBlockEnd
  0
BLOCK
  5
4E
330
15
100
AcDbEntity
 67
     1
  8
0
100
AcDbBlockBegin
  2
*PAPER_SPACE
 70
     0
 10
0.0
 20
0.0
 30
0.0
  3
*PAPER_SPACE
  1

  0
ENDBLK
  5
4F
330
15
100
AcDbEntity
 67
     1
  8
0
100
AcDbBlockEnd
  0
BLOCK
  5
53
330
41
100
AcDbEntity
  8
0
100
AcDbBlockBegin
  2
*D0
 70
     1
 10
0.0
 20
0.0
 30
0.0
  3
*D0
  1

  0
LINE
  5
54
330
41
100
AcDbEntity
  8
0
  6
BYBLOCK
 62
     0
100
AcDbLine
 10
58.36993418423485
 20
-0.8919588694523023
 30
0.0
 11
55.73576935052725
 21
-0.8919588694523021
 31
0.0
  0
LINE
  5
55
330
41
100
AcDbEntity
  8
0
  6
BYBLOCK
 62
     0
100
AcDbLine
 10
58.36993418423485
 20
35.10804113054769
 30
0.0
 11
55.73576935052725
 21
35.1080411305477
 31
0.0
  0
LINE
  5
56
330
41
100
AcDbEntity
  8
0
  6
BYBLOCK
 62
     0
100
AcDbLine
 10
55.91576935052724
 20
-0.8919588694523021
 30
0.0
 11
55.91576935052724
 21
16.87887446388103
 31
0.0
  0
LINE
  5
57
330
41
100
AcDbEntity
  8
0
  6
BYBLOCK
 62
     0
100
AcDbLine
 10
55.91576935052724
 20
35.1080411305477
 30
0.0
 11
55.91576935052724
 21
17.33720779721436
 31
0.0
  0
LINE
  5
58
330
41
100
AcDbEntity
  8
0
  6
BYBLOCK
 62
     0
100
AcDbLine
 10
56.04076935052725
 20
-1.016958869452302
 30
0.0
 11
55.79076935052725
 21
-0.7669588694523022
 31
0.0
  0
LINE
  5
59
330
41
100
AcDbEntity
  8
0
  6
BYBLOCK
 62
     0
100
AcDbLine
 10
56.04076935052725
 20
34.9830411305477
 30
0.0
 11
55.79076935052725
 21
35.2330411305477
 31
0.0
  0
TEXT
  5
5A
330
41
100
AcDbEntity
  8
0
  6
BYBLOCK
 62
     0
100
AcDbText
 10
55.97826935052725
 20
17.00387446388103
 30
0.0
 40
0.125
  1
36
 50
90.0
 72
     1
 11
55.91576935052724
 21
17.1080411305477
 31
0.0
100
AcDbText
 73
     2
  0
POINT
  5
5B
330
41
100
AcDbEntity
  8
DEFPOINTS
  6
BYBLOCK
 62
     0
100
AcDbPoint
 10
58.43243418423485
 20
-0.8919588694523023
 30
0.0
  0
POINT
  5
5C
330
41
100
AcDbEntity
  8
DEFPOINTS
  6
BYBLOCK
 62
     0
100
AcDbPoint
 10
58.43243418423485
 20
35.10804113054769
 30
0.0
  0
POINT
  5
5D
330
41
100
AcDbEntity
  8
DEFPOINTS
  6
BYBLOCK
 62
     0
100
AcDbPoint
 10
55.91576935052724
 20
35.1080411305477
 30
0.0
  0
ENDBLK
  5
5E
330
41
100
AcDbEntity
  8
0
100
AcDbBlockEnd
  0
BLOCK
  5
5F
330
47
100
AcDbEntity
  8
0
100
AcDbBlockBegin
  2
*D1
 70
     1
 10
0.0
 20
0.0
 30
0.0
  3
*D1
  1

  0
LINE
  5
60
330
47
100
AcDbEntity
  8
0
  6
BYBLOCK
 62
     0
100
AcDbLine
 10
58.43243418423485
 20
-2.479535401583515
 30
0.0
 11
58.43243418423485
 21
-2.978304534616318
 31
0.0
  0
LINE
  5
61
330
47
100
AcDbEntity
  8
0
  6
BYBLOCK
 62
     0
100
AcDbLine
 10
59.05743418423485
 20
-2.479535401583515
 30
0.0
 11
59.05743418423485
 21
-2.978304534616318
 31
0.0
  0
LINE
  5
62
330
47
100
AcDbEntity
  8
0
  6
BYBLOCK
 62
     0
100
AcDbLine
 10
58.43243418423485
 20
-2.798304534616318
 30
0.0
 11
58.18243418423485
 21
-2.798304534616318
 31
0.0
  0
LINE
  5
63
330
47
100
AcDbEntity
  8
0
  6
BYBLOCK
 62
     0
100
AcDbLine
 10
59.05743418423485
 20
-2.798304534616318
 30
0.0
 11
59.30743418423485
 21
-2.798304534616318
 31
0.0
  0
LINE
  5
64
330
47
100
AcDbEntity
  8
0
  6
BYBLOCK
 62
     0
100
AcDbLine
 10
58.30743418423485
 20
-2.923304534616318
 30
0.0
 11
58.55743418423485
 21
-2.673304534616318
 31
0.0
  0
LINE
  5
65
330
47
100
AcDbEntity
  8
0
  6
BYBLOCK
 62
     0
100
AcDbLine
 10
58.93243418423485
 20
-2.923304534616318
 30
0.0
 11
59.18243418423485
 21
-2.673304534616318
 31
0.0
  0
TEXT
  5
66
330
47
100
AcDbEntity
  8
0
  6
BYBLOCK
 62
     0
100
AcDbText
 10
59.43243418423485
 20
-2.860804534616318
 30
0.0
 40
0.125
  1
5/8
 72
     1
 11
59.59910085090151
 21
-2.798304534616318
 31
0.0
100
AcDbText
 73
     2
  0
POINT
  5
67
330
47
100
AcDbEntity
  8
DEFPOINTS
  6
BYBLOCK
 62
     0
100
AcDbPoint
 10
58.43243418423485
 20
-2.417035401583515
 30
0.0
  0
POINT
  5
68
330
47
100
AcDbEntity
  8
DEFPOINTS
  6
BYBLOCK
 62
     0
100
AcDbPoint
 10
59.05743418423485
 20
-2.417035401583515
 30
0.0
  0
POINT
  5
69
330
47
100
AcDbEntity
  8
DEFPOINTS
  6
BYBLOCK
 62
     0
100
AcDbPoint
 10
59.05743418423485
 20
-2.798304534616318
 30
0.0
  0
ENDBLK
  5
6A
330
47
100
AcDbEntity
  8
0
100
AcDbBlockEnd
  0
ENDSEC
  0
SECTION
  2
ENTITIES
  0
LWPOLYLINE
  5
6B
330
18
100
AcDbEntity
  8
0
 62
     7
100
AcDbPolyline
 90
        8
 70
     0
 43
0.0
 10
58.37910085090152
 20
21.48137446388103
 42
-0.0768952710191505
 10
58.29707534555805
 20
20.76160240518942
 42
-0.0998912701947899
 10
57.41557821996564
 20
20.23074718762369
 42
0.241252781356333
 10
56.90613743238202
 20
19.24551000492686
 42
0.3157398301188384
 10
57.27796867905665
 20
18.71112835645957
 42
0.0678974721734457
 10
56.69182954770423
 20
18.89944495402773
 42
0.3120083049616311
 10
56.3447140705791
 20
18.74042098313661
 42
-0.1266117800006913
 10
56.31797247902232
 20
18.71382945246925
 42
1.98517555625205
  0
LWPOLYLINE
  5
75
330
18
100
AcDbEntity
  8
0
 62
     7
100
AcDbPolyline
 90
        8
 70
     0
 43
0.0
 10
58.4512973679875
 20
18.70782701689217
 42
0.4964906641162682
 10
58.02515760330745
 20
18.89569343179205
 42
0.7032398834949589
 10
57.6795427350766
 20
19.27000068314223
 42
-0.2091019484620286
 10
57.73205052240889
 20
18.97651845002008
 42
-0.5771713785768524
 10
57.46515981995409
 20
18.89726907113104
 42
-0.4139980114194203
 10
57.44096926351758
 20
19.77734061827386
 10
58.18883346177081
 20
20.20190474361493
 42
0.2775444411517068
 10
58.75145731068914
 20
21.13365874319821
 42
155.6687725234643
  0
LWPOLYLINE
  5
7F
330
18
100
AcDbEntity
  8
0
 62
     7
100
AcDbPolyline
 90
        8
 70
     0
 43
0.0
 10
59.04479064402248
 20
18.70699207653153
 42
-0.4964906641162682
 10
59.47145731068914
 20
18.89365874319821
 42
-0.7032398834949589
 10
59.81812397735581
 20
19.26699207653154
 42
0.2091019484620286
 10
59.76479064402248
 20
18.9736587431982
 42
0.5771713785768524
 10
60.03145731068915
 20
18.89365874319821
 42
0.4139980114194203
 10
60.05812397735581
 20
19.77365874319819
 10
59.31145731068914
 20
20.20032540986487
 42
-0.2775444411517068
 10
58.75145731068914
 20
21.13365874319821
 42
-155.6687725234643
  0
LWPOLYLINE
  5
89
330
18
100
AcDbEntity
  8
0
 62
     7
100
AcDbPolyline
 90
        8
 70
     0
 43
0.0
 10
59.12479064402248
 20
21.48032540986486
 42
0.0768952710191505
 10
59.20479064402248
 20
20.76032540986486
 42
0.0998912701947899
 10
60.08479064402248
 20
20.22699207653154
 42
-0.241252781356333
 10
60.59145731068913
 20
19.24032540986487
 42
-0.3157398301188384
 10
60.21812397735581
 20
18.70699207653153
 42
-0.0678974721734457
 10
60.80479064402247
 20
18.89365874319821
 42
-0.3120083049616311
 10
61.15145731068914
 20
18.7336587431982
 42
0.1266117800006913
 10
61.17812397735581
 20
18.70699207653153
 42
-1.98517555625205
  0
DIMENSION
  5
93
330
18
100
AcDbEntity
  8
ADPDIM
100
AcDbDimension
  2
*D0
 10
55.91576935052724
 20
35.1080411305477
 30
0.0
 11
55.91576935052724
 21
17.1080411305477
 31
0.0
100
AcDbAlignedDimension
 13
58.43243418423485
 23
-0.8919588694523023
 33
0.0
 14
58.43243418423485
 24
35.10804113054769
 34
0.0
 50
90.0
100
AcDbRotatedDimension
  0
LWPOLYLINE
  5
94
330
18
100
AcDbEntity
  8
0
 62
     7
100
AcDbPolyline
 90
        8
 70
     0
 43
0.0
 10
58.36349451840108
 20
15.93472975257159
 42
0.0768952710191505
 10
58.28552065707215
 20
16.65495199393147
 42
0.0998912701947899
 10
57.4070247492683
 20
17.1907592208483
 42
-0.241252781356333
 10
56.90313621459347
 20
18.17884756044425
 42
-0.3157398301188384
 10
57.27796867905665
 20
18.71112835645957
 42
-0.0678974721734457
 10
56.69077912147823
 20
18.5261130984588
 42
-0.3120083049616311
 10
56.34456400968967
 20
18.68708786091247
 42
0.1266117800006913
 10
56.31797247902232
 20
18.71382945246925
 42
-1.98517555625205
  0
LINE
  5
9E
330
18
100
AcDbEntity
  8
0
 62
     7
100
AcDbLine
 10
58.43243418423485
 20
15.05470779721436
 30
0.0
 11
58.43243418423485
 21
-0.8919588694523023
 31
0.0
  0
LINE
  5
9F
330
18
100
AcDbEntity
  8
0
 62
     7
100
AcDbLine
 10
59.04576751756819
 20
-0.8919588694523023
 30
0.0
 11
59.04576751756819
 21
15.05470779721436
 31
0.0
  0
LINE
  5
A0
330
18
100
AcDbEntity
  8
0
 62
     7
100
AcDbLine
 10
58.43243418423485
 20
-0.8919588694523023
 30
0.0
 11
59.04576751756819
 21
-0.8919588694523023
 31
0.0
  0
DIMENSION
  5
A1
330
18
100
AcDbEntity
  8
ADPDIM
100
AcDbDimension
  2
*D1
 10
59.05743418423485
 20
-2.798304534616318
 30
0.0
 11
59.59910085090151
 21
-2.798304534616318
 31
0.0
100
AcDbAlignedDimension
 13
58.43243418423485
 23
-2.417035401583515
 33
0.0
 14
59.05743418423485
 24
-2.417035401583515
 34
0.0
100
AcDbRotatedDimension
  0
LWPOLYLINE
  5
A2
330
18
100
AcDbEntity
  8
ADP1DETAIL
100
AcDbPolyline
 90
        4
 70
     1
 43
0.0
 10
58.43243418423485
 20
-1.792035401583515
 10
58.43243418423485
 20
-2.417035401583515
 10
59.05743418423485
 20
-2.417035401583515
 10
59.05743418423485
 20
-1.792035401583515
  0
LWPOLYLINE
  5
A8
330
18
100
AcDbEntity
  8
0
 62
     7
100
AcDbPolyline
 90
        8
 70
     0
 43
0.0
 10
59.12479064402248
 20
15.9336587431982
 42
-0.0768952710191505
 10
59.20479064402248
 20
16.6536587431982
 42
-0.0998912701947899
 10
60.08479064402248
 20
17.18699207653152
 42
0.241252781356333
 10
60.59145731068913
 20
18.17365874319819
 42
0.3157398301188384
 10
60.21812397735581
 20
18.70699207653153
 42
0.0678974721734457
 10
60.80479064402247
 20
18.52032540986485
 42
0.3120083049616311
 10
61.15145731068914
 20
18.68032540986486
 42
-0.1266117800006913
 10
61.17812397735581
 20
18.70699207653153
 42
1.98517555625205
  0
LWPOLYLINE
  5
B2
330
18
100
AcDbEntity
  8
0
 62
     7
100
AcDbPolyline
 90
        8
 70
     0
 43
0.0
 10
58.4512973679875
 20
18.70782701689217
 42
-0.4964906641162682
 10
58.02410717708146
 20
18.52236157622312
 42
-0.7032398834949589
 10
57.67639145639862
 20
18.15000511643549
 42
0.2091019484620286
 10
57.73054991351461
 20
18.44318722777878
 42
0.5771713785768524
 10
57.4641093937281
 20
18.52393721556211
 42
0.4139980114194203
 10
57.43496682794049
 20
17.6440157293087
 10
58.18043005196288
 20
17.21524989906368
 42
-0.2775444411517068
 10
58.73780176975126
 20
16.28034462080242
 42
-155.6687725234643
  0
LWPOLYLINE
  5
BC
330
18
100
AcDbEntity
  8
0
 62
     7
100
AcDbPolyline
 90
        8
 70
     0
 43
0.0
 10
59.04479064402248
 20
18.70699207653153
 42
0.4964906641162682
 10
59.47145731068914
 20
18.52032540986485
 42
0.7032398834949589
 10
59.81812397735581
 20
18.14699207653152
 42
-0.2091019484620286
 10
59.76479064402248
 20
18.44032540986486
 42
-0.5771713785768524
 10
60.03145731068915
 20
18.52032540986485
 42
-0.4139980114194203
 10
60.05812397735581
 20
17.64032540986486
 10
59.31145731068914
 20
17.21365874319819
 42
0.2775444411517068
 10
58.75145731068914
 20
16.28032540986485
 42
155.6687725234643
  0
LINE
  5
C6
330
18
100
AcDbEntity
  8
0
 62
     7
100
AcDbLine
 10
58.43243418423485
 20
15.81570577744276
 30
0.0
 11
59.04454755444507
 21
15.81570577744275
 31
0.0
  0
LINE
  5
C7
330
18
100
AcDbEntity
  8
0
 62
     7
100
AcDbLine
 10
58.43243418423485
 20
15.05470779721436
 30
0.0
 11
59.04454755444507
 21
15.05470779721436
 31
0.0
  0
LINE
  5
C8
330
18
100
AcDbEntity
  8
0
 62
     7
100
AcDbLine
 10
59.04576751756819
 20
15.05470779721436
 30
0.0
 11
58.43243418423485
 21
15.05470779721436
 31
0.0
  0
LINE
  5
C9
330
18
100
AcDbEntity
  8
0
 62
     7
100
AcDbLine
 10
58.37271582809396
 20
15.53325483852687
 30
0.0
 11
59.12199901448217
 21
15.53325483852687
 31
0.0
  0
LINE
  5
CA
330
18
100
AcDbEntity
  8
0
 62
     7
100
AcDbLine
 10
58.37271582809396
 20
15.15709743111946
 30
0.0
 11
59.12199901448217
 21
15.15709743111946
 31
0.0
  0
LINE
  5
CB
330
18
100
AcDbEntity
  8
0
 62
     7
100
AcDbLine
 10
59.12199901448217
 20
15.34567767803304
 30
0.0
 11
58.37271582809396
 21
15.34567767803304
 31
0.0
  0
LINE
  5
CC
330
18
100
AcDbEntity
  8
0
 62
     7
100
AcDbLine
 10
58.37271582809396
 20
15.53325483852687
 30
0.0
 11
59.12199901448217
 21
15.53325483852687
 31
0.0
  0
LINE
  5
CD
330
18
100
AcDbEntity
  8
0
 62
     7
100
AcDbLine
 10
58.3760429436881
 20
15.16006844893313
 30
0.0
 11
59.12270961035476
 21
15.16006844893313
 31
0.0
  0
LINE
  5
CE
330
18
100
AcDbEntity
  8
0
 62
     7
100
AcDbLine
 10
58.37271582809396
 20
15.34567767803304
 30
0.0
 11
58.4560429436881
 21
15.42673511559979
 31
0.0
  0
LINE
  5
CF
330
18
100
AcDbEntity
  8
0
 62
     7
100
AcDbLine
 10
58.4560429436881
 20
15.42673511559979
 30
0.0
 11
58.37271582809396
 21
15.53325483852687
 31
0.0
  0
LINE
  5
D0
330
18
100
AcDbEntity
  8
0
 62
     7
100
AcDbLine
 10
58.37910085090152
 20
15.90804113054768
 30
0.0
 11
59.12576751756819
 21
15.90804113054768
 31
0.0
  0
LINE
  5
D1
330
18
100
AcDbEntity
  8
0
 62
     7
100
AcDbLine
 10
59.12838403728972
 20
15.90804113054768
 30
0.0
 11
58.37910085090152
 21
15.90804113054768
 31
0.0
  0
LINE
  5
D2
330
18
100
AcDbEntity
  8
0
 62
     7
100
AcDbLine
 10
59.12199901448217
 20
15.72183508544045
 30
0.0
 11
58.37271582809396
 21
15.72183508544045
 31
0.0
  0
LINE
  5
D3
330
18
100
AcDbEntity
  8
0
 62
     7
100
AcDbLine
 10
58.37271582809396
 20
15.72183508544045
 30
0.0
 11
58.37271582809396
 21
15.53325483852687
 31
0.0
  0
LINE
  5
D4
330
18
100
AcDbEntity
  8
0
 62
     7
100
AcDbLine
 10
58.43243418423485
 20
15.44829761457541
 30
0.0
 11
58.43243418423485
 21
15.44829761457541
 31
0.0
  0
LINE
  5
D5
330
18
100
AcDbEntity
  8
0
 62
     7
100
AcDbLine
 10
58.43243418423485
 20
15.44829761457541
 30
0.0
 11
58.43243418423485
 21
15.44829761457541
 31
0.0
  0
LINE
  5
D6
330
18
100
AcDbEntity
  8
0
 62
     7
100
AcDbLine
 10
58.43243418423485
 20
15.05470779721436
 30
0.0
 11
58.43243418423485
 21
15.05470779721436
 31
0.0
  0
LINE
  5
D7
330
18
100
AcDbEntity
  8
0
 62
     7
100
AcDbLine
 10
58.37271582809396
 20
15.34567767803304
 30
0.0
 11
58.37271582809396
 21
15.15709743111946
 31
0.0
  0
LINE
  5
D8
330
18
100
AcDbEntity
  8
0
 62
     7
100
AcDbLine
 10
58.43243418423485
 20
15.05470779721436
 30
0.0
 11
58.37271582809396
 21
15.15709743111946
 31
0.0
  0
LINE
  5
D9
330
18
100
AcDbEntity
  8
0
 62
     7
100
AcDbLine
 10
58.43243418423485
 20
15.81570577744276
 30
0.0
 11
58.37271582809396
 21
15.90941224593428
 31
0.0
  0
LINE
  5
DA
330
18
100
AcDbEntity
  8
0
 62
     7
100
AcDbLine
 10
58.37271582809396
 20
15.72183508544045
 30
0.0
 11
58.43243418423485
 21
15.81570577744276
 31
0.0
  0
LINE
  5
DB
330
18
100
AcDbEntity
  8
0
 62
     7
100
AcDbLine
 10
59.12199901448217
 20
15.53325483852687
 30
0.0
 11
59.12199901448217
 21
15.72183508544045
 31
0.0
  0
LINE
  5
DC
330
18
100
AcDbEntity
  8
0
 62
     7
100
AcDbLine
 10
58.4560429436881
 20
15.42673511559979
 30
0.0
 11
59.04270961035476
 21
15.42673511559979
 31
0.0
  0
LINE
  5
DD
330
18
100
AcDbEntity
  8
0
 62
     7
100
AcDbLine
 10
59.12199901448217
 20
15.15709743111946
 30
0.0
 11
59.12199901448217
 21
15.34567767803304
 31
0.0
  0
LINE
  5
DE
330
18
100
AcDbEntity
  8
0
 62
     7
100
AcDbLine
 10
59.04576751756819
 20
15.44829761457541
 30
0.0
 11
59.04576751756819
 21
15.44829761457541
 31
0.0
  0
LINE
  5
DF
330
18
100
AcDbEntity
  8
0
 62
     7
100
AcDbLine
 10
59.04576751756819
 20
15.05470779721436
 30
0.0
 11
59.04576751756819
 21
15.05470779721436
 31
0.0
  0
LINE
  5
E0
330
18
100
AcDbEntity
  8
0
 62
     7
100
AcDbLine
 10
59.12199901448217
 20
15.53325483852687
 30
0.0
 11
59.04270961035476
 21
15.42673511559979
 31
0.0
  0
LINE
  5
E1
330
18
100
AcDbEntity
  8
0
 62
     7
100
AcDbLine
 10
59.04270961035476
 20
15.42673511559979
 30
0.0
 11
59.12199901448217
 21
15.34567767803304
 31
0.0
  0
LINE
  5
E2
330
18
100
AcDbEntity
  8
0
 62
     7
100
AcDbLine
 10
59.12199901448217
 20
15.15709743111946
 30
0.0
 11
59.04454755444507
 21
15.05470779721436
 31
0.0
  0
LINE
  5
E3
330
18
100
AcDbEntity
  8
0
 62
     7
100
AcDbLine
 10
59.04454755444507
 20
15.81570577744275
 30
0.0
 11
59.12576751756819
 21
15.90804113054768
 31
0.0
  0
LINE
  5
E4
330
18
100
AcDbEntity
  8
0
 62
     7
100
AcDbLine
 10
59.12199901448217
 20
15.72183508544045
 30
0.0
 11
59.04454755444507
 21
15.81570577744275
 31
0.0
  0
LINE
  5
E5
330
18
100
AcDbEntity
  8
0
 62
     7
100
AcDbLine
 10
59.04576751756819
 20
22.33470779721435
 30
0.0
 11
59.04576751756819
 21
35.10804113054769
 31
0.0
  0
LINE
  5
E6
330
18
100
AcDbEntity
  8
0
 62
     7
100
AcDbLine
 10
58.43243418423485
 20
35.10804113054769
 30
0.0
 11
58.43243418423485
 21
22.33470779721435
 31
0.0
  0
LINE
  5
E7
330
18
100
AcDbEntity
  8
0
 62
     7
100
AcDbLine
 10
58.43243418423485
 20
22.33470779721435
 30
0.0
 11
59.04454755444507
 21
22.33470779721435
 31
0.0
  0
LINE
  5
E8
330
18
100
AcDbEntity
  8
0
 62
     7
100
AcDbLine
 10
59.04576751756819
 20
22.33470779721435
 30
0.0
 11
58.43243418423485
 21
22.33470779721435
 31
0.0
  0
LINE
  5
E9
330
18
100
AcDbEntity
  8
0
 62
     7
100
AcDbLine
 10
59.12199901448217
 20
22.04373791639567
 30
0.0
 11
58.37271582809396
 21
22.04373791639567
 31
0.0
  0
LINE
  5
EA
330
18
100
AcDbEntity
  8
0
 62
     7
100
AcDbLine
 10
58.37271582809396
 20
22.04373791639567
 30
0.0
 11
58.4560429436881
 21
21.96268047882892
 31
0.0
  0
LINE
  5
EB
330
18
100
AcDbEntity
  8
0
 62
     7
100
AcDbLine
 10
58.37271582809396
 20
22.23231816330925
 30
0.0
 11
59.12199901448217
 21
22.23231816330925
 31
0.0
  0
LINE
  5
EC
330
18
100
AcDbEntity
  8
0
 62
     7
100
AcDbLine
 10
58.3760429436881
 20
22.22934714549558
 30
0.0
 11
59.12270961035476
 21
22.22934714549558
 31
0.0
  0
LINE
  5
ED
330
18
100
AcDbEntity
  8
0
 62
     7
100
AcDbLine
 10
58.43243418423485
 20
21.57370981698595
 30
0.0
 11
59.04454755444507
 21
21.57370981698596
 31
0.0
  0
LINE
  5
EE
330
18
100
AcDbEntity
  8
0
 62
     7
100
AcDbLine
 10
58.37271582809396
 20
21.85616075590184
 30
0.0
 11
59.12199901448217
 21
21.85616075590184
 31
0.0
  0
LINE
  5
EF
330
18
100
AcDbEntity
  8
0
 62
     7
100
AcDbLine
 10
59.12199901448217
 20
21.66758050898826
 30
0.0
 11
58.37271582809396
 21
21.66758050898826
 31
0.0
  0
LINE
  5
F0
330
18
100
AcDbEntity
  8
0
 62
     7
100
AcDbLine
 10
58.37271582809396
 20
21.85616075590184
 30
0.0
 11
59.12199901448217
 21
21.85616075590184
 31
0.0
  0
LINE
  5
F1
330
18
100
AcDbEntity
  8
0
 62
     7
100
AcDbLine
 10
59.12838403728972
 20
21.48137446388103
 30
0.0
 11
58.37910085090152
 21
21.48137446388103
 31
0.0
  0
LINE
  5
F2
330
18
100
AcDbEntity
  8
0
 62
     7
100
AcDbLine
 10
58.37910085090152
 20
21.48137446388103
 30
0.0
 11
59.12576751756819
 21
21.48137446388103
 31
0.0
  0
LINE
  5
F3
330
18
100
AcDbEntity
  8
0
 62
     7
100
AcDbLine
 10
58.4560429436881
 20
21.96268047882892
 30
0.0
 11
58.37271582809396
 21
21.85616075590184
 31
0.0
  0
LINE
  5
F4
330
18
100
AcDbEntity
  8
0
 62
     7
100
AcDbLine
 10
58.37271582809396
 20
21.66758050898826
 30
0.0
 11
58.37271582809396
 21
21.85616075590184
 31
0.0
  0
LINE
  5
F5
330
18
100
AcDbEntity
  8
0
 62
     7
100
AcDbLine
 10
58.37271582809396
 20
21.66758050898826
 30
0.0
 11
58.43243418423485
 21
21.57370981698595
 31
0.0
  0
LINE
  5
F6
330
18
100
AcDbEntity
  8
0
 62
     7
100
AcDbLine
 10
58.43243418423485
 20
21.57370981698595
 30
0.0
 11
58.37271582809396
 21
21.48000334849443
 31
0.0
  0
LINE
  5
F7
330
18
100
AcDbEntity
  8
0
 62
     7
100
AcDbLine
 10
58.43243418423485
 20
22.33470779721435
 30
0.0
 11
58.43243418423485
 21
22.33470779721435
 31
0.0
  0
LINE
  5
F8
330
18
100
AcDbEntity
  8
0
 62
     7
100
AcDbLine
 10
58.37271582809396
 20
22.04373791639567
 30
0.0
 11
58.37271582809396
 21
22.23231816330925
 31
0.0
  0
LINE
  5
F9
330
18
100
AcDbEntity
  8
0
 62
     7
100
AcDbLine
 10
58.43243418423485
 20
22.33470779721435
 30
0.0
 11
58.37271582809396
 21
22.23231816330925
 31
0.0
  0
LINE
  5
FA
330
18
100
AcDbEntity
  8
0
 62
     7
100
AcDbLine
 10
59.04270961035476
 20
21.96268047882892
 30
0.0
 11
59.12199901448217
 21
22.04373791639567
 31
0.0
  0
LINE
  5
FB
330
18
100
AcDbEntity
  8
0
 62
     7
100
AcDbLine
 10
58.4560429436881
 20
21.96268047882892
 30
0.0
 11
59.04270961035476
 21
21.96268047882892
 31
0.0
  0
LINE
  5
FC
330
18
100
AcDbEntity
  8
0
 62
     7
100
AcDbLine
 10
59.12199901448217
 20
21.85616075590184
 30
0.0
 11
59.12199901448217
 21
21.66758050898826
 31
0.0
  0
LINE
  5
FD
330
18
100
AcDbEntity
  8
0
 62
     7
100
AcDbLine
 10
59.12199901448217
 20
21.66758050898826
 30
0.0
 11
59.04454755444507
 21
21.57370981698596
 31
0.0
  0
LINE
  5
FE
330
18
100
AcDbEntity
  8
0
 62
     7
100
AcDbLine
 10
59.04454755444507
 20
21.57370981698596
 30
0.0
 11
59.12576751756819
 21
21.48137446388103
 31
0.0
  0
LINE
  5
FF
330
18
100
AcDbEntity
  8
0
 62
     7
100
AcDbLine
 10
59.12199901448217
 20
21.85616075590184
 30
0.0
 11
59.04270961035476
 21
21.96268047882892
 31
0.0
  0
LINE
  5
100
330
18
100
AcDbEntity
  8
0
 62
     7
100
AcDbLine
 10
59.12199901448217
 20
22.23231816330925
 30
0.0
 11
59.12199901448217
 21
22.04373791639567
 31
0.0
  0
LINE
  5
101
330
18
100
AcDbEntity
  8
0
 62
     7
100
AcDbLine
 10
59.04576751756819
 20
22.33470779721435
 30
0.0
 11
59.04576751756819
 21
22.33470779721435
 31
0.0
  0
LINE
  5
102
330
18
100
AcDbEntity
  8
0
 62
     7
100
AcDbLine
 10
59.12199901448217
 20
22.23231816330925
 30
0.0
 11
59.04454755444507
 21
22.33470779721435
 31
0.0
  0
LINE
  5
103
330
18
100
AcDbEntity
  8
0
 62
     7
100
AcDbLine
 10
59.04576751756819
 20
35.10804113054769
 30
0.0
 11
58.43243418423485
 21
35.10804113054769
 31
0.0
  0
TEXT
  5
111
330
18
100
AcDbEntity
  8
ADPDIM
100
AcDbText
 10
26.48298891403245
 20
-4.166768773735577
 30
0.0
 40
0.625
  1
J U L I U S  B L U M  &  C O . ,  I N C .      ( 8 0 0 )  5 2 6 - 6 2 9 3        W W W . J U L I U S B L U M . C O M        P A R T  N o .  5 3 0
 41
1.25
  7
ARIAL_WIDE
 72
     1
 11
58.65652660161771
 21
-3.541768773735577
 31
0.0
100
AcDbText
 73
     3
  0
ENDSEC
  0
SECTION
  2
OBJECTS
  0
DICTIONARY
  5
C
330
0
100
AcDbDictionary
  3
ACAD_GROUP
350
D
  3
ACAD_LAYOUT
350
10A
  3
ACAD_MLINESTYLE
350
E
  3
ACAD_PLOTSETTINGS
350
10B
  3
ACAD_PLOTSTYLENAME
350
108
  3
ACDBHEADERROUNDTRIPXREC
350
259
  3
ACDBVARIABLEDICTIONARY
350
16B
  0
DICTIONARY
  5
165
330
18
100
AcDbDictionary
280
     1
  3
ACAD_LAYOUTSELFREF
360
27A
  0
DICTIONARY
  5
163
330
15
100
AcDbDictionary
280
     1
  3
ACAD_LAYOUTSELFREF
360
279
  0
DICTIONARY
  5
D
102
{ACAD_REACTORS
330
C
102
}
330
C
100
AcDbDictionary
  0
DICTIONARY
  5
10A
102
{ACAD_REACTORS
330
C
102
}
330
C
100
AcDbDictionary
  0
DICTIONARY
  5
E
102
{ACAD_REACTORS
330
C
102
}
330
C
100
AcDbDictionary
  3
STANDARD
350
1B
  0
DICTIONARY
  5
10B
102
{ACAD_REACTORS
330
C
102
}
330
C
100
AcDbDictionary
  0
ACDBDICTIONARYWDFLT
  5
108
102
{ACAD_REACTORS
330
C
102
}
330
C
100
AcDbDictionary
281
     1
  3
Normal
350
109
100
AcDbDictionaryWithDefault
340
109
  0
DICTIONARY
  5
259
102
{ACAD_REACTORS
330
C
102
}
330
C
100
AcDbDictionary
  3
CEPSNTYPE
350
263
  3
FINGERPRINTGUID
350
264
  3
HYPERLINKBASE
350
25C
  3
INSUNITS
350
262
  3
LAYOUTDICT
350
25E
  3
LWETCUNION
350
261
  3
PLOTSETDICT
350
25F
  3
PLOTSTYLNAMDICT
350
260
  3
PSVPSCALE
350
266
  3
PUCSBASE
350
269
  3
PUCSORGBACK
350
26F
  3
PUCSORGBOTTOM
350
26B
  3
PUCSORGFRONT
350
26E
  3
PUCSORGLEFT
350
26C
  3
PUCSORGRIGHT
350
26D
  3
PUCSORGTOP
350
26A
  3
PUCSORTHOREF
350
267
  3
PUCSORTHOVIEW
350
268
  3
STYLESHEET
350
25D
  3
TSTACKALIGN
350
25A
  3
TSTACKSIZE
350
25B
  3
UCSBASE
350
272
  3
UCSORGBACK
350
278
  3
UCSORGBOTTOM
350
274
  3
UCSORGFRONT
350
277
  3
UCSORGLEFT
350
275
  3
UCSORGRIGHT
350
276
  3
UCSORGTOP
350
273
  3
UCSORTHOREF
350
270
  3
UCSORTHOVIEW
350
271
  3
VERSIONGUID
350
265
  0
DICTIONARY
  5
16B
102
{ACAD_REACTORS
330
C
102
}
330
C
100
AcDbDictionary
  3
DIMASSOC
350
16C
  0
XRECORD
  5
27A
102
{ACAD_REACTORS
330
165
102
}
330
165
100
AcDbXrecord
340
18
  0
XRECORD
  5
279
102
{ACAD_REACTORS
330
163
102
}
330
163
100
AcDbXrecord
340
15
  0
MLINESTYLE
  5
1B
102
{ACAD_REACTORS
330
E
102
}
330
E
100
AcDbMlineStyle
  2
STANDARD
 70
     0
  3

 62
     0
 51
90.0
 52
90.0
 71
     2
 49
0.5
 62
   256
  6
BYLAYER
 49
-0.5
 62
   256
  6
BYLAYER
  0
ACDBPLACEHOLDER
  5
109
102
{ACAD_REACTORS
330
108
102
}
330
108
100
AcDbPlaceHolder
280
     0
  0
XRECORD
  5
263
102
{ACAD_REACTORS
330
259
102
}
330
259
100
AcDbXrecord
 90
        0
  0
XRECORD
  5
264
102
{ACAD_REACTORS
330
259
102
}
330
259
100
AcDbXrecord
  1
{392D9431-738A-45B3-9BDE-B52B1EB7D95B}
  0
XRECORD
  5
25C
102
{ACAD_REACTORS
330
259
102
}
330
259
100
AcDbXrecord
  1

  0
XRECORD
  5
262
102
{ACAD_REACTORS
330
259
102
}
330
259
100
AcDbXrecord
 90
        0
  0
XRECORD
  5
25E
102
{ACAD_REACTORS
330
259
102
}
330
259
100
AcDbXrecord
340
10A
  0
XRECORD
  5
261
102
{ACAD_REACTORS
330
259
102
}
330
259
100
AcDbXrecord
 90
    14877
  0
XRECORD
  5
25F
102
{ACAD_REACTORS
330
259
102
}
330
259
100
AcDbXrecord
340
10B
  0
XRECORD
  5
260
102
{ACAD_REACTORS
330
259
102
}
330
259
100
AcDbXrecord
340
108
  0
XRECORD
  5
266
102
{ACAD_REACTORS
330
259
102
}
330
259
100
AcDbXrecord
 40
0.0
  0
XRECORD
  5
269
102
{ACAD_REACTORS
330
259
102
}
330
259
100
AcDbXrecord
340
0
  0
XRECORD
  5
26F
102
{ACAD_REACTORS
330
259
102
}
330
259
100
AcDbXrecord
 10
0.0
 20
0.0
 30
0.0
  0
XRECORD
  5
26B
102
{ACAD_REACTORS
330
259
102
}
330
259
100
AcDbXrecord
 10
0.0
 20
0.0
 30
0.0
  0
XRECORD
  5
26E
102
{ACAD_REACTORS
330
259
102
}
330
259
100
AcDbXrecord
 10
0.0
 20
0.0
 30
0.0
  0
XRECORD
  5
26C
102
{ACAD_REACTORS
330
259
102
}
330
259
100
AcDbXrecord
 10
0.0
 20
0.0
 30
0.0
  0
XRECORD
  5
26D
102
{ACAD_REACTORS
330
259
102
}
330
259
100
AcDbXrecord
 10
0.0
 20
0.0
 30
0.0
  0
XRECORD
  5
26A
102
{ACAD_REACTORS
330
259
102
}
330
259
100
AcDbXrecord
 10
0.0
 20
0.0
 30
0.0
  0
XRECORD
  5
267
102
{ACAD_REACTORS
330
259
102
}
330
259
100
AcDbXrecord
340
0
  0
XRECORD
  5
268
102
{ACAD_REACTORS
330
259
102
}
330
259
100
AcDbXrecord
 70
     0
  0
XRECORD
  5
25D
102
{ACAD_REACTORS
330
259
102
}
330
259
100
AcDbXrecord
  1

  0
XRECORD
  5
25A
102
{ACAD_REACTORS
330
259
102
}
330
259
100
AcDbXrecord
 90
        1
  0
XRECORD
  5
25B
102
{ACAD_REACTORS
330
259
102
}
330
259
100
AcDbXrecord
 90
       70
  0
XRECORD
  5
272
102
{ACAD_REACTORS
330
259
102
}
330
259
100
AcDbXrecord
340
0
  0
XRECORD
  5
278
102
{ACAD_REACTORS
330
259
102
}
330
259
100
AcDbXrecord
 10
0.0
 20
0.0
 30
0.0
  0
XRECORD
  5
274
102
{ACAD_REACTORS
330
259
102
}
330
259
100
AcDbXrecord
 10
0.0
 20
0.0
 30
0.0
  0
XRECORD
  5
277
102
{ACAD_REACTORS
330
259
102
}
330
259
100
AcDbXrecord
 10
0.0
 20
0.0
 30
0.0
  0
XRECORD
  5
275
102
{ACAD_REACTORS
330
259
102
}
330
259
100
AcDbXrecord
 10
0.0
 20
0.0
 30
0.0
  0
XRECORD
  5
276
102
{ACAD_REACTORS
330
259
102
}
330
259
100
AcDbXrecord
 10
0.0
 20
0.0
 30
0.0
  0
XRECORD
  5
273
102
{ACAD_REACTORS
330
259
102
}
330
259
100
AcDbXrecord
 10
0.0
 20
0.0
 30
0.0
  0
XRECORD
  5
270
102
{ACAD_REACTORS
330
259
102
}
330
259
100
AcDbXrecord
340
0
  0
XRECORD
  5
271
102
{ACAD_REACTORS
330
259
102
}
330
259
100
AcDbXrecord
 70
     0
  0
XRECORD
  5
265
102
{ACAD_REACTORS
330
259
102
}
330
259
100
AcDbXrecord
  1
{B1630220-A6AE-45CE-985B-05AAC28448EF}
  0
DICTIONARYVAR
  5
16C
102
{ACAD_REACTORS
330
16B
102
}
330
16B
100
DictionaryVariables
280
     0
  1
1
  0
ENDSEC
  0
EOF
