  0
SECTION
  2
HEADER
  9
$ACADVER
  1
AC1014
  9
$ACADMAINTVER
 70
     9
  9
$DWGCODEPAGE
  3
ANSI_1252
  9
$INSBASE
 10
51.87385312159019
 20
-0.8919588694523023
 30
0.0
  9
$EXTMIN
 10
20.00899251474443
 20
-4.38708209624901
 30
0.0
  9
$EXTMAX
 10
84.35606788991497
 20
35.23304113054769
 30
0.0
  9
$LIMMIN
 10
0.0
 20
0.0
  9
$LIMMAX
 10
36.0
 20
36.0
  9
$ORTHOMODE
 70
     1
  9
$REGENMODE
 70
     1
  9
$FILLMODE
 70
     1
  9
$QTEXTMODE
 70
     0
  9
$MIRRTEXT
 70
     1
  9
$DRAGMODE
 70
     0
  9
$LTSCALE
 40
1.0
  9
$OSMODE
 70
    37
  9
$ATTMODE
 70
     1
  9
$TEXTSIZE
 40
0.2
  9
$TRACEWID
 40
0.05
  9
$TEXTSTYLE
  7
STANDARD
  9
$CLAYER
  8
ADPDIM
  9
$CELTYPE
  6
BYLAYER
  9
$CECOLOR
 62
   256
  9
$CELTSCALE
 40
1.0
  9
$DELOBJ
 70
     1
  9
$DISPSILH
 70
     0
  9
$DIMSCALE
 40
1.0
  9
$DIMASZ
 40
0.125
  9
$DIMEXO
 40
0.0625
  9
$DIMDLI
 40
0.38
  9
$DIMRND
 40
0.0
  9
$DIMDLE
 40
0.0
  9
$DIMEXE
 40
0.18
  9
$DIMTP
 40
0.0
  9
$DIMTM
 40
0.0
  9
$DIMTXT
 40
0.125
  9
$DIMCEN
 40
0.1875
  9
$DIMTSZ
 40
0.125
  9
$DIMTOL
 70
     0
  9
$DIMLIM
 70
     0
  9
$DIMTIH
 70
     0
  9
$DIMTOH
 70
     0
  9
$DIMSE1
 70
     0
  9
$DIMSE2
 70
     0
  9
$DIMTAD
 70
     0
  9
$DIMZIN
 70
     3
  9
$DIMBLK
  1

  9
$DIMASO
 70
     1
  9
$DIMSHO
 70
     1
  9
$DIMPOST
  1

  9
$DIMAPOST
  1

  9
$DIMALT
 70
     0
  9
$DIMALTD
 70
     1
  9
$DIMALTF
 40
25.4
  9
$DIMLFAC
 40
1.0
  9
$DIMTOFL
 70
     0
  9
$DIMTVP
 40
0.0
  9
$DIMTIX
 70
     0
  9
$DIMSOXD
 70
     0
  9
$DIMSAH
 70
     0
  9
$DIMBLK1
  1

  9
$DIMBLK2
  1

  9
$DIMSTYLE
  2
STANDARD
  9
$DIMCLRD
 70
     0
  9
$DIMCLRE
 70
     0
  9
$DIMCLRT
 70
     0
  9
$DIMTFAC
 40
1.0
  9
$DIMGAP
 40
0.125
  9
$DIMJUST
 70
     0
  9
$DIMSD1
 70
     0
  9
$DIMSD2
 70
     0
  9
$DIMTOLJ
 70
     1
  9
$DIMTZIN
 70
     0
  9
$DIMALTZ
 70
     0
  9
$DIMALTTZ
 70
     0
  9
$DIMFIT
 70
     3
  9
$DIMUPT
 70
     0
  9
$DIMUNIT
 70
     2
  9
$DIMDEC
 70
     4
  9
$DIMTDEC
 70
     4
  9
$DIMALTU
 70
     2
  9
$DIMALTTD
 70
     2
  9
$DIMTXSTY
  7
STANDARD
  9
$DIMAUNIT
 70
     0
  9
$LUNITS
 70
     5
  9
$LUPREC
 70
     4
  9
$SKETCHINC
 40
0.1
  9
$FILLETRAD
 40
0.062
  9
$AUNITS
 70
     0
  9
$AUPREC
 70
     0
  9
$MENU
  1
acad
  9
$ELEVATION
 40
0.0
  9
$PELEVATION
 40
0.0
  9
$THICKNESS
 40
0.0
  9
$LIMCHECK
 70
     0
  9
$BLIPMODE
 70
     0
  9
$CHAMFERA
 40
0.0
  9
$CHAMFERB
 40
0.0
  9
$CHAMFERC
 40
0.0
  9
$CHAMFERD
 40
0.0
  9
$SKPOLY
 70
     0
  9
$TDCREATE
 40
2450374.516737071
  9
$TDUPDATE
 40
2452297.072201238
  9
$TDINDWG
 40
0.0249944792
  9
$TDUSRTIMER
 40
0.0249944792
  9
$USRTIMER
 70
     1
  9
$ANGBASE
 50
0.0
  9
$ANGDIR
 70
     0
  9
$PDMODE
 70
     0
  9
$PDSIZE
 40
0.0
  9
$PLINEWID
 40
0.0
  9
$COORDS
 70
     2
  9
$SPLFRAME
 70
     0
  9
$SPLINETYPE
 70
     6
  9
$SPLINESEGS
 70
     8
  9
$ATTDIA
 70
     0
  9
$ATTREQ
 70
     1
  9
$HANDLING
 70
 22529
  9
$HANDSEED
  5
238
  9
$SURFTAB1
 70
     6
  9
$SURFTAB2
 70
     6
  9
$SURFTYPE
 70
     6
  9
$SURFU
 70
     6
  9
$SURFV
 70
     6
  9
$UCSNAME
  2

  9
$UCSORG
 10
0.0
 20
0.0
 30
0.0
  9
$UCSXDIR
 10
1.0
 20
0.0
 30
0.0
  9
$UCSYDIR
 10
0.0
 20
1.0
 30
0.0
  9
$PUCSNAME
  2

  9
$PUCSORG
 10
0.0
 20
0.0
 30
0.0
  9
$PUCSXDIR
 10
1.0
 20
0.0
 30
0.0
  9
$PUCSYDIR
 10
0.0
 20
1.0
 30
0.0
  9
$USERI1
 70
     0
  9
$USERI2
 70
     0
  9
$USERI3
 70
     0
  9
$USERI4
 70
     0
  9
$USERI5
 70
     0
  9
$USERR1
 40
0.0
  9
$USERR2
 40
0.0
  9
$USERR3
 40
0.0
  9
$USERR4
 40
0.0
  9
$USERR5
 40
0.0
  9
$WORLDVIEW
 70
     1
  9
$SHADEDGE
 70
     3
  9
$SHADEDIF
 70
    70
  9
$TILEMODE
 70
     1
  9
$MAXACTVP
 70
    15
  9
$PINSBASE
 10
0.0
 20
0.0
 30
0.0
  9
$PLIMCHECK
 70
     0
  9
$PEXTMIN
 10
1.000000000000000E+20
 20
1.000000000000000E+20
 30
1.000000000000000E+20
  9
$PEXTMAX
 10
-1.000000000000000E+20
 20
-1.000000000000000E+20
 30
-1.000000000000000E+20
  9
$PLIMMIN
 10
0.0
 20
0.0
  9
$PLIMMAX
 10
12.0
 20
9.0
  9
$UNITMODE
 70
     0
  9
$VISRETAIN
 70
     0
  9
$PLINEGEN
 70
     0
  9
$PSLTSCALE
 70
     1
  9
$TREEDEPTH
 70
  3020
  9
$PICKSTYLE
 70
     1
  9
$CMLSTYLE
  2
STANDARD
  9
$CMLJUST
 70
     0
  9
$CMLSCALE
 40
1.0
  9
$PROXYGRAPHICS
 70
     1
  9
$MEASUREMENT
 70
     0
  0
ENDSEC
  0
SECTION
  2
CLASSES
  0
CLASS
  1
ACDBDICTIONARYWDFLT
  2
AcDbDictionaryWithDefault
  3
AutoCAD 2000
 90
        0
280
     0
281
     0
  0
CLASS
  1
ACDBPLACEHOLDER
  2
AcDbPlaceHolder
  3
AutoCAD 2000
 90
        0
280
     0
281
     0
  0
CLASS
  1
LAYOUT
  2
AcDbLayout
  3
AutoCAD 2000
 90
        0
280
     0
281
     0
  0
CLASS
  1
DICTIONARYVAR
  2
AcDbDictionaryVar
  3
AutoCAD 2000
 90
        0
280
     0
281
     0
  0
CLASS
  1
LONG_TRANSACTION
  2
AcDbLongTransaction
  3
AutoCAD 2000
 90
        0
280
     0
281
     0
  0
CLASS
  1
LWPOLYLINE
  2
AcDbPolyline
  3
AutoCAD 2000
 90
        0
280
     0
281
     1
  0
CLASS
  1
HATCH
  2
AcDbHatch
  3
AutoCAD 2000
 90
        0
280
     0
281
     1
  0
CLASS
  1
XRECORD
  2
AcDbXrecord
  3
AutoCAD 2000
 90
        0
280
     0
281
     0
  0
CLASS
  1
LONG_TRANSACTION
  2
AcDbLongTransaction
  3
AutoCAD 2000
 90
        0
280
     0
281
     0
  0
CLASS
  1
LWPOLYLINE
  2
AcDbPolyline
  3
AutoCAD 2000
 90
        0
280
     0
281
     1
  0
CLASS
  1
HATCH
  2
AcDbHatch
  3
AutoCAD 2000
 90
        0
280
     0
281
     1
  0
CLASS
  1
XRECORD
  2
AcDbXrecord
  3
AutoCAD 2000
 90
        0
280
     0
281
     0
  0
CLASS
  1
LONG_TRANSACTION
  2
AcDbLongTransaction
  3
AutoCAD 2000
 90
        0
280
     0
281
     0
  0
CLASS
  1
LWPOLYLINE
  2
AcDbPolyline
  3
AutoCAD 2000
 90
        0
280
     0
281
     1
  0
CLASS
  1
HATCH
  2
AcDbHatch
  3
AutoCAD 2000
 90
        0
280
     0
281
     1
  0
CLASS
  1
XRECORD
  2
AcDbXrecord
  3
AutoCAD 2000
 90
        0
280
     0
281
     0
  0
CLASS
  1
LONG_TRANSACTION
  2
AcDbLongTransaction
  3
AutoCAD 2000
 90
        0
280
     0
281
     0
  0
CLASS
  1
LWPOLYLINE
  2
AcDbPolyline
  3
AutoCAD 2000
 90
        0
280
     0
281
     1
  0
CLASS
  1
HATCH
  2
AcDbHatch
  3
AutoCAD 2000
 90
        0
280
     0
281
     1
  0
CLASS
  1
XRECORD
  2
AcDbXrecord
  3
AutoCAD 2000
 90
        0
280
     0
281
     0
  0
CLASS
  1
LONG_TRANSACTION
  2
AcDbLongTransaction
  3
AutoCAD 2000
 90
        0
280
     0
281
     0
  0
CLASS
  1
LWPOLYLINE
  2
AcDbPolyline
  3
AutoCAD 2000
 90
        0
280
     0
281
     1
  0
CLASS
  1
HATCH
  2
AcDbHatch
  3
AutoCAD 2000
 90
        0
280
     0
281
     1
  0
CLASS
  1
XRECORD
  2
AcDbXrecord
  3
AutoCAD 2000
 90
        0
280
     0
281
     0
  0
CLASS
  1
LONG_TRANSACTION
  2
AcDbLongTransaction
  3
AutoCAD 2000
 90
        0
280
     0
281
     0
  0
CLASS
  1
LWPOLYLINE
  2
AcDbPolyline
  3
AutoCAD 2000
 90
        0
280
     0
281
     1
  0
CLASS
  1
HATCH
  2
AcDbHatch
  3
AutoCAD 2000
 90
        0
280
     0
281
     1
  0
CLASS
  1
XRECORD
  2
AcDbXrecord
  3
AutoCAD 2000
 90
        0
280
     0
281
     0
  0
ENDSEC
  0
SECTION
  2
TABLES
  0
TABLE
  2
VPORT
  5
8
330
0
100
AcDbSymbolTable
 70
     2
  0
VPORT
  5
215
330
8
100
AcDbSymbolTableRecord
100
AcDbViewportTableRecord
  2
*ACTIVE
 70
     0
 10
0.0
 20
0.0
 11
1.0
 21
1.0
 12
52.23412379151561
 22
15.42266731601356
 13
0.0
 23
0.0
 14
0.5740882589684922
 24
0.5740882589684922
 15
0.5
 25
0.5
 16
0.0
 26
0.0
 36
1.0
 17
0.0
 27
0.0
 37
0.0
 40
41.23629125793322
 41
1.570528967254408
 42
50.0
 43
0.0
 44
0.0
 50
0.0
 51
0.0
 71
     0
 72
   100
 73
     1
 74
     0
 75
     0
 76
     0
 77
     0
 78
     0
  0
ENDTAB
  0
TABLE
  2
LTYPE
  5
5
330
0
100
AcDbSymbolTable
 70
     1
  0
LTYPE
  5
12
330
5
100
AcDbSymbolTableRecord
100
AcDbLinetypeTableRecord
  2
BYBLOCK
 70
     0
  3

 72
    65
 73
     0
 40
0.0
  0
LTYPE
  5
13
330
5
100
AcDbSymbolTableRecord
100
AcDbLinetypeTableRecord
  2
BYLAYER
 70
     0
  3

 72
    65
 73
     0
 40
0.0
  0
LTYPE
  5
14
330
5
100
AcDbSymbolTableRecord
100
AcDbLinetypeTableRecord
  2
CONTINUOUS
 70
     0
  3
Solid line
 72
    65
 73
     0
 40
0.0
  0
ENDTAB
  0
TABLE
  2
LAYER
  5
2
330
0
100
AcDbSymbolTable
 70
     4
  0
LAYER
  5
F
330
2
100
AcDbSymbolTableRecord
100
AcDbLayerTableRecord
  2
0
 70
     0
 62
     7
  6
CONTINUOUS
  0
LAYER
  5
48
330
2
100
AcDbSymbolTableRecord
100
AcDbLayerTableRecord
  2
ADPDIM
 70
     0
 62
     3
  6
CONTINUOUS
  0
LAYER
  5
4A
330
2
100
AcDbSymbolTableRecord
100
AcDbLayerTableRecord
  2
ADP1DETAIL
 70
     0
 62
     7
  6
CONTINUOUS
  0
LAYER
  5
4C
330
2
100
AcDbSymbolTableRecord
100
AcDbLayerTableRecord
  2
DEFPOINTS
 70
     0
 62
     7
  6
CONTINUOUS
  0
ENDTAB
  0
TABLE
  2
STYLE
  5
3
330
0
100
AcDbSymbolTable
 70
     2
  0
STYLE
  5
10
330
3
100
AcDbSymbolTableRecord
100
AcDbTextStyleTableRecord
  2
STANDARD
 70
     0
 40
0.0
 41
1.0
 50
0.0
 71
     0
 42
0.2
  3
txt
  4

  0
STYLE
  5
CD
330
3
100
AcDbSymbolTableRecord
100
AcDbTextStyleTableRecord
  2
ARIAL_WIDE
 70
     0
 40
0.0
 41
1.25
 50
0.0
 71
     0
 42
0.2
  3
ARIAL.TTF
  4

1001
ACAD
1000
Arial
1071
       34
  0
ENDTAB
  0
TABLE
  2
VIEW
  5
6
330
0
100
AcDbSymbolTable
 70
     0
  0
ENDTAB
  0
TABLE
  2
UCS
  5
7
330
0
100
AcDbSymbolTable
 70
     0
  0
ENDTAB
  0
TABLE
  2
APPID
  5
9
330
0
100
AcDbSymbolTable
 70
     1
  0
APPID
  5
11
330
9
100
AcDbSymbolTableRecord
100
AcDbRegAppTableRecord
  2
ACAD
 70
     0
  0
ENDTAB
  0
TABLE
  2
DIMSTYLE
  5
A
330
0
100
AcDbSymbolTable
 70
     1
  0
DIMSTYLE
105
C1
330
A
100
AcDbSymbolTableRecord
100
AcDbDimStyleTableRecord
  2
STANDARD
 70
     0
  3

  4

  5

  6

  7

 40
1.0
 41
0.18
 42
0.0625
 43
0.38
 44
0.18
 45
0.0
 46
0.0
 47
0.0
 48
0.0
140
0.18
141
0.09
142
0.0
143
25.4
144
1.0
145
0.0
146
1.0
147
0.09
 71
     0
 72
     0
 73
     1
 74
     1
 75
     0
 76
     0
 77
     0
 78
     0
170
     0
171
     2
172
     0
173
     0
174
     0
175
     0
176
     0
177
     0
178
     0
270
     2
271
     4
272
     4
273
     2
274
     2
340
10
275
     0
280
     0
281
     0
282
     0
283
     1
284
     0
285
     0
286
     0
287
     3
288
     0
  0
ENDTAB
  0
TABLE
  2
BLOCK_RECORD
  5
1
330
0
100
AcDbSymbolTable
 70
     2
  0
BLOCK_RECORD
  5
18
102
{ACAD_XDICTIONARY
360
122
102
}
330
1
100
AcDbSymbolTableRecord
100
AcDbBlockTableRecord
  2
*MODEL_SPACE
  0
BLOCK_RECORD
  5
15
102
{ACAD_XDICTIONARY
360
120
102
}
330
1
100
AcDbSymbolTableRecord
100
AcDbBlockTableRecord
  2
*PAPER_SPACE
  0
BLOCK_RECORD
  5
40
330
1
100
AcDbSymbolTableRecord
100
AcDbBlockTableRecord
  2
*D0
  0
BLOCK_RECORD
  5
46
330
1
100
AcDbSymbolTableRecord
100
AcDbBlockTableRecord
  2
*D1
  0
ENDTAB
  0
ENDSEC
  0
SECTION
  2
BLOCKS
  0
BLOCK
  5
4F
330
18
100
AcDbEntity
  8
0
100
AcDbBlockBegin
  2
*MODEL_SPACE
 70
     0
 10
0.0
 20
0.0
 30
0.0
  3
*MODEL_SPACE
  1

  0
ENDBLK
  5
50
330
18
100
AcDbEntity
  8
0
100
AcDbBlockEnd
  0
BLOCK
  5
4D
330
15
100
AcDbEntity
 67
     1
  8
0
100
AcDbBlockBegin
  2
*PAPER_SPACE
 70
     0
 10
0.0
 20
0.0
 30
0.0
  3
*PAPER_SPACE
  1

  0
ENDBLK
  5
4E
330
15
100
AcDbEntity
 67
     1
  8
0
100
AcDbBlockEnd
  0
BLOCK
  5
52
330
40
100
AcDbEntity
  8
0
100
AcDbBlockBegin
  2
*D0
 70
     1
 10
0.0
 20
0.0
 30
0.0
  3
*D0
  1

  0
LINE
  5
53
330
40
100
AcDbEntity
  8
0
  6
BYBLOCK
 62
     0
100
AcDbLine
 10
51.81135312159018
 20
-0.8919588694523023
 30
0.0
 11
48.64335033113125
 21
-0.8919588694523021
 31
0.0
  0
LINE
  5
54
330
40
100
AcDbEntity
  8
0
  6
BYBLOCK
 62
     0
100
AcDbLine
 10
51.81135312159018
 20
35.10804113054769
 30
0.0
 11
48.64335033113125
 21
35.10804113054769
 31
0.0
  0
LINE
  5
55
330
40
100
AcDbEntity
  8
0
  6
BYBLOCK
 62
     0
100
AcDbLine
 10
48.82335033113125
 20
-0.8919588694523021
 30
0.0
 11
48.82335033113125
 21
16.87887446388103
 31
0.0
  0
LINE
  5
56
330
40
100
AcDbEntity
  8
0
  6
BYBLOCK
 62
     0
100
AcDbLine
 10
48.82335033113125
 20
35.10804113054769
 30
0.0
 11
48.82335033113125
 21
17.33720779721436
 31
0.0
  0
LINE
  5
57
330
40
100
AcDbEntity
  8
0
  6
BYBLOCK
 62
     0
100
AcDbLine
 10
48.94835033113125
 20
-1.016958869452301
 30
0.0
 11
48.69835033113125
 21
-0.7669588694523021
 31
0.0
  0
LINE
  5
58
330
40
100
AcDbEntity
  8
0
  6
BYBLOCK
 62
     0
100
AcDbLine
 10
48.94835033113125
 20
34.9830411305477
 30
0.0
 11
48.69835033113125
 21
35.23304113054769
 31
0.0
  0
TEXT
  5
59
330
40
100
AcDbEntity
  8
0
  6
BYBLOCK
 62
     0
100
AcDbText
 10
48.88585033113125
 20
17.00387446388103
 30
0.0
 40
0.125
  1
36
 50
90.0
 72
     1
 11
48.82335033113125
 21
17.10804113054769
 31
0.0
100
AcDbText
 73
     2
  0
POINT
  5
5A
330
40
100
AcDbEntity
  8
DEFPOINTS
  6
BYBLOCK
 62
     0
100
AcDbPoint
 10
51.87385312159019
 20
-0.8919588694523023
 30
0.0
  0
POINT
  5
5B
330
40
100
AcDbEntity
  8
DEFPOINTS
  6
BYBLOCK
 62
     0
100
AcDbPoint
 10
51.87385312159019
 20
35.10804113054769
 30
0.0
  0
POINT
  5
5C
330
40
100
AcDbEntity
  8
DEFPOINTS
  6
BYBLOCK
 62
     0
100
AcDbPoint
 10
48.82335033113125
 20
35.10804113054769
 30
0.0
  0
ENDBLK
  5
5D
330
40
100
AcDbEntity
  8
0
100
AcDbBlockEnd
  0
BLOCK
  5
5E
330
46
100
AcDbEntity
  8
0
100
AcDbBlockBegin
  2
*D1
 70
     1
 10
0.0
 20
0.0
 30
0.0
  3
*D1
  1

  0
LINE
  5
5F
330
46
100
AcDbEntity
  8
0
  6
BYBLOCK
 62
     0
100
AcDbLine
 10
51.87385312159019
 20
-2.403281551659766
 30
0.0
 11
51.87385312159019
 21
-2.90205068469257
 31
0.0
  0
LINE
  5
60
330
46
100
AcDbEntity
  8
0
  6
BYBLOCK
 62
     0
100
AcDbLine
 10
52.49885312159019
 20
-2.403281551659766
 30
0.0
 11
52.49885312159019
 21
-2.90205068469257
 31
0.0
  0
LINE
  5
61
330
46
100
AcDbEntity
  8
0
  6
BYBLOCK
 62
     0
100
AcDbLine
 10
51.87385312159019
 20
-2.72205068469257
 30
0.0
 11
51.62385312159019
 21
-2.72205068469257
 31
0.0
  0
LINE
  5
62
330
46
100
AcDbEntity
  8
0
  6
BYBLOCK
 62
     0
100
AcDbLine
 10
52.49885312159019
 20
-2.72205068469257
 30
0.0
 11
52.74885312159018
 21
-2.72205068469257
 31
0.0
  0
LINE
  5
63
330
46
100
AcDbEntity
  8
0
  6
BYBLOCK
 62
     0
100
AcDbLine
 10
51.74885312159019
 20
-2.84705068469257
 30
0.0
 11
51.99885312159018
 21
-2.59705068469257
 31
0.0
  0
LINE
  5
64
330
46
100
AcDbEntity
  8
0
  6
BYBLOCK
 62
     0
100
AcDbLine
 10
52.37385312159019
 20
-2.84705068469257
 30
0.0
 11
52.62385312159018
 21
-2.59705068469257
 31
0.0
  0
TEXT
  5
65
330
46
100
AcDbEntity
  8
0
  6
BYBLOCK
 62
     0
100
AcDbText
 10
52.87385312159019
 20
-2.78455068469257
 30
0.0
 40
0.125
  1
5/8
 72
     1
 11
53.04051978825685
 21
-2.72205068469257
 31
0.0
100
AcDbText
 73
     2
  0
POINT
  5
66
330
46
100
AcDbEntity
  8
DEFPOINTS
  6
BYBLOCK
 62
     0
100
AcDbPoint
 10
51.87385312159019
 20
-2.340781551659766
 30
0.0
  0
POINT
  5
67
330
46
100
AcDbEntity
  8
DEFPOINTS
  6
BYBLOCK
 62
     0
100
AcDbPoint
 10
52.49885312159019
 20
-2.340781551659766
 30
0.0
  0
POINT
  5
68
330
46
100
AcDbEntity
  8
DEFPOINTS
  6
BYBLOCK
 62
     0
100
AcDbPoint
 10
52.49885312159019
 20
-2.72205068469257
 30
0.0
  0
ENDBLK
  5
69
330
46
100
AcDbEntity
  8
0
100
AcDbBlockEnd
  0
ENDSEC
  0
SECTION
  2
ENTITIES
  0
LWPOLYLINE
  5
6A
330
18
100
AcDbEntity
  8
0
 62
     7
100
AcDbPolyline
 90
        6
 70
     0
 43
0.0
 10
52.07957517488058
 20
16.18046034337283
 42
-0.380806997674243
 10
50.7239449794372
 20
15.29526030176185
 42
-0.403484017679917
 10
49.29601438540299
 20
17.15598681618657
 42
-0.2289814457813121
 10
50.16361783958105
 20
18.90832148618997
 42
-0.0081531178431743
 10
51.39272252733503
 20
20.29935017742635
 42
0.0939103660413973
 10
51.66229325792819
 20
20.90646056357893
 42
0.2795832199957317
  0
LWPOLYLINE
  5
72
330
18
100
AcDbEntity
  8
0
 62
     7
100
AcDbPolyline
 90
       10
 70
     0
 43
0.0
 10
51.97112476683888
 20
20.91357054449507
 42
-0.1723452674114336
 10
51.50117293537672
 20
19.97417464416245
 10
50.14554273993334
 20
18.43862353602365
 42
0.3567586253354827
 10
50.05516743153936
 20
16.05400308573298
 42
0.404519538472089
 10
51.44694782627816
 20
15.83721952386836
 42
0.3917636418746539
 10
51.62769844306611
 20
16.68628886602024
 42
0.5167955687445332
 10
51.17582171125165
 20
16.72241943850135
 42
-0.2256874857278384
 10
51.26619701964564
 20
17.28244394684842
 42
-0.5608888334317105
 10
51.59154843361524
 20
17.26437866060786
 42
-0.4149353340874345
 10
52.06150026507742
 20
18.05925214403809
 42
0.4182419180862511
  0
LWPOLYLINE
  5
7E
330
18
100
AcDbEntity
  8
0
 62
     7
100
AcDbPolyline
 90
       10
 70
     0
 43
0.0
 10
52.40492677869474
 20
20.91357054449507
 42
0.1723452674114336
 10
52.87487861015691
 20
19.97417464416245
 10
54.2305088056003
 20
18.43862353602365
 42
-0.3567586253354827
 10
54.32088411399426
 20
16.05400308573298
 42
-0.404519538472089
 10
52.92910371925547
 20
15.83721952386836
 42
-0.3917636418746539
 10
52.74835310246752
 20
16.68628886602024
 42
-0.5167955687445332
 10
53.20022983428198
 20
16.72241943850135
 42
0.2256874857278384
 10
53.10985452588798
 20
17.28244394684842
 42
0.5608888334317105
 10
52.78450311191838
 20
17.26437866060786
 42
0.4149353340874345
 10
52.3145512804562
 20
18.05925214403809
 42
-0.4182419180862511
  0
LWPOLYLINE
  5
8A
330
18
100
AcDbEntity
  8
0
 62
     7
100
AcDbPolyline
 90
        6
 70
     0
 43
0.0
 10
52.29647637065305
 20
16.18046034337283
 42
0.380806997674243
 10
53.65210656609643
 20
15.29526030176185
 42
0.403484017679917
 10
55.08003716013064
 20
17.15598681618657
 42
0.2289814457813121
 10
54.21243370595258
 20
18.90832148618997
 42
0.0081531178431743
 10
52.98332901819859
 20
20.29935017742635
 42
-0.0939103660413973
 10
52.71375828760543
 20
20.90646056357893
 42
-0.2795832199957317
  0
DIMENSION
  5
92
330
18
100
AcDbEntity
  8
ADPDIM
100
AcDbDimension
  2
*D0
 10
48.82335033113125
 20
35.10804113054769
 30
0.0
 11
48.82335033113125
 21
17.10804113054769
 31
0.0
100
AcDbAlignedDimension
 13
51.87385312159019
 23
-0.8919588694523023
 33
0.0
 14
51.87385312159019
 24
35.10804113054769
 34
0.0
 50
90.0
100
AcDbRotatedDimension
  0
LINE
  5
93
330
18
100
AcDbEntity
  8
0
 62
     7
100
AcDbLine
 10
51.87385312159019
 20
15.76197129944312
 30
0.0
 11
51.87385312159019
 21
-0.8919588694523023
 31
0.0
  0
LINE
  5
94
330
18
100
AcDbEntity
  8
0
 62
     7
100
AcDbLine
 10
52.51385312159019
 20
-0.8919588694523023
 30
0.0
 11
52.51385312159019
 21
15.74726494168134
 31
0.0
  0
DIMENSION
  5
95
330
18
100
AcDbEntity
  8
ADPDIM
100
AcDbDimension
  2
*D1
 10
52.49885312159019
 20
-2.72205068469257
 30
0.0
 11
53.04051978825685
 21
-2.72205068469257
 31
0.0
100
AcDbAlignedDimension
 13
51.87385312159019
 23
-2.340781551659766
 33
0.0
 14
52.49885312159019
 24
-2.340781551659766
 34
0.0
100
AcDbRotatedDimension
  0
LWPOLYLINE
  5
96
330
18
100
AcDbEntity
  8
ADP1DETAIL
100
AcDbPolyline
 90
        4
 70
     1
 43
0.0
 10
51.87385312159019
 20
-1.715781551659766
 10
51.87385312159019
 20
-2.340781551659766
 10
52.49885312159019
 20
-2.340781551659766
 10
52.49885312159019
 20
-1.715781551659766
  0
LINE
  5
9C
330
18
100
AcDbEntity
  8
0
 62
     7
100
AcDbLine
 10
51.87385312159019
 20
-0.8919588694523023
 30
0.0
 11
52.51385312159019
 21
-0.8919588694523023
 31
0.0
  0
LINE
  5
9D
330
18
100
AcDbEntity
  8
0
 62
     7
100
AcDbLine
 10
52.06150026507742
 20
18.05925214403809
 30
0.0
 11
52.18802577276681
 21
18.33023169160235
 31
0.0
  0
LINE
  5
9E
330
18
100
AcDbEntity
  8
0
 62
     7
100
AcDbLine
 10
52.18802577276681
 20
18.33023169160235
 30
0.0
 11
52.3145512804562
 21
18.05925214403809
 31
0.0
  0
LINE
  5
9F
330
18
100
AcDbEntity
  8
0
 62
     7
100
AcDbLine
 10
51.87385312159019
 20
35.10804113054769
 30
0.0
 11
51.87385312159019
 21
22.12402084952972
 31
0.0
  0
LINE
  5
A0
330
18
100
AcDbEntity
  8
0
 62
     7
100
AcDbLine
 10
52.51385312159019
 20
22.19291337944459
 30
0.0
 11
52.51385312159019
 21
35.10804113054769
 31
0.0
  0
LINE
  5
A1
330
18
100
AcDbEntity
  8
0
 62
     7
100
AcDbLine
 10
52.87385312159019
 20
21.74646056357893
 30
0.0
 11
51.51385312159018
 21
21.74646056357893
 31
0.0
  0
LINE
  5
A2
330
18
100
AcDbEntity
  8
0
 62
     7
100
AcDbLine
 10
51.51385312159018
 20
20.90646056357893
 30
0.0
 11
52.87385312159019
 21
20.90646056357893
 31
0.0
  0
LWPOLYLINE
  5
A3
330
18
100
AcDbEntity
  8
0
 62
     7
100
AcDbPolyline
 90
       11
 70
     0
 43
0.0
 10
52.71969643771373
 20
21.74646056357892
 42
-0.037097561766338
 10
52.80257821156609
 20
21.99748898870811
 42
-0.2795832199957317
 10
53.34483044161907
 20
22.39492566693422
 42
-0.1235315424449242
 10
53.79670717343353
 20
22.32266439499402
 42
-0.170433300940386
 10
53.92323268112293
 20
21.7807052998655
 42
-0.5715885929446989
 10
53.36290554126678
 20
21.5277909115638
 42
0.3563480343920818
 10
53.67018166574414
 20
21.27487665024009
 42
0.3294555088913994
 10
54.21243370595258
 20
21.6723134554442
 42
0.2163925195261673
 10
54.1220583975586
 20
22.39492566693422
 42
0.2491668374314122
 10
53.29060514267595
 20
22.70203591395759
 42
0.3566784370592611
 10
52.39859825308174
 20
21.74646056357892
 42
-0.0645168721934322
  0
LWPOLYLINE
  5
B0
330
18
100
AcDbEntity
  8
0
 62
     7
100
AcDbPolyline
 90
       11
 70
     0
 43
0.0
 10
51.6563551078199
 20
21.74646056357892
 42
0.037097561766338
 10
51.57347333396754
 20
21.99748898870811
 42
0.2795832199957317
 10
51.03122110391455
 20
22.39492566693422
 42
0.1235315424449242
 10
50.57934437210009
 20
22.32266439499402
 42
0.170433300940386
 10
50.4528188644107
 20
21.7807052998655
 42
0.5715885929446989
 10
51.01314600426684
 20
21.5277909115638
 42
-0.3563480343920818
 10
50.70586987978948
 20
21.27487665024009
 42
-0.3294555088913994
 10
50.16361783958105
 20
21.6723134554442
 42
-0.2163925195261673
 10
50.25399314797502
 20
22.39492566693422
 42
-0.2491668374314122
 10
51.08544640285767
 20
22.70203591395759
 42
-0.3566784370592611
 10
51.97745329245188
 20
21.74646056357892
 42
0.0645168721934322
  0
LINE
  5
BD
330
18
100
AcDbEntity
  8
0
 62
     7
100
AcDbLine
 10
51.51385312159018
 20
21.74646056357893
 30
0.0
 11
51.51385312159018
 21
20.90646056357893
 31
0.0
  0
LINE
  5
BE
330
18
100
AcDbEntity
  8
0
 62
     7
100
AcDbLine
 10
52.87385312159019
 20
20.90646056357893
 30
0.0
 11
52.87385312159019
 21
21.74646056357893
 31
0.0
  0
LINE
  5
BF
330
18
100
AcDbEntity
  8
0
 62
     7
100
AcDbLine
 10
52.51385312159019
 20
35.10804113054769
 30
0.0
 11
51.87385312159019
 21
35.10804113054769
 31
0.0
  0
LINE
  5
C0
330
18
100
AcDbEntity
  8
0
 62
     7
100
AcDbLine
 10
51.87385312159019
 20
35.10804113054769
 30
0.0
 11
51.87385312159019
 21
35.10804113054769
 31
0.0
  0
TEXT
  5
CE
330
18
100
AcDbEntity
  8
ADPDIM
100
AcDbText
 10
20.00899251474443
 20
-4.202054811119405
 30
0.0
 40
0.625
  1
J U L I U S  B L U M  &  C O . ,  I N C .      ( 8 0 0 )  5 2 6 - 6 2 9 3        W W W . J U L I U S B L U M . C O M        P A R T  N o .  5 2 9
 41
1.25
  7
ARIAL_WIDE
 72
     1
 11
52.1825302023297
 21
-3.577054811119405
 31
0.0
100
AcDbText
 73
     3
  0
ENDSEC
  0
SECTION
  2
OBJECTS
  0
DICTIONARY
  5
C
330
0
100
AcDbDictionary
  3
ACAD_GROUP
350
D
  3
ACAD_LAYOUT
350
C7
  3
ACAD_MLINESTYLE
350
E
  3
ACAD_PLOTSETTINGS
350
C8
  3
ACAD_PLOTSTYLENAME
350
C5
  3
ACDBHEADERROUNDTRIPXREC
350
216
  3
ACDBVARIABLEDICTIONARY
350
128
  0
DICTIONARY
  5
122
330
18
100
AcDbDictionary
280
     1
  3
ACAD_LAYOUTSELFREF
360
237
  0
DICTIONARY
  5
120
330
15
100
AcDbDictionary
280
     1
  3
ACAD_LAYOUTSELFREF
360
236
  0
DICTIONARY
  5
D
102
{ACAD_REACTORS
330
C
102
}
330
C
100
AcDbDictionary
  0
DICTIONARY
  5
C7
102
{ACAD_REACTORS
330
C
102
}
330
C
100
AcDbDictionary
  0
DICTIONARY
  5
E
102
{ACAD_REACTORS
330
C
102
}
330
C
100
AcDbDictionary
  3
STANDARD
350
1B
  0
DICTIONARY
  5
C8
102
{ACAD_REACTORS
330
C
102
}
330
C
100
AcDbDictionary
  0
ACDBDICTIONARYWDFLT
  5
C5
102
{ACAD_REACTORS
330
C
102
}
330
C
100
AcDbDictionary
281
     1
  3
Normal
350
C6
100
AcDbDictionaryWithDefault
340
C6
  0
DICTIONARY
  5
216
102
{ACAD_REACTORS
330
C
102
}
330
C
100
AcDbDictionary
  3
CEPSNTYPE
350
220
  3
FINGERPRINTGUID
350
221
  3
HYPERLINKBASE
350
219
  3
INSUNITS
350
21F
  3
LAYOUTDICT
350
21B
  3
LWETCUNION
350
21E
  3
PLOTSETDICT
350
21C
  3
PLOTSTYLNAMDICT
350
21D
  3
PSVPSCALE
350
223
  3
PUCSBASE
350
226
  3
PUCSORGBACK
350
22C
  3
PUCSORGBOTTOM
350
228
  3
PUCSORGFRONT
350
22B
  3
PUCSORGLEFT
350
229
  3
PUCSORGRIGHT
350
22A
  3
PUCSORGTOP
350
227
  3
PUCSORTHOREF
350
224
  3
PUCSORTHOVIEW
350
225
  3
STYLESHEET
350
21A
  3
TSTACKALIGN
350
217
  3
TSTACKSIZE
350
218
  3
UCSBASE
350
22F
  3
UCSORGBACK
350
235
  3
UCSORGBOTTOM
350
231
  3
UCSORGFRONT
350
234
  3
UCSORGLEFT
350
232
  3
UCSORGRIGHT
350
233
  3
UCSORGTOP
350
230
  3
UCSORTHOREF
350
22D
  3
UCSORTHOVIEW
350
22E
  3
VERSIONGUID
350
222
  0
DICTIONARY
  5
128
102
{ACAD_REACTORS
330
C
102
}
330
C
100
AcDbDictionary
  3
DIMASSOC
350
129
  0
XRECORD
  5
237
102
{ACAD_REACTORS
330
122
102
}
330
122
100
AcDbXrecord
340
18
  0
XRECORD
  5
236
102
{ACAD_REACTORS
330
120
102
}
330
120
100
AcDbXrecord
340
15
  0
MLINESTYLE
  5
1B
102
{ACAD_REACTORS
330
E
102
}
330
E
100
AcDbMlineStyle
  2
STANDARD
 70
     0
  3

 62
     0
 51
90.0
 52
90.0
 71
     2
 49
0.5
 62
   256
  6
BYLAYER
 49
-0.5
 62
   256
  6
BYLAYER
  0
ACDBPLACEHOLDER
  5
C6
102
{ACAD_REACTORS
330
C5
102
}
330
C5
100
AcDbPlaceHolder
280
     0
  0
XRECORD
  5
220
102
{ACAD_REACTORS
330
216
102
}
330
216
100
AcDbXrecord
 90
        0
  0
XRECORD
  5
221
102
{ACAD_REACTORS
330
216
102
}
330
216
100
AcDbXrecord
  1
{53E77E9E-44A7-4827-9A2A-72F7543E7F89}
  0
XRECORD
  5
219
102
{ACAD_REACTORS
330
216
102
}
330
216
100
AcDbXrecord
  1

  0
XRECORD
  5
21F
102
{ACAD_REACTORS
330
216
102
}
330
216
100
AcDbXrecord
 90
        0
  0
XRECORD
  5
21B
102
{ACAD_REACTORS
330
216
102
}
330
216
100
AcDbXrecord
340
C7
  0
XRECORD
  5
21E
102
{ACAD_REACTORS
330
216
102
}
330
216
100
AcDbXrecord
 90
    14877
  0
XRECORD
  5
21C
102
{ACAD_REACTORS
330
216
102
}
330
216
100
AcDbXrecord
340
C8
  0
XRECORD
  5
21D
102
{ACAD_REACTORS
330
216
102
}
330
216
100
AcDbXrecord
340
C5
  0
XRECORD
  5
223
102
{ACAD_REACTORS
330
216
102
}
330
216
100
AcDbXrecord
 40
0.0
  0
XRECORD
  5
226
102
{ACAD_REACTORS
330
216
102
}
330
216
100
AcDbXrecord
340
0
  0
XRECORD
  5
22C
102
{ACAD_REACTORS
330
216
102
}
330
216
100
AcDbXrecord
 10
0.0
 20
0.0
 30
0.0
  0
XRECORD
  5
228
102
{ACAD_REACTORS
330
216
102
}
330
216
100
AcDbXrecord
 10
0.0
 20
0.0
 30
0.0
  0
XRECORD
  5
22B
102
{ACAD_REACTORS
330
216
102
}
330
216
100
AcDbXrecord
 10
0.0
 20
0.0
 30
0.0
  0
XRECORD
  5
229
102
{ACAD_REACTORS
330
216
102
}
330
216
100
AcDbXrecord
 10
0.0
 20
0.0
 30
0.0
  0
XRECORD
  5
22A
102
{ACAD_REACTORS
330
216
102
}
330
216
100
AcDbXrecord
 10
0.0
 20
0.0
 30
0.0
  0
XRECORD
  5
227
102
{ACAD_REACTORS
330
216
102
}
330
216
100
AcDbXrecord
 10
0.0
 20
0.0
 30
0.0
  0
XRECORD
  5
224
102
{ACAD_REACTORS
330
216
102
}
330
216
100
AcDbXrecord
340
0
  0
XRECORD
  5
225
102
{ACAD_REACTORS
330
216
102
}
330
216
100
AcDbXrecord
 70
     0
  0
XRECORD
  5
21A
102
{ACAD_REACTORS
330
216
102
}
330
216
100
AcDbXrecord
  1

  0
XRECORD
  5
217
102
{ACAD_REACTORS
330
216
102
}
330
216
100
AcDbXrecord
 90
        1
  0
XRECORD
  5
218
102
{ACAD_REACTORS
330
216
102
}
330
216
100
AcDbXrecord
 90
       70
  0
XRECORD
  5
22F
102
{ACAD_REACTORS
330
216
102
}
330
216
100
AcDbXrecord
340
0
  0
XRECORD
  5
235
102
{ACAD_REACTORS
330
216
102
}
330
216
100
AcDbXrecord
 10
0.0
 20
0.0
 30
0.0
  0
XRECORD
  5
231
102
{ACAD_REACTORS
330
216
102
}
330
216
100
AcDbXrecord
 10
0.0
 20
0.0
 30
0.0
  0
XRECORD
  5
234
102
{ACAD_REACTORS
330
216
102
}
330
216
100
AcDbXrecord
 10
0.0
 20
0.0
 30
0.0
  0
XRECORD
  5
232
102
{ACAD_REACTORS
330
216
102
}
330
216
100
AcDbXrecord
 10
0.0
 20
0.0
 30
0.0
  0
XRECORD
  5
233
102
{ACAD_REACTORS
330
216
102
}
330
216
100
AcDbXrecord
 10
0.0
 20
0.0
 30
0.0
  0
XRECORD
  5
230
102
{ACAD_REACTORS
330
216
102
}
330
216
100
AcDbXrecord
 10
0.0
 20
0.0
 30
0.0
  0
XRECORD
  5
22D
102
{ACAD_REACTORS
330
216
102
}
330
216
100
AcDbXrecord
340
0
  0
XRECORD
  5
22E
102
{ACAD_REACTORS
330
216
102
}
330
216
100
AcDbXrecord
 70
     0
  0
XRECORD
  5
222
102
{ACAD_REACTORS
330
216
102
}
330
216
100
AcDbXrecord
  1
{4F28113A-47DE-48BF-A773-B2379F75D24B}
  0
DICTIONARYVAR
  5
129
102
{ACAD_REACTORS
330
128
102
}
330
128
100
DictionaryVariables
280
     0
  1
1
  0
ENDSEC
  0
EOF
