  0
SECTION
  2
HEADER
  9
$ACADVER
  1
AC1014
  9
$ACADMAINTVER
 70
     9
  9
$DWGCODEPAGE
  3
ANSI_1252
  9
$INSBASE
 10
45.66274685626462
 20
-0.7394511696048051
 30
0.0
  9
$EXTMIN
 10
13.22561408086723
 20
-4.432850890895852
 30
0.0
  9
$EXTMAX
 10
77.57268945603776
 20
35.38554883039519
 30
0.0
  9
$LIMMIN
 10
0.0
 20
0.0
  9
$LIMMAX
 10
36.0
 20
36.0
  9
$ORTHOMODE
 70
     1
  9
$REGENMODE
 70
     1
  9
$FILLMODE
 70
     1
  9
$QTEXTMODE
 70
     0
  9
$MIRRTEXT
 70
     1
  9
$DRAGMODE
 70
     0
  9
$LTSCALE
 40
1.0
  9
$OSMODE
 70
    37
  9
$ATTMODE
 70
     1
  9
$TEXTSIZE
 40
0.2
  9
$TRACEWID
 40
0.05
  9
$TEXTSTYLE
  7
STANDARD
  9
$CLAYER
  8
ADPDIM
  9
$CELTYPE
  6
BYLAYER
  9
$CECOLOR
 62
   256
  9
$CELTSCALE
 40
1.0
  9
$DELOBJ
 70
     1
  9
$DISPSILH
 70
     0
  9
$DIMSCALE
 40
1.0
  9
$DIMASZ
 40
0.125
  9
$DIMEXO
 40
0.0625
  9
$DIMDLI
 40
0.38
  9
$DIMRND
 40
0.0
  9
$DIMDLE
 40
0.0
  9
$DIMEXE
 40
0.18
  9
$DIMTP
 40
0.0
  9
$DIMTM
 40
0.0
  9
$DIMTXT
 40
0.125
  9
$DIMCEN
 40
0.1875
  9
$DIMTSZ
 40
0.125
  9
$DIMTOL
 70
     0
  9
$DIMLIM
 70
     0
  9
$DIMTIH
 70
     0
  9
$DIMTOH
 70
     0
  9
$DIMSE1
 70
     0
  9
$DIMSE2
 70
     0
  9
$DIMTAD
 70
     0
  9
$DIMZIN
 70
     3
  9
$DIMBLK
  1

  9
$DIMASO
 70
     1
  9
$DIMSHO
 70
     1
  9
$DIMPOST
  1

  9
$DIMAPOST
  1

  9
$DIMALT
 70
     0
  9
$DIMALTD
 70
     1
  9
$DIMALTF
 40
25.4
  9
$DIMLFAC
 40
1.0
  9
$DIMTOFL
 70
     0
  9
$DIMTVP
 40
0.0
  9
$DIMTIX
 70
     0
  9
$DIMSOXD
 70
     0
  9
$DIMSAH
 70
     0
  9
$DIMBLK1
  1

  9
$DIMBLK2
  1

  9
$DIMSTYLE
  2
STANDARD
  9
$DIMCLRD
 70
     0
  9
$DIMCLRE
 70
     0
  9
$DIMCLRT
 70
     0
  9
$DIMTFAC
 40
1.0
  9
$DIMGAP
 40
0.125
  9
$DIMJUST
 70
     0
  9
$DIMSD1
 70
     0
  9
$DIMSD2
 70
     0
  9
$DIMTOLJ
 70
     1
  9
$DIMTZIN
 70
     0
  9
$DIMALTZ
 70
     0
  9
$DIMALTTZ
 70
     0
  9
$DIMFIT
 70
     3
  9
$DIMUPT
 70
     0
  9
$DIMUNIT
 70
     2
  9
$DIMDEC
 70
     4
  9
$DIMTDEC
 70
     4
  9
$DIMALTU
 70
     2
  9
$DIMALTTD
 70
     2
  9
$DIMTXSTY
  7
STANDARD
  9
$DIMAUNIT
 70
     0
  9
$LUNITS
 70
     5
  9
$LUPREC
 70
     4
  9
$SKETCHINC
 40
0.1
  9
$FILLETRAD
 40
0.062
  9
$AUNITS
 70
     0
  9
$AUPREC
 70
     0
  9
$MENU
  1
acad
  9
$ELEVATION
 40
0.0
  9
$PELEVATION
 40
0.0
  9
$THICKNESS
 40
0.0
  9
$LIMCHECK
 70
     0
  9
$BLIPMODE
 70
     0
  9
$CHAMFERA
 40
0.0
  9
$CHAMFERB
 40
0.0
  9
$CHAMFERC
 40
0.0
  9
$CHAMFERD
 40
0.0
  9
$SKPOLY
 70
     0
  9
$TDCREATE
 40
2450374.516430555
  9
$TDUPDATE
 40
2452297.072172118
  9
$TDINDWG
 40
0.0252308333
  9
$TDUSRTIMER
 40
0.0252308333
  9
$USRTIMER
 70
     1
  9
$ANGBASE
 50
0.0
  9
$ANGDIR
 70
     0
  9
$PDMODE
 70
     0
  9
$PDSIZE
 40
0.0
  9
$PLINEWID
 40
0.0
  9
$COORDS
 70
     2
  9
$SPLFRAME
 70
     0
  9
$SPLINETYPE
 70
     6
  9
$SPLINESEGS
 70
     8
  9
$ATTDIA
 70
     0
  9
$ATTREQ
 70
     1
  9
$HANDLING
 70
 22529
  9
$HANDSEED
  5
276
  9
$SURFTAB1
 70
     6
  9
$SURFTAB2
 70
     6
  9
$SURFTYPE
 70
     6
  9
$SURFU
 70
     6
  9
$SURFV
 70
     6
  9
$UCSNAME
  2

  9
$UCSORG
 10
0.0
 20
0.0
 30
0.0
  9
$UCSXDIR
 10
1.0
 20
0.0
 30
0.0
  9
$UCSYDIR
 10
0.0
 20
1.0
 30
0.0
  9
$PUCSNAME
  2

  9
$PUCSORG
 10
0.0
 20
0.0
 30
0.0
  9
$PUCSXDIR
 10
1.0
 20
0.0
 30
0.0
  9
$PUCSYDIR
 10
0.0
 20
1.0
 30
0.0
  9
$USERI1
 70
     0
  9
$USERI2
 70
     0
  9
$USERI3
 70
     0
  9
$USERI4
 70
     0
  9
$USERI5
 70
     0
  9
$USERR1
 40
0.0
  9
$USERR2
 40
0.0
  9
$USERR3
 40
0.0
  9
$USERR4
 40
0.0
  9
$USERR5
 40
0.0
  9
$WORLDVIEW
 70
     1
  9
$SHADEDGE
 70
     3
  9
$SHADEDIF
 70
    70
  9
$TILEMODE
 70
     1
  9
$MAXACTVP
 70
    15
  9
$PINSBASE
 10
0.0
 20
0.0
 30
0.0
  9
$PLIMCHECK
 70
     0
  9
$PEXTMIN
 10
1.000000000000000E+20
 20
1.000000000000000E+20
 30
1.000000000000000E+20
  9
$PEXTMAX
 10
-1.000000000000000E+20
 20
-1.000000000000000E+20
 30
-1.000000000000000E+20
  9
$PLIMMIN
 10
0.0
 20
0.0
  9
$PLIMMAX
 10
12.0
 20
9.0
  9
$UNITMODE
 70
     0
  9
$VISRETAIN
 70
     0
  9
$PLINEGEN
 70
     0
  9
$PSLTSCALE
 70
     1
  9
$TREEDEPTH
 70
  3020
  9
$PICKSTYLE
 70
     1
  9
$CMLSTYLE
  2
STANDARD
  9
$CMLJUST
 70
     0
  9
$CMLSCALE
 40
1.0
  9
$PROXYGRAPHICS
 70
     1
  9
$MEASUREMENT
 70
     0
  0
ENDSEC
  0
SECTION
  2
CLASSES
  0
CLASS
  1
ACDBDICTIONARYWDFLT
  2
AcDbDictionaryWithDefault
  3
AutoCAD 2000
 90
        0
280
     0
281
     0
  0
CLASS
  1
ACDBPLACEHOLDER
  2
AcDbPlaceHolder
  3
AutoCAD 2000
 90
        0
280
     0
281
     0
  0
CLASS
  1
LAYOUT
  2
AcDbLayout
  3
AutoCAD 2000
 90
        0
280
     0
281
     0
  0
CLASS
  1
DICTIONARYVAR
  2
AcDbDictionaryVar
  3
AutoCAD 2000
 90
        0
280
     0
281
     0
  0
CLASS
  1
LONG_TRANSACTION
  2
AcDbLongTransaction
  3
AutoCAD 2000
 90
        0
280
     0
281
     0
  0
CLASS
  1
LWPOLYLINE
  2
AcDbPolyline
  3
AutoCAD 2000
 90
        0
280
     0
281
     1
  0
CLASS
  1
HATCH
  2
AcDbHatch
  3
AutoCAD 2000
 90
        0
280
     0
281
     1
  0
CLASS
  1
XRECORD
  2
AcDbXrecord
  3
AutoCAD 2000
 90
        0
280
     0
281
     0
  0
CLASS
  1
LONG_TRANSACTION
  2
AcDbLongTransaction
  3
AutoCAD 2000
 90
        0
280
     0
281
     0
  0
CLASS
  1
LWPOLYLINE
  2
AcDbPolyline
  3
AutoCAD 2000
 90
        0
280
     0
281
     1
  0
CLASS
  1
HATCH
  2
AcDbHatch
  3
AutoCAD 2000
 90
        0
280
     0
281
     1
  0
CLASS
  1
XRECORD
  2
AcDbXrecord
  3
AutoCAD 2000
 90
        0
280
     0
281
     0
  0
CLASS
  1
LONG_TRANSACTION
  2
AcDbLongTransaction
  3
AutoCAD 2000
 90
        0
280
     0
281
     0
  0
CLASS
  1
LWPOLYLINE
  2
AcDbPolyline
  3
AutoCAD 2000
 90
        0
280
     0
281
     1
  0
CLASS
  1
HATCH
  2
AcDbHatch
  3
AutoCAD 2000
 90
        0
280
     0
281
     1
  0
CLASS
  1
XRECORD
  2
AcDbXrecord
  3
AutoCAD 2000
 90
        0
280
     0
281
     0
  0
CLASS
  1
LONG_TRANSACTION
  2
AcDbLongTransaction
  3
AutoCAD 2000
 90
        0
280
     0
281
     0
  0
CLASS
  1
LWPOLYLINE
  2
AcDbPolyline
  3
AutoCAD 2000
 90
        0
280
     0
281
     1
  0
CLASS
  1
HATCH
  2
AcDbHatch
  3
AutoCAD 2000
 90
        0
280
     0
281
     1
  0
CLASS
  1
XRECORD
  2
AcDbXrecord
  3
AutoCAD 2000
 90
        0
280
     0
281
     0
  0
CLASS
  1
LONG_TRANSACTION
  2
AcDbLongTransaction
  3
AutoCAD 2000
 90
        0
280
     0
281
     0
  0
CLASS
  1
LWPOLYLINE
  2
AcDbPolyline
  3
AutoCAD 2000
 90
        0
280
     0
281
     1
  0
CLASS
  1
HATCH
  2
AcDbHatch
  3
AutoCAD 2000
 90
        0
280
     0
281
     1
  0
CLASS
  1
XRECORD
  2
AcDbXrecord
  3
AutoCAD 2000
 90
        0
280
     0
281
     0
  0
CLASS
  1
LONG_TRANSACTION
  2
AcDbLongTransaction
  3
AutoCAD 2000
 90
        0
280
     0
281
     0
  0
CLASS
  1
LWPOLYLINE
  2
AcDbPolyline
  3
AutoCAD 2000
 90
        0
280
     0
281
     1
  0
CLASS
  1
HATCH
  2
AcDbHatch
  3
AutoCAD 2000
 90
        0
280
     0
281
     1
  0
CLASS
  1
XRECORD
  2
AcDbXrecord
  3
AutoCAD 2000
 90
        0
280
     0
281
     0
  0
ENDSEC
  0
SECTION
  2
TABLES
  0
TABLE
  2
VPORT
  5
8
330
0
100
AcDbSymbolTable
 70
     2
  0
VPORT
  5
253
330
8
100
AcDbSymbolTableRecord
100
AcDbViewportTableRecord
  2
*ACTIVE
 70
     0
 10
0.0
 20
0.0
 11
1.0
 21
1.0
 12
45.45350176794038
 22
15.4767658217003
 13
0.0
 23
0.0
 14
0.5740882589684922
 24
0.5740882589684922
 15
0.5
 25
0.5
 16
0.0
 26
0.0
 36
1.0
 17
0.0
 27
0.0
 37
0.0
 40
41.23813825102646
 41
1.570528967254408
 42
50.0
 43
0.0
 44
0.0
 50
0.0
 51
0.0
 71
     0
 72
   100
 73
     1
 74
     0
 75
     0
 76
     0
 77
     0
 78
     0
  0
ENDTAB
  0
TABLE
  2
LTYPE
  5
5
330
0
100
AcDbSymbolTable
 70
     1
  0
LTYPE
  5
12
330
5
100
AcDbSymbolTableRecord
100
AcDbLinetypeTableRecord
  2
BYBLOCK
 70
     0
  3

 72
    65
 73
     0
 40
0.0
  0
LTYPE
  5
13
330
5
100
AcDbSymbolTableRecord
100
AcDbLinetypeTableRecord
  2
BYLAYER
 70
     0
  3

 72
    65
 73
     0
 40
0.0
  0
LTYPE
  5
14
330
5
100
AcDbSymbolTableRecord
100
AcDbLinetypeTableRecord
  2
CONTINUOUS
 70
     0
  3
Solid line
 72
    65
 73
     0
 40
0.0
  0
ENDTAB
  0
TABLE
  2
LAYER
  5
2
330
0
100
AcDbSymbolTable
 70
     4
  0
LAYER
  5
F
330
2
100
AcDbSymbolTableRecord
100
AcDbLayerTableRecord
  2
0
 70
     0
 62
     7
  6
CONTINUOUS
  0
LAYER
  5
47
330
2
100
AcDbSymbolTableRecord
100
AcDbLayerTableRecord
  2
ADPDIM
 70
     0
 62
     3
  6
CONTINUOUS
  0
LAYER
  5
49
330
2
100
AcDbSymbolTableRecord
100
AcDbLayerTableRecord
  2
ADP1DETAIL
 70
     0
 62
     7
  6
CONTINUOUS
  0
LAYER
  5
4B
330
2
100
AcDbSymbolTableRecord
100
AcDbLayerTableRecord
  2
DEFPOINTS
 70
     0
 62
     7
  6
CONTINUOUS
  0
ENDTAB
  0
TABLE
  2
STYLE
  5
3
330
0
100
AcDbSymbolTable
 70
     2
  0
STYLE
  5
10
330
3
100
AcDbSymbolTableRecord
100
AcDbTextStyleTableRecord
  2
STANDARD
 70
     0
 40
0.0
 41
1.0
 50
0.0
 71
     0
 42
0.2
  3
txt
  4

  0
STYLE
  5
10B
330
3
100
AcDbSymbolTableRecord
100
AcDbTextStyleTableRecord
  2
ARIAL_WIDE
 70
     0
 40
0.0
 41
1.25
 50
0.0
 71
     0
 42
0.2
  3
ARIAL.TTF
  4

1001
ACAD
1000
Arial
1071
       34
  0
ENDTAB
  0
TABLE
  2
VIEW
  5
6
330
0
100
AcDbSymbolTable
 70
     0
  0
ENDTAB
  0
TABLE
  2
UCS
  5
7
330
0
100
AcDbSymbolTable
 70
     0
  0
ENDTAB
  0
TABLE
  2
APPID
  5
9
330
0
100
AcDbSymbolTable
 70
     1
  0
APPID
  5
11
330
9
100
AcDbSymbolTableRecord
100
AcDbRegAppTableRecord
  2
ACAD
 70
     0
  0
ENDTAB
  0
TABLE
  2
DIMSTYLE
  5
A
330
0
100
AcDbSymbolTable
 70
     1
  0
DIMSTYLE
105
FF
330
A
100
AcDbSymbolTableRecord
100
AcDbDimStyleTableRecord
  2
STANDARD
 70
     0
  3

  4

  5

  6

  7

 40
1.0
 41
0.18
 42
0.0625
 43
0.38
 44
0.18
 45
0.0
 46
0.0
 47
0.0
 48
0.0
140
0.18
141
0.09
142
0.0
143
25.4
144
1.0
145
0.0
146
1.0
147
0.09
 71
     0
 72
     0
 73
     1
 74
     1
 75
     0
 76
     0
 77
     0
 78
     0
170
     0
171
     2
172
     0
173
     0
174
     0
175
     0
176
     0
177
     0
178
     0
270
     2
271
     4
272
     4
273
     2
274
     2
340
10
275
     0
280
     0
281
     0
282
     0
283
     1
284
     0
285
     0
286
     0
287
     3
288
     0
  0
ENDTAB
  0
TABLE
  2
BLOCK_RECORD
  5
1
330
0
100
AcDbSymbolTable
 70
     2
  0
BLOCK_RECORD
  5
18
102
{ACAD_XDICTIONARY
360
160
102
}
330
1
100
AcDbSymbolTableRecord
100
AcDbBlockTableRecord
  2
*MODEL_SPACE
  0
BLOCK_RECORD
  5
15
102
{ACAD_XDICTIONARY
360
15E
102
}
330
1
100
AcDbSymbolTableRecord
100
AcDbBlockTableRecord
  2
*PAPER_SPACE
  0
BLOCK_RECORD
  5
3F
330
1
100
AcDbSymbolTableRecord
100
AcDbBlockTableRecord
  2
*D0
  0
BLOCK_RECORD
  5
45
330
1
100
AcDbSymbolTableRecord
100
AcDbBlockTableRecord
  2
*D1
  0
ENDTAB
  0
ENDSEC
  0
SECTION
  2
BLOCKS
  0
BLOCK
  5
4E
330
18
100
AcDbEntity
  8
0
100
AcDbBlockBegin
  2
*MODEL_SPACE
 70
     0
 10
0.0
 20
0.0
 30
0.0
  3
*MODEL_SPACE
  1

  0
ENDBLK
  5
4F
330
18
100
AcDbEntity
  8
0
100
AcDbBlockEnd
  0
BLOCK
  5
4C
330
15
100
AcDbEntity
 67
     1
  8
0
100
AcDbBlockBegin
  2
*PAPER_SPACE
 70
     0
 10
0.0
 20
0.0
 30
0.0
  3
*PAPER_SPACE
  1

  0
ENDBLK
  5
4D
330
15
100
AcDbEntity
 67
     1
  8
0
100
AcDbBlockEnd
  0
BLOCK
  5
51
330
3F
100
AcDbEntity
  8
0
100
AcDbBlockBegin
  2
*D0
 70
     1
 10
0.0
 20
0.0
 30
0.0
  3
*D0
  1

  0
LINE
  5
52
330
3F
100
AcDbEntity
  8
0
  6
BYBLOCK
 62
     0
100
AcDbLine
 10
45.10024685626461
 20
-0.7394511696048051
 30
0.0
 11
41.47466858407889
 21
-0.7394511696048049
 31
0.0
  0
LINE
  5
53
330
3F
100
AcDbEntity
  8
0
  6
BYBLOCK
 62
     0
100
AcDbLine
 10
45.10024685626461
 20
35.26054883039519
 30
0.0
 11
41.47466858407889
 21
35.26054883039519
 31
0.0
  0
LINE
  5
54
330
3F
100
AcDbEntity
  8
0
  6
BYBLOCK
 62
     0
100
AcDbLine
 10
41.65466858407889
 20
-0.7394511696048049
 30
0.0
 11
41.65466858407889
 21
17.03138216372852
 31
0.0
  0
LINE
  5
55
330
3F
100
AcDbEntity
  8
0
  6
BYBLOCK
 62
     0
100
AcDbLine
 10
41.65466858407889
 20
35.26054883039519
 30
0.0
 11
41.65466858407889
 21
17.48971549706185
 31
0.0
  0
LINE
  5
56
330
3F
100
AcDbEntity
  8
0
  6
BYBLOCK
 62
     0
100
AcDbLine
 10
41.77966858407889
 20
-0.8644511696048049
 30
0.0
 11
41.52966858407888
 21
-0.6144511696048049
 31
0.0
  0
LINE
  5
57
330
3F
100
AcDbEntity
  8
0
  6
BYBLOCK
 62
     0
100
AcDbLine
 10
41.77966858407889
 20
35.13554883039519
 30
0.0
 11
41.52966858407888
 21
35.38554883039519
 31
0.0
  0
TEXT
  5
58
330
3F
100
AcDbEntity
  8
0
  6
BYBLOCK
 62
     0
100
AcDbText
 10
41.71716858407889
 20
17.15638216372852
 30
0.0
 40
0.125
  1
36
 50
90.0
 72
     1
 11
41.65466858407889
 21
17.26054883039519
 31
0.0
100
AcDbText
 73
     2
  0
POINT
  5
59
330
3F
100
AcDbEntity
  8
DEFPOINTS
  6
BYBLOCK
 62
     0
100
AcDbPoint
 10
45.16274685626462
 20
-0.7394511696048051
 30
0.0
  0
POINT
  5
5A
330
3F
100
AcDbEntity
  8
DEFPOINTS
  6
BYBLOCK
 62
     0
100
AcDbPoint
 10
45.16274685626462
 20
35.26054883039519
 30
0.0
  0
POINT
  5
5B
330
3F
100
AcDbEntity
  8
DEFPOINTS
  6
BYBLOCK
 62
     0
100
AcDbPoint
 10
41.65466858407889
 20
35.26054883039519
 30
0.0
  0
ENDBLK
  5
5C
330
3F
100
AcDbEntity
  8
0
100
AcDbBlockEnd
  0
BLOCK
  5
5D
330
45
100
AcDbEntity
  8
0
100
AcDbBlockBegin
  2
*D1
 70
     1
 10
0.0
 20
0.0
 30
0.0
  3
*D1
  1

  0
LINE
  5
5E
330
45
100
AcDbEntity
  8
0
  6
BYBLOCK
 62
     0
100
AcDbLine
 10
45.16274685626462
 20
-2.17452011847446
 30
0.0
 11
45.16274685626462
 21
-2.825796834768821
 31
0.0
  0
LINE
  5
5F
330
45
100
AcDbEntity
  8
0
  6
BYBLOCK
 62
     0
100
AcDbLine
 10
45.66274685626462
 20
-2.17452011847446
 30
0.0
 11
45.66274685626462
 21
-2.825796834768821
 31
0.0
  0
LINE
  5
60
330
45
100
AcDbEntity
  8
0
  6
BYBLOCK
 62
     0
100
AcDbLine
 10
45.16274685626462
 20
-2.645796834768821
 30
0.0
 11
44.91274685626462
 21
-2.645796834768821
 31
0.0
  0
LINE
  5
61
330
45
100
AcDbEntity
  8
0
  6
BYBLOCK
 62
     0
100
AcDbLine
 10
45.66274685626462
 20
-2.645796834768821
 30
0.0
 11
45.91274685626461
 21
-2.645796834768821
 31
0.0
  0
LINE
  5
62
330
45
100
AcDbEntity
  8
0
  6
BYBLOCK
 62
     0
100
AcDbLine
 10
45.03774685626462
 20
-2.770796834768821
 30
0.0
 11
45.28774685626461
 21
-2.520796834768821
 31
0.0
  0
LINE
  5
63
330
45
100
AcDbEntity
  8
0
  6
BYBLOCK
 62
     0
100
AcDbLine
 10
45.53774685626462
 20
-2.770796834768821
 30
0.0
 11
45.78774685626462
 21
-2.520796834768821
 31
0.0
  0
TEXT
  5
64
330
45
100
AcDbEntity
  8
0
  6
BYBLOCK
 62
     0
100
AcDbText
 10
46.03774685626461
 20
-2.708296834768821
 30
0.0
 40
0.125
  1
1/2
 72
     1
 11
46.18358018959795
 21
-2.645796834768821
 31
0.0
100
AcDbText
 73
     2
  0
POINT
  5
65
330
45
100
AcDbEntity
  8
DEFPOINTS
  6
BYBLOCK
 62
     0
100
AcDbPoint
 10
45.16274685626462
 20
-2.11202011847446
 30
0.0
  0
POINT
  5
66
330
45
100
AcDbEntity
  8
DEFPOINTS
  6
BYBLOCK
 62
     0
100
AcDbPoint
 10
45.66274685626462
 20
-2.11202011847446
 30
0.0
  0
POINT
  5
67
330
45
100
AcDbEntity
  8
DEFPOINTS
  6
BYBLOCK
 62
     0
100
AcDbPoint
 10
45.66274685626462
 20
-2.645796834768821
 30
0.0
  0
ENDBLK
  5
68
330
45
100
AcDbEntity
  8
0
100
AcDbBlockEnd
  0
ENDSEC
  0
SECTION
  2
ENTITIES
  0
LWPOLYLINE
  5
69
330
18
100
AcDbEntity
  8
0
100
AcDbPolyline
 90
        5
 70
     0
 43
0.0
 10
42.71145384049251
 20
19.16181276376054
 42
0.1274820394234388
 10
43.35706513978294
 20
19.38214632624147
 42
-0.0891271652685308
 10
44.45932813481898
 20
19.85428949734591
 42
-0.1144386721493587
 10
45.13643239250883
 20
19.33493194715689
 10
45.20133161809877
 20
19.15394372123784
 42
-1.000000001162713
  0
LWPOLYLINE
  5
70
330
18
100
AcDbEntity
  8
0
100
AcDbPolyline
 90
        5
 70
     0
 43
0.0
 10
45.41987161251123
 20
21.84956677765344
 42
0.1274820394234388
 10
45.63126506635833
 20
21.20097319443078
 42
-0.0891271652685308
 10
46.0881354821853
 20
20.09229275923386
 42
-0.1144386721493587
 10
45.55947333935237
 20
19.42242801209802
 10
45.37760580632069
 20
19.3600353215608
 42
-1.000000001162713
  0
LWPOLYLINE
  5
77
330
18
100
AcDbEntity
  8
0
100
AcDbPolyline
 90
        5
 70
     0
 43
0.0
 10
45.40413502936465
 20
21.84978419836994
 42
-0.1274820394234388
 10
45.17490341148866
 20
21.20727840548324
 42
0.0891271652685308
 10
44.68757759915606
 20
20.11164323039952
 42
0.1144386721493587
 10
45.19753143123512
 20
19.4274286954268
 10
45.37760580632069
 20
19.3600353215608
 42
1.000000001162713
  0
LWPOLYLINE
  5
7E
330
18
100
AcDbEntity
  8
0
100
AcDbPolyline
 90
        3
 70
     0
 43
0.0
 10
42.08158929837404
 20
18.92574111623419
 10
42.08158929837404
 20
19.36640811724776
 42
0.3735374977692907
 10
45.19941886525216
 20
22.07336271140746
 42
-1.050286423446176
  0
LWPOLYLINE
  5
83
330
18
100
AcDbEntity
  8
0
100
AcDbPolyline
 90
        5
 70
     0
 43
0.0
 10
48.112542627358
 20
19.16181276376054
 42
-0.1274820394234388
 10
47.46693132806756
 20
19.38214632624147
 42
0.0891271652685308
 10
46.36466833303152
 20
19.85428949734591
 42
0.1144386721493587
 10
45.68756407534168
 20
19.33493194715689
 10
45.62266484975174
 20
19.15394372123784
 42
1.000000001162713
  0
LWPOLYLINE
  5
8A
330
18
100
AcDbEntity
  8
0
100
AcDbPolyline
 90
        3
 70
     0
 43
0.0
 10
48.72666041230451
 20
18.92574111623419
 10
48.72666041230451
 20
19.36640811724776
 42
-0.3735374977692907
 10
45.6088308454264
 20
22.07336271140746
 42
1.050286423446176
  0
DIMENSION
  5
8F
330
18
100
AcDbEntity
  8
ADPDIM
100
AcDbDimension
  2
*D0
 10
41.65466858407889
 20
35.26054883039519
 30
0.0
 11
41.65466858407889
 21
17.26054883039519
 31
0.0
100
AcDbAlignedDimension
 13
45.16274685626462
 23
-0.7394511696048051
 33
0.0
 14
45.16274685626462
 24
35.26054883039519
 34
0.0
 50
90.0
100
AcDbRotatedDimension
  0
LINE
  5
90
330
18
100
AcDbEntity
  8
0
100
AcDbLine
 10
45.66274685626462
 20
15.26912093287981
 30
0.0
 11
45.66274685626462
 21
-0.7394511696048051
 31
0.0
  0
LINE
  5
91
330
18
100
AcDbEntity
  8
0
100
AcDbLine
 10
45.16274685626462
 20
-0.7394511696048051
 30
0.0
 11
45.16274685626462
 21
15.30430582749453
 31
0.0
  0
DIMENSION
  5
92
330
18
100
AcDbEntity
  8
ADPDIM
100
AcDbDimension
  2
*D1
 10
45.66274685626462
 20
-2.645796834768821
 30
0.0
 11
46.18358018959795
 21
-2.645796834768821
 31
0.0
100
AcDbAlignedDimension
 13
45.16274685626462
 23
-2.11202011847446
 33
0.0
 14
45.66274685626462
 24
-2.11202011847446
 34
0.0
100
AcDbRotatedDimension
  0
LWPOLYLINE
  5
93
330
18
100
AcDbEntity
  8
ADP1DETAIL
100
AcDbPolyline
 90
        4
 70
     1
 43
0.0
 10
45.16274685626462
 20
-1.61202011847446
 10
45.16274685626462
 20
-2.11202011847446
 10
45.66274685626462
 20
-2.11202011847446
 10
45.66274685626462
 20
-1.61202011847446
  0
LINE
  5
99
330
18
100
AcDbEntity
  8
0
100
AcDbLine
 10
45.66274685626462
 20
-0.7394511696048051
 30
0.0
 11
45.16274685626462
 21
-0.7394511696048051
 31
0.0
  0
LWPOLYLINE
  5
9A
330
18
100
AcDbEntity
  8
0
100
AcDbPolyline
 90
        3
 70
     0
 43
0.0
 10
48.72666041230451
 20
19.36640811724776
 10
48.72666041230451
 20
18.9257411162342
 42
0.3735374977692907
 10
45.6088308454264
 20
16.21878652207449
 42
-1.050286423446176
  0
LWPOLYLINE
  5
9F
330
18
100
AcDbEntity
  8
0
100
AcDbPolyline
 90
        5
 70
     0
 43
0.0
 10
42.71145384049251
 20
19.14607467871512
 42
-0.1274820394234388
 10
43.35706513978294
 20
18.9257411162342
 42
0.0891271652685308
 10
44.45932813481898
 20
18.45359794512976
 42
0.1144386721493587
 10
45.13643239250883
 20
18.97295549531878
 10
45.20133161809877
 20
19.15394372123784
 42
1.000000001162713
  0
LWPOLYLINE
  5
A6
330
18
100
AcDbEntity
  8
0
100
AcDbPolyline
 90
        2
 70
     0
 43
0.0
 10
45.19941886525216
 20
15.86027244150948
 42
-0.2943005500646925
 10
44.60104765216277
 20
14.93172406039775
 42
4.624546280249882
  0
LWPOLYLINE
  5
AA
330
18
100
AcDbEntity
  8
0
100
AcDbPolyline
 90
        3
 70
     0
 43
0.0
 10
44.58530108030564
 20
14.93172406039775
 42
0.3189501920491757
 10
45.18367229339503
 20
15.35665297636588
 42
0.210066328157394
 10
45.40412485533927
 20
14.93172406039775
 42
2.144473513379494
  0
LWPOLYLINE
  5
AF
330
18
100
AcDbEntity
  8
0
100
AcDbPolyline
 90
        3
 70
     0
 43
0.0
 10
42.08158929837404
 20
19.36640811724776
 10
42.08158929837404
 20
18.9257411162342
 42
-0.3735374977692907
 10
45.19941886525216
 20
16.21878652207449
 42
1.050286423446176
  0
LWPOLYLINE
  5
B4
330
18
100
AcDbEntity
  8
0
100
AcDbPolyline
 90
        5
 70
     0
 43
0.0
 10
45.4041337710514
 20
16.49869773928887
 42
0.1274820394234388
 10
45.18739560196148
 20
17.14552491449609
 42
-0.0891271652685308
 10
44.72139239154956
 20
18.25039770904403
 42
-0.1144386721493587
 10
45.24450910374752
 20
18.92460194081602
 10
45.42585560780763
 20
18.98849319897137
 42
-1.000000001162713
  0
LWPOLYLINE
  5
BB
330
18
100
AcDbEntity
  8
0
100
AcDbPolyline
 90
        4
 70
     0
 43
0.0
 10
45.40412485533927
 20
15.86027244150948
 10
45.6088308454264
 20
15.86027244150948
 42
0.9999999999999998
 10
45.6088308454264
 20
16.23798697839302
 42
0.0383840686344034
 10
45.40412485533927
 20
16.22224889334759
 42
-1.339507463590821
  0
LWPOLYLINE
  5
C1
330
18
100
AcDbEntity
  8
0
100
AcDbPolyline
 90
        3
 70
     0
 43
0.0
 10
46.22294863037291
 20
14.93172406039775
 42
-0.3189501920491757
 10
45.62457741728351
 20
15.35665297636588
 42
-0.210066328157394
 10
45.40412485533927
 20
14.93172406039775
 42
-2.144473513379494
  0
LWPOLYLINE
  5
C6
330
18
100
AcDbEntity
  8
0
100
AcDbPolyline
 90
        2
 70
     0
 43
0.0
 10
45.6088308454264
 20
15.86027244150948
 42
0.2943005500646925
 10
46.20720205851578
 20
14.93172406039775
 42
-4.624546280249882
  0
LWPOLYLINE
  5
CA
330
18
100
AcDbEntity
  8
0
100
AcDbPolyline
 90
        4
 70
     0
 43
0.0
 10
45.40412485533927
 20
15.86027244150948
 10
45.19941886525216
 20
15.86027244150948
 42
-0.9999999999999998
 10
45.19941886525216
 20
16.23798697839302
 42
-0.0383840686344034
 10
45.40412485533927
 20
16.22224889334759
 42
1.339507463590821
  0
LWPOLYLINE
  5
D0
330
18
100
AcDbEntity
  8
0
100
AcDbPolyline
 90
        5
 70
     0
 43
0.0
 10
48.112542627358
 20
19.14607467871512
 42
0.1274820394234388
 10
47.46693132806756
 20
18.9257411162342
 42
-0.0891271652685308
 10
46.36466833303152
 20
18.45359794512976
 42
-0.1144386721493587
 10
45.68756407534168
 20
18.97295549531878
 10
45.62266484975174
 20
19.15394372123784
 42
-1.000000001162713
  0
LWPOLYLINE
  5
D7
330
18
100
AcDbEntity
  8
0
100
AcDbPolyline
 90
        5
 70
     0
 43
0.0
 10
45.41987161251123
 20
16.49861017741233
 42
-0.1274820394234388
 10
45.64379374797505
 20
17.14298561593893
 42
0.0891271652685308
 10
46.12206226461725
 20
18.24260469099866
 42
0.1144386721493587
 10
45.60647995310931
 20
18.92258801489727
 10
45.42585560780763
 20
18.98849319897137
 42
1.000000001162713
  0
LINE
  5
DE
330
18
100
AcDbEntity
  8
0
100
AcDbLine
 10
45.16274685626462
 20
23.04424220019789
 30
0.0
 11
45.16274685626462
 21
35.26054883039519
 31
0.0
  0
LINE
  5
DF
330
18
100
AcDbEntity
  8
0
100
AcDbLine
 10
45.66274685626462
 20
35.26054883039519
 30
0.0
 11
45.66274685626462
 21
23.07942709481261
 31
0.0
  0
LWPOLYLINE
  5
E0
330
18
100
AcDbEntity
  8
0
100
AcDbPolyline
 90
        2
 70
     0
 43
0.0
 10
45.19941886525216
 20
22.43187679197248
 42
0.2943005500646925
 10
44.60104765216277
 20
23.3604251730842
 42
-4.624546280249882
  0
LWPOLYLINE
  5
E4
330
18
100
AcDbEntity
  8
0
100
AcDbPolyline
 90
        3
 70
     0
 43
0.0
 10
44.58530108030564
 20
23.3604251730842
 42
-0.3189501920491757
 10
45.18367229339503
 20
22.93549625711607
 42
-0.210066328157394
 10
45.40412485533927
 20
23.3604251730842
 42
-2.144473513379494
  0
LWPOLYLINE
  5
E9
330
18
100
AcDbEntity
  8
0
100
AcDbPolyline
 90
        2
 70
     0
 43
0.0
 10
45.6088308454264
 20
22.43187679197248
 42
-0.2943005500646925
 10
46.20720205851578
 20
23.3604251730842
 42
4.624546280249882
  0
LWPOLYLINE
  5
ED
330
18
100
AcDbEntity
  8
0
100
AcDbPolyline
 90
        4
 70
     0
 43
0.0
 10
45.40412485533927
 20
22.43187679197248
 10
45.6088308454264
 20
22.43187679197248
 42
-0.9999999999999998
 10
45.6088308454264
 20
22.05416225508893
 42
-0.0383840686344034
 10
45.40412485533927
 20
22.06990034013436
 42
1.339507463590821
  0
LWPOLYLINE
  5
F3
330
18
100
AcDbEntity
  8
0
100
AcDbPolyline
 90
        4
 70
     0
 43
0.0
 10
45.40412485533927
 20
22.43187679197248
 10
45.19941886525216
 20
22.43187679197248
 42
0.9999999999999998
 10
45.19941886525216
 20
22.05416225508893
 42
0.0383840686344034
 10
45.40412485533927
 20
22.06990034013436
 42
-1.339507463590821
  0
LWPOLYLINE
  5
F9
330
18
100
AcDbEntity
  8
0
100
AcDbPolyline
 90
        3
 70
     0
 43
0.0
 10
46.22294863037291
 20
23.3604251730842
 42
0.3189501920491757
 10
45.62457741728351
 20
22.93549625711607
 42
0.210066328157394
 10
45.40412485533927
 20
23.3604251730842
 42
2.144473513379494
  0
LINE
  5
FE
330
18
100
AcDbEntity
  8
0
100
AcDbLine
 10
45.16274685626462
 20
35.26054883039519
 30
0.0
 11
45.66274685626462
 21
35.26054883039519
 31
0.0
  0
TEXT
  5
10C
330
18
100
AcDbEntity
  8
ADPDIM
100
AcDbText
 10
13.22561408086723
 20
-4.247823605766248
 30
0.0
 40
0.625
  1
J U L I U S  B L U M  &  C O . ,  I N C .      ( 8 0 0 )  5 2 6 - 6 2 9 3        W W W . J U L I U S B L U M . C O M        P A R T  N o .  5 2 8
 41
1.25
  7
ARIAL_WIDE
 72
     1
 11
45.3991517684525
 21
-3.622823605766248
 31
0.0
100
AcDbText
 73
     3
  0
ENDSEC
  0
SECTION
  2
OBJECTS
  0
DICTIONARY
  5
C
330
0
100
AcDbDictionary
  3
ACAD_GROUP
350
D
  3
ACAD_LAYOUT
350
105
  3
ACAD_MLINESTYLE
350
E
  3
ACAD_PLOTSETTINGS
350
106
  3
ACAD_PLOTSTYLENAME
350
103
  3
ACDBHEADERROUNDTRIPXREC
350
254
  3
ACDBVARIABLEDICTIONARY
350
166
  0
DICTIONARY
  5
160
330
18
100
AcDbDictionary
280
     1
  3
ACAD_LAYOUTSELFREF
360
275
  0
DICTIONARY
  5
15E
330
15
100
AcDbDictionary
280
     1
  3
ACAD_LAYOUTSELFREF
360
274
  0
DICTIONARY
  5
D
102
{ACAD_REACTORS
330
C
102
}
330
C
100
AcDbDictionary
  0
DICTIONARY
  5
105
102
{ACAD_REACTORS
330
C
102
}
330
C
100
AcDbDictionary
  0
DICTIONARY
  5
E
102
{ACAD_REACTORS
330
C
102
}
330
C
100
AcDbDictionary
  3
STANDARD
350
1B
  0
DICTIONARY
  5
106
102
{ACAD_REACTORS
330
C
102
}
330
C
100
AcDbDictionary
  0
ACDBDICTIONARYWDFLT
  5
103
102
{ACAD_REACTORS
330
C
102
}
330
C
100
AcDbDictionary
281
     1
  3
Normal
350
104
100
AcDbDictionaryWithDefault
340
104
  0
DICTIONARY
  5
254
102
{ACAD_REACTORS
330
C
102
}
330
C
100
AcDbDictionary
  3
CEPSNTYPE
350
25E
  3
FINGERPRINTGUID
350
25F
  3
HYPERLINKBASE
350
257
  3
INSUNITS
350
25D
  3
LAYOUTDICT
350
259
  3
LWETCUNION
350
25C
  3
PLOTSETDICT
350
25A
  3
PLOTSTYLNAMDICT
350
25B
  3
PSVPSCALE
350
261
  3
PUCSBASE
350
264
  3
PUCSORGBACK
350
26A
  3
PUCSORGBOTTOM
350
266
  3
PUCSORGFRONT
350
269
  3
PUCSORGLEFT
350
267
  3
PUCSORGRIGHT
350
268
  3
PUCSORGTOP
350
265
  3
PUCSORTHOREF
350
262
  3
PUCSORTHOVIEW
350
263
  3
STYLESHEET
350
258
  3
TSTACKALIGN
350
255
  3
TSTACKSIZE
350
256
  3
UCSBASE
350
26D
  3
UCSORGBACK
350
273
  3
UCSORGBOTTOM
350
26F
  3
UCSORGFRONT
350
272
  3
UCSORGLEFT
350
270
  3
UCSORGRIGHT
350
271
  3
UCSORGTOP
350
26E
  3
UCSORTHOREF
350
26B
  3
UCSORTHOVIEW
350
26C
  3
VERSIONGUID
350
260
  0
DICTIONARY
  5
166
102
{ACAD_REACTORS
330
C
102
}
330
C
100
AcDbDictionary
  3
DIMASSOC
350
167
  0
XRECORD
  5
275
102
{ACAD_REACTORS
330
160
102
}
330
160
100
AcDbXrecord
340
18
  0
XRECORD
  5
274
102
{ACAD_REACTORS
330
15E
102
}
330
15E
100
AcDbXrecord
340
15
  0
MLINESTYLE
  5
1B
102
{ACAD_REACTORS
330
E
102
}
330
E
100
AcDbMlineStyle
  2
STANDARD
 70
     0
  3

 62
     0
 51
90.0
 52
90.0
 71
     2
 49
0.5
 62
   256
  6
BYLAYER
 49
-0.5
 62
   256
  6
BYLAYER
  0
ACDBPLACEHOLDER
  5
104
102
{ACAD_REACTORS
330
103
102
}
330
103
100
AcDbPlaceHolder
280
     0
  0
XRECORD
  5
25E
102
{ACAD_REACTORS
330
254
102
}
330
254
100
AcDbXrecord
 90
        0
  0
XRECORD
  5
25F
102
{ACAD_REACTORS
330
254
102
}
330
254
100
AcDbXrecord
  1
{F3C12776-2FEA-4EFF-B1DE-86A45458324E}
  0
XRECORD
  5
257
102
{ACAD_REACTORS
330
254
102
}
330
254
100
AcDbXrecord
  1

  0
XRECORD
  5
25D
102
{ACAD_REACTORS
330
254
102
}
330
254
100
AcDbXrecord
 90
        0
  0
XRECORD
  5
259
102
{ACAD_REACTORS
330
254
102
}
330
254
100
AcDbXrecord
340
105
  0
XRECORD
  5
25C
102
{ACAD_REACTORS
330
254
102
}
330
254
100
AcDbXrecord
 90
    14877
  0
XRECORD
  5
25A
102
{ACAD_REACTORS
330
254
102
}
330
254
100
AcDbXrecord
340
106
  0
XRECORD
  5
25B
102
{ACAD_REACTORS
330
254
102
}
330
254
100
AcDbXrecord
340
103
  0
XRECORD
  5
261
102
{ACAD_REACTORS
330
254
102
}
330
254
100
AcDbXrecord
 40
0.0
  0
XRECORD
  5
264
102
{ACAD_REACTORS
330
254
102
}
330
254
100
AcDbXrecord
340
0
  0
XRECORD
  5
26A
102
{ACAD_REACTORS
330
254
102
}
330
254
100
AcDbXrecord
 10
0.0
 20
0.0
 30
0.0
  0
XRECORD
  5
266
102
{ACAD_REACTORS
330
254
102
}
330
254
100
AcDbXrecord
 10
0.0
 20
0.0
 30
0.0
  0
XRECORD
  5
269
102
{ACAD_REACTORS
330
254
102
}
330
254
100
AcDbXrecord
 10
0.0
 20
0.0
 30
0.0
  0
XRECORD
  5
267
102
{ACAD_REACTORS
330
254
102
}
330
254
100
AcDbXrecord
 10
0.0
 20
0.0
 30
0.0
  0
XRECORD
  5
268
102
{ACAD_REACTORS
330
254
102
}
330
254
100
AcDbXrecord
 10
0.0
 20
0.0
 30
0.0
  0
XRECORD
  5
265
102
{ACAD_REACTORS
330
254
102
}
330
254
100
AcDbXrecord
 10
0.0
 20
0.0
 30
0.0
  0
XRECORD
  5
262
102
{ACAD_REACTORS
330
254
102
}
330
254
100
AcDbXrecord
340
0
  0
XRECORD
  5
263
102
{ACAD_REACTORS
330
254
102
}
330
254
100
AcDbXrecord
 70
     0
  0
XRECORD
  5
258
102
{ACAD_REACTORS
330
254
102
}
330
254
100
AcDbXrecord
  1

  0
XRECORD
  5
255
102
{ACAD_REACTORS
330
254
102
}
330
254
100
AcDbXrecord
 90
        1
  0
XRECORD
  5
256
102
{ACAD_REACTORS
330
254
102
}
330
254
100
AcDbXrecord
 90
       70
  0
XRECORD
  5
26D
102
{ACAD_REACTORS
330
254
102
}
330
254
100
AcDbXrecord
340
0
  0
XRECORD
  5
273
102
{ACAD_REACTORS
330
254
102
}
330
254
100
AcDbXrecord
 10
0.0
 20
0.0
 30
0.0
  0
XRECORD
  5
26F
102
{ACAD_REACTORS
330
254
102
}
330
254
100
AcDbXrecord
 10
0.0
 20
0.0
 30
0.0
  0
XRECORD
  5
272
102
{ACAD_REACTORS
330
254
102
}
330
254
100
AcDbXrecord
 10
0.0
 20
0.0
 30
0.0
  0
XRECORD
  5
270
102
{ACAD_REACTORS
330
254
102
}
330
254
100
AcDbXrecord
 10
0.0
 20
0.0
 30
0.0
  0
XRECORD
  5
271
102
{ACAD_REACTORS
330
254
102
}
330
254
100
AcDbXrecord
 10
0.0
 20
0.0
 30
0.0
  0
XRECORD
  5
26E
102
{ACAD_REACTORS
330
254
102
}
330
254
100
AcDbXrecord
 10
0.0
 20
0.0
 30
0.0
  0
XRECORD
  5
26B
102
{ACAD_REACTORS
330
254
102
}
330
254
100
AcDbXrecord
340
0
  0
XRECORD
  5
26C
102
{ACAD_REACTORS
330
254
102
}
330
254
100
AcDbXrecord
 70
     0
  0
XRECORD
  5
260
102
{ACAD_REACTORS
330
254
102
}
330
254
100
AcDbXrecord
  1
{F511B27D-8787-4DC4-A931-FACDAC386D47}
  0
DICTIONARYVAR
  5
167
102
{ACAD_REACTORS
330
166
102
}
330
166
100
DictionaryVariables
280
     0
  1
1
  0
ENDSEC
  0
EOF
