  0
SECTION
  2
HEADER
  9
$ACADVER
  1
AC1015
  9
$ACADMAINTVER
 70
    18
  9
$DWGCODEPAGE
  3
ANSI_1252
  9
$INSBASE
 10
0.0
 20
0.0
 30
0.0
  9
$EXTMIN
 10
1.000000000000000E+20
 20
1.000000000000000E+20
 30
1.000000000000000E+20
  9
$EXTMAX
 10
0.0
 20
0.0
 30
0.0
  9
$LIMMIN
 10
85.57203776041665
 20
185.8785766601562
  9
$LIMMAX
 10
90.46958550347222
 20
200.8869628906249
  9
$ORTHOMODE
 70
     0
  9
$REGENMODE
 70
     1
  9
$FILLMODE
 70
     1
  9
$QTEXTMODE
 70
     0
  9
$MIRRTEXT
 70
     1
  9
$LTSCALE
 40
1.0
  9
$ATTMODE
 70
     1
  9
$TEXTSIZE
 40
0.0
  9
$TRACEWID
 40
0.05
  9
$TEXTSTYLE
  7
Standard
  9
$CLAYER
  8
0
  9
$CELTYPE
  6
Continuous
  9
$CECOLOR
 62
   256
  9
$CELTSCALE
 40
1.0
  9
$DISPSILH
 70
     0
  9
$DIMSCALE
 40
1.0
  9
$DIMASZ
 40
0.18
  9
$DIMEXO
 40
0.0625
  9
$DIMDLI
 40
0.38
  9
$DIMRND
 40
0.0
  9
$DIMDLE
 40
0.0
  9
$DIMEXE
 40
0.18
  9
$DIMTP
 40
0.0
  9
$DIMTM
 40
0.0
  9
$DIMTXT
 40
0.18
  9
$DIMCEN
 40
0.09
  9
$DIMTSZ
 40
0.0
  9
$DIMTOL
 70
     0
  9
$DIMLIM
 70
     0
  9
$DIMTIH
 70
     1
  9
$DIMTOH
 70
     1
  9
$DIMSE1
 70
     0
  9
$DIMSE2
 70
     0
  9
$DIMTAD
 70
     0
  9
$DIMZIN
 70
     0
  9
$DIMBLK
  1

  9
$DIMASO
 70
     1
  9
$DIMSHO
 70
     1
  9
$DIMPOST
  1

  9
$DIMAPOST
  1

  9
$DIMALT
 70
     0
  9
$DIMALTD
 70
     2
  9
$DIMALTF
 40
25.4
  9
$DIMLFAC
 40
1.0
  9
$DIMTOFL
 70
     0
  9
$DIMTVP
 40
0.0
  9
$DIMTIX
 70
     0
  9
$DIMSOXD
 70
     0
  9
$DIMSAH
 70
     0
  9
$DIMBLK1
  1

  9
$DIMBLK2
  1

  9
$DIMSTYLE
  2
Standard
  9
$DIMCLRD
 70
     0
  9
$DIMCLRE
 70
     0
  9
$DIMCLRT
 70
     0
  9
$DIMTFAC
 40
1.0
  9
$DIMGAP
 40
0.09
  9
$DIMJUST
 70
     0
  9
$DIMSD1
 70
     0
  9
$DIMSD2
 70
     0
  9
$DIMTOLJ
 70
     1
  9
$DIMTZIN
 70
     0
  9
$DIMALTZ
 70
     0
  9
$DIMALTTZ
 70
     0
  9
$DIMUPT
 70
     0
  9
$DIMDEC
 70
     4
  9
$DIMTDEC
 70
     4
  9
$DIMALTU
 70
     2
  9
$DIMALTTD
 70
     2
  9
$DIMTXSTY
  7
Standard
  9
$DIMAUNIT
 70
     0
  9
$DIMADEC
 70
     0
  9
$DIMALTRND
 40
0.0
  9
$DIMAZIN
 70
     0
  9
$DIMDSEP
 70
     0
  9
$DIMATFIT
 70
     3
  9
$DIMFRAC
 70
     0
  9
$DIMLDRBLK
  1

  9
$DIMLUNIT
 70
     2
  9
$DIMLWD
 70
     0
  9
$DIMLWE
 70
     0
  9
$DIMTMOVE
 70
     0
  9
$LUNITS
 70
     2
  9
$LUPREC
 70
     4
  9
$SKETCHINC
 40
0.1
  9
$FILLETRAD
 40
0.0
  9
$AUNITS
 70
     0
  9
$AUPREC
 70
     0
  9
$MENU
  1
acad
  9
$ELEVATION
 40
0.0
  9
$PELEVATION
 40
0.0
  9
$THICKNESS
 40
0.0
  9
$LIMCHECK
 70
     0
  9
$CHAMFERA
 40
0.0
  9
$CHAMFERB
 40
0.0
  9
$CHAMFERC
 40
0.0
  9
$CHAMFERD
 40
0.0
  9
$SKPOLY
 70
     0
  9
$TDCREATE
 40
2454257.580754120
  9
$TDUCREATE
 40
2454257.747420787
  9
$TDUPDATE
 40
2454263.503279260
  9
$TDUUPDATE
 40
2454263.669945926
  9
$TDINDWG
 40
0.0367936227
  9
$TDUSRTIMER
 40
0.0367936227
  9
$USRTIMER
 70
     1
  9
$ANGBASE
 50
0.0
  9
$ANGDIR
 70
     0
  9
$PDMODE
 70
     0
  9
$PDSIZE
 40
0.0
  9
$PLINEWID
 40
0.0
  9
$SPLFRAME
 70
     0
  9
$SPLINETYPE
 70
     6
  9
$SPLINESEGS
 70
     8
  9
$HANDSEED
  5
65
  9
$SURFTAB1
 70
     6
  9
$SURFTAB2
 70
     6
  9
$SURFTYPE
 70
     6
  9
$SURFU
 70
     6
  9
$SURFV
 70
     6
  9
$UCSBASE
  2

  9
$UCSNAME
  2

  9
$UCSORG
 10
0.0
 20
0.0
 30
0.0
  9
$UCSXDIR
 10
1.0
 20
0.0
 30
0.0
  9
$UCSYDIR
 10
0.0
 20
1.0
 30
0.0
  9
$UCSORTHOREF
  2

  9
$UCSORTHOVIEW
 70
     0
  9
$UCSORGTOP
 10
0.0
 20
0.0
 30
0.0
  9
$UCSORGBOTTOM
 10
0.0
 20
0.0
 30
0.0
  9
$UCSORGLEFT
 10
0.0
 20
0.0
 30
0.0
  9
$UCSORGRIGHT
 10
0.0
 20
0.0
 30
0.0
  9
$UCSORGFRONT
 10
0.0
 20
0.0
 30
0.0
  9
$UCSORGBACK
 10
0.0
 20
0.0
 30
0.0
  9
$PUCSBASE
  2

  9
$PUCSNAME
  2

  9
$PUCSORG
 10
0.0
 20
0.0
 30
0.0
  9
$PUCSXDIR
 10
1.0
 20
0.0
 30
0.0
  9
$PUCSYDIR
 10
0.0
 20
1.0
 30
0.0
  9
$PUCSORTHOREF
  2

  9
$PUCSORTHOVIEW
 70
     0
  9
$PUCSORGTOP
 10
0.0
 20
0.0
 30
0.0
  9
$PUCSORGBOTTOM
 10
0.0
 20
0.0
 30
0.0
  9
$PUCSORGLEFT
 10
0.0
 20
0.0
 30
0.0
  9
$PUCSORGRIGHT
 10
0.0
 20
0.0
 30
0.0
  9
$PUCSORGFRONT
 10
0.0
 20
0.0
 30
0.0
  9
$PUCSORGBACK
 10
0.0
 20
0.0
 30
0.0
  9
$USERI1
 70
     0
  9
$USERI2
 70
     0
  9
$USERI3
 70
     0
  9
$USERI4
 70
     0
  9
$USERI5
 70
     0
  9
$USERR1
 40
0.0
  9
$USERR2
 40
0.0
  9
$USERR3
 40
0.0
  9
$USERR4
 40
0.0
  9
$USERR5
 40
0.0
  9
$WORLDVIEW
 70
     1
  9
$SHADEDGE
 70
     3
  9
$SHADEDIF
 70
    70
  9
$TILEMODE
 70
     1
  9
$MAXACTVP
 70
    16
  9
$PINSBASE
 10
0.0
 20
0.0
 30
0.0
  9
$PLIMCHECK
 70
     0
  9
$PEXTMIN
 10
1.000000000000000E+20
 20
1.000000000000000E+20
 30
1.000000000000000E+20
  9
$PEXTMAX
 10
-1.000000000000000E+20
 20
-1.000000000000000E+20
 30
-1.000000000000000E+20
  9
$PLIMMIN
 10
0.0
 20
0.0
  9
$PLIMMAX
 10
12.0
 20
9.0
  9
$UNITMODE
 70
     0
  9
$VISRETAIN
 70
     0
  9
$PLINEGEN
 70
     1
  9
$PSLTSCALE
 70
     0
  9
$TREEDEPTH
 70
  3020
  9
$CMLSTYLE
  2
Standard
  9
$CMLJUST
 70
     0
  9
$CMLSCALE
 40
1.0
  9
$PROXYGRAPHICS
 70
     0
  9
$MEASUREMENT
 70
     1
  9
$CELWEIGHT
370
    -1
  9
$ENDCAPS
280
     0
  9
$JOINSTYLE
280
     0
  9
$LWDISPLAY
290
     0
  9
$INSUNITS
 70
     0
  9
$HYPERLINKBASE
  1

  9
$STYLESHEET
  1

  9
$XEDIT
290
     1
  9
$CEPSNTYPE
380
     0
  9
$PSTYLEMODE
290
     1
  9
$FINGERPRINTGUID
  2

  9
$VERSIONGUID
  2
{F206996A-8797-4E0F-8530-96B48939A2B8}
  9
$EXTNAMES
290
     1
  9
$PSVPSCALE
 40
0.0
  9
$OLESTARTUP
290
     0
  0
ENDSEC
  0
SECTION
  2
CLASSES
  0
CLASS
  1
IMAGE
  2
AcDbRasterImage
  3
ISM
 90
    32895
280
     0
281
     1
  0
CLASS
  1
DICTIONARYVAR
  2
AcDbDictionaryVar
  3
ObjectDBX Classes
 90
        0
280
     0
281
     0
  0
CLASS
  1
RASTERVARIABLES
  2
AcDbRasterVariables
  3
ISM
 90
    32768
280
     0
281
     0
  0
CLASS
  1
IMAGEDEF
  2
AcDbRasterImageDef
  3
ISM
 90
    32768
280
     0
281
     0
  0
CLASS
  1
IMAGEDEF_REACTOR
  2
AcDbRasterImageDefReactor
  3
ISM
 90
    32769
280
     0
281
     0
  0
CLASS
  1
IDBUFFER
  2
AcDbIdBuffer
  3
ObjectDBX Classes
 90
    32768
280
     0
281
     0
  0
CLASS
  1
SPATIAL_FILTER
  2
AcDbSpatialFilter
  3
ObjectDBX Classes
 90
    32768
280
     0
281
     0
  0
CLASS
  1
SORTENTSTABLE
  2
AcDbSortentsTable
  3
ObjectDBX Classes
 90
    32768
280
     0
281
     0
  0
CLASS
  1
LAYER_INDEX
  2
AcDbLayerIndex
  3
ObjectDBX Classes
 90
    32768
280
     0
281
     0
  0
CLASS
  1
SPATIAL_INDEX
  2
AcDbSpatialIndex
  3
ObjectDBX Classes
 90
    32768
280
     0
281
     0
  0
CLASS
  1
OBJECT_PTR
  2
CAseDLPNTableRecord
  3
ASE-LPNTableRecord
 90
    32769
280
     0
281
     0
  0
CLASS
  1
LAYOUT
  2
AcDbLayout
  3
ObjectDBX Classes
 90
        0
280
     0
281
     0
  0
CLASS
  1
PLOTSETTINGS
  2
AcDbPlotSettings
  3
ObjectDBX Classes
 90
    32768
280
     0
281
     0
  0
CLASS
  1
ACDBDICTIONARYWDFLT
  2
AcDbDictionaryWithDefault
  3
ObjectDBX Classes
 90
        0
280
     0
281
     0
  0
CLASS
  1
ACDBPLACEHOLDER
  2
AcDbPlaceHolder
  3
ObjectDBX Classes
 90
        0
280
     0
281
     0
  0
CLASS
  1
VBA_PROJECT
  2
AcDbVbaProject
  3
acad
 90
    32768
280
     0
281
     0
  0
CLASS
  1
WIPEOUT
  2
AcDbWipeout
  3
"WipeOut|Product Desc: Object Enabler for WipeOut entity^I^I^I^I^I^I|Company: Autodesk, Inc.^I^I^I^I^I^I|WEB Address: www.autodesk.com"
 90
    32895
280
     0
281
     1
  0
CLASS
  1
WIPEOUTVARIABLES
  2
AcDbWipeoutVariables
  3
"WipeOut|Product Desc:     WipeOut Dbx Application|Company:          Autodesk, Inc.|WEB Address:      www.autodesk.com"
 90
    32768
280
     0
281
     0
  0
CLASS
  1
RTEXT
  2
RText
  3
RText|AutoCAD Express Tool|expresstools@autodesk.com
 90
    32768
280
     1
281
     1
  0
CLASS
  1
ARCALIGNEDTEXT
  2
AcDbArcAlignedText
  3
ATEXT|AutoCAD Express Tool|expresstools@autodesk.com
 90
    32768
280
     1
281
     1
  0
ENDSEC
  0
SECTION
  2
TABLES
  0
TABLE
  2
VPORT
  5
4E
330
0
100
AcDbSymbolTable
 70
     1
  0
VPORT
  5
4F
330
4E
100
AcDbSymbolTableRecord
100
AcDbViewportTableRecord
  2
*Active
 70
     0
 10
0.0
 20
0.0
 11
1.0
 21
1.0
 12
87.18170945263517
 22
188.39637872716
 13
0.0
 23
0.0
 14
1.0
 24
1.0
 15
0.0
 25
0.0
 16
0.0
 26
0.0
 36
1.0
 17
0.0
 27
0.0
 37
0.0
 40
13.60808389226426
 41
1.974155069582504
 42
50.0
 43
0.0
 44
0.0
 50
0.0
 51
0.0
 71
     0
 72
   100
 73
     1
 74
     1
 75
     0
 76
     0
 77
     0
 78
     0
281
     0
 65
     0
110
0.0
120
0.0
130
0.0
111
1.0
121
0.0
131
0.0
112
0.0
122
1.0
132
0.0
 79
     0
146
0.0
  0
ENDTAB
  0
TABLE
  2
LTYPE
  5
49
330
0
100
AcDbSymbolTable
 70
     1
  0
LTYPE
  5
4A
330
49
100
AcDbSymbolTableRecord
100
AcDbLinetypeTableRecord
  2
ByBlock
 70
     0
  3

 72
    65
 73
     0
 40
0.0
  0
LTYPE
  5
4B
330
49
100
AcDbSymbolTableRecord
100
AcDbLinetypeTableRecord
  2
ByLayer
 70
     0
  3

 72
    65
 73
     0
 40
0.0
  0
LTYPE
  5
8
330
49
100
AcDbSymbolTableRecord
100
AcDbLinetypeTableRecord
  2
Continuous
 70
     0
  3
Solid line
 72
    65
 73
     0
 40
0.0
  0
ENDTAB
  0
TABLE
  2
LAYER
  5
46
330
0
100
AcDbSymbolTable
 70
     4
  0
LAYER
  5
4
330
46
100
AcDbSymbolTableRecord
100
AcDbLayerTableRecord
  2
0
 70
     0
 62
     7
  6
Continuous
370
    -3
390
5
  0
LAYER
  5
A
330
46
100
AcDbSymbolTableRecord
100
AcDbLayerTableRecord
  2
ADP1DETAIL
 70
     0
 62
     1
  6
Continuous
370
    -3
390
5
  0
LAYER
  5
1D
330
46
100
AcDbSymbolTableRecord
100
AcDbLayerTableRecord
  2
ADPDIM
 70
     0
 62
     3
  6
Continuous
370
    -3
390
5
  0
LAYER
  5
2D
330
46
100
AcDbSymbolTableRecord
100
AcDbLayerTableRecord
  2
Defpoints
 70
     0
 62
     7
  6
Continuous
290
     0
370
    -3
390
5
  0
ENDTAB
  0
TABLE
  2
STYLE
  5
47
330
0
100
AcDbSymbolTable
 70
     2
  0
STYLE
  5
21
330
47
100
AcDbSymbolTableRecord
100
AcDbTextStyleTableRecord
  2
Standard
 70
     0
 40
0.0
 41
1.0
 50
0.0
 71
     0
 42
0.0
  3
txt
  4

  0
STYLE
  5
1E
330
47
100
AcDbSymbolTableRecord
100
AcDbTextStyleTableRecord
  2
ARIAL_WIDE
 70
     0
 40
0.0
 41
1.25
 50
0.0
 71
     0
 42
0.2
  3
ARIAL.TTF
  4

1001
ACAD
1000
Arial
1071
       34
  0
ENDTAB
  0
TABLE
  2
VIEW
  5
4C
330
0
100
AcDbSymbolTable
 70
     0
  0
ENDTAB
  0
TABLE
  2
UCS
  5
4D
330
0
100
AcDbSymbolTable
 70
     0
  0
ENDTAB
  0
TABLE
  2
APPID
  5
50
330
0
100
AcDbSymbolTable
 70
     1
  0
APPID
  5
1F
330
50
100
AcDbSymbolTableRecord
100
AcDbRegAppTableRecord
  2
ACAD
 70
     0
  0
ENDTAB
  0
TABLE
  2
DIMSTYLE
  5
51
330
0
100
AcDbSymbolTable
 70
     1
100
AcDbDimStyleTable
 71
     0
  0
DIMSTYLE
105
22
102
{ACAD_REACTORS
330
20
330
31
102
}
330
51
100
AcDbSymbolTableRecord
100
AcDbDimStyleTableRecord
  2
Standard
 70
     0
340
21
  0
ENDTAB
  0
TABLE
  2
BLOCK_RECORD
  5
1
330
0
100
AcDbSymbolTable
 70
     2
  0
BLOCK_RECORD
  5
2
330
1
100
AcDbSymbolTableRecord
100
AcDbBlockTableRecord
  2
*MODEL_SPACE
340
40
  0
BLOCK_RECORD
  5
42
330
1
100
AcDbSymbolTableRecord
100
AcDbBlockTableRecord
  2
*PAPER_SPACE
340
45
  0
BLOCK_RECORD
  5
23
330
1
100
AcDbSymbolTableRecord
100
AcDbBlockTableRecord
  2
*D0
340
0
  0
BLOCK_RECORD
  5
32
330
1
100
AcDbSymbolTableRecord
100
AcDbBlockTableRecord
  2
*D1
340
0
  0
ENDTAB
  0
ENDSEC
  0
SECTION
  2
BLOCKS
  0
BLOCK
  5
3
330
2
100
AcDbEntity
  8
0
100
AcDbBlockBegin
  2
*MODEL_SPACE
 70
     0
 10
0.0
 20
0.0
 30
0.0
  3
*MODEL_SPACE
  1

  0
ENDBLK
  5
3F
330
2
100
AcDbEntity
  8
0
100
AcDbBlockEnd
  0
BLOCK
  5
43
330
42
100
AcDbEntity
 67
     1
  8
0
100
AcDbBlockBegin
  2
*PAPER_SPACE
 70
     0
 10
0.0
 20
0.0
 30
0.0
  3
*PAPER_SPACE
  1

  0
ENDBLK
  5
44
330
42
100
AcDbEntity
 67
     1
  8
0
100
AcDbBlockEnd
  0
BLOCK
  5
24
330
23
100
AcDbEntity
  8
0
370
     0
100
AcDbBlockBegin
  2
*D0
 70
     1
 10
0.0
 20
0.0
 30
0.0
  3
*D0
  1

  0
LINE
  5
25
330
23
100
AcDbEntity
  8
0
  6
Continuous
 62
     0
370
     0
100
AcDbLine
 10
86.22843331300392
 20
187.3079646169706
 30
0.0
 11
85.09255926236987
 21
187.3079646169706
 31
0.0
  0
LINE
  5
26
330
23
100
AcDbEntity
  8
0
  6
Continuous
 62
     0
370
     0
100
AcDbLine
 10
88.79085478236325
 20
191.0697602960873
 30
0.0
 11
85.09255926236987
 21
191.0697602960873
 31
0.0
  0
LINE
  5
27
330
23
100
AcDbEntity
  8
0
  6
Continuous
 62
     0
370
     0
100
AcDbLine
 10
85.27255926236987
 20
187.4879646169707
 30
0.0
 11
85.27255926236987
 21
189.008862456529
 31
0.0
  0
LINE
  5
28
330
23
100
AcDbEntity
  8
0
  6
Continuous
 62
     0
370
     0
100
AcDbLine
 10
85.27255926236987
 20
190.8897602960873
 30
0.0
 11
85.27255926236987
 21
189.368862456529
 31
0.0
  0
SOLID
  5
29
330
23
100
AcDbEntity
  8
0
  6
Continuous
 62
     0
370
     0
100
AcDbTrace
 10
85.24255926236987
 20
187.4879646169707
 30
0.0
 11
85.30255926236987
 21
187.4879646169707
 31
0.0
 12
85.27255926236987
 22
187.3079646169706
 32
0.0
 13
85.27255926236987
 23
187.3079646169706
 33
0.0
  0
SOLID
  5
2A
330
23
100
AcDbEntity
  8
0
  6
Continuous
 62
     0
370
     0
100
AcDbTrace
 10
85.24255926236987
 20
190.8897602960873
 30
0.0
 11
85.30255926236987
 21
190.8897602960873
 31
0.0
 12
85.27255926236987
 22
191.0697602960873
 32
0.0
 13
85.27255926236987
 23
191.0697602960873
 33
0.0
  0
MTEXT
  5
2B
330
23
100
AcDbEntity
  8
0
  6
Continuous
 62
     0
370
     0
100
AcDbMText
 10
85.27255926236984
 20
189.188862456529
 30
0.0
 40
0.18
 41
0.0
 71
     5
 72
     1
  1
\A1;3 3/4"
 73
     1
 44
1.0
1001
ACAD
1000
MTEXTBEGIN
1070
    73
1070
     1
1070
    44
1040
1.0
1070
    74
1070
     0
1000
MTEXTEND
  0
POINT
  5
2C
330
23
100
AcDbEntity
  8
Defpoints
  6
Continuous
 62
     0
370
     0
100
AcDbPoint
 10
86.29093331300394
 20
187.3079646169706
 30
0.0
  0
POINT
  5
2E
330
23
100
AcDbEntity
  8
Defpoints
  6
Continuous
 62
     0
370
     0
100
AcDbPoint
 10
88.85335478236326
 20
191.0697602960873
 30
0.0
  0
POINT
  5
2F
330
23
100
AcDbEntity
  8
Defpoints
  6
Continuous
 62
     0
370
     0
100
AcDbPoint
 10
85.27255926236987
 20
191.0697602960873
 30
0.0
  0
ENDBLK
  5
30
330
23
100
AcDbEntity
  8
0
370
     0
100
AcDbBlockEnd
  0
BLOCK
  5
33
330
32
100
AcDbEntity
  8
0
370
     0
100
AcDbBlockBegin
  2
*D1
 70
     1
 10
0.0
 20
0.0
 30
0.0
  3
*D1
  1

  0
LINE
  5
34
330
32
100
AcDbEntity
  8
0
  6
Continuous
 62
     0
370
     0
100
AcDbLine
 10
86.29418447928193
 20
187.2439585379294
 30
0.0
 11
86.29418447928193
 21
186.1740202327094
 31
0.0
  0
LINE
  5
35
330
32
100
AcDbEntity
  8
0
  6
Continuous
 62
     0
370
     0
100
AcDbLine
 10
90.53449380329302
 20
188.9214383104594
 30
0.0
 11
90.53449380329302
 21
186.1740202327094
 31
0.0
  0
LINE
  5
36
330
32
100
AcDbEntity
  8
0
  6
Continuous
 62
     0
370
     0
100
AcDbLine
 10
86.47418447928194
 20
186.3540202327094
 30
0.0
 11
87.87433914128747
 21
186.3540202327094
 31
0.0
  0
LINE
  5
37
330
32
100
AcDbEntity
  8
0
  6
Continuous
 62
     0
370
     0
100
AcDbLine
 10
90.35449380329302
 20
186.3540202327094
 30
0.0
 11
88.9543391412875
 21
186.3540202327094
 31
0.0
  0
SOLID
  5
38
330
32
100
AcDbEntity
  8
0
  6
Continuous
 62
     0
370
     0
100
AcDbTrace
 10
86.47418447928194
 20
186.3840202327094
 30
0.0
 11
86.47418447928194
 21
186.3240202327094
 31
0.0
 12
86.29418447928193
 22
186.3540202327094
 32
0.0
 13
86.29418447928193
 23
186.3540202327094
 33
0.0
  0
SOLID
  5
39
330
32
100
AcDbEntity
  8
0
  6
Continuous
 62
     0
370
     0
100
AcDbTrace
 10
90.35449380329302
 20
186.3840202327094
 30
0.0
 11
90.35449380329302
 21
186.3240202327094
 31
0.0
 12
90.53449380329302
 22
186.3540202327094
 32
0.0
 13
90.53449380329302
 23
186.3540202327094
 33
0.0
  0
MTEXT
  5
3A
330
32
100
AcDbEntity
  8
0
  6
Continuous
 62
     0
370
     0
100
AcDbMText
 10
88.41433914128748
 20
186.3540202327094
 30
0.0
 40
0.18
 41
0.0
 71
     5
 72
     1
  1
\A1;4 1/4"
 73
     1
 44
1.0
1001
ACAD
1000
MTEXTBEGIN
1070
    73
1070
     1
1070
    44
1040
1.0
1070
    74
1070
     0
1000
MTEXTEND
  0
POINT
  5
3B
330
32
100
AcDbEntity
  8
Defpoints
  6
Continuous
 62
     0
370
     0
100
AcDbPoint
 10
86.29418447928193
 20
187.3064585379294
 30
0.0
  0
POINT
  5
3C
330
32
100
AcDbEntity
  8
Defpoints
  6
Continuous
 62
     0
370
     0
100
AcDbPoint
 10
90.53449380329302
 20
188.9839383104594
 30
0.0
  0
POINT
  5
3D
330
32
100
AcDbEntity
  8
Defpoints
  6
Continuous
 62
     0
370
     0
100
AcDbPoint
 10
90.53449380329302
 20
186.3540202327094
 30
0.0
  0
ENDBLK
  5
3E
330
32
100
AcDbEntity
  8
0
370
     0
100
AcDbBlockEnd
  0
ENDSEC
  0
SECTION
  2
ENTITIES
  0
SPLINE
  5
9
330
2
100
AcDbEntity
  8
ADP1DETAIL
 62
     7
100
AcDbSpline
210
0.0
220
0.0
230
1.0
 70
     8
 71
     3
 72
    38
 73
    34
 74
     0
 42
0.0000000001
 43
0.0000000001
 40
0.0
 40
0.0
 40
0.0
 40
0.0
 40
1.0
 40
1.0
 40
1.0
 40
2.0
 40
2.0
 40
2.0
 40
3.0
 40
3.0
 40
3.0
 40
4.0
 40
4.0
 40
4.0
 40
5.0
 40
5.0
 40
5.0
 40
6.0
 40
6.0
 40
6.0
 40
7.0
 40
7.0
 40
7.0
 40
8.0
 40
8.0
 40
8.0
 40
9.0
 40
9.0
 40
9.0
 40
10.0
 40
10.0
 40
10.0
 40
11.0
 40
11.0
 40
11.0
 40
11.0
 10
89.86940659724984
 20
187.8828443187245
 30
0.0
 10
89.86940659724984
 20
187.8828443187245
 30
0.0
 10
89.54332830948944
 20
187.6890576976307
 30
0.0
 10
89.26014146053111
 20
187.9004143057036
 30
0.0
 10
89.26014146053111
 20
187.9004143057036
 30
0.0
 10
88.92200533856929
 20
188.1575906837418
 30
0.0
 10
89.02983682728457
 20
188.5244933530126
 30
0.0
 10
89.02983682728457
 20
188.5244933530126
 30
0.0
 10
89.05963690323943
 20
188.6908914649918
 30
0.0
 10
88.86257744143389
 20
188.8497103669015
 30
0.0
 10
88.66551797962832
 20
189.0085292688113
 30
0.0
 10
88.09139281686791
 20
189.1680371898182
 30
0.0
 10
88.01146660159012
 20
188.5699686134293
 30
0.0
 10
88.01146660159012
 20
188.5699686134293
 30
0.0
 10
88.1005223199061
 20
188.6113097592627
 30
0.0
 10
88.1935398980311
 20
188.5660067536203
 30
0.0
 10
88.28655747615611
 20
188.5207037479779
 30
0.0
 10
88.29999334855193
 20
188.3591287696793
 30
0.0
 10
88.29999334855193
 20
188.3591287696793
 30
0.0
 10
88.29999334855193
 20
188.3591287696793
 30
0.0
 10
88.30877834204152
 20
188.0876552453738
 30
0.0
 10
88.42763413631235
 20
187.9307311459814
 30
0.0
 10
88.56716050349985
 20
187.7465907922488
 30
0.0
 10
88.7547459527186
 20
187.7266092384293
 30
0.0
 10
88.77713907337833
 20
187.7188577735856
 30
0.0
 10
88.79935993926373
 20
187.7114508182905
 30
0.0
 10
88.5874865668679
 20
187.6546067427696
 30
0.0
 10
88.51307250436791
 20
187.4919982358252
 30
0.0
 10
88.4388306966422
 20
187.3293897288807
 30
0.0
 10
88.4166098307568
 20
187.1404262414675
 30
0.0
 10
88.56147609594776
 20
186.9702385244536
 30
0.0
 10
88.70651461591306
 20
186.7998785526654
 30
0.0
 10
88.97023667537485
 20
186.7621547570925
 30
0.0
 10
89.17849269751027
 20
186.8718810483251
 30
0.0
  0
SPLINE
  5
B
330
2
100
AcDbEntity
  8
ADP1DETAIL
 62
     7
100
AcDbSpline
210
0.0
220
0.0
230
1.0
 70
     8
 71
     3
 72
    11
 73
     7
 74
     0
 42
0.0000000001
 43
0.0000000001
 40
0.0
 40
0.0
 40
0.0
 40
0.0
 40
1.0
 40
1.0
 40
1.0
 40
2.0
 40
2.0
 40
2.0
 40
2.0
 10
90.01478962676374
 20
187.8852558855647
 30
0.0
 10
90.01478962676374
 20
187.8852558855647
 30
0.0
 10
89.56296535376026
 20
187.4959600956342
 30
0.0
 10
88.97781588544431
 20
187.8247944597835
 30
0.0
 10
88.5874865668679
 20
188.0440747874745
 30
0.0
 10
88.71960597876027
 20
188.326228107787
 30
0.0
 10
88.53598238935054
 20
188.5579107792279
 30
0.0
  0
SPLINE
  5
C
330
2
100
AcDbEntity
  8
ADP1DETAIL
 62
     7
100
AcDbSpline
210
0.0
220
0.0
230
1.0
 70
     8
 71
     3
 72
    11
 73
     7
 74
     0
 42
0.0000000001
 43
0.0000000001
 40
0.0
 40
0.0
 40
0.0
 40
0.0
 40
1.0
 40
1.0
 40
1.0
 40
2.0
 40
2.0
 40
2.0
 40
2.0
 10
89.05601955297901
 20
188.629568765339
 30
0.0
 10
89.05601955297901
 20
188.629568765339
 30
0.0
 10
89.13870184464569
 20
188.8640075131689
 30
0.0
 10
89.43756387806583
 20
188.8640075131689
 30
0.0
 10
89.69318996313527
 20
188.8640075131689
 30
0.0
 10
89.77587225480194
 20
188.6478277714154
 30
0.0
 10
89.78310695532277
 20
188.6185444597835
 30
0.0
  0
SPLINE
  5
D
330
2
100
AcDbEntity
  8
ADP1DETAIL
 62
     7
100
AcDbSpline
210
0.0
220
0.0
230
1.0
 70
    11
 71
     3
 72
   101
 73
    97
 74
     0
 42
0.0000000001
 43
0.0000000001
 40
0.0
 40
0.0
 40
0.0
 40
0.0
 40
1.0
 40
1.0
 40
1.0
 40
2.0
 40
2.0
 40
2.0
 40
3.0
 40
3.0
 40
3.0
 40
4.0
 40
4.0
 40
4.0
 40
5.0
 40
5.0
 40
5.0
 40
6.0
 40
6.0
 40
6.0
 40
7.0
 40
7.0
 40
7.0
 40
8.0
 40
8.0
 40
8.0
 40
9.0
 40
9.0
 40
9.0
 40
10.0
 40
10.0
 40
10.0
 40
11.0
 40
11.0
 40
11.0
 40
12.0
 40
12.0
 40
12.0
 40
13.0
 40
13.0
 40
13.0
 40
14.0
 40
14.0
 40
14.0
 40
15.0
 40
15.0
 40
15.0
 40
16.0
 40
16.0
 40
16.0
 40
17.0
 40
17.0
 40
17.0
 40
18.0
 40
18.0
 40
18.0
 40
19.0
 40
19.0
 40
19.0
 40
20.0
 40
20.0
 40
20.0
 40
21.0
 40
21.0
 40
21.0
 40
22.0
 40
22.0
 40
22.0
 40
23.0
 40
23.0
 40
23.0
 40
24.0
 40
24.0
 40
24.0
 40
25.0
 40
25.0
 40
25.0
 40
26.0
 40
26.0
 40
26.0
 40
27.0
 40
27.0
 40
27.0
 40
28.0
 40
28.0
 40
28.0
 40
29.0
 40
29.0
 40
29.0
 40
30.0
 40
30.0
 40
30.0
 40
31.0
 40
31.0
 40
31.0
 40
32.0
 40
32.0
 40
32.0
 40
32.0
 10
89.01209458553109
 20
186.7805860179432
 30
0.0
 10
89.07496757815263
 20
186.7897155209814
 30
0.0
 10
89.34540757381235
 20
186.8756706533599
 30
0.0
 10
89.39587822268387
 20
187.0903001021446
 30
0.0
 10
89.44066446400332
 20
187.2797803538807
 30
0.0
 10
89.39932331816999
 20
187.4174119185509
 30
0.0
 10
89.39932331816999
 20
187.4174119185509
 30
0.0
 10
89.39932331816999
 20
187.4174119185509
 30
0.0
 10
89.67510321183318
 20
187.47218893678
 30
0.0
 10
89.98137220054847
 20
187.7157571876481
 30
0.0
 10
90.10729044056581
 20
187.8161817210682
 30
0.0
 10
90.55618638240609
 20
188.1517340214154
 30
0.0
 10
90.55842569447207
 20
188.9112053213286
 30
0.0
 10
90.5594592231179
 20
189.2266038130821
 30
0.0
 10
90.55396175297046
 20
189.8802579183872
 30
0.0
 10
90.32410657983154
 20
190.2458027673924
 30
0.0
 10
90.07664361551988
 20
190.6546676892598
 30
0.0
 10
89.6796183360164
 20
191.0169881279741
 30
0.0
 10
88.69097686380152
 20
191.0701307922454
 30
0.0
 10
87.8018882832668
 20
191.025498651281
 30
0.0
 10
87.46876510656631
 20
190.7402440500873
 30
0.0
 10
87.0785350252153
 20
190.350396108143
 30
0.0
 10
86.85010769578713
 20
190.0651415069494
 30
0.0
 10
86.66926940537209
 20
189.6467681439469
 30
0.0
 10
86.58360919298322
 20
189.066750451598
 30
0.0
 10
86.54144435766651
 20
188.3887565908599
 30
0.0
 10
86.59346529950679
 20
187.8160094662939
 30
0.0
 10
86.59346529950679
 20
187.8160094662939
 30
0.0
 10
86.59346529950679
 20
187.8160094662939
 30
0.0
 10
86.30855590280541
 20
187.8055019250613
 30
0.0
 10
86.30855590280541
 20
187.8055019250613
 30
0.0
 10
86.30855590280541
 20
187.8055019250613
 30
0.0
 10
86.31010619577414
 20
187.3130255253217
 30
0.0
 10
86.31010619577414
 20
187.3130255253217
 30
0.0
 10
86.31010619577414
 20
187.3130255253217
 30
0.0
 10
87.37722452259708
 20
187.3173318946793
 30
0.0
 10
87.37722452259708
 20
187.3173318946793
 30
0.0
 10
87.37722452259708
 20
187.3173318946793
 30
0.0
 10
87.37722452259708
 20
187.8172152497141
 30
0.0
 10
87.37722452259708
 20
187.8172152497141
 30
0.0
 10
87.37722452259708
 20
187.8172152497141
 30
0.0
 10
87.05028496096513
 20
187.819971326103
 30
0.0
 10
87.05028496096513
 20
187.819971326103
 30
0.0
 10
87.05028496096513
 20
187.819971326103
 30
0.0
 10
87.01032185332625
 20
188.0435580231516
 30
0.0
 10
87.02142821695607
 20
188.4486988482295
 30
0.0
 10
87.0309459862022
 20
188.7719873604428
 30
0.0
 10
86.99287481282647
 20
189.2474117120411
 30
0.0
 10
87.25937331563036
 20
189.8274293555635
 30
0.0
 10
87.57346095383864
 20
190.3123621482968
 30
0.0
 10
88.0683867860707
 20
190.6356507093367
 30
0.0
 10
88.7251153702256
 20
190.6166337294136
 30
0.0
 10
89.63170908524288
 20
190.562296034374
 30
0.0
 10
90.02905457650678
 20
190.1126839567572
 30
0.0
 10
90.05091486082656
 20
189.533256040778
 30
0.0
 10
90.11080140019563
 20
189.01873604398
 30
0.0
 10
90.12348238935054
 20
188.5846102692453
 30
0.0
 10
89.92297783205888
 20
188.2967725413807
 30
0.0
 10
89.87009561634707
 20
188.2209804406863
 30
0.0
 10
89.79482027997555
 20
188.2514695357384
 30
0.0
 10
89.79344224178111
 20
188.3298454580474
 30
0.0
 10
89.79275322268389
 20
188.3622293556168
 30
0.0
 10
89.81910820315262
 20
188.4204514693321
 30
0.0
 10
89.82479261070471
 20
188.47677878053
 30
0.0
 10
89.83064927303109
 20
188.5336228560508
 30
0.0
 10
89.85321464846512
 20
188.72482565553
 30
0.0
 10
89.61946491973248
 20
188.8597011438113
 30
0.0
 10
89.46064601782277
 20
188.9515129385161
 30
0.0
 10
89.14903713110403
 20
188.9208515886897
 30
0.0
 10
89.02690849612138
 20
188.7191412479779
 30
0.0
 10
89.01433389759707
 20
188.698298420287
 30
0.0
 10
88.80625013023596
 20
189.1149827193321
 30
0.0
 10
88.34030096573943
 20
189.0789814715022
 30
0.0
 10
88.24469956599985
 20
189.0715745162071
 30
0.0
 10
87.80923949655541
 20
188.9926818295752
 30
0.0
 10
87.83008232424638
 20
188.5598055817453
 30
0.0
 10
87.83404418405542
 20
188.479018092596
 30
0.0
 10
87.86418876955888
 20
188.3970248200265
 30
0.0
 10
87.94066988935055
 20
188.4225185266238
 30
0.0
 10
88.01697875436792
 20
188.4481844879953
 30
0.0
 10
88.02162963327416
 20
188.4681660418147
 30
0.0
 10
88.08915350480194
 20
188.4697163347835
 30
0.0
 10
88.15667737632971
 20
188.4714388825265
 30
0.0
 10
88.22161742624292
 20
188.3963358009293
 30
0.0
 10
88.23023016495818
 20
188.299184108221
 30
0.0
 10
88.23884290367345
 20
188.2018601607384
 30
0.0
 10
88.24263250870819
 20
188.028055093464
 30
0.0
 10
88.34322929690264
 20
187.8871506880821
 30
0.0
 10
88.43779716799637
 20
187.7545145118668
 30
0.0
 10
88.61108547094778
 20
187.6659755578738
 30
0.0
 10
88.59058715280541
 20
187.6885409333078
 30
0.0
 10
88.58283568796165
 20
187.6968091624745
 30
0.0
 10
88.44003648006234
 20
187.5414353560509
 30
0.0
 10
88.39111612415958
 20
187.3157816017106
 30
0.0
 10
88.34409057077415
 20
187.0996018599571
 30
0.0
 10
88.58507500002763
 20
186.7190910635161
 30
0.0
 10
89.01209458553109
 20
186.7805860179432
 30
0.0
  0
SPLINE
  5
E
330
2
100
AcDbEntity
  8
ADP1DETAIL
 62
     7
100
AcDbSpline
210
0.0
220
0.0
230
1.0
 70
    11
 71
     3
 72
    26
 73
    22
 74
     0
 42
0.0000000001
 43
0.0000000001
 40
0.0
 40
0.0
 40
0.0
 40
0.0
 40
1.0
 40
1.0
 40
1.0
 40
2.0
 40
2.0
 40
2.0
 40
3.0
 40
3.0
 40
3.0
 40
4.0
 40
4.0
 40
4.0
 40
5.0
 40
5.0
 40
5.0
 40
6.0
 40
6.0
 40
6.0
 40
7.0
 40
7.0
 40
7.0
 40
7.0
 10
89.91436509334361
 20
188.2862650001481
 30
0.0
 10
89.91436509334361
 20
188.2862650001481
 30
0.0
 10
89.79568155384708
 20
188.0306389150787
 30
0.0
 10
89.56864976131235
 20
188.0025613868668
 30
0.0
 10
89.4460043620068
 20
187.9874029667279
 30
0.0
 10
89.30596123049637
 20
188.0278828386898
 30
0.0
 10
89.25652411027069
 20
188.1386426585682
 30
0.0
 10
89.12647175567
 20
188.4299254819189
 30
0.0
 10
89.39398342016652
 20
188.596323593898
 30
0.0
 10
89.40517998049639
 20
188.6039028039675
 30
0.0
 10
89.41620428605194
 20
188.6113097592627
 30
0.0
 10
89.21828355037485
 20
188.4393994945057
 30
0.0
 10
89.33834512806582
 20
188.2936719554432
 30
0.0
 10
89.51301146921165
 20
188.0819708378217
 30
0.0
 10
89.75830226782276
 20
188.2258035743668
 30
0.0
 10
89.79550929907276
 20
188.3618848460682
 30
0.0
 10
89.79550929907276
 20
188.3618848460682
 30
0.0
 10
89.78603528648596
 20
188.3012511655127
 30
0.0
 10
89.81394055992346
 20
188.2748961850439
 30
0.0
 10
89.86596150176373
 20
188.2258035743668
 30
0.0
 10
89.91436509334361
 20
188.2862650001481
 30
0.0
 10
89.91436509334361
 20
188.2862650001481
 30
0.0
  0
SPLINE
  5
F
330
2
100
AcDbEntity
  8
ADP1DETAIL
 62
     7
100
AcDbSpline
210
0.0
220
0.0
230
1.0
 70
     8
 71
     3
 72
    32
 73
    28
 74
     0
 42
0.0000000001
 43
0.0000000001
 40
0.0
 40
0.0
 40
0.0
 40
0.0
 40
1.0
 40
1.0
 40
1.0
 40
2.0
 40
2.0
 40
2.0
 40
3.0
 40
3.0
 40
3.0
 40
4.0
 40
4.0
 40
4.0
 40
5.0
 40
5.0
 40
5.0
 40
6.0
 40
6.0
 40
6.0
 40
7.0
 40
7.0
 40
7.0
 40
8.0
 40
8.0
 40
8.0
 40
9.0
 40
9.0
 40
9.0
 40
9.0
 10
89.2787449761561
 20
187.3900234094363
 30
0.0
 10
89.2787449761561
 20
187.3900234094363
 30
0.0
 10
89.47959404299638
 20
187.2689283030995
 30
0.0
 10
89.3531590386561
 20
187.0458583703738
 30
0.0
 10
89.22689628909013
 20
186.8226161828738
 30
0.0
 10
89.00382635636445
 20
186.9285528690717
 30
0.0
 10
88.96282972007972
 20
186.9588697093495
 30
0.0
 10
88.92200533856929
 20
186.9891865496273
 30
0.0
 10
88.76215290801374
 20
187.2196634376481
 30
0.0
 10
88.96661932511443
 20
187.4353264150786
 30
0.0
 10
89.12612724612138
 20
187.6036193295752
 30
0.0
 10
89.5455676215554
 20
187.5967291386029
 30
0.0
 10
89.81015095488874
 20
187.7154126780995
 30
0.0
 10
89.95312241756236
 20
187.7794914541411
 30
0.0
 10
90.11142455514915
 20
187.9042039107384
 30
0.0
 10
90.26369777563527
 20
188.0631950674224
 30
0.0
 10
90.38513739152069
 20
188.1898023265369
 30
0.0
 10
90.10022799481928
 20
187.8096360396446
 30
0.0
 10
89.83633368058319
 20
187.6773443729779
 30
0.0
 10
89.63737941626026
 20
187.577608858655
 30
0.0
 10
89.2751276258957
 20
187.4768398156863
 30
0.0
 10
89.20812051869082
 20
187.393813014471
 30
0.0
 10
89.14128566626027
 20
187.3104417037071
 30
0.0
 10
89.10407863501026
 20
187.2312045075265
 30
0.0
 10
89.14128566626027
 20
187.2349941125612
 30
0.0
 10
89.32335896270123
 20
187.3748649892974
 30
0.0
 10
89.36797294924637
 20
187.2008876672488
 30
0.0
 10
89.36797294924637
 20
187.2008876672488
 30
0.0
  0
POLYLINE
  5
10
330
2
100
AcDbEntity
  8
ADP1DETAIL
 62
     7
100
AcDb2dPolyline
 66
     1
 10
0.0
 20
0.0
 30
0.0
 70
     1
  0
VERTEX
  5
11
330
10
100
AcDbEntity
  8
ADP1DETAIL
 62
     7
100
AcDbVertex
100
AcDb2dVertex
 10
86.30976168622554
 20
187.8137701542279
 30
0.0
  0
VERTEX
  5
12
330
10
100
AcDbEntity
  8
ADP1DETAIL
 62
     7
100
AcDbVertex
100
AcDb2dVertex
 10
86.30976168622554
 20
187.3259446333946
 30
0.0
  0
VERTEX
  5
13
330
10
100
AcDbEntity
  8
ADP1DETAIL
 62
     7
100
AcDbVertex
100
AcDb2dVertex
 10
87.3687840386561
 20
187.3259446333946
 30
0.0
  0
VERTEX
  5
14
330
10
100
AcDbEntity
  8
ADP1DETAIL
 62
     7
100
AcDbVertex
100
AcDb2dVertex
 10
87.3687840386561
 20
187.8137701542279
 30
0.0
  0
SEQEND
  5
15
330
10
100
AcDbEntity
  8
ADP1DETAIL
 62
     7
  0
POLYLINE
  5
16
330
2
100
AcDbEntity
  8
ADP1DETAIL
 62
     7
100
AcDb2dPolyline
 66
     1
 10
0.0
 20
0.0
 30
0.0
 70
     1
  0
VERTEX
  5
17
330
16
100
AcDbEntity
  8
ADP1DETAIL
 62
     7
100
AcDbVertex
100
AcDb2dVertex
 10
87.37722452259708
 20
187.8172152497141
 30
0.0
  0
VERTEX
  5
18
330
16
100
AcDbEntity
  8
ADP1DETAIL
 62
     7
100
AcDbVertex
100
AcDb2dVertex
 10
87.37722452259708
 20
187.3262891429432
 30
0.0
  0
VERTEX
  5
19
330
16
100
AcDbEntity
  8
ADP1DETAIL
 62
     7
100
AcDbVertex
100
AcDb2dVertex
 10
87.29695379777067
 20
187.3262891429432
 30
0.0
  0
VERTEX
  5
1A
330
16
100
AcDbEntity
  8
ADP1DETAIL
 62
     7
100
AcDbVertex
100
AcDb2dVertex
 10
87.29695379777067
 20
187.8172152497141
 30
0.0
  0
SEQEND
  5
1B
330
16
100
AcDbEntity
  8
ADP1DETAIL
 62
     7
  0
TEXT
  5
1C
330
2
100
AcDbEntity
  8
ADPDIM
 62
     3
100
AcDbText
 10
77.47430852230374
 20
183.7259388881937
 30
0.0
 40
0.2
  1
J U L I U S  B L U M  &  C O . ,  I N C .      ( 8 0 0 )  5 2 6 - 6 2 9 3        W W W . J U L I U S B L U M . C O M        P A R T  N O .  5 2 6 R
 41
1.25
  7
ARIAL_WIDE
 72
     1
 11
87.98317618942517
 21
183.9259388881936
 31
0.0
100
AcDbText
 73
     3
  0
DIMENSION
  5
20
330
2
100
AcDbEntity
  8
0
  6
Continuous
 62
     3
370
     0
100
AcDbDimension
  2
*D0
 10
85.27255926236987
 20
191.0697602960873
 30
0.0
 11
85.27255926236984
 21
189.188862456529
 31
0.0
 71
     5
 42
3.761795679116659
  3
Standard
100
AcDbAlignedDimension
 13
86.29093331300394
 23
187.3079646169706
 33
0.0
 14
88.85335478236326
 24
191.0697602960873
 34
0.0
 50
90.0
100
AcDbRotatedDimension
1001
ACAD
1000
DSTYLE
1002
{
1070
   276
1070
     2
1070
     3
1000
"
1070
   277
1070
     5
1070
   278
1070
     0
1070
   371
1070
     0
1070
   372
1070
     0
1002
}
  0
DIMENSION
  5
31
330
2
100
AcDbEntity
  8
0
  6
Continuous
 62
     3
370
     0
100
AcDbDimension
  2
*D1
 10
90.53449380329302
 20
186.3540202327094
 30
0.0
 11
88.41433914128748
 21
186.3540202327094
 31
0.0
 71
     5
 42
4.240309324011093
  3
Standard
100
AcDbAlignedDimension
 13
86.29418447928193
 23
187.3064585379294
 33
0.0
 14
90.53449380329302
 24
188.9839383104594
 34
0.0
100
AcDbRotatedDimension
1001
ACAD
1000
DSTYLE
1002
{
1070
   276
1070
     2
1070
     3
1000
"
1070
   277
1070
     5
1070
   278
1070
     0
1070
   371
1070
     0
1070
   372
1070
     0
1002
}
  0
ENDSEC
  0
SECTION
  2
OBJECTS
  0
DICTIONARY
  5
7
330
0
100
AcDbDictionary
281
     1
  3
ACAD_COLOR
350
57
  3
ACAD_GROUP
350
53
  3
ACAD_LAYOUT
350
41
  3
ACAD_MATERIAL
350
56
  3
ACAD_MLINESTYLE
350
54
  3
ACAD_PLOTSETTINGS
350
55
  3
ACAD_PLOTSTYLENAME
350
6
  3
ACDBHEADERROUNDTRIPXREC
350
5D
  3
AcDbVariableDictionary
350
59
  0
DICTIONARY
  5
57
102
{ACAD_REACTORS
330
7
102
}
330
7
100
AcDbDictionary
281
     1
  0
DICTIONARY
  5
53
102
{ACAD_REACTORS
330
7
102
}
330
7
100
AcDbDictionary
281
     1
  0
DICTIONARY
  5
41
102
{ACAD_REACTORS
330
7
102
}
330
7
100
AcDbDictionary
281
     1
  3
Layout1
350
45
  3
Model
350
40
  0
DICTIONARY
  5
56
102
{ACAD_REACTORS
330
7
102
}
330
7
100
AcDbDictionary
281
     1
  0
DICTIONARY
  5
54
102
{ACAD_REACTORS
330
7
102
}
330
7
100
AcDbDictionary
281
     1
  3
Standard
350
58
  0
DICTIONARY
  5
55
102
{ACAD_REACTORS
330
7
102
}
330
7
100
AcDbDictionary
281
     1
  0
ACDBDICTIONARYWDFLT
  5
6
102
{ACAD_REACTORS
330
7
102
}
330
7
100
AcDbDictionary
281
     1
  3
Normal
350
5
100
AcDbDictionaryWithDefault
340
5
  0
DICTIONARY
  5
5D
102
{ACAD_REACTORS
330
7
102
}
330
7
100
AcDbDictionary
281
     1
  3
COLORDICT
350
5F
  3
MATERIALDICT
350
5E
  0
DICTIONARY
  5
59
102
{ACAD_REACTORS
330
7
102
}
330
7
100
AcDbDictionary
281
     1
  3
DIMASSOC
350
5B
  3
HIDETEXT
350
5A
  3
PROJECTNAME
350
5C
  0
LAYOUT
  5
45
102
{ACAD_XDICTIONARY
360
63
102
}
102
{ACAD_REACTORS
330
41
102
}
330
41
100
AcDbPlotSettings
  1

  2

  4

  6

 40
0.0
 41
0.0
 42
0.0
 43
0.0
 44
0.0
 45
0.0
 46
0.0
 47
0.0
 48
0.0
 49
0.0
140
0.0
141
0.0
142
1.0
143
1.0
 70
     0
 72
     0
 73
     0
 74
     0
  7

 75
     0
147
1.0
148
0.0
149
0.0
100
AcDbLayout
  1
Layout1
 70
     0
 71
     1
 10
0.0
 20
0.0
 11
12.0
 21
9.0
 12
0.0
 22
0.0
 32
0.0
 14
1.000000000000000E+20
 24
1.000000000000000E+20
 34
1.000000000000000E+20
 15
-1.000000000000000E+20
 25
-1.000000000000000E+20
 35
-1.000000000000000E+20
146
0.0
 13
0.0
 23
0.0
 33
0.0
 16
1.0
 26
0.0
 36
0.0
 17
0.0
 27
1.0
 37
0.0
 76
     0
330
42
  0
LAYOUT
  5
40
102
{ACAD_XDICTIONARY
360
61
102
}
102
{ACAD_REACTORS
330
41
102
}
330
41
100
AcDbPlotSettings
  1

  2

  4

  6

 40
0.0
 41
0.0
 42
0.0
 43
0.0
 44
0.0
 45
0.0
 46
0.0
 47
0.0
 48
0.0
 49
0.0
140
0.0
141
0.0
142
1.0
143
1.0
 70
  1024
 72
     0
 73
     0
 74
     0
  7

 75
     0
147
1.0
148
0.0
149
0.0
100
AcDbLayout
  1
Model
 70
     0
 71
     0
 10
0.0
 20
0.0
 11
0.0
 21
0.0
 12
0.0
 22
0.0
 32
0.0
 14
0.0
 24
0.0
 34
0.0
 15
0.0
 25
0.0
 35
0.0
146
0.0
 13
0.0
 23
0.0
 33
0.0
 16
0.0
 26
0.0
 36
0.0
 17
0.0
 27
0.0
 37
0.0
 76
     0
330
2
  0
MLINESTYLE
  5
58
102
{ACAD_REACTORS
330
54
102
}
330
54
100
AcDbMlineStyle
  2
STANDARD
 70
     0
  3

 62
     0
 51
90.0
 52
90.0
 71
     2
 49
0.5
 62
   256
  6
BYLAYER
 49
-0.5
 62
   256
  6
BYLAYER
  0
ACDBPLACEHOLDER
  5
5
102
{ACAD_REACTORS
330
6
102
}
330
6
  0
XRECORD
  5
5F
102
{ACAD_REACTORS
330
5D
102
}
330
5D
100
AcDbXrecord
280
     1
340
57
  0
XRECORD
  5
5E
102
{ACAD_REACTORS
330
5D
102
}
330
5D
100
AcDbXrecord
280
     1
340
56
  0
DICTIONARYVAR
  5
5B
102
{ACAD_REACTORS
330
59
102
}
330
59
100
DictionaryVariables
280
     0
  1
1
  0
DICTIONARYVAR
  5
5A
102
{ACAD_REACTORS
330
59
102
}
330
59
100
DictionaryVariables
280
     0
  1
1
  0
DICTIONARYVAR
  5
5C
102
{ACAD_REACTORS
330
59
102
}
330
59
100
DictionaryVariables
280
     0
  1

  0
DICTIONARY
  5
63
330
45
100
AcDbDictionary
280
     1
281
     1
  3
ACAD_XREC_ROUNDTRIP
360
64
  0
DICTIONARY
  5
61
330
40
100
AcDbDictionary
280
     1
281
     1
  3
ACAD_XREC_ROUNDTRIP
360
62
  0
XRECORD
  5
64
102
{ACAD_REACTORS
330
63
102
}
330
63
100
AcDbXrecord
280
     1
102
SHADEPLOT
 70
     0
102
SHADEPLOTRESLEVEL
 70
     2
102
SHADEPLOTCUSTOMDPI
 70
   300
  0
XRECORD
  5
62
102
{ACAD_REACTORS
330
61
102
}
330
61
100
AcDbXrecord
280
     1
102
SHADEPLOT
 70
     0
102
SHADEPLOTRESLEVEL
 70
     2
102
SHADEPLOTCUSTOMDPI
 70
   300
  0
ENDSEC
  0
EOF
