  0
SECTION
  2
HEADER
  9
$ACADVER
  1
AC1014
  9
$ACADMAINTVER
 70
     9
  9
$DWGCODEPAGE
  3
ANSI_1252
  9
$INSBASE
 10
-56.65097902599422
 20
42.51634921211463
 30
0.0
  9
$EXTMIN
 10
-66.69451584073152
 20
41.22232370461158
 30
0.0
  9
$EXTMAX
 10
-47.39039322818036
 20
49.48162420424474
 30
0.0
  9
$LIMMIN
 10
0.0
 20
0.0
  9
$LIMMAX
 10
36.0
 20
36.0
  9
$ORTHOMODE
 70
     1
  9
$REGENMODE
 70
     1
  9
$FILLMODE
 70
     1
  9
$QTEXTMODE
 70
     0
  9
$MIRRTEXT
 70
     1
  9
$DRAGMODE
 70
     0
  9
$LTSCALE
 40
1.0
  9
$OSMODE
 70
    37
  9
$ATTMODE
 70
     1
  9
$TEXTSIZE
 40
0.2
  9
$TRACEWID
 40
0.05
  9
$TEXTSTYLE
  7
STANDARD
  9
$CLAYER
  8
ADPDIM
  9
$CELTYPE
  6
BYLAYER
  9
$CECOLOR
 62
   256
  9
$CELTSCALE
 40
1.0
  9
$DELOBJ
 70
     1
  9
$DISPSILH
 70
     0
  9
$DIMSCALE
 40
1.0
  9
$DIMASZ
 40
0.125
  9
$DIMEXO
 40
0.0625
  9
$DIMDLI
 40
0.38
  9
$DIMRND
 40
0.0
  9
$DIMDLE
 40
0.0
  9
$DIMEXE
 40
0.18
  9
$DIMTP
 40
0.0
  9
$DIMTM
 40
0.0
  9
$DIMTXT
 40
0.125
  9
$DIMCEN
 40
0.1875
  9
$DIMTSZ
 40
0.125
  9
$DIMTOL
 70
     0
  9
$DIMLIM
 70
     0
  9
$DIMTIH
 70
     0
  9
$DIMTOH
 70
     0
  9
$DIMSE1
 70
     0
  9
$DIMSE2
 70
     0
  9
$DIMTAD
 70
     0
  9
$DIMZIN
 70
     3
  9
$DIMBLK
  1

  9
$DIMASO
 70
     1
  9
$DIMSHO
 70
     1
  9
$DIMPOST
  1

  9
$DIMAPOST
  1

  9
$DIMALT
 70
     0
  9
$DIMALTD
 70
     1
  9
$DIMALTF
 40
25.4
  9
$DIMLFAC
 40
1.0
  9
$DIMTOFL
 70
     0
  9
$DIMTVP
 40
0.0
  9
$DIMTIX
 70
     0
  9
$DIMSOXD
 70
     0
  9
$DIMSAH
 70
     0
  9
$DIMBLK1
  1

  9
$DIMBLK2
  1

  9
$DIMSTYLE
  2
STANDARD
  9
$DIMCLRD
 70
     0
  9
$DIMCLRE
 70
     0
  9
$DIMCLRT
 70
     0
  9
$DIMTFAC
 40
1.0
  9
$DIMGAP
 40
0.125
  9
$DIMJUST
 70
     0
  9
$DIMSD1
 70
     0
  9
$DIMSD2
 70
     0
  9
$DIMTOLJ
 70
     1
  9
$DIMTZIN
 70
     0
  9
$DIMALTZ
 70
     0
  9
$DIMALTTZ
 70
     0
  9
$DIMFIT
 70
     3
  9
$DIMUPT
 70
     0
  9
$DIMUNIT
 70
     2
  9
$DIMDEC
 70
     4
  9
$DIMTDEC
 70
     4
  9
$DIMALTU
 70
     2
  9
$DIMALTTD
 70
     2
  9
$DIMTXSTY
  7
STANDARD
  9
$DIMAUNIT
 70
     0
  9
$LUNITS
 70
     5
  9
$LUPREC
 70
     4
  9
$SKETCHINC
 40
0.1
  9
$FILLETRAD
 40
0.062
  9
$AUNITS
 70
     0
  9
$AUPREC
 70
     0
  9
$MENU
  1
acad
  9
$ELEVATION
 40
0.0
  9
$PELEVATION
 40
0.0
  9
$THICKNESS
 40
0.0
  9
$LIMCHECK
 70
     0
  9
$BLIPMODE
 70
     0
  9
$CHAMFERA
 40
0.0
  9
$CHAMFERB
 40
0.0
  9
$CHAMFERC
 40
0.0
  9
$CHAMFERD
 40
0.0
  9
$SKPOLY
 70
     0
  9
$TDCREATE
 40
2450407.571128275
  9
$TDUPDATE
 40
2452297.072118773
  9
$TDINDWG
 40
0.0262739005
  9
$TDUSRTIMER
 40
0.0262739005
  9
$USRTIMER
 70
     1
  9
$ANGBASE
 50
0.0
  9
$ANGDIR
 70
     0
  9
$PDMODE
 70
     0
  9
$PDSIZE
 40
0.0
  9
$PLINEWID
 40
0.0
  9
$COORDS
 70
     2
  9
$SPLFRAME
 70
     0
  9
$SPLINETYPE
 70
     6
  9
$SPLINESEGS
 70
     8
  9
$ATTDIA
 70
     0
  9
$ATTREQ
 70
     1
  9
$HANDLING
 70
 22529
  9
$HANDSEED
  5
2C0
  9
$SURFTAB1
 70
     6
  9
$SURFTAB2
 70
     6
  9
$SURFTYPE
 70
     6
  9
$SURFU
 70
     6
  9
$SURFV
 70
     6
  9
$UCSNAME
  2

  9
$UCSORG
 10
0.0
 20
0.0
 30
0.0
  9
$UCSXDIR
 10
1.0
 20
0.0
 30
0.0
  9
$UCSYDIR
 10
0.0
 20
1.0
 30
0.0
  9
$PUCSNAME
  2

  9
$PUCSORG
 10
0.0
 20
0.0
 30
0.0
  9
$PUCSXDIR
 10
1.0
 20
0.0
 30
0.0
  9
$PUCSYDIR
 10
0.0
 20
1.0
 30
0.0
  9
$USERI1
 70
     0
  9
$USERI2
 70
     0
  9
$USERI3
 70
     0
  9
$USERI4
 70
     0
  9
$USERI5
 70
     0
  9
$USERR1
 40
0.0
  9
$USERR2
 40
0.0
  9
$USERR3
 40
0.0
  9
$USERR4
 40
0.0
  9
$USERR5
 40
0.0
  9
$WORLDVIEW
 70
     1
  9
$SHADEDGE
 70
     3
  9
$SHADEDIF
 70
    70
  9
$TILEMODE
 70
     1
  9
$MAXACTVP
 70
    15
  9
$PINSBASE
 10
0.0008545038290322
 20
1.250283272183907
 30
0.0
  9
$PLIMCHECK
 70
     0
  9
$PEXTMIN
 10
1.000000000000000E+20
 20
1.000000000000000E+20
 30
1.000000000000000E+20
  9
$PEXTMAX
 10
-1.000000000000000E+20
 20
-1.000000000000000E+20
 30
-1.000000000000000E+20
  9
$PLIMMIN
 10
0.0
 20
0.0
  9
$PLIMMAX
 10
12.0
 20
9.0
  9
$UNITMODE
 70
     0
  9
$VISRETAIN
 70
     0
  9
$PLINEGEN
 70
     0
  9
$PSLTSCALE
 70
     1
  9
$TREEDEPTH
 70
  3020
  9
$PICKSTYLE
 70
     1
  9
$CMLSTYLE
  2
STANDARD
  9
$CMLJUST
 70
     0
  9
$CMLSCALE
 40
1.0
  9
$PROXYGRAPHICS
 70
     1
  9
$MEASUREMENT
 70
     0
  0
ENDSEC
  0
SECTION
  2
CLASSES
  0
CLASS
  1
ACDBDICTIONARYWDFLT
  2
AcDbDictionaryWithDefault
  3
AutoCAD 2000
 90
        0
280
     0
281
     0
  0
CLASS
  1
ACDBPLACEHOLDER
  2
AcDbPlaceHolder
  3
AutoCAD 2000
 90
        0
280
     0
281
     0
  0
CLASS
  1
LAYOUT
  2
AcDbLayout
  3
AutoCAD 2000
 90
        0
280
     0
281
     0
  0
CLASS
  1
DICTIONARYVAR
  2
AcDbDictionaryVar
  3
AutoCAD 2000
 90
        0
280
     0
281
     0
  0
CLASS
  1
LONG_TRANSACTION
  2
AcDbLongTransaction
  3
AutoCAD 2000
 90
        0
280
     0
281
     0
  0
CLASS
  1
LWPOLYLINE
  2
AcDbPolyline
  3
AutoCAD 2000
 90
        0
280
     0
281
     1
  0
CLASS
  1
HATCH
  2
AcDbHatch
  3
AutoCAD 2000
 90
        0
280
     0
281
     1
  0
CLASS
  1
XRECORD
  2
AcDbXrecord
  3
AutoCAD 2000
 90
        0
280
     0
281
     0
  0
CLASS
  1
LONG_TRANSACTION
  2
AcDbLongTransaction
  3
AutoCAD 2000
 90
        0
280
     0
281
     0
  0
CLASS
  1
LWPOLYLINE
  2
AcDbPolyline
  3
AutoCAD 2000
 90
        0
280
     0
281
     1
  0
CLASS
  1
HATCH
  2
AcDbHatch
  3
AutoCAD 2000
 90
        0
280
     0
281
     1
  0
CLASS
  1
XRECORD
  2
AcDbXrecord
  3
AutoCAD 2000
 90
        0
280
     0
281
     0
  0
CLASS
  1
LONG_TRANSACTION
  2
AcDbLongTransaction
  3
AutoCAD 2000
 90
        0
280
     0
281
     0
  0
CLASS
  1
LWPOLYLINE
  2
AcDbPolyline
  3
AutoCAD 2000
 90
        0
280
     0
281
     1
  0
CLASS
  1
HATCH
  2
AcDbHatch
  3
AutoCAD 2000
 90
        0
280
     0
281
     1
  0
CLASS
  1
XRECORD
  2
AcDbXrecord
  3
AutoCAD 2000
 90
        0
280
     0
281
     0
  0
CLASS
  1
LONG_TRANSACTION
  2
AcDbLongTransaction
  3
AutoCAD 2000
 90
        0
280
     0
281
     0
  0
CLASS
  1
LWPOLYLINE
  2
AcDbPolyline
  3
AutoCAD 2000
 90
        0
280
     0
281
     1
  0
CLASS
  1
HATCH
  2
AcDbHatch
  3
AutoCAD 2000
 90
        0
280
     0
281
     1
  0
CLASS
  1
XRECORD
  2
AcDbXrecord
  3
AutoCAD 2000
 90
        0
280
     0
281
     0
  0
CLASS
  1
LONG_TRANSACTION
  2
AcDbLongTransaction
  3
AutoCAD 2000
 90
        0
280
     0
281
     0
  0
CLASS
  1
LWPOLYLINE
  2
AcDbPolyline
  3
AutoCAD 2000
 90
        0
280
     0
281
     1
  0
CLASS
  1
HATCH
  2
AcDbHatch
  3
AutoCAD 2000
 90
        0
280
     0
281
     1
  0
CLASS
  1
XRECORD
  2
AcDbXrecord
  3
AutoCAD 2000
 90
        0
280
     0
281
     0
  0
CLASS
  1
LONG_TRANSACTION
  2
AcDbLongTransaction
  3
AutoCAD 2000
 90
        0
280
     0
281
     0
  0
CLASS
  1
LWPOLYLINE
  2
AcDbPolyline
  3
AutoCAD 2000
 90
        0
280
     0
281
     1
  0
CLASS
  1
HATCH
  2
AcDbHatch
  3
AutoCAD 2000
 90
        0
280
     0
281
     1
  0
CLASS
  1
XRECORD
  2
AcDbXrecord
  3
AutoCAD 2000
 90
        0
280
     0
281
     0
  0
ENDSEC
  0
SECTION
  2
TABLES
  0
TABLE
  2
VPORT
  5
8
330
0
100
AcDbSymbolTable
 70
     2
  0
VPORT
  5
29D
330
8
100
AcDbSymbolTableRecord
100
AcDbViewportTableRecord
  2
*ACTIVE
 70
     0
 10
0.0
 20
0.0
 11
1.0
 21
1.0
 12
-57.02824703251289
 22
45.35265651509361
 13
0.0
 23
0.0
 14
0.5740882589684922
 24
0.5740882589684922
 15
0.5
 25
0.5
 16
0.0
 26
0.0
 36
1.0
 17
0.0
 27
0.0
 37
0.0
 40
12.37666788978976
 41
1.570528967254407
 42
50.0
 43
0.0
 44
0.0
 50
0.0
 51
0.0
 71
     0
 72
   100
 73
     1
 74
     0
 75
     0
 76
     0
 77
     0
 78
     0
  0
ENDTAB
  0
TABLE
  2
LTYPE
  5
5
330
0
100
AcDbSymbolTable
 70
     1
  0
LTYPE
  5
12
330
5
100
AcDbSymbolTableRecord
100
AcDbLinetypeTableRecord
  2
BYBLOCK
 70
     0
  3

 72
    65
 73
     0
 40
0.0
  0
LTYPE
  5
13
330
5
100
AcDbSymbolTableRecord
100
AcDbLinetypeTableRecord
  2
BYLAYER
 70
     0
  3

 72
    65
 73
     0
 40
0.0
  0
LTYPE
  5
14
330
5
100
AcDbSymbolTableRecord
100
AcDbLinetypeTableRecord
  2
CONTINUOUS
 70
     0
  3
Solid line
 72
    65
 73
     0
 40
0.0
  0
ENDTAB
  0
TABLE
  2
LAYER
  5
2
330
0
100
AcDbSymbolTable
 70
     4
  0
LAYER
  5
F
330
2
100
AcDbSymbolTableRecord
100
AcDbLayerTableRecord
  2
0
 70
     0
 62
     7
  6
CONTINUOUS
  0
LAYER
  5
99
330
2
100
AcDbSymbolTableRecord
100
AcDbLayerTableRecord
  2
ADP1DETAIL
 70
     0
 62
     7
  6
CONTINUOUS
  0
LAYER
  5
9B
330
2
100
AcDbSymbolTableRecord
100
AcDbLayerTableRecord
  2
DEFPOINTS
 70
     0
 62
     7
  6
CONTINUOUS
  0
LAYER
  5
9E
330
2
100
AcDbSymbolTableRecord
100
AcDbLayerTableRecord
  2
ADPDIM
 70
     0
 62
     3
  6
CONTINUOUS
  0
ENDTAB
  0
TABLE
  2
STYLE
  5
3
330
0
100
AcDbSymbolTable
 70
     2
  0
STYLE
  5
10
330
3
100
AcDbSymbolTableRecord
100
AcDbTextStyleTableRecord
  2
STANDARD
 70
     0
 40
0.0
 41
1.0
 50
0.0
 71
     0
 42
0.2
  3
txt
  4

  0
STYLE
  5
155
330
3
100
AcDbSymbolTableRecord
100
AcDbTextStyleTableRecord
  2
ARIAL_WIDE
 70
     0
 40
0.0
 41
1.25
 50
0.0
 71
     0
 42
0.2
  3
ARIAL.TTF
  4

1001
ACAD
1000
Arial
1071
       34
  0
ENDTAB
  0
TABLE
  2
VIEW
  5
6
330
0
100
AcDbSymbolTable
 70
     0
  0
ENDTAB
  0
TABLE
  2
UCS
  5
7
330
0
100
AcDbSymbolTable
 70
     0
  0
ENDTAB
  0
TABLE
  2
APPID
  5
9
330
0
100
AcDbSymbolTable
 70
     1
  0
APPID
  5
11
330
9
100
AcDbSymbolTableRecord
100
AcDbRegAppTableRecord
  2
ACAD
 70
     0
  0
ENDTAB
  0
TABLE
  2
DIMSTYLE
  5
A
330
0
100
AcDbSymbolTable
 70
     1
  0
DIMSTYLE
105
149
330
A
100
AcDbSymbolTableRecord
100
AcDbDimStyleTableRecord
  2
STANDARD
 70
     0
  3

  4

  5

  6

  7

 40
1.0
 41
0.18
 42
0.0625
 43
0.38
 44
0.18
 45
0.0
 46
0.0
 47
0.0
 48
0.0
140
0.18
141
0.09
142
0.0
143
25.4
144
1.0
145
0.0
146
1.0
147
0.09
 71
     0
 72
     0
 73
     1
 74
     1
 75
     0
 76
     0
 77
     0
 78
     0
170
     0
171
     2
172
     0
173
     0
174
     0
175
     0
176
     0
177
     0
178
     0
270
     2
271
     4
272
     4
273
     2
274
     2
340
10
275
     0
280
     0
281
     0
282
     0
283
     1
284
     0
285
     0
286
     0
287
     3
288
     0
  0
ENDTAB
  0
TABLE
  2
BLOCK_RECORD
  5
1
330
0
100
AcDbSymbolTable
 70
     4
  0
BLOCK_RECORD
  5
18
102
{ACAD_XDICTIONARY
360
1AA
102
}
330
1
100
AcDbSymbolTableRecord
100
AcDbBlockTableRecord
  2
*MODEL_SPACE
  0
BLOCK_RECORD
  5
15
102
{ACAD_XDICTIONARY
360
1A8
102
}
330
1
100
AcDbSymbolTableRecord
100
AcDbBlockTableRecord
  2
*PAPER_SPACE
  0
BLOCK_RECORD
  5
63
330
1
100
AcDbSymbolTableRecord
100
AcDbBlockTableRecord
  2
526
  0
BLOCK_RECORD
  5
64
330
1
100
AcDbSymbolTableRecord
100
AcDbBlockTableRecord
  2
CLIP_ACF31F71
  0
BLOCK_RECORD
  5
6C
330
1
100
AcDbSymbolTableRecord
100
AcDbBlockTableRecord
  2
*D2
  0
BLOCK_RECORD
  5
95
330
1
100
AcDbSymbolTableRecord
100
AcDbBlockTableRecord
  2
*D3
  0
ENDTAB
  0
ENDSEC
  0
SECTION
  2
BLOCKS
  0
BLOCK
  5
A1
330
18
100
AcDbEntity
  8
0
100
AcDbBlockBegin
  2
*MODEL_SPACE
 70
     0
 10
0.0
 20
0.0
 30
0.0
  3
*MODEL_SPACE
  1

  0
ENDBLK
  5
A2
330
18
100
AcDbEntity
  8
0
100
AcDbBlockEnd
  0
BLOCK
  5
9F
330
15
100
AcDbEntity
 67
     1
  8
0
100
AcDbBlockBegin
  2
*PAPER_SPACE
 70
     0
 10
0.0
 20
0.0
 30
0.0
  3
*PAPER_SPACE
  1

  0
ENDBLK
  5
A0
330
15
100
AcDbEntity
 67
     1
  8
0
100
AcDbBlockEnd
  0
BLOCK
  5
A4
330
63
100
AcDbEntity
  8
0
100
AcDbBlockBegin
  2
526
 70
     0
 10
0.0
 20
0.0
 30
0.0
  3
526
  1

  0
INSERT
  5
A5
330
63
100
AcDbEntity
  8
0
100
AcDbBlockReference
  2
CLIP_ACF31F71
 10
0.5773102158299496
 20
-0.2363784917121649
 30
0.0
  0
ENDBLK
  5
A6
330
63
100
AcDbEntity
  8
0
100
AcDbBlockEnd
  0
BLOCK
  5
A7
330
64
100
AcDbEntity
  8
0
100
AcDbBlockBegin
  2
CLIP_ACF31F71
 70
     0
 10
0.0
 20
0.0
 30
0.0
  3
CLIP_ACF31F71
  1

  0
LWPOLYLINE
  5
A8
330
64
100
AcDbEntity
  8
0
100
AcDbPolyline
 90
        4
 70
     0
 43
0.0
 10
5.439643259157914
 20
1.657585620968065
 42
0.1875489815213306
 10
5.366194096455428
 20
1.040946143149878
 42
0.3063263147205092
 10
5.895027946082064
 20
0.2921696276546795
 42
0.5137226933703209
 10
6.423861748850522
 20
0.6445350614600473
 42
-0.9666500214719377
  0
LWPOLYLINE
  5
AE
330
64
100
AcDbEntity
  8
0
100
AcDbPolyline
 90
        5
 70
     0
 43
0.0
 10
5.204606013483044
 20
5.19592168494386
 42
0.1923184990384244
 10
5.615921193414067
 20
5.151876037059397
 42
0.2369572605169922
 10
6.276963470303728
 20
5.753833600908222
 42
0.4876707359509532
 10
6.012546568919499
 20
6.194290393164931
 42
0.1747607420356457
 10
5.689370309258375
 20
6.120880917341744
 42
0.6076959344715332
  0
LWPOLYLINE
  5
B5
330
64
100
AcDbEntity
  8
0
100
AcDbPolyline
 90
       40
 70
     1
 43
0.0
 10
2.986441983997368
 20
6.42920067192144
 42
-0.2714290772026952
 10
2.722025082613139
 20
6.003425793634093
 42
0.1745067939076013
 10
1.150213478733356
 20
5.137194123090035
 42
0.3894640672122562
 10
1.06207451160528
 20
5.988743879664731
 42
0.2178417641437605
 10
0.4451017417087463
 20
6.297063634244428
 42
0.4808080578488535
 10
0.0044069060683648
 20
5.783197397505738
 42
0.2764625723913884
 10
0.2394441517432349
 20
5.518923322151712
 42
-0.2439644275201656
 10
0.401032281573797
 20
5.856606841987717
 42
-0.5424402660622829
 10
0.9445558887678453
 20
5.313376839992719
 42
-0.2053596665656058
 10
0.6801389873836165
 20
4.696737362174532
 42
0.3284228535738642
 10
0.9592457400516135
 20
1.36394778035773
 42
0.118968314343215
 10
1.444010035826944
 20
1.05562805711924
 42
0.1348353652768862
 10
0.900486428632896
 20
1.217128860052562
 42
0.2874554406638019
 10
0.1513051846151586
 20
0.6004893822343763
 42
0.4203759914515556
 10
0.4597915929925146
 20
-0.0014682129556555
 42
0.4372316371353453
 10
0.8417271172141784
 20
0.2187601831726994
 42
-0.6251036610387125
 10
0.6066898715393085
 20
0.6738988580575639
 42
-0.2664445882783302
 10
1.150213478733356
 20
0.8941272228447111
 42
-0.2125068130736125
 10
2.986441983997368
 20
0.0572593488981701
 10
3.61810460517767
 20
0.0572593488981701
 42
-0.1290447123865346
 10
4.058799440818052
 20
0.4389885793010543
 42
0.1340963778891238
 10
5.454333063583504
 20
1.672267534937426
 42
0.0846805208480961
 10
5.233985669192403
 20
1.114355618973066
 42
0.1200390762823897
 10
5.498402570576631
 20
0.3802609861060215
 42
0.3412658322491184
 10
6.144754996182524
 20
0.1600326213188739
 42
0.3704087199847066
 10
6.438551553276112
 20
0.6592169440882019
 42
-0.2866720947712904
 10
6.041926224628857
 20
0.5417618203805509
 42
-0.3395294426622459
 10
5.601231342130298
 20
1.084991822375549
 42
-0.1026682367307198
 10
5.806888978953987
 20
2.230179450901788
 42
0.4373864693850768
 10
5.189916162199276
 20
5.210603598913222
 42
0.1829533445823591
 10
5.777509323244629
 20
5.093148443864365
 42
0.333187775427406
 10
6.409171897566753
 20
5.753833600908222
 42
0.3593677728216982
 10
6.041926224628857
 20
6.326427399500737
 42
0.435093028145738
 10
5.674680504832784
 20
6.120880917341744
 42
-0.2255351906884206
 10
5.968477061926372
 20
5.930016317810905
 42
-0.4265318365731342
 10
5.880338094798296
 20
5.5923327979749
 42
-0.2932008256505605
 10
5.57185168642094
 20
5.401468198444061
 42
-0.1479083469026583
 10
5.028328079226891
 20
5.445513877669732
 42
0.0799135118648676
 10
3.955970622406208
 20
5.959380114408422
 42
-0.3227023882438131
 10
3.603414753893902
 20
6.42920067192144
  0
LWPOLYLINE
  5
DF
330
64
100
AcDbEntity
  8
0
100
AcDbPolyline
 90
        4
 70
     0
 43
0.0
 10
2.971752179571777
 20
4.549918441869365
 42
-0.1301830219366626
 10
3.544655442475185
 20
4.417781404192353
 42
0.5492300785686448
 10
4.058799440818052
 20
4.711419244802687
 42
0.3716651903113509
 10
3.794382539433823
 20
5.049102764638693
 42
3.388524482343213
  0
LWPOLYLINE
  5
E5
330
64
100
AcDbEntity
  8
0
100
AcDbPolyline
 90
        3
 70
     0
 43
0.0
 10
2.957062328288009
 20
4.505872762643694
 42
-0.344301582212034
 10
3.735623228015105
 20
3.46345840653816
 42
0.2187841990674412
 10
3.926590966696849
 20
3.02300161428145
 42
2.239621859187632
  0
LWPOLYLINE
  5
EA
330
64
100
AcDbEntity
  8
0
100
AcDbPolyline
 90
        4
 70
     0
 43
0.0
 10
1.840635411332376
 20
3.889233284825508
 42
-0.1064057518553959
 10
2.486987836938269
 20
4.403099521564198
 42
-0.3496106616281133
 10
3.353687703793442
 20
3.947960846679333
 42
-0.280641078309437
 10
3.294928392374724
 20
3.507504085763831
 42
0.7129059213752891
  0
LWPOLYLINE
  5
F0
330
64
100
AcDbEntity
  8
0
100
AcDbPolyline
 90
       22
 70
     0
 43
0.0
 10
5.630610997839657
 20
2.523817291512122
 42
-0.2287025654407923
 10
3.853141850852541
 20
1.231810742680717
 42
-0.2530211960587503
 10
2.134431968425964
 20
1.804404541273232
 42
-0.2747903686106357
 10
1.693737132785582
 20
3.801141926374166
 42
-0.4451698412495335
 10
3.397757163928391
 20
4.549918441869365
 42
-1.190008229532929
 10
4.381975653620998
 20
4.403099521564198
 42
-0.2731826579417518
 10
3.926590966696849
 20
4.006688408533159
 42
-0.468323448619064
 10
4.13224855666236
 20
3.580913530245811
 42
0.1638322021235149
 10
4.058799440818052
 20
3.096411090104638
 42
0.358615776954789
 10
4.308526490918513
 20
3.096411090104638
 42
-0.2782067815914655
 10
4.088179096527411
 20
2.655954329189135
 42
-0.1663284967004531
 10
3.441826670921518
 20
2.846818928719974
 42
-0.4021538442694583
 10
3.309618196800315
 20
3.53686785102014
 42
-0.5089658964759822
 10
2.633886115485063
 20
3.448776492568798
 42
-0.4916680198652798
 10
2.707335278187549
 20
3.918597050081817
 42
-0.6851826522872426
 10
2.986441983997368
 20
3.683686771325307
 42
-0.4947971817711199
 10
2.810164049741215
 20
3.624959209471482
 42
0.8687086225505826
 10
3.089270802409213
 20
3.654323006068998
 42
0.6976627863340511
 10
2.780784394031857
 20
4.138825446210172
 42
0.3923770063847648
 10
2.016913345588529
 20
3.25791189303796
 42
0.5352079690689358
 10
4.411355309330358
 20
1.775040776016923
 42
0.5639340977263418
 10
5.1017771950712
 20
4.872920079077217
 42
-2.492362085347279
  0
LWPOLYLINE
  5
108
330
64
100
AcDbEntity
  8
0
100
AcDbPolyline
 90
        7
 70
     0
 43
0.0
 10
3.280238541090956
 20
5.988743879664731
 42
-0.1608441320760273
 10
2.69264542690378
 20
5.577650915346745
 42
0.109978608806416
 10
1.355871068698868
 20
4.828874399851546
 42
0.2584739189329084
 10
0.782967805795461
 20
3.18450244855598
 42
0.1766153249125368
 10
1.414630380117585
 20
1.452039138809072
 42
0.0796507398205622
 10
2.251950591263399
 20
1.026264260521724
 42
-0.1355599728832971
 10
3.324308048084083
 20
0.3508972208497123
 42
2.432441008080407
  0
LWPOLYLINE
  5
111
330
64
100
AcDbEntity
  8
0
100
AcDbPolyline
 90
        5
 70
     0
 43
0.0
 10
1.458699887110712
 20
1.05562805711924
 42
0.1176911911693506
 10
0.9886253957609723
 20
1.114355618973066
 42
0.2461671791916608
 10
0.3128933144457207
 20
0.6592169440882019
 42
0.3574503939324582
 10
0.401032281573797
 20
0.2040783005445449
 42
0.3793439088595889
 10
0.856416921639769
 20
0.2187601831726994
 42
-0.3978925686584223
  0
LWPOLYLINE
  5
118
330
64
100
AcDbEntity
  8
0
100
AcDbPolyline
 90
        4
 70
     0
 43
0.0
 10
5.615921193414067
 20
2.494453494914606
 42
-0.1230780559865641
 10
4.778600982268253
 20
1.481402935406588
 42
0.0075005780449444
 10
4.102868900953001
 20
0.9675366986678987
 42
0.1120486384343115
 10
3.309618196800315
 20
0.3362153068803504
 42
2.082421246614467
  0
LWPOLYLINE
  5
11E
330
64
100
AcDbEntity
  8
0
100
AcDbPolyline
 90
        2
 70
     0
 43
0.0
 10
3.309618196800315
 20
3.492822171794469
 42
0.7739779013678135
 10
4.323216342202281
 20
3.067047293507121
 42
11.53243821121926
  0
LWPOLYLINE
  5
122
330
64
100
AcDbEntity
  8
0
100
AcDbPolyline
 90
        4
 70
     0
 43
0.0
 10
1.164903330017124
 20
5.151876037059397
 42
0.2316294694155565
 10
0.9151762330584865
 20
5.988743879664731
 42
0.3346179107529093
 10
0.2688238074525937
 20
6.106199034713589
 42
0.5645753207728203
 10
0.2247543473176444
 20
5.533605236121074
 42
0.2513882396404049
  0
LWPOLYLINE
  5
128
330
64
100
AcDbEntity
  8
0
100
AcDbPolyline
 90
        3
 70
     0
 43
0.0
 10
3.280238541090956
 20
5.988743879664731
 42
0.1501005356127434
 10
3.985350278115566
 20
5.504241439523558
 42
-0.1034665725860375
 10
5.087087390645609
 20
4.887601961705371
 42
-0.4878697372550286
  0
ENDBLK
  5
12D
330
64
100
AcDbEntity
  8
0
100
AcDbBlockEnd
  0
BLOCK
  5
12E
330
6C
100
AcDbEntity
  8
0
100
AcDbBlockBegin
  2
*D2
 70
     1
 10
0.0
 20
0.0
 30
0.0
  3
*D2
  1

  0
LINE
  5
12F
330
6C
100
AcDbEntity
  8
0
  6
BYBLOCK
 62
     0
100
AcDbLine
 10
-56.66581892718834
 20
48.95337691387936
 30
0.0
 11
-52.24594388290165
 21
48.95337691387936
 31
0.0
  0
LINE
  5
130
330
6C
100
AcDbEntity
  8
0
  6
BYBLOCK
 62
     0
100
AcDbLine
 10
-56.65097902599422
 20
42.51634921211463
 30
0.0
 11
-52.24594388290165
 21
42.51634921211463
 31
0.0
  0
LINE
  5
131
330
6C
100
AcDbEntity
  8
0
  6
BYBLOCK
 62
     0
100
AcDbLine
 10
-52.42594388290165
 20
48.95337691387936
 30
0.0
 11
-52.42594388290165
 21
46.19319639633032
 31
0.0
  0
LINE
  5
132
330
6C
100
AcDbEntity
  8
0
  6
BYBLOCK
 62
     0
100
AcDbLine
 10
-52.42594388290165
 20
42.51634921211463
 30
0.0
 11
-52.42594388290165
 21
45.27652972966365
 31
0.0
  0
LINE
  5
133
330
6C
100
AcDbEntity
  8
0
  6
BYBLOCK
 62
     0
100
AcDbLine
 10
-52.30094388290165
 20
48.82837691387936
 30
0.0
 11
-52.55094388290165
 21
49.07837691387936
 31
0.0
  0
LINE
  5
134
330
6C
100
AcDbEntity
  8
0
  6
BYBLOCK
 62
     0
100
AcDbLine
 10
-52.30094388290165
 20
42.39134921211463
 30
0.0
 11
-52.55094388290165
 21
42.64134921211463
 31
0.0
  0
TEXT
  5
135
330
6C
100
AcDbEntity
  8
0
  6
BYBLOCK
 62
     0
100
AcDbText
 10
-52.36344388290166
 20
45.40152972966366
 30
0.0
 40
0.125
  1
6 7/16
 50
90.0
 72
     1
 11
-52.42594388290165
 21
45.73486306299699
 31
0.0
100
AcDbText
 73
     2
  0
POINT
  5
136
330
6C
100
AcDbEntity
  8
DEFPOINTS
  6
BYBLOCK
 62
     0
100
AcDbPoint
 10
-56.72831892718835
 20
48.95337691387936
 30
0.0
  0
POINT
  5
137
330
6C
100
AcDbEntity
  8
DEFPOINTS
  6
BYBLOCK
 62
     0
100
AcDbPoint
 10
-56.71347902599421
 20
42.51634921211463
 30
0.0
  0
POINT
  5
138
330
6C
100
AcDbEntity
  8
DEFPOINTS
  6
BYBLOCK
 62
     0
100
AcDbPoint
 10
-52.42594388290165
 20
42.51634921211463
 30
0.0
  0
ENDBLK
  5
139
330
6C
100
AcDbEntity
  8
0
100
AcDbBlockEnd
  0
BLOCK
  5
13A
330
95
100
AcDbEntity
  8
0
100
AcDbBlockBegin
  2
*D3
 70
     1
 10
0.0
 20
0.0
 30
0.0
  3
*D3
  1

  0
LINE
  5
13B
330
95
100
AcDbEntity
  8
0
  6
BYBLOCK
 62
     0
100
AcDbLine
 10
-60.32860783631297
 20
48.36911851264617
 30
0.0
 11
-60.32860783631297
 21
49.48162420424474
 31
0.0
  0
LINE
  5
13C
330
95
100
AcDbEntity
  8
0
  6
BYBLOCK
 62
     0
100
AcDbLine
 10
-53.89110783631298
 20
48.40021245353973
 30
0.0
 11
-53.89110783631298
 21
49.48162420424474
 31
0.0
  0
LINE
  5
13D
330
95
100
AcDbEntity
  8
0
  6
BYBLOCK
 62
     0
100
AcDbLine
 10
-60.32860783631297
 20
49.30162420424474
 30
0.0
 11
-57.56819116964631
 21
49.30162420424474
 31
0.0
  0
LINE
  5
13E
330
95
100
AcDbEntity
  8
0
  6
BYBLOCK
 62
     0
100
AcDbLine
 10
-53.89110783631298
 20
49.30162420424474
 30
0.0
 11
-56.65152450297964
 21
49.30162420424474
 31
0.0
  0
LINE
  5
13F
330
95
100
AcDbEntity
  8
0
  6
BYBLOCK
 62
     0
100
AcDbLine
 10
-60.45360783631298
 20
49.17662420424474
 30
0.0
 11
-60.20360783631297
 21
49.42662420424475
 31
0.0
  0
LINE
  5
140
330
95
100
AcDbEntity
  8
0
  6
BYBLOCK
 62
     0
100
AcDbLine
 10
-54.01610783631298
 20
49.17662420424474
 30
0.0
 11
-53.76610783631297
 21
49.42662420424475
 31
0.0
  0
TEXT
  5
141
330
95
100
AcDbEntity
  8
0
  6
BYBLOCK
 62
     0
100
AcDbText
 10
-57.44319116964631
 20
49.23912420424475
 30
0.0
 40
0.125
  1
6 7/16
 72
     1
 11
-57.10985783631297
 21
49.30162420424474
 31
0.0
100
AcDbText
 73
     2
  0
POINT
  5
142
330
95
100
AcDbEntity
  8
DEFPOINTS
  6
BYBLOCK
 62
     0
100
AcDbPoint
 10
-60.32860783631297
 20
48.30661851264618
 30
0.0
  0
POINT
  5
143
330
95
100
AcDbEntity
  8
DEFPOINTS
  6
BYBLOCK
 62
     0
100
AcDbPoint
 10
-53.89110783631298
 20
48.33771245353973
 30
0.0
  0
POINT
  5
144
330
95
100
AcDbEntity
  8
DEFPOINTS
  6
BYBLOCK
 62
     0
100
AcDbPoint
 10
-53.89110783631298
 20
49.30162420424474
 30
0.0
  0
ENDBLK
  5
145
330
95
100
AcDbEntity
  8
0
100
AcDbBlockEnd
  0
ENDSEC
  0
SECTION
  2
ENTITIES
  0
DIMENSION
  5
146
330
18
100
AcDbEntity
  8
ADPDIM
100
AcDbDimension
  2
*D2
 10
-52.42594388290165
 20
42.51634921211463
 30
0.0
 11
-52.42594388290165
 21
45.73486306299699
 31
0.0
100
AcDbAlignedDimension
 13
-56.72831892718835
 23
48.95337691387936
 33
0.0
 14
-56.71347902599421
 24
42.51634921211463
 34
0.0
 50
90.0
100
AcDbRotatedDimension
  0
INSERT
  5
147
330
18
100
AcDbEntity
  8
ADP1DETAIL
100
AcDbBlockReference
  2
526
 10
-60.95174803290449
 20
42.69729797258799
 30
0.0
 41
1.010214528891891
 42
1.010214528891891
 43
1.010214528891891
  0
DIMENSION
  5
148
330
18
100
AcDbEntity
  8
ADPDIM
100
AcDbDimension
  2
*D3
 10
-53.89110783631298
 20
49.30162420424474
 30
0.0
 11
-57.10985783631297
 21
49.30162420424474
 31
0.0
100
AcDbAlignedDimension
 13
-60.32860783631297
 23
48.30661851264618
 33
0.0
 14
-53.89110783631298
 24
48.33771245353973
 34
0.0
100
AcDbRotatedDimension
  0
TEXT
  5
156
330
18
100
AcDbEntity
  8
ADPDIM
100
AcDbText
 10
-66.69451584073152
 20
41.27783189015047
 30
0.0
 40
0.1875
  1
J U L I U S  B L U M  &  C O . ,  I N C .      ( 8 0 0 )  5 2 6 - 6 2 9 3        W W W . J U L I U S B L U M . C O M        P A R T  N o .  5 2 6
 41
1.25
  7
ARIAL_WIDE
 72
     1
 11
-57.04245453445594
 21
41.46533189015046
 31
0.0
100
AcDbText
 73
     3
  0
ENDSEC
  0
SECTION
  2
OBJECTS
  0
DICTIONARY
  5
C
330
0
100
AcDbDictionary
  3
ACAD_GROUP
350
D
  3
ACAD_LAYOUT
350
14F
  3
ACAD_MLINESTYLE
350
E
  3
ACAD_PLOTSETTINGS
350
150
  3
ACAD_PLOTSTYLENAME
350
14D
  3
ACDBHEADERROUNDTRIPXREC
350
29E
  3
ACDBVARIABLEDICTIONARY
350
1B0
  0
DICTIONARY
  5
1AA
330
18
100
AcDbDictionary
280
     1
  3
ACAD_LAYOUTSELFREF
360
2BF
  0
DICTIONARY
  5
1A8
330
15
100
AcDbDictionary
280
     1
  3
ACAD_LAYOUTSELFREF
360
2BE
  0
DICTIONARY
  5
D
102
{ACAD_REACTORS
330
C
102
}
330
C
100
AcDbDictionary
  0
DICTIONARY
  5
14F
102
{ACAD_REACTORS
330
C
102
}
330
C
100
AcDbDictionary
  0
DICTIONARY
  5
E
102
{ACAD_REACTORS
330
C
102
}
330
C
100
AcDbDictionary
  3
STANDARD
350
1B
  0
DICTIONARY
  5
150
102
{ACAD_REACTORS
330
C
102
}
330
C
100
AcDbDictionary
  0
ACDBDICTIONARYWDFLT
  5
14D
102
{ACAD_REACTORS
330
C
102
}
330
C
100
AcDbDictionary
281
     1
  3
Normal
350
14E
100
AcDbDictionaryWithDefault
340
14E
  0
DICTIONARY
  5
29E
102
{ACAD_REACTORS
330
C
102
}
330
C
100
AcDbDictionary
  3
CEPSNTYPE
350
2A8
  3
FINGERPRINTGUID
350
2A9
  3
HYPERLINKBASE
350
2A1
  3
INSUNITS
350
2A7
  3
LAYOUTDICT
350
2A3
  3
LWETCUNION
350
2A6
  3
PLOTSETDICT
350
2A4
  3
PLOTSTYLNAMDICT
350
2A5
  3
PSVPSCALE
350
2AB
  3
PUCSBASE
350
2AE
  3
PUCSORGBACK
350
2B4
  3
PUCSORGBOTTOM
350
2B0
  3
PUCSORGFRONT
350
2B3
  3
PUCSORGLEFT
350
2B1
  3
PUCSORGRIGHT
350
2B2
  3
PUCSORGTOP
350
2AF
  3
PUCSORTHOREF
350
2AC
  3
PUCSORTHOVIEW
350
2AD
  3
STYLESHEET
350
2A2
  3
TSTACKALIGN
350
29F
  3
TSTACKSIZE
350
2A0
  3
UCSBASE
350
2B7
  3
UCSORGBACK
350
2BD
  3
UCSORGBOTTOM
350
2B9
  3
UCSORGFRONT
350
2BC
  3
UCSORGLEFT
350
2BA
  3
UCSORGRIGHT
350
2BB
  3
UCSORGTOP
350
2B8
  3
UCSORTHOREF
350
2B5
  3
UCSORTHOVIEW
350
2B6
  3
VERSIONGUID
350
2AA
  0
DICTIONARY
  5
1B0
102
{ACAD_REACTORS
330
C
102
}
330
C
100
AcDbDictionary
  3
DIMASSOC
350
1B1
  0
XRECORD
  5
2BF
102
{ACAD_REACTORS
330
1AA
102
}
330
1AA
100
AcDbXrecord
340
18
  0
XRECORD
  5
2BE
102
{ACAD_REACTORS
330
1A8
102
}
330
1A8
100
AcDbXrecord
340
15
  0
MLINESTYLE
  5
1B
102
{ACAD_REACTORS
330
E
102
}
330
E
100
AcDbMlineStyle
  2
STANDARD
 70
     0
  3

 62
     0
 51
90.0
 52
90.0
 71
     2
 49
0.5
 62
   256
  6
BYLAYER
 49
-0.5
 62
   256
  6
BYLAYER
  0
ACDBPLACEHOLDER
  5
14E
102
{ACAD_REACTORS
330
14D
102
}
330
14D
100
AcDbPlaceHolder
280
     0
  0
XRECORD
  5
2A8
102
{ACAD_REACTORS
330
29E
102
}
330
29E
100
AcDbXrecord
 90
        0
  0
XRECORD
  5
2A9
102
{ACAD_REACTORS
330
29E
102
}
330
29E
100
AcDbXrecord
  1
{81254696-2C4A-4AC4-BAB2-C5A3A890B336}
  0
XRECORD
  5
2A1
102
{ACAD_REACTORS
330
29E
102
}
330
29E
100
AcDbXrecord
  1

  0
XRECORD
  5
2A7
102
{ACAD_REACTORS
330
29E
102
}
330
29E
100
AcDbXrecord
 90
        0
  0
XRECORD
  5
2A3
102
{ACAD_REACTORS
330
29E
102
}
330
29E
100
AcDbXrecord
340
14F
  0
XRECORD
  5
2A6
102
{ACAD_REACTORS
330
29E
102
}
330
29E
100
AcDbXrecord
 90
    14877
  0
XRECORD
  5
2A4
102
{ACAD_REACTORS
330
29E
102
}
330
29E
100
AcDbXrecord
340
150
  0
XRECORD
  5
2A5
102
{ACAD_REACTORS
330
29E
102
}
330
29E
100
AcDbXrecord
340
14D
  0
XRECORD
  5
2AB
102
{ACAD_REACTORS
330
29E
102
}
330
29E
100
AcDbXrecord
 40
0.0
  0
XRECORD
  5
2AE
102
{ACAD_REACTORS
330
29E
102
}
330
29E
100
AcDbXrecord
340
0
  0
XRECORD
  5
2B4
102
{ACAD_REACTORS
330
29E
102
}
330
29E
100
AcDbXrecord
 10
0.0
 20
0.0
 30
0.0
  0
XRECORD
  5
2B0
102
{ACAD_REACTORS
330
29E
102
}
330
29E
100
AcDbXrecord
 10
0.0
 20
0.0
 30
0.0
  0
XRECORD
  5
2B3
102
{ACAD_REACTORS
330
29E
102
}
330
29E
100
AcDbXrecord
 10
0.0
 20
0.0
 30
0.0
  0
XRECORD
  5
2B1
102
{ACAD_REACTORS
330
29E
102
}
330
29E
100
AcDbXrecord
 10
0.0
 20
0.0
 30
0.0
  0
XRECORD
  5
2B2
102
{ACAD_REACTORS
330
29E
102
}
330
29E
100
AcDbXrecord
 10
0.0
 20
0.0
 30
0.0
  0
XRECORD
  5
2AF
102
{ACAD_REACTORS
330
29E
102
}
330
29E
100
AcDbXrecord
 10
0.0
 20
0.0
 30
0.0
  0
XRECORD
  5
2AC
102
{ACAD_REACTORS
330
29E
102
}
330
29E
100
AcDbXrecord
340
0
  0
XRECORD
  5
2AD
102
{ACAD_REACTORS
330
29E
102
}
330
29E
100
AcDbXrecord
 70
     0
  0
XRECORD
  5
2A2
102
{ACAD_REACTORS
330
29E
102
}
330
29E
100
AcDbXrecord
  1

  0
XRECORD
  5
29F
102
{ACAD_REACTORS
330
29E
102
}
330
29E
100
AcDbXrecord
 90
        1
  0
XRECORD
  5
2A0
102
{ACAD_REACTORS
330
29E
102
}
330
29E
100
AcDbXrecord
 90
       70
  0
XRECORD
  5
2B7
102
{ACAD_REACTORS
330
29E
102
}
330
29E
100
AcDbXrecord
340
0
  0
XRECORD
  5
2BD
102
{ACAD_REACTORS
330
29E
102
}
330
29E
100
AcDbXrecord
 10
0.0
 20
0.0
 30
0.0
  0
XRECORD
  5
2B9
102
{ACAD_REACTORS
330
29E
102
}
330
29E
100
AcDbXrecord
 10
0.0
 20
0.0
 30
0.0
  0
XRECORD
  5
2BC
102
{ACAD_REACTORS
330
29E
102
}
330
29E
100
AcDbXrecord
 10
0.0
 20
0.0
 30
0.0
  0
XRECORD
  5
2BA
102
{ACAD_REACTORS
330
29E
102
}
330
29E
100
AcDbXrecord
 10
0.0
 20
0.0
 30
0.0
  0
XRECORD
  5
2BB
102
{ACAD_REACTORS
330
29E
102
}
330
29E
100
AcDbXrecord
 10
0.0
 20
0.0
 30
0.0
  0
XRECORD
  5
2B8
102
{ACAD_REACTORS
330
29E
102
}
330
29E
100
AcDbXrecord
 10
0.0
 20
0.0
 30
0.0
  0
XRECORD
  5
2B5
102
{ACAD_REACTORS
330
29E
102
}
330
29E
100
AcDbXrecord
340
0
  0
XRECORD
  5
2B6
102
{ACAD_REACTORS
330
29E
102
}
330
29E
100
AcDbXrecord
 70
     0
  0
XRECORD
  5
2AA
102
{ACAD_REACTORS
330
29E
102
}
330
29E
100
AcDbXrecord
  1
{211E4F87-8A26-41B9-9DAB-085A2C351301}
  0
DICTIONARYVAR
  5
1B1
102
{ACAD_REACTORS
330
1B0
102
}
330
1B0
100
DictionaryVariables
280
     0
  1
1
  0
ENDSEC
  0
EOF
