  0
SECTION
  2
HEADER
  9
$ACADVER
  1
AC1014
  9
$ACADMAINTVER
 70
     9
  9
$DWGCODEPAGE
  3
ANSI_1252
  9
$INSBASE
 10
-67.98945004004444
 20
42.27653540892442
 30
0.0
  9
$EXTMIN
 10
-89.46932626051699
 20
40.46357265809853
 30
0.0
  9
$EXTMAX
 10
-50.86108103541467
 20
56.38447574665247
 30
0.0
  9
$LIMMIN
 10
0.0
 20
0.0
  9
$LIMMAX
 10
36.0
 20
36.0
  9
$ORTHOMODE
 70
     1
  9
$REGENMODE
 70
     1
  9
$FILLMODE
 70
     1
  9
$QTEXTMODE
 70
     0
  9
$MIRRTEXT
 70
     1
  9
$DRAGMODE
 70
     0
  9
$LTSCALE
 40
1.0
  9
$OSMODE
 70
    37
  9
$ATTMODE
 70
     1
  9
$TEXTSIZE
 40
0.2
  9
$TRACEWID
 40
0.05
  9
$TEXTSTYLE
  7
STANDARD
  9
$CLAYER
  8
ADPDIM
  9
$CELTYPE
  6
BYLAYER
  9
$CECOLOR
 62
   256
  9
$CELTSCALE
 40
1.0
  9
$DELOBJ
 70
     1
  9
$DISPSILH
 70
     0
  9
$DIMSCALE
 40
1.0
  9
$DIMASZ
 40
0.125
  9
$DIMEXO
 40
0.0625
  9
$DIMDLI
 40
0.38
  9
$DIMRND
 40
0.0
  9
$DIMDLE
 40
0.0
  9
$DIMEXE
 40
0.18
  9
$DIMTP
 40
0.0
  9
$DIMTM
 40
0.0
  9
$DIMTXT
 40
0.125
  9
$DIMCEN
 40
0.1875
  9
$DIMTSZ
 40
0.125
  9
$DIMTOL
 70
     0
  9
$DIMLIM
 70
     0
  9
$DIMTIH
 70
     0
  9
$DIMTOH
 70
     0
  9
$DIMSE1
 70
     0
  9
$DIMSE2
 70
     0
  9
$DIMTAD
 70
     0
  9
$DIMZIN
 70
     3
  9
$DIMBLK
  1

  9
$DIMASO
 70
     1
  9
$DIMSHO
 70
     1
  9
$DIMPOST
  1

  9
$DIMAPOST
  1

  9
$DIMALT
 70
     0
  9
$DIMALTD
 70
     1
  9
$DIMALTF
 40
25.4
  9
$DIMLFAC
 40
1.0
  9
$DIMTOFL
 70
     0
  9
$DIMTVP
 40
0.0
  9
$DIMTIX
 70
     0
  9
$DIMSOXD
 70
     0
  9
$DIMSAH
 70
     0
  9
$DIMBLK1
  1

  9
$DIMBLK2
  1

  9
$DIMSTYLE
  2
STANDARD
  9
$DIMCLRD
 70
     0
  9
$DIMCLRE
 70
     0
  9
$DIMCLRT
 70
     0
  9
$DIMTFAC
 40
1.0
  9
$DIMGAP
 40
0.125
  9
$DIMJUST
 70
     0
  9
$DIMSD1
 70
     0
  9
$DIMSD2
 70
     0
  9
$DIMTOLJ
 70
     1
  9
$DIMTZIN
 70
     0
  9
$DIMALTZ
 70
     0
  9
$DIMALTTZ
 70
     0
  9
$DIMFIT
 70
     3
  9
$DIMUPT
 70
     0
  9
$DIMUNIT
 70
     2
  9
$DIMDEC
 70
     4
  9
$DIMTDEC
 70
     4
  9
$DIMALTU
 70
     2
  9
$DIMALTTD
 70
     2
  9
$DIMTXSTY
  7
STANDARD
  9
$DIMAUNIT
 70
     0
  9
$LUNITS
 70
     5
  9
$LUPREC
 70
     4
  9
$SKETCHINC
 40
0.1
  9
$FILLETRAD
 40
0.062
  9
$AUNITS
 70
     0
  9
$AUPREC
 70
     0
  9
$MENU
  1
acad
  9
$ELEVATION
 40
0.0
  9
$PELEVATION
 40
0.0
  9
$THICKNESS
 40
0.0
  9
$LIMCHECK
 70
     0
  9
$BLIPMODE
 70
     0
  9
$CHAMFERA
 40
0.0
  9
$CHAMFERB
 40
0.0
  9
$CHAMFERC
 40
0.0
  9
$CHAMFERD
 40
0.0
  9
$SKPOLY
 70
     0
  9
$TDCREATE
 40
2450407.574761180
  9
$TDUPDATE
 40
2452297.072095266
  9
$TDINDWG
 40
0.0271898958
  9
$TDUSRTIMER
 40
0.0271898958
  9
$USRTIMER
 70
     1
  9
$ANGBASE
 50
0.0
  9
$ANGDIR
 70
     0
  9
$PDMODE
 70
     0
  9
$PDSIZE
 40
0.0
  9
$PLINEWID
 40
0.0
  9
$COORDS
 70
     2
  9
$SPLFRAME
 70
     0
  9
$SPLINETYPE
 70
     6
  9
$SPLINESEGS
 70
     8
  9
$ATTDIA
 70
     0
  9
$ATTREQ
 70
     1
  9
$HANDLING
 70
 22529
  9
$HANDSEED
  5
286
  9
$SURFTAB1
 70
     6
  9
$SURFTAB2
 70
     6
  9
$SURFTYPE
 70
     6
  9
$SURFU
 70
     6
  9
$SURFV
 70
     6
  9
$UCSNAME
  2

  9
$UCSORG
 10
0.0
 20
0.0
 30
0.0
  9
$UCSXDIR
 10
1.0
 20
0.0
 30
0.0
  9
$UCSYDIR
 10
0.0
 20
1.0
 30
0.0
  9
$PUCSNAME
  2

  9
$PUCSORG
 10
0.0
 20
0.0
 30
0.0
  9
$PUCSXDIR
 10
1.0
 20
0.0
 30
0.0
  9
$PUCSYDIR
 10
0.0
 20
1.0
 30
0.0
  9
$USERI1
 70
     0
  9
$USERI2
 70
     0
  9
$USERI3
 70
     0
  9
$USERI4
 70
     0
  9
$USERI5
 70
     0
  9
$USERR1
 40
0.0
  9
$USERR2
 40
0.0
  9
$USERR3
 40
0.0
  9
$USERR4
 40
0.0
  9
$USERR5
 40
0.0
  9
$WORLDVIEW
 70
     1
  9
$SHADEDGE
 70
     3
  9
$SHADEDIF
 70
    70
  9
$TILEMODE
 70
     1
  9
$MAXACTVP
 70
    15
  9
$PINSBASE
 10
0.0008545038290322
 20
1.250283272183907
 30
0.0
  9
$PLIMCHECK
 70
     0
  9
$PEXTMIN
 10
1.000000000000000E+20
 20
1.000000000000000E+20
 30
1.000000000000000E+20
  9
$PEXTMAX
 10
-1.000000000000000E+20
 20
-1.000000000000000E+20
 30
-1.000000000000000E+20
  9
$PLIMMIN
 10
0.0
 20
0.0
  9
$PLIMMAX
 10
12.0
 20
9.0
  9
$UNITMODE
 70
     0
  9
$VISRETAIN
 70
     0
  9
$PLINEGEN
 70
     0
  9
$PSLTSCALE
 70
     1
  9
$TREEDEPTH
 70
  3020
  9
$PICKSTYLE
 70
     1
  9
$CMLSTYLE
  2
STANDARD
  9
$CMLJUST
 70
     0
  9
$CMLSCALE
 40
1.0
  9
$PROXYGRAPHICS
 70
     1
  9
$MEASUREMENT
 70
     0
  0
ENDSEC
  0
SECTION
  2
CLASSES
  0
CLASS
  1
ACDBDICTIONARYWDFLT
  2
AcDbDictionaryWithDefault
  3
AutoCAD 2000
 90
        0
280
     0
281
     0
  0
CLASS
  1
ACDBPLACEHOLDER
  2
AcDbPlaceHolder
  3
AutoCAD 2000
 90
        0
280
     0
281
     0
  0
CLASS
  1
LAYOUT
  2
AcDbLayout
  3
AutoCAD 2000
 90
        0
280
     0
281
     0
  0
CLASS
  1
DICTIONARYVAR
  2
AcDbDictionaryVar
  3
AutoCAD 2000
 90
        0
280
     0
281
     0
  0
CLASS
  1
LONG_TRANSACTION
  2
AcDbLongTransaction
  3
AutoCAD 2000
 90
        0
280
     0
281
     0
  0
CLASS
  1
LWPOLYLINE
  2
AcDbPolyline
  3
AutoCAD 2000
 90
        0
280
     0
281
     1
  0
CLASS
  1
HATCH
  2
AcDbHatch
  3
AutoCAD 2000
 90
        0
280
     0
281
     1
  0
CLASS
  1
XRECORD
  2
AcDbXrecord
  3
AutoCAD 2000
 90
        0
280
     0
281
     0
  0
CLASS
  1
LONG_TRANSACTION
  2
AcDbLongTransaction
  3
AutoCAD 2000
 90
        0
280
     0
281
     0
  0
CLASS
  1
LWPOLYLINE
  2
AcDbPolyline
  3
AutoCAD 2000
 90
        0
280
     0
281
     1
  0
CLASS
  1
HATCH
  2
AcDbHatch
  3
AutoCAD 2000
 90
        0
280
     0
281
     1
  0
CLASS
  1
XRECORD
  2
AcDbXrecord
  3
AutoCAD 2000
 90
        0
280
     0
281
     0
  0
CLASS
  1
LONG_TRANSACTION
  2
AcDbLongTransaction
  3
AutoCAD 2000
 90
        0
280
     0
281
     0
  0
CLASS
  1
LWPOLYLINE
  2
AcDbPolyline
  3
AutoCAD 2000
 90
        0
280
     0
281
     1
  0
CLASS
  1
HATCH
  2
AcDbHatch
  3
AutoCAD 2000
 90
        0
280
     0
281
     1
  0
CLASS
  1
XRECORD
  2
AcDbXrecord
  3
AutoCAD 2000
 90
        0
280
     0
281
     0
  0
CLASS
  1
LONG_TRANSACTION
  2
AcDbLongTransaction
  3
AutoCAD 2000
 90
        0
280
     0
281
     0
  0
CLASS
  1
LWPOLYLINE
  2
AcDbPolyline
  3
AutoCAD 2000
 90
        0
280
     0
281
     1
  0
CLASS
  1
HATCH
  2
AcDbHatch
  3
AutoCAD 2000
 90
        0
280
     0
281
     1
  0
CLASS
  1
XRECORD
  2
AcDbXrecord
  3
AutoCAD 2000
 90
        0
280
     0
281
     0
  0
CLASS
  1
LONG_TRANSACTION
  2
AcDbLongTransaction
  3
AutoCAD 2000
 90
        0
280
     0
281
     0
  0
CLASS
  1
LWPOLYLINE
  2
AcDbPolyline
  3
AutoCAD 2000
 90
        0
280
     0
281
     1
  0
CLASS
  1
HATCH
  2
AcDbHatch
  3
AutoCAD 2000
 90
        0
280
     0
281
     1
  0
CLASS
  1
XRECORD
  2
AcDbXrecord
  3
AutoCAD 2000
 90
        0
280
     0
281
     0
  0
CLASS
  1
LONG_TRANSACTION
  2
AcDbLongTransaction
  3
AutoCAD 2000
 90
        0
280
     0
281
     0
  0
CLASS
  1
LWPOLYLINE
  2
AcDbPolyline
  3
AutoCAD 2000
 90
        0
280
     0
281
     1
  0
CLASS
  1
HATCH
  2
AcDbHatch
  3
AutoCAD 2000
 90
        0
280
     0
281
     1
  0
CLASS
  1
XRECORD
  2
AcDbXrecord
  3
AutoCAD 2000
 90
        0
280
     0
281
     0
  0
ENDSEC
  0
SECTION
  2
TABLES
  0
TABLE
  2
VPORT
  5
8
330
0
100
AcDbSymbolTable
 70
     2
  0
VPORT
  5
263
330
8
100
AcDbSymbolTableRecord
100
AcDbViewportTableRecord
  2
*ACTIVE
 70
     0
 10
0.0
 20
0.0
 11
1.0
 21
1.0
 12
-70.13079431114471
 22
48.42508906815647
 13
0.0
 23
0.0
 14
0.5740882589684922
 24
0.5740882589684922
 15
0.5
 25
0.5
 16
0.0
 26
0.0
 36
1.0
 17
0.0
 27
0.0
 37
0.0
 40
24.7471640748152
 41
1.570528967254408
 42
50.0
 43
0.0
 44
0.0
 50
0.0
 51
0.0
 71
     0
 72
   100
 73
     1
 74
     0
 75
     0
 76
     0
 77
     0
 78
     0
  0
ENDTAB
  0
TABLE
  2
LTYPE
  5
5
330
0
100
AcDbSymbolTable
 70
     1
  0
LTYPE
  5
12
330
5
100
AcDbSymbolTableRecord
100
AcDbLinetypeTableRecord
  2
BYBLOCK
 70
     0
  3

 72
    65
 73
     0
 40
0.0
  0
LTYPE
  5
13
330
5
100
AcDbSymbolTableRecord
100
AcDbLinetypeTableRecord
  2
BYLAYER
 70
     0
  3

 72
    65
 73
     0
 40
0.0
  0
LTYPE
  5
14
330
5
100
AcDbSymbolTableRecord
100
AcDbLinetypeTableRecord
  2
CONTINUOUS
 70
     0
  3
Solid line
 72
    65
 73
     0
 40
0.0
  0
ENDTAB
  0
TABLE
  2
LAYER
  5
2
330
0
100
AcDbSymbolTable
 70
     4
  0
LAYER
  5
F
330
2
100
AcDbSymbolTableRecord
100
AcDbLayerTableRecord
  2
0
 70
     0
 62
     7
  6
CONTINUOUS
  0
LAYER
  5
20
330
2
100
AcDbSymbolTableRecord
100
AcDbLayerTableRecord
  2
ADP1DETAIL
 70
     0
 62
     7
  6
CONTINUOUS
  0
LAYER
  5
21
330
2
100
AcDbSymbolTableRecord
100
AcDbLayerTableRecord
  2
DEFPOINTS
 70
     0
 62
     7
  6
CONTINUOUS
  0
LAYER
  5
22
330
2
100
AcDbSymbolTableRecord
100
AcDbLayerTableRecord
  2
ADPDIM
 70
     0
 62
     3
  6
CONTINUOUS
  0
ENDTAB
  0
TABLE
  2
STYLE
  5
3
330
0
100
AcDbSymbolTable
 70
     2
  0
STYLE
  5
10
330
3
100
AcDbSymbolTableRecord
100
AcDbTextStyleTableRecord
  2
STANDARD
 70
     0
 40
0.0
 41
1.0
 50
0.0
 71
     0
 42
0.2
  3
txt
  4

  0
STYLE
  5
F7
330
3
100
AcDbSymbolTableRecord
100
AcDbTextStyleTableRecord
  2
ARIAL_WIDE
 70
     0
 40
0.0
 41
1.25
 50
0.0
 71
     0
 42
0.2
  3
ARIAL.TTF
  4

1001
ACAD
1000
Arial
1071
       34
  0
ENDTAB
  0
TABLE
  2
VIEW
  5
6
330
0
100
AcDbSymbolTable
 70
     0
  0
ENDTAB
  0
TABLE
  2
UCS
  5
7
330
0
100
AcDbSymbolTable
 70
     0
  0
ENDTAB
  0
TABLE
  2
APPID
  5
9
330
0
100
AcDbSymbolTable
 70
     1
  0
APPID
  5
11
330
9
100
AcDbSymbolTableRecord
100
AcDbRegAppTableRecord
  2
ACAD
 70
     0
  0
ENDTAB
  0
TABLE
  2
DIMSTYLE
  5
A
330
0
100
AcDbSymbolTable
 70
     1
  0
DIMSTYLE
105
EB
102
{ACAD_REACTORS
330
E8
330
EA
102
}
330
A
100
AcDbSymbolTableRecord
100
AcDbDimStyleTableRecord
  2
STANDARD
 70
     0
  3

  4

  5

  6

  7

 40
1.0
 41
0.18
 42
0.0625
 43
0.38
 44
0.18
 45
0.0
 46
0.0
 47
0.0
 48
0.0
140
0.18
141
0.09
142
0.0
143
25.4
144
1.0
145
0.0
146
1.0
147
0.09
 71
     0
 72
     0
 73
     1
 74
     1
 75
     0
 76
     0
 77
     0
 78
     0
170
     0
171
     2
172
     0
173
     0
174
     0
175
     0
176
     0
177
     0
178
     0
270
     2
271
     4
272
     4
273
     2
274
     2
340
10
275
     0
280
     0
281
     0
282
     0
283
     1
284
     0
285
     0
286
     0
287
     3
288
     0
  0
ENDTAB
  0
TABLE
  2
BLOCK_RECORD
  5
1
330
0
100
AcDbSymbolTable
 70
     3
  0
BLOCK_RECORD
  5
18
102
{ACAD_XDICTIONARY
360
14C
102
}
330
1
100
AcDbSymbolTableRecord
100
AcDbBlockTableRecord
  2
*MODEL_SPACE
  0
BLOCK_RECORD
  5
15
102
{ACAD_XDICTIONARY
360
14A
102
}
330
1
100
AcDbSymbolTableRecord
100
AcDbBlockTableRecord
  2
*PAPER_SPACE
  0
BLOCK_RECORD
  5
1C
330
1
100
AcDbSymbolTableRecord
100
AcDbBlockTableRecord
  2
B525
  0
BLOCK_RECORD
  5
187
330
1
100
AcDbSymbolTableRecord
100
AcDbBlockTableRecord
  2
*D1
  0
BLOCK_RECORD
  5
19E
330
1
100
AcDbSymbolTableRecord
100
AcDbBlockTableRecord
  2
*D2
  0
ENDTAB
  0
ENDSEC
  0
SECTION
  2
BLOCKS
  0
BLOCK
  5
25
330
18
100
AcDbEntity
  8
0
100
AcDbBlockBegin
  2
*MODEL_SPACE
 70
     0
 10
0.0
 20
0.0
 30
0.0
  3
*MODEL_SPACE
  1

  0
ENDBLK
  5
26
330
18
100
AcDbEntity
  8
0
100
AcDbBlockEnd
  0
BLOCK
  5
23
330
15
100
AcDbEntity
 67
     1
  8
0
100
AcDbBlockBegin
  2
*PAPER_SPACE
 70
     0
 10
0.0
 20
0.0
 30
0.0
  3
*PAPER_SPACE
  1

  0
ENDBLK
  5
24
330
15
100
AcDbEntity
 67
     1
  8
0
100
AcDbBlockEnd
  0
BLOCK
  5
27
330
1C
100
AcDbEntity
  8
0
100
AcDbBlockBegin
  2
B525
 70
     0
 10
0.0
 20
0.0
 30
0.0
  3
B525
  1

  0
LWPOLYLINE
  5
28
330
1C
100
AcDbEntity
  8
0
100
AcDbPolyline
 90
       21
 70
     0
 43
0.0
 10
2.197873907103881
 20
8.58247341000956
 42
0.2868650442311424
 10
1.55316424758268
 20
7.645138426574828
 42
-0.2983068557702415
 10
1.465249271402587
 20
10.66218542801948
 42
-0.2815254183799756
 10
2.959803568025102
 20
11.42377007213315
 42
-0.1525580708906062
 10
3.25285342230562
 20
11.30660322485556
 42
0.2115719970213577
 10
3.575208202326376
 20
11.21872808939738
 42
0.4894276562107099
 10
3.164938446125526
 20
11.86314588623347
 42
0.1567067581689132
 10
2.490923761384399
 20
12.06818786896923
 42
-0.2201059157313272
 10
5.157677475128983
 20
12.71260566580531
 42
-0.2074688660955447
 10
6.300571867031126
 20
11.92172930987225
 42
-0.2855686932878628
 10
6.300571867031126
 20
10.60360200438069
 42
-0.4547998336234894
 10
5.274897377049314
 20
10.75006056347767
 42
-0.5719743210541706
 10
5.567947231329832
 20
11.33589493667496
 42
-0.5581680975115818
 10
5.86099708561035
 20
10.92581090279873
 42
0.8039673186412938
 10
5.538642206109905
 20
11.59952041145421
 42
0.6869046127114879
 10
5.362812353229408
 20
10.25210139414325
 42
0.628438909672629
 10
6.857366550372233
 20
11.6873955469124
 42
0.4721925644915105
 10
2.490923761384399
 20
12.59543881852773
 42
0.1784187939984185
 10
2.285788883283974
 20
13.41560695468489
 42
0.8114090607307415
 10
1.55316424758268
 20
12.97623114058457
 42
2.366549539831365
 10
1.81690907664327
 20
13.26914832718322
 42
52.40666710107118
  0
LWPOLYLINE
  5
3F
330
1C
100
AcDbEntity
  8
0
100
AcDbPolyline
 90
       21
 70
     0
 43
0.0
 10
5.194667951886102
 20
1.863422360571651
 42
-0.0768375154917571
 10
5.396952471506676
 20
0.0870140262268035
 42
0.2184474251444068
 10
5.859316784025348
 20
0.0725716909603544
 42
0.1671069906424234
 10
5.050179237117672
 20
3.105464046375302
 42
-0.1751506275475989
 10
4.963485795626766
 20
3.452080214611372
 42
-0.2668854498283275
 10
5.209116858801253
 20
4.40527495140346
 42
0.0163065521090859
 10
5.830418970195046
 20
5.084065196291726
 42
0.5078337750554202
 10
5.541441186275107
 20
6.31166442498764
 42
0.4606082303180826
 10
4.790099267028034
 20
5.936163464377383
 42
0.2279053907861022
 10
4.8767925313274
 20
5.51733549796778
 42
0.5653738904429697
 10
5.136872501417038
 20
5.546220168500678
 42
0.8543704818558166
 10
5.050179237117672
 20
5.603989509566475
 42
-0.2882102767515586
 10
5.122423594501887
 20
6.051702268350266
 42
-0.4252690794264202
 10
5.714827892065378
 20
5.66175897247356
 42
-0.2235798348085001
 10
5.31025903001577
 20
5.026295733384642
 42
0.2211553720856917
 10
4.703405825537128
 20
3.654273030182949
 42
-0.0745987145934234
 10
4.067654984419724
 20
4.70856423568147
 42
-0.1341509858363199
 10
4.125450434888787
 20
5.632874301940661
 42
0.3207343538280837
 10
4.038757170589422
 20
5.921721129110934
 42
0.4701235906026481
 10
3.605290671901052
 20
5.618431844832924
 42
0.1184220799845223
 10
3.70643284311557
 20
4.968526392318844
 42
0.6700355472132327
  0
LWPOLYLINE
  5
56
330
1C
100
AcDbEntity
  8
0
100
AcDbPolyline
 90
       25
 70
     0
 43
0.0
 10
1.934129078043291
 20
12.2146464964709
 42
0.1969873347448494
 10
0.6447097590008897
 20
9.959184207544611
 42
0.3203318433651021
 10
1.900322136594794
 20
6.369433766053436
 42
-0.0290024622811202
 10
4.15434824871909
 20
3.582061353850703
 42
0.1347932085907264
 10
3.272966167235659
 20
3.49540722041072
 42
-0.1850563531431888
 10
2.723908590417621
 20
3.49540722041072
 42
-0.4501181824103677
 10
2.637215326118255
 20
3.726484706515195
 42
-0.3850960730535883
 10
2.796152947801836
 20
3.784254169422281
 42
0.4950147015616559
 10
2.752806404247924
 20
4.593025431708588
 42
-0.1129472317630232
 10
2.015913214724462
 20
5.387354358728448
 42
0.2994823558220128
 10
1.452406730991273
 20
4.795218247280166
 42
0.1832426044420343
 10
1.134531133241031
 20
6.326106760254089
 42
0.397301569618278
 10
-0.0502774618859508
 20
6.427203107119233
 42
0.6028273010756973
 10
-0.0069307411404985
 20
6.196125621014758
 42
-0.1362118274004562
 10
0.1953536012885356
 20
6.066144481775427
 42
0.0814183748845332
 10
0.0653136162437175
 20
4.997411062851742
 42
0.3138463860320338
 10
0.657717913807208
 20
4.217524471098332
 42
0.1713184919084085
 10
0.2675979586727508
 20
3.654273030182949
 42
0.5277056830828766
 10
0.5132290218472381
 20
3.365426081171388
 42
-0.276042556086533
 10
0.9322467908119968
 20
3.365426081171388
 42
0.166735003191959
 10
2.059259935469915
 20
3.047694583468217
 42
0.3275447678819204
 10
2.304890821452862
 20
3.249887399039794
 42
0.1364991453862472
 10
3.475250686856233
 20
3.307656740105591
 42
-0.2085785597686339
 10
4.269939326848758
 20
3.235445063773345
 42
-0.1862006521538103
 10
5.194667951886102
 20
1.8778646958381
 42
0.79307823789613
  0
LWPOLYLINE
  5
71
330
1C
100
AcDbEntity
  8
0
100
AcDbPolyline
 90
       11
 70
     0
 43
0.0
 10
5.483697291312231
 20
7.957382268600004
 42
-0.2797574204558075
 10
5.743777084210329
 20
7.163053341580144
 42
-0.4321241369119836
 10
5.295861678606808
 20
6.903091063101482
 42
-0.8406222246174188
 10
5.32475949243711
 20
7.148611006313694
 42
0.584092087156064
 10
5.165821693561989
 20
7.495227174549763
 42
0.0085216396696612
 10
4.949088444217804
 20
7.509669631657501
 42
0.0411513105681509
 10
4.067706362734373
 20
7.480784839283315
 42
-0.3962678575158986
 10
3.446404428532121
 20
7.942939933333554
 42
0.1759419294109441
 10
3.287466629657
 20
8.217344425237378
 42
0.3079876342251611
 10
1.900373692100983
 20
7.87072813516002
 42
0.1967960656956048
 10
2.520228786604326
 20
6.063385646304011
 42
-1.000000163226364
  0
LWPOLYLINE
  5
7E
330
1C
100
AcDbEntity
  8
0
100
AcDbPolyline
 90
       16
 70
     0
 43
0.0
 10
2.926192932846655
 20
3.408753208812024
 42
-0.1498455076917561
 10
2.40603316985892
 20
3.49540722041072
 42
-0.2641144535619102
 10
2.333788635283164
 20
3.94311997919451
 42
0.2873304061390525
 10
2.232646464068647
 20
4.434159621936358
 10
1.929219950425096
 20
4.650794772774385
 42
-0.0908224558561105
 10
2.189299743323194
 20
4.058658661326102
 42
-0.3478455582668453
 10
2.088157572108678
 20
3.842023510488077
 42
-0.2799167690155046
 10
0.8166557126823294
 20
5.632874180099373
 42
0.2867716253347476
 10
1.813628872295428
 20
3.712042371248746
 42
-0.8577689283193819
 10
1.755833244634824
 20
3.567619018584254
 42
-0.0758034288722395
 10
1.148980040156182
 20
3.740927163622933
 42
0.2458069706397422
 10
0.8744511631513937
 20
3.726484828356483
 42
-0.1046465181236707
 10
1.192326760901635
 20
3.596503689117152
 42
0.1966374203729231
 10
1.943668680148708
 20
3.437637879344923
 42
-0.1969268630906322
 10
2.420481899582531
 20
3.336541532479778
 42
0.2619255816872173
 10
2.926192932846655
 20
3.293214404839142
 42
-0.216738642870266
  0
LWPOLYLINE
  5
90
330
1C
100
AcDbEntity
  8
0
100
AcDbPolyline
 90
        3
 70
     0
 43
0.0
 10
1.264571118285851
 20
6.080586938883164
 42
0.3557805227162087
 10
0.094211430074019
 20
6.253894962080554
 42
-0.7775395915090464
 10
-0.0502774618859508
 20
6.398318436586334
 42
-0.5690030251461005
  0
LWPOLYLINE
  5
95
330
1C
100
AcDbEntity
  8
0
100
AcDbPolyline
 90
        5
 70
     0
 43
0.0
 10
4.58781474740746
 20
3.524292012784906
 42
-0.0716850791073421
 10
3.504148323494996
 20
5.459566156901982
 42
-0.2342103233661205
 10
3.5619439511556
 20
6.080586938883164
 42
0.2770913431445323
 10
3.648637215454966
 20
6.427203228960522
 42
0.6823221805344449
 10
3.099579638636928
 20
5.892836458578035
 42
0.6639417707796974
  0
LWPOLYLINE
  5
9C
330
1C
100
AcDbEntity
  8
0
100
AcDbPolyline
 90
       10
 70
     0
 43
0.0
 10
2.189351298829383
 20
8.621730056380533
 10
2.959803568025102
 20
8.728932037511231
 42
0.334371948666625
 10
3.533097692831486
 20
8.737268860353415
 42
-0.1553204886115531
 10
3.908768741050792
 20
9.184981497295918
 42
-0.1395456514595502
 10
4.530070852444585
 20
9.184981497295918
 42
0.1501332051253366
 10
5.238066228137745
 20
9.011673352257238
 42
0.5688125666465952
 10
5.512594927950994
 20
9.213866167828816
 42
0.0496026872800406
 10
5.46924838439708
 20
9.430501318666843
 42
-0.6471915159302311
 10
5.584839462526749
 20
9.531597787373275
 42
-0.5320753588525675
 10
5.498146198227382
 20
8.535076044781838
 42
3.867362276860605
  0
LWPOLYLINE
  5
A8
330
1C
100
AcDbEntity
  8
0
100
AcDbPolyline
 90
        3
 70
     0
 43
0.0
 10
3.533097692831486
 20
8.737268860353415
 42
0.3078564825504875
 10
4.053257633010762
 20
8.36176789974316
 42
0.1012423437766095
 10
3.431955521616969
 20
7.914055262800656
 42
2.281374115986348
  0
LWPOLYLINE
  5
AD
330
1C
100
AcDbEntity
  8
0
100
AcDbPolyline
 90
       10
 70
     0
 43
0.0
 10
4.400030867399766
 20
8.751711195619865
 42
0.0533953325961015
 10
4.096604176564675
 20
8.795038201419211
 42
0.9999999999999996
 10
4.269990882354947
 20
8.665057062179881
 42
-0.3877938508805039
 10
5.541492741781295
 20
8.448421911341855
 42
0.1220442415295134
 10
5.743777084210329
 20
8.289556223410913
 42
0.1293913532655208
 10
5.46924838439708
 20
7.942939933333554
 42
-0.293577198977297
 10
4.558968489083347
 20
7.812958794094224
 42
0.046403389728177
 10
4.269990882354947
 20
7.914055262800656
 42
0.3331887055140079
 10
3.995462005350158
 20
7.88517047042647
 42
0.5997278435957814
 10
4.284439789270098
 20
7.88517047042647
 42
-0.5997278435957823
  0
LWPOLYLINE
  5
B9
330
1C
100
AcDbEntity
  8
0
100
AcDbPolyline
 90
        7
 70
     0
 43
0.0
 10
3.533046137325297
 20
4.8674300454537
 42
-0.1581921183539321
 10
3.056232917891474
 20
6.31166442498764
 42
-0.2940793978918501
 10
3.258517260320509
 20
6.629396044532099
 42
0.4903666020576693
 10
3.041784010976324
 20
6.903800536435922
 42
0.4085064823480888
 10
2.449379713412832
 20
6.31166442498764
 42
0.1827857720318809
 10
2.608317512287954
 20
5.878394123311586
 42
0.014501738284967
 10
2.926192932846655
 20
5.531777833234229
 42
0.4225705643188798
  0
ARC
  5
C2
330
1C
100
AcDbEntity
  8
0
100
AcDbCircle
 10
5.34644943316095
 20
14.53272507145718
 30
0.0
 40
6.117551940979987
100
AcDbArc
 50
263.134630345738
 51
269.240666755192
  0
ARC
  5
C3
330
1C
100
AcDbEntity
  8
0
100
AcDbCircle
 10
4.927964249077416
 20
7.71899874136159
 30
0.0
 40
1.434843652537672
100
AcDbArc
 50
78.17364347258958
 51
104.3712624163867
  0
ARC
  5
C4
330
1C
100
AcDbEntity
  8
0
100
AcDbCircle
 10
5.344845614411513
 20
7.223615029723127
 30
0.0
 40
0.6911968141456534
100
AcDbArc
 50
83.39793826466971
 51
111.4582167808485
  0
LWPOLYLINE
  5
C5
330
1C
100
AcDbEntity
  8
0
100
AcDbPolyline
 90
        3
 70
     0
 43
0.0
 10
1.025674489981811
 20
10.39855995324023
 42
-0.3102653273232945
 10
2.666753713744585
 20
11.80456246259468
 42
-0.4292783598011762
 10
3.25285342230562
 20
11.30660322485556
 42
0.9459396222559808
  0
LWPOLYLINE
  5
CA
330
1C
100
AcDbEntity
  8
0
100
AcDbPolyline
 90
        3
 70
     0
 43
0.0
 10
2.109958930923788
 20
13.09339805626684
 10
2.168568981363643
 20
13.23985661536382
 42
-0.4015882279292262
 10
1.963434003783529
 20
12.2146464964709
 42
3.178804831440596
  0
ENDBLK
  5
CF
330
1C
100
AcDbEntity
  8
0
100
AcDbBlockEnd
  0
BLOCK
  5
192
330
187
100
AcDbEntity
  8
0
100
AcDbBlockBegin
  2
*D1
 70
     1
 10
0.0
 20
0.0
 30
0.0
  3
*D1
  1

  0
LINE
  5
194
330
187
100
AcDbEntity
  8
ADPDIM
 62
     0
100
AcDbLine
 10
-67.92695004004444
 20
42.27653540892442
 30
0.0
 11
-66.49335232831464
 21
42.27653540892442
 31
0.0
  0
LINE
  5
195
330
187
100
AcDbEntity
  8
ADPDIM
 62
     0
100
AcDbLine
 10
-71.80414432669455
 20
55.88327922917709
 30
0.0
 11
-66.49335232831465
 21
55.88327922917709
 31
0.0
  0
LINE
  5
196
330
187
100
AcDbEntity
  8
ADPDIM
 62
     0
100
AcDbLine
 10
-66.67335232831465
 20
42.27653540892442
 30
0.0
 11
-66.67335232831465
 21
48.61115731905076
 31
0.0
  0
LINE
  5
197
330
187
100
AcDbEntity
  8
ADPDIM
 62
     0
100
AcDbLine
 10
-66.67335232831465
 20
55.88327922917709
 30
0.0
 11
-66.67335232831465
 21
49.54865731905076
 31
0.0
  0
LINE
  5
198
330
187
100
AcDbEntity
  8
ADPDIM
 62
     0
100
AcDbLine
 10
-66.54835232831465
 20
55.7582792291771
 30
0.0
 11
-66.79835232831464
 21
56.0082792291771
 31
0.0
  0
LINE
  5
199
330
187
100
AcDbEntity
  8
ADPDIM
 62
     0
100
AcDbLine
 10
-66.54835232831465
 20
42.15153540892442
 30
0.0
 11
-66.79835232831464
 21
42.40153540892442
 31
0.0
  0
MTEXT
  5
19A
330
187
100
AcDbEntity
  8
ADPDIM
 62
     0
100
AcDbMText
 10
-66.67335232831466
 20
49.07990731905075
 30
0.0
 40
0.125
 41
0.0
 71
     5
 72
     1
  1
\A1;13.6067
 11
0.0000000000000001
 21
1.0
 31
0.0
1001
ACAD
1000
MTEXTBEGIN
1070
    73
1070
     1
1070
    44
1040
1.0
1070
    74
1070
     0
1000
MTEXTEND
  0
POINT
  5
19B
330
187
100
AcDbEntity
  8
DEFPOINTS
 62
     0
100
AcDbPoint
 10
-67.98945004004444
 20
42.27653540892442
 30
0.0
  0
POINT
  5
19C
330
187
100
AcDbEntity
  8
DEFPOINTS
 62
     0
100
AcDbPoint
 10
-71.86664432669456
 20
55.88327922917709
 30
0.0
  0
POINT
  5
19D
330
187
100
AcDbEntity
  8
DEFPOINTS
 62
     0
100
AcDbPoint
 10
-66.67335232831465
 20
55.88327922917709
 30
0.0
  0
ENDBLK
  5
193
330
187
100
AcDbEntity
  8
0
100
AcDbBlockEnd
  0
BLOCK
  5
1A9
330
19E
100
AcDbEntity
  8
0
100
AcDbBlockBegin
  2
*D2
 70
     1
 10
0.0
 20
0.0
 30
0.0
  3
*D2
  1

  0
LINE
  5
19F
330
19E
100
AcDbEntity
  8
ADPDIM
 62
     0
100
AcDbLine
 10
-66.99140027369757
 20
53.95385926487647
 30
0.0
 11
-66.99140027369757
 21
56.38447574665247
 31
0.0
  0
LINE
  5
1A0
330
19E
100
AcDbEntity
  8
ADPDIM
 62
     0
100
AcDbLine
 10
-73.42890027369756
 20
51.60288683659354
 30
0.0
 11
-73.42890027369756
 21
56.38447574665247
 31
0.0
  0
LINE
  5
1A1
330
19E
100
AcDbEntity
  8
ADPDIM
 62
     0
100
AcDbLine
 10
-66.99140027369757
 20
56.20447574665247
 30
0.0
 11
-69.77265027369757
 21
56.20447574665247
 31
0.0
  0
LINE
  5
1A2
330
19E
100
AcDbEntity
  8
ADPDIM
 62
     0
100
AcDbLine
 10
-73.42890027369756
 20
56.20447574665247
 30
0.0
 11
-70.64765027369756
 21
56.20447574665247
 31
0.0
  0
LINE
  5
1A3
330
19E
100
AcDbEntity
  8
ADPDIM
 62
     0
100
AcDbLine
 10
-73.55390027369757
 20
56.07947574665247
 30
0.0
 11
-73.30390027369756
 21
56.32947574665247
 31
0.0
  0
LINE
  5
1A4
330
19E
100
AcDbEntity
  8
ADPDIM
 62
     0
100
AcDbLine
 10
-67.11640027369757
 20
56.07947574665247
 30
0.0
 11
-66.86640027369756
 21
56.32947574665247
 31
0.0
  0
MTEXT
  5
1A5
330
19E
100
AcDbEntity
  8
ADPDIM
 62
     0
100
AcDbMText
 10
-70.21015027369756
 20
56.20447574665247
 30
0.0
 40
0.125
 41
0.0
 71
     5
 72
     1
  1
\A1;6.4375
1001
ACAD
1000
MTEXTBEGIN
1070
    73
1070
     1
1070
    44
1040
1.0
1070
    74
1070
     0
1000
MTEXTEND
  0
POINT
  5
1A6
330
19E
100
AcDbEntity
  8
DEFPOINTS
 62
     0
100
AcDbPoint
 10
-66.99140027369757
 20
53.89135926487647
 30
0.0
  0
POINT
  5
1A7
330
19E
100
AcDbEntity
  8
DEFPOINTS
 62
     0
100
AcDbPoint
 10
-73.42890027369756
 20
51.54038683659354
 30
0.0
  0
POINT
  5
1A8
330
19E
100
AcDbEntity
  8
DEFPOINTS
 62
     0
100
AcDbPoint
 10
-73.42890027369756
 20
56.20447574665247
 30
0.0
  0
ENDBLK
  5
1AA
330
19E
100
AcDbEntity
  8
0
100
AcDbBlockEnd
  0
ENDSEC
  0
SECTION
  2
ENTITIES
  0
DIMENSION
  5
E8
330
18
100
AcDbEntity
  8
ADPDIM
100
AcDbDimension
  2
*D1
 10
-66.67335232831465
 20
55.88327922917709
 30
0.0
 11
-66.67335232831466
 21
49.07990731905075
 31
0.0
 70
    32
  3
STANDARD
100
AcDbAlignedDimension
 13
-67.98945004004444
 23
42.27653540892442
 33
0.0
 14
-71.86664432669456
 24
55.88327922917709
 34
0.0
 50
90.0
100
AcDbRotatedDimension
1001
ACAD
1000
DSTYLE
1002
{
1070
    41
1040
0.125
1070
    73
1070
     0
1070
    74
1070
     0
1070
    78
1070
     3
1070
   140
1040
0.125
1070
   141
1040
0.1875
1070
   142
1040
0.125
1070
   147
1040
0.125
1070
   171
1070
     1
1002
}
  0
INSERT
  5
E9
330
18
100
AcDbEntity
  8
ADP1DETAIL
 62
     7
100
AcDbBlockReference
  2
B525
 10
-73.8487668240698
 20
42.20396371796407
 30
0.0
  0
DIMENSION
  5
EA
330
18
100
AcDbEntity
  8
ADPDIM
100
AcDbDimension
  2
*D2
 10
-73.42890027369756
 20
56.20447574665247
 30
0.0
 11
-70.21015027369756
 21
56.20447574665247
 31
0.0
 70
    32
  3
STANDARD
100
AcDbAlignedDimension
 13
-66.99140027369757
 23
53.89135926487647
 33
0.0
 14
-73.42890027369756
 24
51.54038683659354
 34
0.0
100
AcDbRotatedDimension
1001
ACAD
1000
DSTYLE
1002
{
1070
    41
1040
0.125
1070
    73
1070
     0
1070
    74
1070
     0
1070
    78
1070
     3
1070
   140
1040
0.125
1070
   141
1040
0.1875
1070
   142
1040
0.125
1070
   147
1040
0.125
1070
   171
1070
     1
1002
}
  0
TEXT
  5
F8
330
18
100
AcDbEntity
  8
ADPDIM
100
AcDbText
 10
-89.46932626051699
 20
40.5745890291763
 30
0.0
 40
0.375
  1
J U L I U S  B L U M  &  C O . ,  I N C .      ( 8 0 0 )  5 2 6 - 6 2 9 3        W W W . J U L I U S B L U M . C O M        P A R T  N o .  5 2 5
 41
1.25
  7
ARIAL_WIDE
 72
     1
 11
-70.16520364796583
 21
40.94958902917629
 31
0.0
100
AcDbText
 73
     3
  0
ENDSEC
  0
SECTION
  2
OBJECTS
  0
DICTIONARY
  5
C
330
0
100
AcDbDictionary
  3
ACAD_GROUP
350
D
  3
ACAD_LAYOUT
350
F1
  3
ACAD_MLINESTYLE
350
E
  3
ACAD_PLOTSETTINGS
350
F2
  3
ACAD_PLOTSTYLENAME
350
EF
  3
ACDBHEADERROUNDTRIPXREC
350
264
  3
ACDBVARIABLEDICTIONARY
350
152
  0
DICTIONARY
  5
14C
330
18
100
AcDbDictionary
280
     1
  3
ACAD_LAYOUTSELFREF
360
285
  0
DICTIONARY
  5
14A
330
15
100
AcDbDictionary
280
     1
  3
ACAD_LAYOUTSELFREF
360
284
  0
DICTIONARY
  5
D
102
{ACAD_REACTORS
330
C
102
}
330
C
100
AcDbDictionary
  0
DICTIONARY
  5
F1
102
{ACAD_REACTORS
330
C
102
}
330
C
100
AcDbDictionary
  0
DICTIONARY
  5
E
102
{ACAD_REACTORS
330
C
102
}
330
C
100
AcDbDictionary
  3
STANDARD
350
1B
  0
DICTIONARY
  5
F2
102
{ACAD_REACTORS
330
C
102
}
330
C
100
AcDbDictionary
  0
ACDBDICTIONARYWDFLT
  5
EF
102
{ACAD_REACTORS
330
C
102
}
330
C
100
AcDbDictionary
281
     1
  3
Normal
350
F0
100
AcDbDictionaryWithDefault
340
F0
  0
DICTIONARY
  5
264
102
{ACAD_REACTORS
330
C
102
}
330
C
100
AcDbDictionary
  3
CEPSNTYPE
350
26E
  3
FINGERPRINTGUID
350
26F
  3
HYPERLINKBASE
350
267
  3
INSUNITS
350
26D
  3
LAYOUTDICT
350
269
  3
LWETCUNION
350
26C
  3
PLOTSETDICT
350
26A
  3
PLOTSTYLNAMDICT
350
26B
  3
PSVPSCALE
350
271
  3
PUCSBASE
350
274
  3
PUCSORGBACK
350
27A
  3
PUCSORGBOTTOM
350
276
  3
PUCSORGFRONT
350
279
  3
PUCSORGLEFT
350
277
  3
PUCSORGRIGHT
350
278
  3
PUCSORGTOP
350
275
  3
PUCSORTHOREF
350
272
  3
PUCSORTHOVIEW
350
273
  3
STYLESHEET
350
268
  3
TSTACKALIGN
350
265
  3
TSTACKSIZE
350
266
  3
UCSBASE
350
27D
  3
UCSORGBACK
350
283
  3
UCSORGBOTTOM
350
27F
  3
UCSORGFRONT
350
282
  3
UCSORGLEFT
350
280
  3
UCSORGRIGHT
350
281
  3
UCSORGTOP
350
27E
  3
UCSORTHOREF
350
27B
  3
UCSORTHOVIEW
350
27C
  3
VERSIONGUID
350
270
  0
DICTIONARY
  5
152
102
{ACAD_REACTORS
330
C
102
}
330
C
100
AcDbDictionary
  3
DIMASSOC
350
153
  0
XRECORD
  5
285
102
{ACAD_REACTORS
330
14C
102
}
330
14C
100
AcDbXrecord
340
18
  0
XRECORD
  5
284
102
{ACAD_REACTORS
330
14A
102
}
330
14A
100
AcDbXrecord
340
15
  0
MLINESTYLE
  5
1B
102
{ACAD_REACTORS
330
E
102
}
330
E
100
AcDbMlineStyle
  2
STANDARD
 70
     0
  3

 62
     0
 51
90.0
 52
90.0
 71
     2
 49
0.5
 62
   256
  6
BYLAYER
 49
-0.5
 62
   256
  6
BYLAYER
  0
ACDBPLACEHOLDER
  5
F0
102
{ACAD_REACTORS
330
EF
102
}
330
EF
100
AcDbPlaceHolder
280
     0
  0
XRECORD
  5
26E
102
{ACAD_REACTORS
330
264
102
}
330
264
100
AcDbXrecord
 90
        0
  0
XRECORD
  5
26F
102
{ACAD_REACTORS
330
264
102
}
330
264
100
AcDbXrecord
  1
{E20D4011-0CB2-454E-913C-EFA20215F1D3}
  0
XRECORD
  5
267
102
{ACAD_REACTORS
330
264
102
}
330
264
100
AcDbXrecord
  1

  0
XRECORD
  5
26D
102
{ACAD_REACTORS
330
264
102
}
330
264
100
AcDbXrecord
 90
        0
  0
XRECORD
  5
269
102
{ACAD_REACTORS
330
264
102
}
330
264
100
AcDbXrecord
340
F1
  0
XRECORD
  5
26C
102
{ACAD_REACTORS
330
264
102
}
330
264
100
AcDbXrecord
 90
    14877
  0
XRECORD
  5
26A
102
{ACAD_REACTORS
330
264
102
}
330
264
100
AcDbXrecord
340
F2
  0
XRECORD
  5
26B
102
{ACAD_REACTORS
330
264
102
}
330
264
100
AcDbXrecord
340
EF
  0
XRECORD
  5
271
102
{ACAD_REACTORS
330
264
102
}
330
264
100
AcDbXrecord
 40
0.0
  0
XRECORD
  5
274
102
{ACAD_REACTORS
330
264
102
}
330
264
100
AcDbXrecord
340
0
  0
XRECORD
  5
27A
102
{ACAD_REACTORS
330
264
102
}
330
264
100
AcDbXrecord
 10
0.0
 20
0.0
 30
0.0
  0
XRECORD
  5
276
102
{ACAD_REACTORS
330
264
102
}
330
264
100
AcDbXrecord
 10
0.0
 20
0.0
 30
0.0
  0
XRECORD
  5
279
102
{ACAD_REACTORS
330
264
102
}
330
264
100
AcDbXrecord
 10
0.0
 20
0.0
 30
0.0
  0
XRECORD
  5
277
102
{ACAD_REACTORS
330
264
102
}
330
264
100
AcDbXrecord
 10
0.0
 20
0.0
 30
0.0
  0
XRECORD
  5
278
102
{ACAD_REACTORS
330
264
102
}
330
264
100
AcDbXrecord
 10
0.0
 20
0.0
 30
0.0
  0
XRECORD
  5
275
102
{ACAD_REACTORS
330
264
102
}
330
264
100
AcDbXrecord
 10
0.0
 20
0.0
 30
0.0
  0
XRECORD
  5
272
102
{ACAD_REACTORS
330
264
102
}
330
264
100
AcDbXrecord
340
0
  0
XRECORD
  5
273
102
{ACAD_REACTORS
330
264
102
}
330
264
100
AcDbXrecord
 70
     0
  0
XRECORD
  5
268
102
{ACAD_REACTORS
330
264
102
}
330
264
100
AcDbXrecord
  1

  0
XRECORD
  5
265
102
{ACAD_REACTORS
330
264
102
}
330
264
100
AcDbXrecord
 90
        1
  0
XRECORD
  5
266
102
{ACAD_REACTORS
330
264
102
}
330
264
100
AcDbXrecord
 90
       70
  0
XRECORD
  5
27D
102
{ACAD_REACTORS
330
264
102
}
330
264
100
AcDbXrecord
340
0
  0
XRECORD
  5
283
102
{ACAD_REACTORS
330
264
102
}
330
264
100
AcDbXrecord
 10
0.0
 20
0.0
 30
0.0
  0
XRECORD
  5
27F
102
{ACAD_REACTORS
330
264
102
}
330
264
100
AcDbXrecord
 10
0.0
 20
0.0
 30
0.0
  0
XRECORD
  5
282
102
{ACAD_REACTORS
330
264
102
}
330
264
100
AcDbXrecord
 10
0.0
 20
0.0
 30
0.0
  0
XRECORD
  5
280
102
{ACAD_REACTORS
330
264
102
}
330
264
100
AcDbXrecord
 10
0.0
 20
0.0
 30
0.0
  0
XRECORD
  5
281
102
{ACAD_REACTORS
330
264
102
}
330
264
100
AcDbXrecord
 10
0.0
 20
0.0
 30
0.0
  0
XRECORD
  5
27E
102
{ACAD_REACTORS
330
264
102
}
330
264
100
AcDbXrecord
 10
0.0
 20
0.0
 30
0.0
  0
XRECORD
  5
27B
102
{ACAD_REACTORS
330
264
102
}
330
264
100
AcDbXrecord
340
0
  0
XRECORD
  5
27C
102
{ACAD_REACTORS
330
264
102
}
330
264
100
AcDbXrecord
 70
     0
  0
XRECORD
  5
270
102
{ACAD_REACTORS
330
264
102
}
330
264
100
AcDbXrecord
  1
{820ABC56-3E95-4F87-B790-2F20663ADCCC}
  0
DICTIONARYVAR
  5
153
102
{ACAD_REACTORS
330
152
102
}
330
152
100
DictionaryVariables
280
     0
  1
1
  0
ENDSEC
  0
EOF
