  0
SECTION
  2
HEADER
  9
$ACADVER
  1
AC1015
  9
$ACADMAINTVER
 70
    20
  9
$DWGCODEPAGE
  3
ANSI_1252
  9
$INSBASE
 10
0.0
 20
0.0
 30
0.0
  9
$EXTMIN
 10
-22.74202378103921
 20
-10.87091267995746
 30
-0.0015258207003583
  9
$EXTMAX
 10
-2.345060785786088
 20
1.174545106834528
 30
0.0000000349246037
  9
$LIMMIN
 10
0.0
 20
0.0
  9
$LIMMAX
 10
0.0
 20
0.0
  9
$ORTHOMODE
 70
     1
  9
$REGENMODE
 70
     1
  9
$FILLMODE
 70
     1
  9
$QTEXTMODE
 70
     0
  9
$MIRRTEXT
 70
     1
  9
$LTSCALE
 40
1.0
  9
$ATTMODE
 70
     1
  9
$TEXTSIZE
 40
0.0
  9
$TRACEWID
 40
0.05
  9
$TEXTSTYLE
  7
STANDARD
  9
$CLAYER
  8
0
  9
$CELTYPE
  6
CONTINUOUS
  9
$CECOLOR
 62
   256
  9
$CELTSCALE
 40
1.0
  9
$DISPSILH
 70
     0
  9
$DIMSCALE
 40
1.0
  9
$DIMASZ
 40
0.18
  9
$DIMEXO
 40
0.0625
  9
$DIMDLI
 40
0.38
  9
$DIMRND
 40
0.0
  9
$DIMDLE
 40
0.0
  9
$DIMEXE
 40
0.18
  9
$DIMTP
 40
0.0
  9
$DIMTM
 40
0.0
  9
$DIMTXT
 40
0.18
  9
$DIMCEN
 40
0.09
  9
$DIMTSZ
 40
0.0
  9
$DIMTOL
 70
     0
  9
$DIMLIM
 70
     0
  9
$DIMTIH
 70
     1
  9
$DIMTOH
 70
     1
  9
$DIMSE1
 70
     0
  9
$DIMSE2
 70
     0
  9
$DIMTAD
 70
     0
  9
$DIMZIN
 70
     0
  9
$DIMBLK
  1

  9
$DIMASO
 70
     1
  9
$DIMSHO
 70
     1
  9
$DIMPOST
  1

  9
$DIMAPOST
  1

  9
$DIMALT
 70
     0
  9
$DIMALTD
 70
     2
  9
$DIMALTF
 40
25.4
  9
$DIMLFAC
 40
1.0
  9
$DIMTOFL
 70
     0
  9
$DIMTVP
 40
0.0
  9
$DIMTIX
 70
     0
  9
$DIMSOXD
 70
     0
  9
$DIMSAH
 70
     0
  9
$DIMBLK1
  1

  9
$DIMBLK2
  1

  9
$DIMSTYLE
  2
STANDARD
  9
$DIMCLRD
 70
     0
  9
$DIMCLRE
 70
     0
  9
$DIMCLRT
 70
     0
  9
$DIMTFAC
 40
1.0
  9
$DIMGAP
 40
0.09
  9
$DIMJUST
 70
     0
  9
$DIMSD1
 70
     0
  9
$DIMSD2
 70
     0
  9
$DIMTOLJ
 70
     1
  9
$DIMTZIN
 70
     0
  9
$DIMALTZ
 70
     0
  9
$DIMALTTZ
 70
     0
  9
$DIMUPT
 70
     0
  9
$DIMDEC
 70
     4
  9
$DIMTDEC
 70
     4
  9
$DIMALTU
 70
     2
  9
$DIMALTTD
 70
     2
  9
$DIMTXSTY
  7
STANDARD
  9
$DIMAUNIT
 70
     0
  9
$DIMADEC
 70
     0
  9
$DIMALTRND
 40
0.0
  9
$DIMAZIN
 70
     0
  9
$DIMDSEP
 70
    46
  9
$DIMATFIT
 70
     3
  9
$DIMFRAC
 70
     0
  9
$DIMLDRBLK
  1

  9
$DIMLUNIT
 70
     2
  9
$DIMLWD
 70
    -2
  9
$DIMLWE
 70
    -2
  9
$DIMTMOVE
 70
     0
  9
$LUNITS
 70
     2
  9
$LUPREC
 70
     4
  9
$SKETCHINC
 40
0.1
  9
$FILLETRAD
 40
0.0
  9
$AUNITS
 70
     0
  9
$AUPREC
 70
     0
  9
$MENU
  1
acad
  9
$ELEVATION
 40
0.0
  9
$PELEVATION
 40
0.0
  9
$THICKNESS
 40
0.0
  9
$LIMCHECK
 70
     0
  9
$CHAMFERA
 40
0.0
  9
$CHAMFERB
 40
0.0
  9
$CHAMFERC
 40
0.0
  9
$CHAMFERD
 40
0.0
  9
$SKPOLY
 70
     0
  9
$TDCREATE
 40
2444971.791666667
  9
$TDUCREATE
 40
2444971.958333334
  9
$TDUPDATE
 40
2453963.000218137
  9
$TDUUPDATE
 40
2453963.166884804
  9
$TDINDWG
 40
0.0660592361
  9
$TDUSRTIMER
 40
0.0660592361
  9
$USRTIMER
 70
     1
  9
$ANGBASE
 50
0.0
  9
$ANGDIR
 70
     0
  9
$PDMODE
 70
     0
  9
$PDSIZE
 40
0.0
  9
$PLINEWID
 40
0.0
  9
$SPLFRAME
 70
     0
  9
$SPLINETYPE
 70
     6
  9
$SPLINESEGS
 70
     8
  9
$HANDSEED
  5
33A
  9
$SURFTAB1
 70
     6
  9
$SURFTAB2
 70
     6
  9
$SURFTYPE
 70
     6
  9
$SURFU
 70
     6
  9
$SURFV
 70
     6
  9
$UCSBASE
  2

  9
$UCSNAME
  2

  9
$UCSORG
 10
0.0
 20
0.0
 30
0.0
  9
$UCSXDIR
 10
1.0
 20
0.0
 30
0.0
  9
$UCSYDIR
 10
0.0
 20
1.0
 30
0.0
  9
$UCSORTHOREF
  2

  9
$UCSORTHOVIEW
 70
     0
  9
$UCSORGTOP
 10
0.0
 20
0.0
 30
0.0
  9
$UCSORGBOTTOM
 10
0.0
 20
0.0
 30
0.0
  9
$UCSORGLEFT
 10
0.0
 20
0.0
 30
0.0
  9
$UCSORGRIGHT
 10
0.0
 20
0.0
 30
0.0
  9
$UCSORGFRONT
 10
0.0
 20
0.0
 30
0.0
  9
$UCSORGBACK
 10
0.0
 20
0.0
 30
0.0
  9
$PUCSBASE
  2

  9
$PUCSNAME
  2

  9
$PUCSORG
 10
0.0
 20
0.0
 30
0.0
  9
$PUCSXDIR
 10
1.0
 20
0.0
 30
0.0
  9
$PUCSYDIR
 10
0.0
 20
1.0
 30
0.0
  9
$PUCSORTHOREF
  2

  9
$PUCSORTHOVIEW
 70
     0
  9
$PUCSORGTOP
 10
0.0
 20
0.0
 30
0.0
  9
$PUCSORGBOTTOM
 10
0.0
 20
0.0
 30
0.0
  9
$PUCSORGLEFT
 10
0.0
 20
0.0
 30
0.0
  9
$PUCSORGRIGHT
 10
0.0
 20
0.0
 30
0.0
  9
$PUCSORGFRONT
 10
0.0
 20
0.0
 30
0.0
  9
$PUCSORGBACK
 10
0.0
 20
0.0
 30
0.0
  9
$USERI1
 70
     0
  9
$USERI2
 70
     0
  9
$USERI3
 70
     0
  9
$USERI4
 70
     0
  9
$USERI5
 70
     0
  9
$USERR1
 40
0.0
  9
$USERR2
 40
0.0
  9
$USERR3
 40
0.0
  9
$USERR4
 40
0.0
  9
$USERR5
 40
0.0
  9
$WORLDVIEW
 70
     1
  9
$SHADEDGE
 70
     3
  9
$SHADEDIF
 70
    70
  9
$TILEMODE
 70
     1
  9
$MAXACTVP
 70
    16
  9
$PINSBASE
 10
0.0
 20
0.0
 30
0.0
  9
$PLIMCHECK
 70
     0
  9
$PEXTMIN
 10
1.000000000000000E+20
 20
1.000000000000000E+20
 30
1.000000000000000E+20
  9
$PEXTMAX
 10
-1.000000000000000E+20
 20
-1.000000000000000E+20
 30
-1.000000000000000E+20
  9
$PLIMMIN
 10
0.0
 20
0.0
  9
$PLIMMAX
 10
12.0
 20
9.0
  9
$UNITMODE
 70
     0
  9
$VISRETAIN
 70
     0
  9
$PLINEGEN
 70
     0
  9
$PSLTSCALE
 70
     0
  9
$TREEDEPTH
 70
  3020
  9
$CMLSTYLE
  2
STANDARD
  9
$CMLJUST
 70
     0
  9
$CMLSCALE
 40
1.0
  9
$PROXYGRAPHICS
 70
     1
  9
$MEASUREMENT
 70
     0
  9
$CELWEIGHT
370
    -1
  9
$ENDCAPS
280
     0
  9
$JOINSTYLE
280
     0
  9
$LWDISPLAY
290
     0
  9
$INSUNITS
 70
     0
  9
$HYPERLINKBASE
  1

  9
$STYLESHEET
  1

  9
$XEDIT
290
     1
  9
$CEPSNTYPE
380
     0
  9
$PSTYLEMODE
290
     1
  9
$FINGERPRINTGUID
  2
{EDD9D886-C1F1-4684-A236-D6347E9D36B9}
  9
$VERSIONGUID
  2
{3B2F47D5-E53C-4909-AAA5-1E3A01768305}
  9
$EXTNAMES
290
     1
  9
$PSVPSCALE
 40
0.0
  9
$OLESTARTUP
290
     0
  0
ENDSEC
  0
SECTION
  2
CLASSES
  0
CLASS
  1
IMAGE
  2
AcDbRasterImage
  3
ISM
 90
    34943
280
     0
281
     1
  0
CLASS
  1
DICTIONARYVAR
  2
AcDbDictionaryVar
  3
ObjectDBX Classes
 90
        0
280
     0
281
     0
  0
CLASS
  1
RASTERVARIABLES
  2
AcDbRasterVariables
  3
ISM
 90
    32768
280
     0
281
     0
  0
CLASS
  1
IMAGEDEF
  2
AcDbRasterImageDef
  3
ISM
 90
    32768
280
     0
281
     0
  0
CLASS
  1
IMAGEDEF_REACTOR
  2
AcDbRasterImageDefReactor
  3
ISM
 90
    32769
280
     0
281
     0
  0
CLASS
  1
IDBUFFER
  2
AcDbIdBuffer
  3
ObjectDBX Classes
 90
    32768
280
     0
281
     0
  0
CLASS
  1
SPATIAL_FILTER
  2
AcDbSpatialFilter
  3
ObjectDBX Classes
 90
    32768
280
     0
281
     0
  0
CLASS
  1
SORTENTSTABLE
  2
AcDbSortentsTable
  3
ObjectDBX Classes
 90
    32768
280
     0
281
     0
  0
CLASS
  1
LAYER_INDEX
  2
AcDbLayerIndex
  3
ObjectDBX Classes
 90
    32768
280
     0
281
     0
  0
CLASS
  1
SPATIAL_INDEX
  2
AcDbSpatialIndex
  3
ObjectDBX Classes
 90
    32768
280
     0
281
     0
  0
CLASS
  1
OBJECT_PTR
  2
CAseDLPNTableRecord
  3
ASE-LPNTableRecord
 90
    32769
280
     0
281
     0
  0
CLASS
  1
ACDBDICTIONARYWDFLT
  2
AcDbDictionaryWithDefault
  3
ObjectDBX Classes
 90
        0
280
     0
281
     0
  0
CLASS
  1
ACDBPLACEHOLDER
  2
AcDbPlaceHolder
  3
ObjectDBX Classes
 90
        0
280
     0
281
     0
  0
CLASS
  1
LAYOUT
  2
AcDbLayout
  3
ObjectDBX Classes
 90
        0
280
     0
281
     0
  0
CLASS
  1
MATERIAL
  2
AcDbMaterial
  3
ObjectDBX Classes
 90
     1024
280
     0
281
     0
  0
CLASS
  1
VISUALSTYLE
  2
AcDbVisualStyle
  3
ObjectDBX Classes
 90
     4095
280
     0
281
     0
  0
CLASS
  1
TABLESTYLE
  2
AcDbTableStyle
  3
ObjectDBX Classes
 90
     4095
280
     0
281
     0
  0
ENDSEC
  0
SECTION
  2
TABLES
  0
TABLE
  2
VPORT
  5
7
330
0
100
AcDbSymbolTable
 70
     2
  0
VPORT
  5
2E
330
7
100
AcDbSymbolTableRecord
100
AcDbViewportTableRecord
  2
DCADVPORT
 70
     0
 10
-19.4102554481069
 20
-10.07416135424013
 11
-5.714022892979333
 21
1.173591736319852
 12
6.209999999999999
 22
9.019999999999999
 13
0.0
 23
0.0
 14
1.0
 24
1.0
 15
0.0
 25
0.0
 16
0.0
 26
0.0
 36
1.0
 17
0.0
 27
0.0
 37
0.0
 40
18.04
 41
0.688564
 42
50.0
 43
1.0
 44
1.0
 50
0.0
 51
0.0
 71
     0
 72
   100
 73
     1
 74
     1
 75
     0
 76
     0
 77
     0
 78
     0
281
     0
 65
     1
110
0.0
120
0.0
130
0.0
111
1.0
121
0.0
131
0.0
112
0.0
122
1.0
132
0.0
 79
     0
146
0.0
  0
VPORT
  5
218
330
7
100
AcDbSymbolTableRecord
100
AcDbViewportTableRecord
  2
*Active
 70
     0
 10
0.0
 20
0.0
 11
1.0
 21
1.0
 12
-12.54354228341265
 22
-4.848183786561465
 13
0.0
 23
0.0
 14
1.0
 24
1.0
 15
0.0
 25
0.0
 16
0.0
 26
0.0
 36
1.0
 17
0.0
 27
0.0
 37
0.0
 40
12.18130881446257
 41
1.726930320150659
 42
50.0
 43
0.0
 44
0.0
 50
0.0
 51
0.0
 71
     0
 72
   100
 73
     1
 74
     1
 75
     0
 76
     0
 77
     0
 78
     0
281
     0
 65
     1
110
0.0
120
0.0
130
0.0
111
1.0
121
0.0
131
0.0
112
0.0
122
1.0
132
0.0
 79
     0
146
0.0
  0
ENDTAB
  0
TABLE
  2
LTYPE
  5
4
330
0
100
AcDbSymbolTable
 70
     2
  0
LTYPE
  5
11
330
4
100
AcDbSymbolTableRecord
100
AcDbLinetypeTableRecord
  2
BYBLOCK
 70
     0
  3

 72
    65
 73
     0
 40
0.0
  0
LTYPE
  5
12
330
4
100
AcDbSymbolTableRecord
100
AcDbLinetypeTableRecord
  2
BYLAYER
 70
     0
  3

 72
    65
 73
     0
 40
0.0
  0
LTYPE
  5
13
330
4
100
AcDbSymbolTableRecord
100
AcDbLinetypeTableRecord
  2
CONTINUOUS
 70
     0
  3
Solid line
 72
    65
 73
     0
 40
0.0
  0
LTYPE
  5
1E
330
4
100
AcDbSymbolTableRecord
100
AcDbLinetypeTableRecord
  2
CONTINUOUS
 70
     0
  3
Solid line
 72
    65
 73
     0
 40
0.0
  0
ENDTAB
  0
TABLE
  2
LAYER
  5
2
330
0
100
AcDbSymbolTable
 70
     5
  0
LAYER
  5
14
330
2
100
AcDbSymbolTableRecord
100
AcDbLayerTableRecord
  2
0
 70
     0
 62
     7
  6
CONTINUOUS
370
    -3
390
E3
  0
LAYER
  5
2A
330
2
100
AcDbSymbolTableRecord
100
AcDbLayerTableRecord
  2
0
 70
     0
 62
   250
  6
CONTINUOUS
370
    -3
390
E3
  0
LAYER
  5
2B
330
2
100
AcDbSymbolTableRecord
100
AcDbLayerTableRecord
  2
ADP1DETAIL
 70
     0
 62
   250
  6
CONTINUOUS
370
    -3
390
E3
  0
LAYER
  5
2C
330
2
100
AcDbSymbolTableRecord
100
AcDbLayerTableRecord
  2
DEFPOINTS
 70
     0
 62
   250
  6
CONTINUOUS
290
     0
370
    -3
390
E3
  0
LAYER
  5
2D
330
2
100
AcDbSymbolTableRecord
100
AcDbLayerTableRecord
  2
ADPDIM
 70
     0
 62
     3
  6
CONTINUOUS
370
    -3
390
E3
  0
ENDTAB
  0
TABLE
  2
STYLE
  5
3
330
0
100
AcDbSymbolTable
 70
     2
  0
STYLE
  5
17
330
3
100
AcDbSymbolTableRecord
100
AcDbTextStyleTableRecord
  2
STANDARD
 70
     0
 40
0.0
 41
1.0
 50
0.0
 71
     0
 42
0.0
  3
txt
  4

  0
STYLE
  5
EB
330
3
100
AcDbSymbolTableRecord
100
AcDbTextStyleTableRecord
  2
ARIAL_WIDE
 70
     0
 40
0.0
 41
1.25
 50
0.0
 71
     0
 42
0.2
  3
ARIAL.TTF
  4

1001
ACAD
1000
Arial
1071
       34
  0
ENDTAB
  0
TABLE
  2
VIEW
  5
5
330
0
100
AcDbSymbolTable
 70
     0
  0
ENDTAB
  0
TABLE
  2
UCS
  5
6
330
0
100
AcDbSymbolTable
 70
     0
  0
ENDTAB
  0
TABLE
  2
APPID
  5
8
330
0
100
AcDbSymbolTable
 70
     2
  0
APPID
  5
16
330
8
100
AcDbSymbolTableRecord
100
AcDbRegAppTableRecord
  2
ACAD
 70
     0
  0
APPID
  5
2AE
330
8
100
AcDbSymbolTableRecord
100
AcDbRegAppTableRecord
  2
DCO15
 70
     0
  0
ENDTAB
  0
TABLE
  2
DIMSTYLE
  5
9
330
0
100
AcDbSymbolTable
 70
     1
100
AcDbDimStyleTable
 71
     0
  0
DIMSTYLE
105
18
102
{ACAD_REACTORS
330
2B8
330
2B9
330
2BA
102
}
330
9
100
AcDbSymbolTableRecord
100
AcDbDimStyleTableRecord
  2
STANDARD
 70
     0
289
     0
340
17
  0
ENDTAB
  0
TABLE
  2
BLOCK_RECORD
  5
1
330
0
100
AcDbSymbolTable
 70
     8
  0
BLOCK_RECORD
  5
A
102
{ACAD_XDICTIONARY
360
142
102
}
330
1
100
AcDbSymbolTableRecord
100
AcDbBlockTableRecord
  2
*MODEL_SPACE
340
E6
  0
BLOCK_RECORD
  5
B
102
{ACAD_XDICTIONARY
360
144
102
}
330
1
100
AcDbSymbolTableRecord
100
AcDbBlockTableRecord
  2
*PAPER_SPACE
340
E7
  0
BLOCK_RECORD
  5
263
330
1
100
AcDbSymbolTableRecord
100
AcDbBlockTableRecord
  2
*D0
340
0
  0
BLOCK_RECORD
  5
270
330
1
100
AcDbSymbolTableRecord
100
AcDbBlockTableRecord
  2
*D1
340
0
  0
BLOCK_RECORD
  5
27D
330
1
100
AcDbSymbolTableRecord
100
AcDbBlockTableRecord
  2
AI9-BLK1
340
0
102
{BLKREFS
331
2B3
331
2BB
102
}
  0
BLOCK_RECORD
  5
2A1
330
1
100
AcDbSymbolTableRecord
100
AcDbBlockTableRecord
  2
*D3
340
0
  0
BLOCK_RECORD
  5
2BC
330
1
100
AcDbSymbolTableRecord
100
AcDbBlockTableRecord
  2
*D5
340
0
  0
BLOCK_RECORD
  5
2C9
330
1
100
AcDbSymbolTableRecord
100
AcDbBlockTableRecord
  2
*D6
340
0
  0
BLOCK_RECORD
  5
2D6
330
1
100
AcDbSymbolTableRecord
100
AcDbBlockTableRecord
  2
*D7
340
0
  0
ENDTAB
  0
ENDSEC
  0
SECTION
  2
BLOCKS
  0
BLOCK
  5
D
330
A
100
AcDbEntity
  8
0
100
AcDbBlockBegin
  2
*MODEL_SPACE
 70
     0
 10
0.0
 20
0.0
 30
0.0
  3
*MODEL_SPACE
  1

  0
ENDBLK
  5
E
330
A
100
AcDbEntity
  8
0
100
AcDbBlockEnd
  0
BLOCK
  5
F
330
B
100
AcDbEntity
 67
     1
  8
0
100
AcDbBlockBegin
  2
*PAPER_SPACE
 70
     0
 10
0.0
 20
0.0
 30
0.0
  3
*PAPER_SPACE
  1

  0
ENDBLK
  5
10
330
B
100
AcDbEntity
 67
     1
  8
0
100
AcDbBlockEnd
  0
BLOCK
  5
264
330
263
100
AcDbEntity
  8
0
 62
     3
100
AcDbBlockBegin
  2
*D0
 70
     1
 10
0.0
 20
0.0
 30
0.0
  3
*D0
  1

  0
LINE
  5
265
330
263
100
AcDbEntity
  8
ADPDIM
 62
     0
370
    -2
100
AcDbLine
 10
10.07441137871769
 20
14.19639199073276
 30
0.0
 11
10.07441137871769
 21
13.90025028814471
 31
0.0
  0
LINE
  5
266
330
263
100
AcDbEntity
  8
ADPDIM
 62
     0
370
    -2
100
AcDbLine
 10
11.38691137871769
 20
14.19639199073276
 30
0.0
 11
11.38691137871769
 21
13.90025028814471
 31
0.0
  0
LINE
  5
267
330
263
100
AcDbEntity
  8
ADPDIM
 62
     0
370
    -2
100
AcDbLine
 10
10.25441137871769
 20
14.08025028814471
 30
0.0
 11
11.20691137871769
 21
14.08025028814471
 31
0.0
  0
LINE
  5
268
330
263
100
AcDbEntity
  8
ADPDIM
 62
     0
370
    -2
100
AcDbLine
 10
11.38691137871769
 20
14.08025028814471
 30
0.0
 11
11.95308802826757
 21
14.08025028814471
 31
0.0
  0
SOLID
  5
269
330
263
100
AcDbEntity
  8
ADPDIM
 62
     0
100
AcDbTrace
 10
10.25441137871769
 20
14.11025028814471
 30
0.0
 11
10.25441137871769
 21
14.05025028814471
 31
0.0
 12
10.07441137871769
 22
14.08025028814471
 32
0.0
 13
10.07441137871769
 23
14.08025028814471
 33
0.0
  0
SOLID
  5
26A
330
263
100
AcDbEntity
  8
ADPDIM
 62
     0
100
AcDbTrace
 10
11.20691137871769
 20
14.11025028814471
 30
0.0
 11
11.20691137871769
 21
14.05025028814471
 31
0.0
 12
11.38691137871769
 22
14.08025028814471
 32
0.0
 13
11.38691137871769
 23
14.08025028814471
 33
0.0
  0
MTEXT
  5
26B
330
263
100
AcDbEntity
  8
ADPDIM
 62
     0
100
AcDbMText
 10
12.49308802826757
 20
14.08025028814471
 30
0.0
 40
0.18
 41
0.0
 71
     5
 72
     1
  1
\A1;1 5/16
 73
     1
 44
1.0
1001
ACAD
1000
MTEXTBEGIN
1070
    73
1070
     1
1070
    44
1040
1.0
1070
    74
1070
     0
1000
MTEXTEND
  0
POINT
  5
26C
330
263
100
AcDbEntity
  8
DEFPOINTS
 62
     0
100
AcDbPoint
 10
10.07441137871769
 20
14.25889199073276
 30
0.0
  0
POINT
  5
26D
330
263
100
AcDbEntity
  8
DEFPOINTS
 62
     0
100
AcDbPoint
 10
11.38691137871769
 20
14.25889199073276
 30
0.0
  0
POINT
  5
26E
330
263
100
AcDbEntity
  8
DEFPOINTS
 62
     0
100
AcDbPoint
 10
11.38691137871769
 20
14.08025028814471
 30
0.0
  0
ENDBLK
  5
26F
330
263
100
AcDbEntity
  8
0
 62
     3
100
AcDbBlockEnd
  0
BLOCK
  5
271
330
270
100
AcDbEntity
  8
0
100
AcDbBlockBegin
  2
*D1
 70
     1
 10
0.0
 20
0.0
 30
0.0
  3
*D1
  1

  0
LINE
  5
272
330
270
100
AcDbEntity
  8
ADPDIM
 62
     0
370
    -2
100
AcDbLine
 10
9.943362663700465
 20
14.01382726810779
 30
0.0
 11
9.943362663700465
 21
13.41869438150874
 31
0.0
  0
LINE
  5
273
330
270
100
AcDbEntity
  8
ADPDIM
 62
     0
370
    -2
100
AcDbLine
 10
11.5026058035207
 20
14.01382726810779
 30
0.0
 11
11.5026058035207
 21
13.41869438150874
 31
0.0
  0
LINE
  5
274
330
270
100
AcDbEntity
  8
ADPDIM
 62
     0
370
    -2
100
AcDbLine
 10
9.763362663700466
 20
13.59869438150874
 30
0.0
 11
9.583362663700466
 21
13.59869438150874
 31
0.0
  0
LINE
  5
275
330
270
100
AcDbEntity
  8
ADPDIM
 62
     0
370
    -2
100
AcDbLine
 10
11.6826058035207
 20
13.59869438150874
 30
0.0
 11
11.8626058035207
 21
13.59869438150874
 31
0.0
  0
SOLID
  5
276
330
270
100
AcDbEntity
  8
ADPDIM
 62
     0
100
AcDbTrace
 10
9.763362663700466
 20
13.62869438150874
 30
0.0
 11
9.763362663700466
 21
13.56869438150874
 31
0.0
 12
9.943362663700465
 22
13.59869438150874
 32
0.0
 13
9.943362663700465
 23
13.59869438150874
 33
0.0
  0
SOLID
  5
277
330
270
100
AcDbEntity
  8
ADPDIM
 62
     0
100
AcDbTrace
 10
11.6826058035207
 20
13.62869438150874
 30
0.0
 11
11.6826058035207
 21
13.56869438150874
 31
0.0
 12
11.5026058035207
 22
13.59869438150874
 32
0.0
 13
11.5026058035207
 23
13.59869438150874
 33
0.0
  0
MTEXT
  5
278
330
270
100
AcDbEntity
  8
ADPDIM
 62
     0
100
AcDbMText
 10
10.72298423361058
 20
13.59869438150874
 30
0.0
 40
0.18
 41
0.0
 71
     5
 72
     1
  1
\A1;1 9/16
 73
     1
 44
1.0
1001
ACAD
1000
MTEXTBEGIN
1070
    73
1070
     1
1070
    44
1040
1.0
1070
    74
1070
     0
1000
MTEXTEND
  0
POINT
  5
279
330
270
100
AcDbEntity
  8
DEFPOINTS
 62
     0
100
AcDbPoint
 10
9.943362663700465
 20
14.07632726810779
 30
0.0
  0
POINT
  5
27A
330
270
100
AcDbEntity
  8
DEFPOINTS
 62
     0
100
AcDbPoint
 10
11.5026058035207
 20
14.07632726810779
 30
0.0
  0
POINT
  5
27B
330
270
100
AcDbEntity
  8
DEFPOINTS
 62
     0
100
AcDbPoint
 10
11.5026058035207
 20
13.59869438150874
 30
0.0
  0
ENDBLK
  5
27C
330
270
100
AcDbEntity
  8
0
100
AcDbBlockEnd
  0
BLOCK
  5
27E
330
27D
100
AcDbEntity
  8
0
 62
     7
100
AcDbBlockBegin
  2
AI9-BLK1
 70
     0
 10
0.0
 20
0.0
 30
0.0
  3
AI9-BLK1
  1

  0
SPLINE
  5
27F
330
27D
100
AcDbEntity
  8
0
 62
     7
100
AcDbSpline
210
0.0
220
0.0
230
1.0
 70
     8
 71
     3
 72
     8
 73
     4
 74
     0
 42
0.0000000001
 43
0.0000000001
 40
0.0
 40
0.0
 40
0.0
 40
0.0
 40
1.0
 40
1.0
 40
1.0
 40
1.0
 10
-3.96134304470486
 20
-0.9654880099826389
 30
0.0
 10
-3.96134304470486
 20
0.4373548719618056
 30
0.0
 10
-5.098913574218749
 20
1.574580891927083
 30
0.0
 10
-6.501756456163193
 20
1.574580891927083
 30
0.0
  0
SPLINE
  5
280
330
27D
100
AcDbEntity
  8
0
 62
     7
100
AcDbSpline
210
0.0
220
0.0
230
1.0
 70
     8
 71
     3
 72
     8
 73
     4
 74
     0
 42
0.0000000001
 43
0.0000000001
 40
0.0
 40
0.0
 40
0.0
 40
0.0
 40
1.0
 40
1.0
 40
1.0
 40
1.0
 10
0.0446139865451389
 20
9.524827745225692
 30
0.0
 10
-7.53321804470486
 20
9.529650878906249
 30
0.0
 10
-15.05489501953125
 20
8.227404785156249
 30
0.0
 10
-22.19003228081597
 20
5.675278049045138
 30
0.0
  0
LINE
  5
281
330
27D
100
AcDbEntity
  8
0
 62
     7
100
AcDbLine
 10
-19.83634304470486
 20
-5.816871473524305
 30
0.0
 11
-19.83634304470486
 21
-9.525172254774304
 31
0.0
  0
SPLINE
  5
282
330
27D
100
AcDbEntity
  8
0
 62
     7
100
AcDbSpline
210
0.0
220
0.0
230
1.0
 70
     8
 71
     3
 72
    11
 73
     7
 74
     0
 42
0.0000000001
 43
0.0000000001
 40
0.0
 40
0.0
 40
0.0
 40
0.0
 40
1.0
 40
1.0
 40
1.0
 40
2.0
 40
2.0
 40
2.0
 40
2.0
 10
-22.19003228081597
 20
5.675278049045138
 30
0.0
 10
-26.20839165581597
 20
3.941016981336805
 30
0.0
 10
-28.05978597005208
 20
-0.7226087782118055
 30
0.0
 10
-26.32483588324653
 20
-4.741312662760416
 30
0.0
 10
-25.18450927734375
 20
-7.383700900607638
 30
0.0
 10
-22.70059543185764
 20
-9.199955240885415
 30
0.0
 10
-19.83634304470486
 20
-9.485898166232637
 30
0.0
  0
LINE
  5
283
330
27D
100
AcDbEntity
  8
0
 62
     7
100
AcDbLine
 10
-16.91559109157986
 20
-5.562967936197916
 30
0.0
 11
-19.58243950737847
 21
-5.562967936197916
 31
0.0
  0
SPLINE
  5
284
330
27D
100
AcDbEntity
  8
0
 62
     7
100
AcDbSpline
210
0.0
220
0.0
230
1.0
 70
     8
 71
     3
 72
     8
 73
     4
 74
     0
 42
0.0000000001
 43
0.0000000001
 40
0.0
 40
0.0
 40
0.0
 40
0.0
 40
1.0
 40
1.0
 40
1.0
 40
1.0
 10
-19.58243950737847
 20
-5.562967936197916
 30
0.0
 10
-19.72265489366319
 20
-5.562967936197916
 30
0.0
 10
-19.83634304470486
 20
-5.676656087239583
 30
0.0
 10
-19.83634304470486
 20
-5.816871473524305
 30
0.0
  0
SPLINE
  5
285
330
27D
100
AcDbEntity
  8
0
 62
     7
100
AcDbSpline
210
0.0
220
0.0
230
1.0
 70
     8
 71
     3
 72
     8
 73
     4
 74
     0
 42
0.0000000001
 43
0.0000000001
 40
0.0
 40
0.0
 40
0.0
 40
0.0
 40
1.0
 40
1.0
 40
1.0
 40
1.0
 10
-11.91193440755208
 20
1.574580891927083
 30
0.0
 10
-12.78147650824652
 20
1.574580891927083
 30
0.0
 10
-13.48634304470486
 20
0.8693698459201387
 30
0.0
 10
-13.48634304470486
 20
-0.0001722547743056
 30
0.0
  0
SPLINE
  5
286
330
27D
100
AcDbEntity
  8
0
 62
     7
100
AcDbSpline
210
0.0
220
0.0
230
1.0
 70
     8
 71
     3
 72
     8
 73
     4
 74
     0
 42
0.0000000001
 43
0.0000000001
 40
0.0
 40
0.0
 40
0.0
 40
0.0
 40
1.0
 40
1.0
 40
1.0
 40
1.0
 10
-13.74059109157986
 20
-1.600419108072916
 30
0.0
 10
-13.60003119574652
 20
-1.600419108072916
 30
0.0
 10
-13.48634304470486
 20
-1.486730957031249
 30
0.0
 10
-13.48634304470486
 20
-1.346515570746527
 30
0.0
  0
LINE
  5
287
330
27D
100
AcDbEntity
  8
0
 62
     7
100
AcDbLine
 10
-13.48634304470486
 20
-0.0001722547743056
 30
0.0
 11
-13.48634304470486
 21
-1.346515570746527
 31
0.0
  0
SPLINE
  5
288
330
27D
100
AcDbEntity
  8
0
 62
     7
100
AcDbSpline
210
0.0
220
0.0
230
1.0
 70
     8
 71
     3
 72
     8
 73
     4
 74
     0
 42
0.0000000001
 43
0.0000000001
 40
0.0
 40
0.0
 40
0.0
 40
0.0
 40
1.0
 40
1.0
 40
1.0
 40
1.0
 10
-16.40743950737847
 20
-1.600419108072916
 30
0.0
 10
-16.54765489366319
 20
-1.600419108072916
 30
0.0
 10
-16.66134304470486
 20
-1.714107259114583
 30
0.0
 10
-16.66134304470486
 20
-1.854322645399305
 30
0.0
  0
LINE
  5
289
330
27D
100
AcDbEntity
  8
0
 62
     7
100
AcDbLine
 10
-13.74059109157986
 20
-1.600419108072916
 30
0.0
 11
-16.40743950737847
 21
-1.600419108072916
 31
0.0
  0
SPLINE
  5
28A
330
27D
100
AcDbEntity
  8
0
 62
     7
100
AcDbSpline
210
0.0
220
0.0
230
1.0
 70
     8
 71
     3
 72
     8
 73
     4
 74
     0
 42
0.0000000001
 43
0.0000000001
 40
0.0
 40
0.0
 40
0.0
 40
0.0
 40
1.0
 40
1.0
 40
1.0
 40
1.0
 10
-16.91559109157986
 20
-5.562967936197916
 30
0.0
 10
-16.77503119574652
 20
-5.562967936197916
 30
0.0
 10
-16.66134304470486
 20
-5.449279785156249
 30
0.0
 10
-16.66134304470486
 20
-5.308719889322916
 30
0.0
  0
LINE
  5
28B
330
27D
100
AcDbEntity
  8
0
 62
     7
100
AcDbLine
 10
-16.66134304470486
 20
-1.854322645399305
 30
0.0
 11
-16.66134304470486
 21
-5.308719889322916
 31
0.0
  0
LINE
  5
28C
330
27D
100
AcDbEntity
  8
0
 62
     7
100
AcDbLine
 10
-6.501756456163193
 20
1.574580891927083
 30
0.0
 11
-11.91193440755208
 21
1.574580891927083
 31
0.0
  0
LINE
  5
28D
330
27D
100
AcDbEntity
  8
0
 62
     7
100
AcDbLine
 10
19.83806559244791
 20
-5.816871473524305
 30
0.0
 11
19.83806559244791
 21
-9.525172254774304
 31
0.0
  0
SPLINE
  5
28E
330
27D
100
AcDbEntity
  8
0
 62
     7
100
AcDbSpline
210
0.0
220
0.0
230
1.0
 70
     8
 71
     3
 72
    11
 73
     7
 74
     0
 42
0.0000000001
 43
0.0000000001
 40
0.0
 40
0.0
 40
0.0
 40
0.0
 40
1.0
 40
1.0
 40
1.0
 40
2.0
 40
2.0
 40
2.0
 40
2.0
 10
19.83806559244791
 20
-9.485898166232637
 30
0.0
 10
24.19335530598958
 20
-9.051127115885416
 30
0.0
 10
27.37111138237847
 20
-5.168159993489583
 30
0.0
 10
26.93634033203125
 20
-0.8132147894965276
 30
0.0
 10
26.65039740668403
 20
2.051037597656249
 30
0.0
 10
24.83414306640625
 20
4.53460693359375
 30
0.0
 10
22.19175482855903
 20
5.675278049045138
 30
0.0
  0
LINE
  5
28F
330
27D
100
AcDbEntity
  8
0
 62
     7
100
AcDbLine
 10
6.503479003906249
 20
1.574580891927083
 30
0.0
 11
11.91365695529514
 21
1.574580891927083
 31
0.0
  0
SPLINE
  5
290
330
27D
100
AcDbEntity
  8
0
 62
     7
100
AcDbSpline
210
0.0
220
0.0
230
1.0
 70
     8
 71
     3
 72
     8
 73
     4
 74
     0
 42
0.0000000001
 43
0.0000000001
 40
0.0
 40
0.0
 40
0.0
 40
0.0
 40
1.0
 40
1.0
 40
1.0
 40
1.0
 10
22.19175482855903
 20
5.675278049045138
 30
0.0
 10
15.0566175672743
 20
8.227404785156249
 30
0.0
 10
7.534940592447916
 20
9.529650878906249
 30
0.0
 10
-0.0428914388020833
 20
9.524827745225692
 30
0.0
  0
LINE
  5
291
330
27D
100
AcDbEntity
  8
0
 62
     7
100
AcDbLine
 10
0.0008612738715278
 20
-1.600419108072916
 30
0.0
 11
3.709506564670138
 21
-1.600419108072916
 31
0.0
  0
LINE
  5
292
330
27D
100
AcDbEntity
  8
0
 62
     7
100
AcDbLine
 10
0.0008612738715278
 20
-1.600419108072916
 30
0.0
 11
-3.707439507378472
 21
-1.600419108072916
 31
0.0
  0
LINE
  5
293
330
27D
100
AcDbEntity
  8
0
 62
     7
100
AcDbLine
 10
-3.96134304470486
 20
-1.346515570746527
 30
0.0
 11
-3.96134304470486
 21
-0.9654880099826389
 31
0.0
  0
SPLINE
  5
294
330
27D
100
AcDbEntity
  8
0
 62
     7
100
AcDbSpline
210
0.0
220
0.0
230
1.0
 70
     8
 71
     3
 72
     8
 73
     4
 74
     0
 42
0.0000000001
 43
0.0000000001
 40
0.0
 40
0.0
 40
0.0
 40
0.0
 40
1.0
 40
1.0
 40
1.0
 40
1.0
 10
-3.96134304470486
 20
-1.346515570746527
 30
0.0
 10
-3.96134304470486
 20
-1.486730957031249
 30
0.0
 10
-3.847654893663193
 20
-1.600419108072916
 30
0.0
 10
-3.707439507378472
 20
-1.600419108072916
 30
0.0
  0
SPLINE
  5
295
330
27D
100
AcDbEntity
  8
0
 62
     7
100
AcDbSpline
210
0.0
220
0.0
230
1.0
 70
     8
 71
     3
 72
     8
 73
     4
 74
     0
 42
0.0000000001
 43
0.0000000001
 40
0.0
 40
0.0
 40
0.0
 40
0.0
 40
1.0
 40
1.0
 40
1.0
 40
1.0
 10
6.503479003906249
 20
1.574580891927083
 30
0.0
 10
5.100636121961804
 20
1.574580891927083
 30
0.0
 10
3.963065592447916
 20
0.4373548719618056
 30
0.0
 10
3.963065592447916
 20
-0.9654880099826389
 30
0.0
  0
LINE
  5
296
330
27D
100
AcDbEntity
  8
0
 62
     7
100
AcDbLine
 10
3.963065592447916
 20
-1.346515570746527
 30
0.0
 11
3.963065592447916
 21
-0.9654880099826389
 31
0.0
  0
SPLINE
  5
297
330
27D
100
AcDbEntity
  8
0
 62
     7
100
AcDbSpline
210
0.0
220
0.0
230
1.0
 70
     8
 71
     3
 72
     8
 73
     4
 74
     0
 42
0.0000000001
 43
0.0000000001
 40
0.0
 40
0.0
 40
0.0
 40
0.0
 40
1.0
 40
1.0
 40
1.0
 40
1.0
 10
3.709506564670138
 20
-1.600419108072916
 30
0.0
 10
3.849377441406249
 20
-1.600419108072916
 30
0.0
 10
3.963065592447916
 20
-1.486730957031249
 30
0.0
 10
3.963065592447916
 20
-1.346515570746527
 30
0.0
  0
SPLINE
  5
298
330
27D
100
AcDbEntity
  8
0
 62
     7
100
AcDbSpline
210
0.0
220
0.0
230
1.0
 70
     8
 71
     3
 72
     8
 73
     4
 74
     0
 42
0.0000000001
 43
0.0000000001
 40
0.0
 40
0.0
 40
0.0
 40
0.0
 40
1.0
 40
1.0
 40
1.0
 40
1.0
 10
16.66306559244791
 20
-1.854322645399305
 30
0.0
 10
16.66306559244791
 20
-1.714107259114583
 30
0.0
 10
16.54937744140625
 20
-1.600419108072916
 30
0.0
 10
16.40950656467014
 20
-1.600419108072916
 30
0.0
  0
LINE
  5
299
330
27D
100
AcDbEntity
  8
0
 62
     7
100
AcDbLine
 10
13.48806559244791
 20
-0.0001722547743056
 30
0.0
 11
13.48806559244791
 21
-1.600419108072916
 31
0.0
  0
SPLINE
  5
29A
330
27D
100
AcDbEntity
  8
0
 62
     7
100
AcDbSpline
210
0.0
220
0.0
230
1.0
 70
     8
 71
     3
 72
     8
 73
     4
 74
     0
 42
0.0000000001
 43
0.0000000001
 40
0.0
 40
0.0
 40
0.0
 40
0.0
 40
1.0
 40
1.0
 40
1.0
 40
1.0
 10
13.48806559244791
 20
-0.0001722547743056
 30
0.0
 10
13.48806559244791
 20
0.8693698459201387
 30
0.0
 10
12.78319905598958
 20
1.574580891927083
 30
0.0
 10
11.91365695529514
 20
1.574580891927083
 30
0.0
  0
LINE
  5
29B
330
27D
100
AcDbEntity
  8
0
 62
     7
100
AcDbLine
 10
13.48806559244791
 20
-1.600419108072916
 30
0.0
 11
16.40950656467014
 21
-1.600419108072916
 31
0.0
  0
SPLINE
  5
29C
330
27D
100
AcDbEntity
  8
0
 62
     7
100
AcDbSpline
210
0.0
220
0.0
230
1.0
 70
     8
 71
     3
 72
     8
 73
     4
 74
     0
 42
0.0000000001
 43
0.0000000001
 40
0.0
 40
0.0
 40
0.0
 40
0.0
 40
1.0
 40
1.0
 40
1.0
 40
1.0
 10
19.83806559244791
 20
-5.816871473524305
 30
0.0
 10
19.83806559244791
 20
-5.676656087239583
 30
0.0
 10
19.72437744140625
 20
-5.562967936197916
 30
0.0
 10
19.58450656467013
 20
-5.562967936197916
 30
0.0
  0
SPLINE
  5
29D
330
27D
100
AcDbEntity
  8
0
 62
     7
100
AcDbSpline
210
0.0
220
0.0
230
1.0
 70
     8
 71
     3
 72
     8
 73
     4
 74
     0
 42
0.0000000001
 43
0.0000000001
 40
0.0
 40
0.0
 40
0.0
 40
0.0
 40
1.0
 40
1.0
 40
1.0
 40
1.0
 10
16.66306559244791
 20
-5.308719889322916
 30
0.0
 10
16.66306559244791
 20
-5.449279785156249
 30
0.0
 10
16.77709825303819
 20
-5.562967936197916
 30
0.0
 10
16.91731363932291
 20
-5.562967936197916
 30
0.0
  0
LINE
  5
29E
330
27D
100
AcDbEntity
  8
0
 62
     7
100
AcDbLine
 10
16.91731363932291
 20
-5.562967936197916
 30
0.0
 11
19.58450656467013
 21
-5.562967936197916
 31
0.0
  0
LINE
  5
29F
330
27D
100
AcDbEntity
  8
0
 62
     7
100
AcDbLine
 10
16.66306559244791
 20
-1.854322645399305
 30
0.0
 11
16.66306559244791
 21
-5.308719889322916
 31
0.0
  0
ENDBLK
  5
2A0
330
27D
100
AcDbEntity
  8
0
100
AcDbBlockEnd
  0
BLOCK
  5
2A2
330
2A1
100
AcDbEntity
  8
0
100
AcDbBlockBegin
  2
*D3
 70
     1
 10
0.0
 20
0.0
 30
0.0
  3
*D3
  1

  0
LINE
  5
2A3
330
2A1
100
AcDbEntity
  8
ADPDIM
 62
     0
370
    -2
100
AcDbLine
 10
9.66672286156125
 20
14.52647100220023
 30
0.0
 11
9.66672286156125
 21
15.28167519529209
 31
0.0
  0
LINE
  5
2A4
330
2A1
100
AcDbEntity
  8
ADPDIM
 62
     0
370
    -2
100
AcDbLine
 10
11.79182018631165
 20
14.52647100220023
 30
0.0
 11
11.79182018631165
 21
15.28167519529209
 31
0.0
  0
LINE
  5
2A5
330
2A1
100
AcDbEntity
  8
ADPDIM
 62
     0
370
    -2
100
AcDbLine
 10
9.84672286156125
 20
15.10167519529209
 30
0.0
 11
10.24927152393645
 21
15.10167519529209
 31
0.0
  0
LINE
  5
2A6
330
2A1
100
AcDbEntity
  8
ADPDIM
 62
     0
370
    -2
100
AcDbLine
 10
11.61182018631164
 20
15.10167519529209
 30
0.0
 11
11.20927152393645
 21
15.10167519529209
 31
0.0
  0
SOLID
  5
2A7
330
2A1
100
AcDbEntity
  8
ADPDIM
 62
     0
100
AcDbTrace
 10
9.84672286156125
 20
15.13167519529209
 30
0.0
 11
9.84672286156125
 21
15.07167519529209
 31
0.0
 12
9.66672286156125
 22
15.10167519529209
 32
0.0
 13
9.66672286156125
 23
15.10167519529209
 33
0.0
  0
SOLID
  5
2A8
330
2A1
100
AcDbEntity
  8
ADPDIM
 62
     0
100
AcDbTrace
 10
11.61182018631164
 20
15.13167519529209
 30
0.0
 11
11.61182018631164
 21
15.07167519529209
 31
0.0
 12
11.79182018631165
 22
15.10167519529209
 32
0.0
 13
11.79182018631165
 23
15.10167519529209
 33
0.0
  0
MTEXT
  5
2A9
330
2A1
100
AcDbEntity
  8
ADPDIM
 62
     0
100
AcDbMText
 10
10.72927152393645
 20
15.10167519529209
 30
0.0
 40
0.18
 41
0.0
 71
     5
 72
     1
  1
\A1;2 1/8
 73
     1
 44
1.0
1001
ACAD
1000
MTEXTBEGIN
1070
    73
1070
     1
1070
    44
1040
1.0
1070
    74
1070
     0
1000
MTEXTEND
  0
POINT
  5
2AA
330
2A1
100
AcDbEntity
  8
DEFPOINTS
 62
     0
100
AcDbPoint
 10
9.66672286156125
 20
14.46397100220023
 30
0.0
  0
POINT
  5
2AB
330
2A1
100
AcDbEntity
  8
DEFPOINTS
 62
     0
100
AcDbPoint
 10
11.79182018631165
 20
14.46397100220023
 30
0.0
  0
POINT
  5
2AC
330
2A1
100
AcDbEntity
  8
DEFPOINTS
 62
     0
100
AcDbPoint
 10
11.79182018631165
 20
15.10167519529209
 30
0.0
  0
ENDBLK
  5
2AD
330
2A1
100
AcDbEntity
  8
0
100
AcDbBlockEnd
  0
BLOCK
  5
2C7
330
2BC
100
AcDbEntity
  8
0
100
AcDbBlockBegin
  2
*D5
 70
     1
 10
0.0
 20
0.0
 30
0.0
  3
*D5
  1

  0
LINE
  5
2E3
330
2BC
100
AcDbEntity
  8
ADPDIM
 62
     0
370
    -2
100
AcDbLine
 10
-7.992792610328244
 20
-1.197172383373128
 30
0.0
 11
-7.992792610328244
 21
-0.4419681902812725
 31
0.0
  0
LINE
  5
2E4
330
2BC
100
AcDbEntity
  8
ADPDIM
 62
     0
370
    -2
100
AcDbLine
 10
-5.867695285577848
 20
-1.197172383373128
 30
0.0
 11
-5.867695285577848
 21
-0.4419681902812725
 31
0.0
  0
LINE
  5
2E5
330
2BC
100
AcDbEntity
  8
ADPDIM
 62
     0
370
    -2
100
AcDbLine
 10
-7.812792610328244
 20
-0.6219681902812724
 30
0.0
 11
-7.410243947953047
 21
-0.6219681902812724
 31
0.0
  0
LINE
  5
2E6
330
2BC
100
AcDbEntity
  8
ADPDIM
 62
     0
370
    -2
100
AcDbLine
 10
-6.047695285577848
 20
-0.6219681902812724
 30
0.0
 11
-6.450243947953046
 21
-0.6219681902812724
 31
0.0
  0
SOLID
  5
2E7
330
2BC
100
AcDbEntity
  8
ADPDIM
 62
     0
100
AcDbTrace
 10
-7.812792610328244
 20
-0.5919681902812723
 30
0.0
 11
-7.812792610328244
 21
-0.6519681902812725
 31
0.0
 12
-7.992792610328244
 22
-0.6219681902812724
 32
0.0
 13
-7.992792610328244
 23
-0.6219681902812724
 33
0.0
  0
SOLID
  5
2E8
330
2BC
100
AcDbEntity
  8
ADPDIM
 62
     0
100
AcDbTrace
 10
-6.047695285577848
 20
-0.5919681902812723
 30
0.0
 11
-6.047695285577848
 21
-0.6519681902812725
 31
0.0
 12
-5.867695285577848
 22
-0.6219681902812724
 32
0.0
 13
-5.867695285577848
 23
-0.6219681902812724
 33
0.0
  0
MTEXT
  5
2E9
330
2BC
100
AcDbEntity
  8
ADPDIM
 62
     0
100
AcDbMText
 10
-6.930243947953046
 20
-0.6219681902812724
 30
0.0
 40
0.18
 41
0.0
 71
     5
 72
     1
  1
\A1;2 1/8
 73
     1
 44
1.0
1001
ACAD
1000
MTEXTBEGIN
1070
    73
1070
     1
1070
    44
1040
1.0
1070
    74
1070
     0
1000
MTEXTEND
  0
POINT
  5
2EA
330
2BC
100
AcDbEntity
  8
DEFPOINTS
 62
     0
100
AcDbPoint
 10
-7.992792610328244
 20
-1.259672383373128
 30
0.0
  0
POINT
  5
2EB
330
2BC
100
AcDbEntity
  8
DEFPOINTS
 62
     0
100
AcDbPoint
 10
-5.867695285577848
 20
-1.259672383373128
 30
0.0
  0
POINT
  5
2EC
330
2BC
100
AcDbEntity
  8
DEFPOINTS
 62
     0
100
AcDbPoint
 10
-5.867695285577848
 20
-0.6219681902812724
 30
0.0
  0
ENDBLK
  5
2C8
330
2BC
100
AcDbEntity
  8
0
100
AcDbBlockEnd
  0
BLOCK
  5
2D4
330
2C9
100
AcDbEntity
  8
0
100
AcDbBlockBegin
  2
*D6
 70
     1
 10
0.0
 20
0.0
 30
0.0
  3
*D6
  1

  0
LINE
  5
301
330
2C9
100
AcDbEntity
  8
ADPDIM
 62
     0
370
    -2
100
AcDbLine
 10
-7.716152808189029
 20
-1.709816117465571
 30
0.0
 11
-7.716152808189029
 21
-2.304949004064624
 31
0.0
  0
LINE
  5
302
330
2C9
100
AcDbEntity
  8
ADPDIM
 62
     0
370
    -2
100
AcDbLine
 10
-6.15690966836879
 20
-1.709816117465571
 30
0.0
 11
-6.15690966836879
 21
-2.304949004064624
 31
0.0
  0
LINE
  5
303
330
2C9
100
AcDbEntity
  8
ADPDIM
 62
     0
370
    -2
100
AcDbLine
 10
-7.536152808189029
 20
-2.124949004064625
 30
0.0
 11
-7.482584200632488
 21
-2.124949004064625
 31
0.0
  0
LINE
  5
304
330
2C9
100
AcDbEntity
  8
ADPDIM
 62
     0
370
    -2
100
AcDbLine
 10
-6.336909668368789
 20
-2.124949004064625
 30
0.0
 11
-6.402584200632488
 21
-2.124949004064625
 31
0.0
  0
SOLID
  5
305
330
2C9
100
AcDbEntity
  8
ADPDIM
 62
     0
100
AcDbTrace
 10
-7.536152808189029
 20
-2.094949004064625
 30
0.0
 11
-7.536152808189029
 21
-2.154949004064624
 31
0.0
 12
-7.716152808189029
 22
-2.124949004064625
 32
0.0
 13
-7.716152808189029
 23
-2.124949004064625
 33
0.0
  0
SOLID
  5
306
330
2C9
100
AcDbEntity
  8
ADPDIM
 62
     0
100
AcDbTrace
 10
-6.336909668368789
 20
-2.094949004064625
 30
0.0
 11
-6.336909668368789
 21
-2.154949004064624
 31
0.0
 12
-6.15690966836879
 22
-2.124949004064625
 32
0.0
 13
-6.15690966836879
 23
-2.124949004064625
 33
0.0
  0
MTEXT
  5
307
330
2C9
100
AcDbEntity
  8
ADPDIM
 62
     0
100
AcDbMText
 10
-6.942584200632488
 20
-2.124949004064625
 30
0.0
 40
0.18
 41
0.0
 71
     5
 72
     1
  1
\A1;1 9/16
 73
     1
 44
1.0
1001
ACAD
1000
MTEXTBEGIN
1070
    73
1070
     1
1070
    44
1040
1.0
1070
    74
1070
     0
1000
MTEXTEND
  0
POINT
  5
308
330
2C9
100
AcDbEntity
  8
DEFPOINTS
 62
     0
100
AcDbPoint
 10
-7.716152808189029
 20
-1.647316117465571
 30
0.0
  0
POINT
  5
309
330
2C9
100
AcDbEntity
  8
DEFPOINTS
 62
     0
100
AcDbPoint
 10
-6.15690966836879
 20
-1.647316117465571
 30
0.0
  0
POINT
  5
30A
330
2C9
100
AcDbEntity
  8
DEFPOINTS
 62
     0
100
AcDbPoint
 10
-6.15690966836879
 20
-2.124949004064625
 30
0.0
  0
ENDBLK
  5
2D5
330
2C9
100
AcDbEntity
  8
0
100
AcDbBlockEnd
  0
BLOCK
  5
2E1
330
2D6
100
AcDbEntity
  8
0
100
AcDbBlockBegin
  2
*D7
 70
     1
 10
0.0
 20
0.0
 30
0.0
  3
*D7
  1

  0
LINE
  5
2F7
330
2D6
100
AcDbEntity
  8
ADPDIM
 62
     0
370
    -2
100
AcDbLine
 10
-7.5851040931718
 20
-1.527251394840604
 30
0.0
 11
-7.5851040931718
 21
-1.823393097428656
 31
0.0
  0
LINE
  5
2F8
330
2D6
100
AcDbEntity
  8
ADPDIM
 62
     0
370
    -2
100
AcDbLine
 10
-6.2726040931718
 20
-1.527251394840604
 30
0.0
 11
-6.2726040931718
 21
-1.823393097428656
 31
0.0
  0
LINE
  5
2F9
330
2D6
100
AcDbEntity
  8
ADPDIM
 62
     0
370
    -2
100
AcDbLine
 10
-7.7651040931718
 20
-1.643393097428656
 30
0.0
 11
-7.9451040931718
 21
-1.643393097428656
 31
0.0
  0
LINE
  5
2FA
330
2D6
100
AcDbEntity
  8
ADPDIM
 62
     0
370
    -2
100
AcDbLine
 10
-6.0926040931718
 20
-1.643393097428656
 30
0.0
 11
-5.706427443621927
 21
-1.643393097428656
 31
0.0
  0
SOLID
  5
2FB
330
2D6
100
AcDbEntity
  8
ADPDIM
 62
     0
100
AcDbTrace
 10
-7.7651040931718
 20
-1.613393097428656
 30
0.0
 11
-7.7651040931718
 21
-1.673393097428656
 31
0.0
 12
-7.5851040931718
 22
-1.643393097428656
 32
0.0
 13
-7.5851040931718
 23
-1.643393097428656
 33
0.0
  0
SOLID
  5
2FC
330
2D6
100
AcDbEntity
  8
ADPDIM
 62
     0
100
AcDbTrace
 10
-6.0926040931718
 20
-1.613393097428656
 30
0.0
 11
-6.0926040931718
 21
-1.673393097428656
 31
0.0
 12
-6.2726040931718
 22
-1.643393097428656
 32
0.0
 13
-6.2726040931718
 23
-1.643393097428656
 33
0.0
  0
MTEXT
  5
2FD
330
2D6
100
AcDbEntity
  8
ADPDIM
 62
     0
100
AcDbMText
 10
-5.166427443621927
 20
-1.643393097428656
 30
0.0
 40
0.18
 41
0.0
 71
     5
 72
     1
  1
\A1;1 5/16
 73
     1
 44
1.0
1001
ACAD
1000
MTEXTBEGIN
1070
    73
1070
     1
1070
    44
1040
1.0
1070
    74
1070
     0
1000
MTEXTEND
  0
POINT
  5
2FE
330
2D6
100
AcDbEntity
  8
DEFPOINTS
 62
     0
100
AcDbPoint
 10
-7.5851040931718
 20
-1.464751394840604
 30
0.0
  0
POINT
  5
2FF
330
2D6
100
AcDbEntity
  8
DEFPOINTS
 62
     0
100
AcDbPoint
 10
-6.2726040931718
 20
-1.464751394840604
 30
0.0
  0
POINT
  5
300
330
2D6
100
AcDbEntity
  8
DEFPOINTS
 62
     0
100
AcDbPoint
 10
-6.2726040931718
 20
-1.643393097428656
 30
0.0
  0
ENDBLK
  5
2E2
330
2D6
100
AcDbEntity
  8
0
100
AcDbBlockEnd
  0
ENDSEC
  0
SECTION
  2
ENTITIES
  0
ARC
  5
2F
330
A
100
AcDbEntity
  8
ADP1DETAIL
  6
Continuous
 62
     7
100
AcDbCircle
 10
14.65133488816688
 20
-2.286445734122206
 30
0.0
 40
8.802361266040087
210
0.0
220
0.0
230
-1.0
100
AcDbArc
 50
181.7046379971244
 51
209.0339196805146
  0
ARC
  5
30
330
A
100
AcDbEntity
  8
ADP1DETAIL
  6
Continuous
 62
     7
100
AcDbCircle
 10
13.11031953000147
 20
-2.968765657437291
 30
0.0
 40
7.125459878386691
210
0.0
220
0.0
230
-1.0
100
AcDbArc
 50
210.2507931719031
 51
295.6992532783415
  0
ARC
  5
31
330
A
100
AcDbEntity
  8
ADP1DETAIL
  6
Continuous
 62
     7
100
AcDbCircle
 10
13.41281486072419
 20
-4.065168231345261
 30
0.0
 40
6.009759609169413
210
0.0
220
0.0
230
-1.0
100
AcDbArc
 50
297.6338241113373
 51
36.3307998249736
  0
ARC
  5
32
330
A
100
AcDbEntity
  8
ADP1DETAIL
  6
Continuous
 62
     7
100
AcDbCircle
 10
14.63796385591524
 20
-3.5610242923396
 30
0.0
 40
4.73489403079473
210
0.0
220
0.0
230
-1.0
100
AcDbArc
 50
40.20225469282036
 51
110.6208814563825
  0
ARC
  5
33
330
A
100
AcDbEntity
  8
ADP1DETAIL
  6
Continuous
 62
     7
100
AcDbCircle
 10
14.3277145334856
 20
-2.717747343094585
 30
0.0
 40
3.836386023597385
210
0.0
220
0.0
230
-1.0
100
AcDbArc
 50
110.7196840652258
 51
215.559693517074
  0
ARC
  5
34
330
A
100
AcDbEntity
  8
ADP1DETAIL
  6
Continuous
 62
     7
100
AcDbCircle
 10
13.2377161741642
 20
-3.76054294700683
 30
0.0
 40
2.353014083708456
210
0.0
220
0.0
230
-1.0
100
AcDbArc
 50
210.3309501300742
 51
22.41718177536326
  0
ARC
  5
35
330
A
100
AcDbEntity
  8
ADP1DETAIL
  6
Continuous
 62
     7
100
AcDbCircle
 10
13.58417321878933
 20
-3.627892471968883
 30
0.0
 40
1.982174999311056
210
0.0
220
0.0
230
-1.0
100
AcDbArc
 50
22.69161924644901
 51
110.0140924465926
  0
ARC
  5
36
330
A
100
AcDbEntity
  8
ADP1DETAIL
  6
Continuous
 62
     7
100
AcDbCircle
 10
14.65133488816687
 20
-2.286445734122181
 30
0.0
 40
6.677361266040088
210
0.0
220
0.0
230
-1.0
100
AcDbArc
 50
182.2473658433074
 51
208.8365111773099
  0
ARC
  5
37
330
A
100
AcDbEntity
  8
ADP1DETAIL
  6
Continuous
 62
     7
100
AcDbCircle
 10
13.11031953000144
 20
-2.968765657437304
 30
0.0
 40
5.000459878386689
210
0.0
220
0.0
230
-1.0
100
AcDbArc
 50
210.5043390784546
 51
295.2796775891253
  0
ARC
  5
38
330
A
100
AcDbEntity
  8
ADP1DETAIL
  6
Continuous
 62
     7
100
AcDbCircle
 10
13.41281486072419
 20
-4.06516823134526
 30
0.0
 40
3.884759609169416
210
0.0
220
0.0
230
-1.0
100
AcDbArc
 50
298.1521604123813
 51
35.22885367629759
  0
ARC
  5
39
330
A
100
AcDbEntity
  8
ADP1DETAIL
  6
Continuous
 62
     7
100
AcDbCircle
 10
14.63796385591524
 20
-3.561024292339598
 30
0.0
 40
2.60989403079473
210
0.0
220
0.0
230
-1.0
100
AcDbArc
 50
41.7168980344316
 51
110.5785328349905
  0
ARC
  5
3A
330
A
100
AcDbEntity
  8
ADP1DETAIL
  6
Continuous
 62
     7
100
AcDbCircle
 10
14.32771453348555
 20
-2.717747343094558
 30
0.0
 40
1.711386023597383
210
0.0
220
0.0
230
-1.0
100
AcDbArc
 50
110.7777833403462
 51
146.1884466119801
  0
LWPOLYLINE
  5
3B
330
A
100
AcDbEntity
  8
ADP1DETAIL
  6
Continuous
 62
     7
100
AcDbPolyline
 90
        2
 70
   128
 43
0.0
 10
-5.85286905946771
 20
-2.548290953854837
 10
-7.979109580361669
 20
-2.548290953854837
  0
TEXT
  5
EC
330
A
100
AcDbEntity
  8
ADPDIM
100
AcDbText
 10
-22.74132982367761
 20
-10.81530870004339
 30
0.0
 40
0.1875
  1
J U L I U S  B L U M  &  C O . ,  I N C .      ( 8 0 0 )  5 2 6 - 6 2 9 3        W W W . J U L I U S B L U M . C O M        P A R T  N o .  5 2 3 5 - G L
 41
1.25
  7
ARIAL_WIDE
 72
     1
 11
-12.54337940587406
 21
-10.62780870004339
 31
0.0
100
AcDbText
 73
     3
  0
DIMENSION
  5
2B8
330
A
100
AcDbEntity
  8
ADPDIM
100
AcDbDimension
  2
*D5
 10
-5.867695285577848
 20
-0.6219681902812724
 30
0.0
 11
-6.930243947953046
 21
-0.6219681902812724
 31
0.0
 70
    32
 71
     5
 42
2.125097324750395
  3
STANDARD
100
AcDbAlignedDimension
 13
-7.992792610328244
 23
-1.259672383373128
 33
0.0
 14
-5.867695285577848
 24
-1.259672383373128
 34
0.0
100
AcDbRotatedDimension
1001
ACAD
1000
DSTYLE
1002
{
1070
   276
1070
     2
1070
   277
1070
     5
1002
}
  0
DIMENSION
  5
2B9
330
A
100
AcDbEntity
  8
ADPDIM
100
AcDbDimension
  2
*D6
 10
-6.15690966836879
 20
-2.124949004064625
 30
0.0
 11
-6.942584200632488
 21
-2.124949004064625
 31
0.0
 70
   160
 71
     5
 42
1.559243139820239
  3
STANDARD
100
AcDbAlignedDimension
 13
-7.716152808189029
 23
-1.647316117465571
 33
0.0
 14
-6.15690966836879
 24
-1.647316117465571
 34
0.0
100
AcDbRotatedDimension
1001
ACAD
1000
DSTYLE
1002
{
1070
   276
1070
     2
1070
   277
1070
     5
1002
}
  0
DIMENSION
  5
2BA
330
A
100
AcDbEntity
  8
ADPDIM
 62
     3
100
AcDbDimension
  2
*D7
 10
-6.2726040931718
 20
-1.643393097428656
 30
0.0
 11
-5.166427443621927
 21
-1.643393097428656
 31
0.0
 70
   160
 71
     5
 42
1.3125
  3
STANDARD
100
AcDbAlignedDimension
 13
-7.5851040931718
 23
-1.464751394840604
 33
0.0
 14
-6.2726040931718
 24
-1.464751394840604
 34
0.0
100
AcDbRotatedDimension
1001
ACAD
1000
DSTYLE
1002
{
1070
   276
1070
     2
1070
   277
1070
     5
1002
}
  0
INSERT
  5
2BB
330
A
100
AcDbEntity
  8
0
 62
     7
100
AcDbBlockReference
  2
AI9-BLK1
 10
-6.935319046344281
 20
-1.18742151909258
 30
0.0
 41
0.0393242362713124
 42
0.0393242362713124
 43
0.0393242362713124
  0
ENDSEC
  0
SECTION
  2
OBJECTS
  0
DICTIONARY
  5
19
330
0
100
AcDbDictionary
281
     1
  3
ACAD_COLOR
350
25D
  3
ACAD_GROUP
350
1A
  3
ACAD_LAYOUT
350
E4
  3
ACAD_MATERIAL
350
248
  3
ACAD_MLINESTYLE
350
1B
  3
ACAD_PLOTSETTINGS
350
E5
  3
ACAD_PLOTSTYLENAME
350
E2
  3
ACAD_TABLESTYLE
350
25E
  3
ACAD_VISUALSTYLE
350
24C
  3
AcDbVariableDictionary
350
14E
  3
ASE_INDEX_DICTIONARY
350
30C
  3
DWGPROPS
350
32D
  0
DICTIONARY
  5
142
330
A
100
AcDbDictionary
280
     1
281
     1
  3
ACAD_LAYOUTSELFREF
360
23B
  0
DICTIONARY
  5
144
330
B
100
AcDbDictionary
280
     1
281
     1
  3
ACAD_LAYOUTSELFREF
360
23C
  0
DICTIONARY
  5
25D
102
{ACAD_REACTORS
330
19
102
}
330
19
100
AcDbDictionary
281
     1
  0
DICTIONARY
  5
1A
102
{ACAD_REACTORS
330
19
102
}
330
19
100
AcDbDictionary
281
     1
  0
DICTIONARY
  5
E4
102
{ACAD_REACTORS
330
19
102
}
330
19
100
AcDbDictionary
281
     1
  3
Layout1
350
E7
  3
Model
350
E6
  0
DICTIONARY
  5
248
102
{ACAD_REACTORS
330
19
102
}
330
19
100
AcDbDictionary
281
     1
  3
ByBlock
350
24A
  3
ByLayer
350
249
  3
Global
350
24B
  0
DICTIONARY
  5
1B
102
{ACAD_REACTORS
330
19
102
}
330
19
100
AcDbDictionary
281
     1
  3
STANDARD
350
1C
  0
DICTIONARY
  5
E5
102
{ACAD_REACTORS
330
19
102
}
330
19
100
AcDbDictionary
281
     1
  0
ACDBDICTIONARYWDFLT
  5
E2
102
{ACAD_REACTORS
330
19
102
}
330
19
100
AcDbDictionary
281
     1
  3
Normal
350
E3
100
AcDbDictionaryWithDefault
340
E3
  0
DICTIONARY
  5
25E
102
{ACAD_REACTORS
330
19
102
}
330
19
100
AcDbDictionary
281
     1
  3
Standard
350
25F
  0
DICTIONARY
  5
24C
102
{ACAD_REACTORS
330
19
102
}
330
19
100
AcDbDictionary
281
     1
  3
2dWireframe
350
252
  3
3D Hidden
350
254
  3
3dWireframe
350
253
  3
Basic
350
251
  3
Brighten
350
258
  3
ColorChange
350
25C
  3
Conceptual
350
255
  3
Dim
350
257
  3
Facepattern
350
25B
  3
Flat
350
24D
  3
FlatWithEdges
350
24E
  3
Gouraud
350
24F
  3
GouraudWithEdges
350
250
  3
Linepattern
350
25A
  3
Realistic
350
256
  3
Thicken
350
259
  0
DICTIONARY
  5
14E
102
{ACAD_REACTORS
330
19
102
}
330
19
100
AcDbDictionary
281
     1
  3
CTABLESTYLE
350
32A
  3
DIMASSOC
350
14F
  3
INDEXCTL
350
32C
  3
SORTENTS
350
32B
  0
DICTIONARY
  5
30C
102
{ACAD_REACTORS
330
19
102
}
330
19
100
AcDbDictionary
281
     1
  3
ASEBlockHierarchyIndexRecord
350
30D
1001
DCO15
1040
1569005714.847
  0
XRECORD
  5
32D
102
{ACAD_REACTORS
330
19
102
}
330
19
100
AcDbXrecord
280
     1
  1
DWGPROPS COOKIE
  2

  3

  4

  6

  7

  8
Yu Hu
  9

300
=
301
=
302
=
303
=
304
=
305
=
306
=
307
=
308
=
309
=
 40
0.0660591203703704
 41
2444971.791666667
 42
2453963.000218137
  1

 90
        0
  0
XRECORD
  5
23B
102
{ACAD_REACTORS
330
142
102
}
330
142
100
AcDbXrecord
280
     1
340
A
  0
XRECORD
  5
23C
102
{ACAD_REACTORS
330
144
102
}
330
144
100
AcDbXrecord
280
     1
340
B
  0
LAYOUT
  5
E7
102
{ACAD_XDICTIONARY
360
330
102
}
102
{ACAD_REACTORS
330
E4
102
}
330
E4
100
AcDbPlotSettings
  1

  2
Fax
  4

  6

 40
0.0
 41
0.0
 42
0.0
 43
0.0
 44
0.0
 45
0.0
 46
0.0
 47
0.0
 48
0.0
 49
0.0
140
0.0
141
0.0
142
1.0
143
1.0
 70
   688
 72
     0
 73
     0
 74
     5
  7
Default R14 pen assignments.ctb
 75
    16
147
1.0
148
0.0
149
0.0
100
AcDbLayout
  1
Layout1
 70
     0
 71
     1
 10
0.0
 20
0.0
 11
12.0
 21
9.0
 12
0.0
 22
0.0
 32
0.0
 14
1.000000000000000E+20
 24
1.000000000000000E+20
 34
1.000000000000000E+20
 15
-1.000000000000000E+20
 25
-1.000000000000000E+20
 35
-1.000000000000000E+20
146
0.0
 13
0.0
 23
0.0
 33
0.0
 16
1.0
 26
0.0
 36
0.0
 17
0.0
 27
1.0
 37
0.0
 76
     0
330
B
  0
LAYOUT
  5
E6
102
{ACAD_XDICTIONARY
360
32E
102
}
102
{ACAD_REACTORS
330
E4
102
}
330
E4
100
AcDbPlotSettings
  1

  2
Fax
  4

  6

 40
0.0
 41
0.0
 42
0.0
 43
0.0
 44
0.0
 45
0.0
 46
0.0
 47
0.0
 48
0.0
 49
0.0
140
0.0
141
0.0
142
1.0
143
1.0
 70
  1712
 72
     0
 73
     0
 74
     0
  7
Default R14 pen assignments.ctb
 75
     0
147
1.0
148
0.0
149
0.0
100
AcDbLayout
  1
Model
 70
     1
 71
     0
 10
0.0
 20
0.0
 11
12.0
 21
9.0
 12
0.0
 22
0.0
 32
0.0
 14
0.0
 24
0.0
 34
0.0
 15
0.0
 25
0.0
 35
0.0
146
0.0
 13
0.0
 23
0.0
 33
0.0
 16
1.0
 26
0.0
 36
0.0
 17
0.0
 27
1.0
 37
0.0
 76
     0
330
A
331
218
  0
MATERIAL
  5
24A
102
{ACAD_XDICTIONARY
360
334
102
}
102
{ACAD_REACTORS
330
248
102
}
330
248
100
AcDbMaterial
  1
ByBlock
  0
MATERIAL
  5
249
102
{ACAD_XDICTIONARY
360
332
102
}
102
{ACAD_REACTORS
330
248
102
}
330
248
100
AcDbMaterial
  1
ByLayer
  0
MATERIAL
  5
24B
102
{ACAD_XDICTIONARY
360
336
102
}
102
{ACAD_REACTORS
330
248
102
}
330
248
100
AcDbMaterial
  1
Global
  0
MLINESTYLE
  5
1C
102
{ACAD_REACTORS
330
1B
102
}
330
1B
100
AcDbMlineStyle
  2
STANDARD
 70
     0
  3

 62
     0
 51
90.00000000000019
 52
90.00000000000019
 71
     2
 49
0.5
 62
   256
  6
BYLAYER
 49
-0.5
 62
   256
  6
BYLAYER
  0
ACDBPLACEHOLDER
  5
E3
102
{ACAD_REACTORS
330
E2
102
}
330
E2
  0
TABLESTYLE
  5
25F
102
{ACAD_XDICTIONARY
360
338
102
}
102
{ACAD_REACTORS
330
25E
102
}
330
25E
100
AcDbTableStyle
  3
Standard
 70
     0
 71
     0
 40
0.06
 41
0.06
280
     0
281
     0
  7
STANDARD
140
0.18
170
     2
 62
     0
 63
     7
283
     0
274
    -2
284
     1
 64
     0
275
    -2
285
     1
 65
     0
276
    -2
286
     1
 66
     0
277
    -2
287
     1
 67
     0
278
    -2
288
     1
 68
     0
279
    -2
289
     1
 69
     0
  7
STANDARD
140
0.25
170
     5
 62
     0
 63
     7
283
     0
274
    -2
284
     1
 64
     0
275
    -2
285
     1
 65
     0
276
    -2
286
     1
 66
     0
277
    -2
287
     1
 67
     0
278
    -2
288
     1
 68
     0
279
    -2
289
     1
 69
     0
  7
STANDARD
140
0.18
170
     5
 62
     0
 63
     7
283
     0
274
    -2
284
     1
 64
     0
275
    -2
285
     1
 65
     0
276
    -2
286
     1
 66
     0
277
    -2
287
     1
 67
     0
278
    -2
288
     1
 68
     0
279
    -2
289
     1
 69
     0
  0
VISUALSTYLE
  5
252
102
{ACAD_REACTORS
330
24C
102
}
330
24C
100
AcDbVisualStyle
  2
2dWireframe
 70
     4
 71
     0
 72
     2
 73
     0
 90
        0
 40
-0.6
 41
-30.0
 62
     5
 63
     7
 74
     1
 91
        4
 64
     7
 65
   257
 75
     1
175
     1
 42
1.0
 92
        0
 66
   257
 43
1.0
 76
     1
 77
     6
 78
     2
 67
     7
 79
     5
170
     0
171
     0
290
     0
174
     0
 93
        1
 44
0.0
173
     0
291
     0
 45
0.0
1001
ACAD
1000
AcDbSavedByObjectVersion
1070
     0
  0
VISUALSTYLE
  5
254
102
{ACAD_REACTORS
330
24C
102
}
330
24C
100
AcDbVisualStyle
  2
3D Hidden
 70
     6
 71
     1
 72
     2
 73
     2
 90
        0
 40
-0.6
 41
-30.0
 62
     5
 63
     7
 74
     2
 91
        2
 64
     7
 65
   257
 75
     2
175
     1
 42
40.0
 92
        0
 66
   257
 43
1.0
 76
     1
 77
     6
 78
     2
 67
     7
 79
     3
170
     0
171
     0
290
     0
174
     0
 93
        1
 44
0.0
173
     0
291
     0
 45
0.0
1001
ACAD
1000
AcDbSavedByObjectVersion
1070
     0
  0
VISUALSTYLE
  5
253
102
{ACAD_REACTORS
330
24C
102
}
330
24C
100
AcDbVisualStyle
  2
3dWireframe
 70
     5
 71
     0
 72
     2
 73
     0
 90
        0
 40
-0.6
 41
-30.0
 62
     5
 63
     7
 74
     1
 91
        4
 64
     7
 65
   257
 75
     1
175
     1
 42
1.0
 92
        0
 66
   257
 43
1.0
 76
     1
 77
     6
 78
     2
 67
     7
 79
     5
170
     0
171
     0
290
     0
174
     0
 93
        1
 44
0.0
173
     0
291
     0
 45
0.0
1001
ACAD
1000
AcDbSavedByObjectVersion
1070
     0
  0
VISUALSTYLE
  5
251
102
{ACAD_REACTORS
330
24C
102
}
330
24C
100
AcDbVisualStyle
  2
Basic
 70
     7
 71
     1
 72
     0
 73
     1
 90
        0
 40
-0.6
 41
-30.0
 62
     5
 63
     7
 74
     0
 91
        4
 64
     7
 65
   257
 75
     1
175
     1
 42
1.0
 92
        8
 66
     7
 43
1.0
 76
     1
 77
     6
 78
     2
 67
     7
 79
     5
170
     0
171
     0
290
     0
174
     0
 93
        1
 44
0.0
173
     0
291
     1
 45
0.0
1001
ACAD
1000
AcDbSavedByObjectVersion
1070
     0
  0
VISUALSTYLE
  5
258
102
{ACAD_REACTORS
330
24C
102
}
330
24C
100
AcDbVisualStyle
  2
Brighten
 70
    12
 71
     2
 72
     2
 73
     0
 90
        0
 40
-0.6
 41
-30.0
 62
     5
 63
     7
 74
     1
 91
        4
 64
     7
 65
   257
 75
     1
175
     1
 42
1.0
 92
        8
 66
     7
 43
1.0
 76
     1
 77
     6
 78
     2
 67
     7
 79
     5
170
     0
171
     0
290
     0
174
     0
 93
        1
 44
50.0
173
     0
291
     1
 45
0.0
1001
ACAD
1000
AcDbSavedByObjectVersion
1070
     0
  0
VISUALSTYLE
  5
25C
102
{ACAD_REACTORS
330
24C
102
}
330
24C
100
AcDbVisualStyle
  2
ColorChange
 70
    16
 71
     2
 72
     2
 73
     3
 90
        0
 40
-0.6
 41
-30.0
 62
     5
 63
     8
 74
     1
 91
        4
 64
     7
 65
   257
 75
     1
175
     1
 42
1.0
 92
        8
 66
     8
 43
1.0
 76
     1
 77
     6
 78
     2
 67
     7
 79
     5
170
     0
171
     0
290
     0
174
     0
 93
        1
 44
0.0
173
     0
291
     1
 45
0.0
1001
ACAD
1000
AcDbSavedByObjectVersion
1070
     0
  0
VISUALSTYLE
  5
255
102
{ACAD_REACTORS
330
24C
102
}
330
24C
100
AcDbVisualStyle
  2
Conceptual
 70
     9
 71
     3
 72
     2
 73
     0
 90
        0
 40
-0.6
 41
-30.0
 62
     5
 63
     7
 74
     2
 91
        2
 64
     7
 65
   257
 75
     1
175
     1
 42
40.0
 92
        8
 66
     7
 43
1.0
 76
     1
 77
     6
 78
     2
 67
     7
 79
     3
170
     0
171
     0
290
     0
174
     0
 93
        1
 44
0.0
173
     0
291
     0
 45
0.0
1001
ACAD
1000
AcDbSavedByObjectVersion
1070
     0
  0
VISUALSTYLE
  5
257
102
{ACAD_REACTORS
330
24C
102
}
330
24C
100
AcDbVisualStyle
  2
Dim
 70
    11
 71
     2
 72
     2
 73
     0
 90
        0
 40
-0.6
 41
-30.0
 62
     5
 63
     7
 74
     1
 91
        4
 64
     7
 65
   257
 75
     1
175
     1
 42
1.0
 92
        8
 66
     7
 43
1.0
 76
     1
 77
     6
 78
     2
 67
     7
 79
     5
170
     0
171
     0
290
     0
174
     0
 93
        1
 44
-50.0
173
     0
291
     1
 45
0.0
1001
ACAD
1000
AcDbSavedByObjectVersion
1070
     0
  0
VISUALSTYLE
  5
25B
102
{ACAD_REACTORS
330
24C
102
}
330
24C
100
AcDbVisualStyle
  2
Facepattern
 70
    15
 71
     2
 72
     2
 73
     0
 90
        0
 40
-0.6
 41
-30.0
 62
     5
 63
     7
 74
     1
 91
        4
 64
     7
 65
   257
 75
     1
175
     1
 42
1.0
 92
        8
 66
     7
 43
1.0
 76
     1
 77
     6
 78
     2
 67
     7
 79
     5
170
     0
171
     0
290
     0
174
     0
 93
        1
 44
0.0
173
     0
291
     1
 45
0.0
1001
ACAD
1000
AcDbSavedByObjectVersion
1070
     0
  0
VISUALSTYLE
  5
24D
102
{ACAD_REACTORS
330
24C
102
}
330
24C
100
AcDbVisualStyle
  2
Flat
 70
     0
 71
     2
 72
     1
 73
     1
 90
        2
 40
-0.6
 41
30.0
 62
     5
 63
     7
 74
     0
 91
        4
 64
     7
 65
   257
 75
     1
175
     1
 42
1.0
 92
        8
 66
     7
 43
1.0
 76
     1
 77
     6
 78
     2
 67
     7
 79
     5
170
     0
171
     0
290
     0
174
     0
 93
       13
 44
0.0
173
     0
291
     1
 45
0.0
1001
ACAD
1000
AcDbSavedByObjectVersion
1070
     0
  0
VISUALSTYLE
  5
24E
102
{ACAD_REACTORS
330
24C
102
}
330
24C
100
AcDbVisualStyle
  2
FlatWithEdges
 70
     1
 71
     2
 72
     1
 73
     1
 90
        2
 40
-0.6
 41
30.0
 62
     5
 63
     7
 74
     1
 91
        4
 64
     7
 65
   257
 75
     1
175
     1
 42
1.0
 92
        0
 66
   257
 43
1.0
 76
     1
 77
     6
 78
     2
 67
     7
 79
     5
170
     0
171
     0
290
     0
174
     0
 93
       13
 44
0.0
173
     0
291
     1
 45
0.0
1001
ACAD
1000
AcDbSavedByObjectVersion
1070
     0
  0
VISUALSTYLE
  5
24F
102
{ACAD_REACTORS
330
24C
102
}
330
24C
100
AcDbVisualStyle
  2
Gouraud
 70
     2
 71
     2
 72
     2
 73
     1
 90
        2
 40
-0.6
 41
30.0
 62
     5
 63
     7
 74
     0
 91
        4
 64
     7
 65
   257
 75
     1
175
     1
 42
1.0
 92
        0
 66
     7
 43
1.0
 76
     1
 77
     6
 78
     2
 67
     7
 79
     5
170
     0
171
     0
290
     0
174
     0
 93
       13
 44
0.0
173
     0
291
     1
 45
0.0
1001
ACAD
1000
AcDbSavedByObjectVersion
1070
     0
  0
VISUALSTYLE
  5
250
102
{ACAD_REACTORS
330
24C
102
}
330
24C
100
AcDbVisualStyle
  2
GouraudWithEdges
 70
     3
 71
     2
 72
     2
 73
     1
 90
        2
 40
-0.6
 41
30.0
 62
     5
 63
     7
 74
     1
 91
        4
 64
     7
 65
   257
 75
     1
175
     1
 42
1.0
 92
        0
 66
   257
 43
1.0
 76
     1
 77
     6
 78
     2
 67
     7
 79
     5
170
     0
171
     0
290
     0
174
     0
 93
       13
 44
0.0
173
     0
291
     1
 45
0.0
1001
ACAD
1000
AcDbSavedByObjectVersion
1070
     0
  0
VISUALSTYLE
  5
25A
102
{ACAD_REACTORS
330
24C
102
}
330
24C
100
AcDbVisualStyle
  2
Linepattern
 70
    14
 71
     2
 72
     2
 73
     0
 90
        0
 40
-0.6
 41
-30.0
 62
     5
 63
     7
 74
     1
 91
        4
 64
     7
 65
   257
 75
     7
175
     7
 42
1.0
 92
        8
 66
     7
 43
1.0
 76
     1
 77
     6
 78
     2
 67
     7
 79
     5
170
     0
171
     0
290
     0
174
     0
 93
        1
 44
0.0
173
     0
291
     1
 45
0.0
1001
ACAD
1000
AcDbSavedByObjectVersion
1070
     0
  0
VISUALSTYLE
  5
256
102
{ACAD_REACTORS
330
24C
102
}
330
24C
100
AcDbVisualStyle
  2
Realistic
 70
     8
 71
     2
 72
     2
 73
     0
 90
        0
 40
-0.6
 41
-30.0
 62
     5
 63
     7
 74
     1
 91
        0
 64
     7
 65
   257
 75
     1
175
     1
 42
1.0
 92
        8
 66
     8
 43
1.0
 76
     1
 77
     6
 78
     2
 67
     7
 79
     5
170
     0
171
     0
290
     0
174
     0
 93
       13
 44
0.0
173
     0
291
     0
 45
0.0
1001
ACAD
1000
AcDbSavedByObjectVersion
1070
     0
  0
VISUALSTYLE
  5
259
102
{ACAD_REACTORS
330
24C
102
}
330
24C
100
AcDbVisualStyle
  2
Thicken
 70
    13
 71
     2
 72
     2
 73
     0
 90
        0
 40
-0.6
 41
-30.0
 62
     5
 63
     7
 74
     1
 91
        4
 64
     7
 65
   257
 75
     1
175
     1
 42
1.0
 92
       12
 66
     7
 43
1.0
 76
     1
 77
     6
 78
     2
 67
     7
 79
     5
170
     0
171
     0
290
     0
174
     0
 93
        1
 44
0.0
173
     0
291
     1
 45
0.0
1001
ACAD
1000
AcDbSavedByObjectVersion
1070
     0
  0
DICTIONARYVAR
  5
32A
102
{ACAD_REACTORS
330
14E
102
}
330
14E
100
DictionaryVariables
280
     0
  1
STANDARD
  0
DICTIONARYVAR
  5
14F
102
{ACAD_REACTORS
330
14E
102
}
330
14E
100
DictionaryVariables
280
     0
  1
1
  0
DICTIONARYVAR
  5
32C
102
{ACAD_REACTORS
330
14E
102
}
330
14E
100
DictionaryVariables
280
     0
  1
0
  0
DICTIONARYVAR
  5
32B
102
{ACAD_REACTORS
330
14E
102
}
330
14E
100
DictionaryVariables
280
     0
  1
127
  0
XRECORD
  5
30D
102
{ACAD_REACTORS
330
30C
102
}
330
30C
100
AcDbXrecord
280
     1
330
2BB
  0
DICTIONARY
  5
330
330
E7
100
AcDbDictionary
280
     1
281
     1
  3
ACAD_XREC_ROUNDTRIP
360
331
  0
DICTIONARY
  5
32E
330
E6
100
AcDbDictionary
280
     1
281
     1
  3
ACAD_XREC_ROUNDTRIP
360
32F
  0
DICTIONARY
  5
334
330
24A
100
AcDbDictionary
280
     1
281
     1
  3
ACAD_XREC_ROUNDTRIP
360
335
  0
DICTIONARY
  5
332
330
249
100
AcDbDictionary
280
     1
281
     1
  3
ACAD_XREC_ROUNDTRIP
360
333
  0
DICTIONARY
  5
336
330
24B
100
AcDbDictionary
280
     1
281
     1
  3
ACAD_XREC_ROUNDTRIP
360
337
  0
DICTIONARY
  5
338
330
25F
100
AcDbDictionary
280
     1
281
     1
  3
ACAD_XREC_ROUNDTRIP
360
339
  0
XRECORD
  5
331
102
{ACAD_REACTORS
330
330
102
}
330
330
100
AcDbXrecord
280
     1
102
SHADEPLOT
 70
     0
102
SHADEPLOTRESLEVEL
 70
     2
102
SHADEPLOTCUSTOMDPI
 70
   300
  0
XRECORD
  5
32F
102
{ACAD_REACTORS
330
32E
102
}
330
32E
100
AcDbXrecord
280
     1
102
SHADEPLOT
 70
     0
102
SHADEPLOTRESLEVEL
 70
     2
102
SHADEPLOTCUSTOMDPI
 70
   300
  0
XRECORD
  5
335
102
{ACAD_REACTORS
330
334
102
}
330
334
100
AcDbXrecord
280
     1
102
MATERIAL
148
0.0
149
0.0
149
0.0
 93
        0
 94
       63
282
     0
 72
     1
 77
     1
171
     1
175
     1
179
     1
273
     0
  0
XRECORD
  5
333
102
{ACAD_REACTORS
330
332
102
}
330
332
100
AcDbXrecord
280
     1
102
MATERIAL
148
0.0
149
0.0
149
0.0
 93
        0
 94
       63
282
     0
 72
     1
 77
     1
171
     1
175
     1
179
     1
273
     0
  0
XRECORD
  5
337
102
{ACAD_REACTORS
330
336
102
}
330
336
100
AcDbXrecord
280
     1
102
MATERIAL
148
0.0
149
0.0
149
0.0
 93
        0
 94
       63
282
     0
 72
     1
 77
     1
171
     1
175
     1
179
     1
273
     0
  0
XRECORD
  5
339
102
{ACAD_REACTORS
330
338
102
}
330
338
100
AcDbXrecord
280
     1
102
ACAD_ROUNDTRIP_PRE2007_TABLESTYLE
 90
      512
 91
        0
  1

 92
      512
 93
        0
  2

 94
      512
 95
        0
  3

  0
ENDSEC
  0
EOF
