  0
SECTION
  2
HEADER
  9
$ACADVER
  1
AC1014
  9
$ACADMAINTVER
 70
     9
  9
$DWGCODEPAGE
  3
ANSI_1252
  9
$INSBASE
 10
-50.81612699647035
 20
66.88708049969527
 30
0.0
  9
$EXTMIN
 10
-73.28720329148478
 20
64.90082425741782
 30
0.0
  9
$EXTMAX
 10
-34.67895806638246
 20
87.34140632714035
 30
0.0
  9
$LIMMIN
 10
0.0
 20
0.0
  9
$LIMMAX
 10
36.0
 20
36.0
  9
$ORTHOMODE
 70
     1
  9
$REGENMODE
 70
     1
  9
$FILLMODE
 70
     1
  9
$QTEXTMODE
 70
     0
  9
$MIRRTEXT
 70
     1
  9
$DRAGMODE
 70
     0
  9
$LTSCALE
 40
1.0
  9
$OSMODE
 70
    37
  9
$ATTMODE
 70
     1
  9
$TEXTSIZE
 40
0.2
  9
$TRACEWID
 40
0.05
  9
$TEXTSTYLE
  7
STANDARD
  9
$CLAYER
  8
ADPDIM
  9
$CELTYPE
  6
BYLAYER
  9
$CECOLOR
 62
   256
  9
$CELTSCALE
 40
1.0
  9
$DELOBJ
 70
     1
  9
$DISPSILH
 70
     0
  9
$DIMSCALE
 40
1.0
  9
$DIMASZ
 40
0.125
  9
$DIMEXO
 40
0.0625
  9
$DIMDLI
 40
0.38
  9
$DIMRND
 40
0.0
  9
$DIMDLE
 40
0.0
  9
$DIMEXE
 40
0.18
  9
$DIMTP
 40
0.0
  9
$DIMTM
 40
0.0
  9
$DIMTXT
 40
0.125
  9
$DIMCEN
 40
0.1875
  9
$DIMTSZ
 40
0.125
  9
$DIMTOL
 70
     0
  9
$DIMLIM
 70
     0
  9
$DIMTIH
 70
     0
  9
$DIMTOH
 70
     0
  9
$DIMSE1
 70
     0
  9
$DIMSE2
 70
     0
  9
$DIMTAD
 70
     0
  9
$DIMZIN
 70
     3
  9
$DIMBLK
  1

  9
$DIMASO
 70
     1
  9
$DIMSHO
 70
     1
  9
$DIMPOST
  1

  9
$DIMAPOST
  1

  9
$DIMALT
 70
     0
  9
$DIMALTD
 70
     1
  9
$DIMALTF
 40
25.4
  9
$DIMLFAC
 40
1.0
  9
$DIMTOFL
 70
     0
  9
$DIMTVP
 40
0.0
  9
$DIMTIX
 70
     0
  9
$DIMSOXD
 70
     0
  9
$DIMSAH
 70
     0
  9
$DIMBLK1
  1

  9
$DIMBLK2
  1

  9
$DIMSTYLE
  2
STANDARD
  9
$DIMCLRD
 70
     0
  9
$DIMCLRE
 70
     0
  9
$DIMCLRT
 70
     0
  9
$DIMTFAC
 40
1.0
  9
$DIMGAP
 40
0.125
  9
$DIMJUST
 70
     0
  9
$DIMSD1
 70
     0
  9
$DIMSD2
 70
     0
  9
$DIMTOLJ
 70
     1
  9
$DIMTZIN
 70
     0
  9
$DIMALTZ
 70
     0
  9
$DIMALTTZ
 70
     0
  9
$DIMFIT
 70
     3
  9
$DIMUPT
 70
     0
  9
$DIMUNIT
 70
     2
  9
$DIMDEC
 70
     4
  9
$DIMTDEC
 70
     4
  9
$DIMALTU
 70
     2
  9
$DIMALTTD
 70
     2
  9
$DIMTXSTY
  7
STANDARD
  9
$DIMAUNIT
 70
     0
  9
$LUNITS
 70
     5
  9
$LUPREC
 70
     4
  9
$SKETCHINC
 40
0.1
  9
$FILLETRAD
 40
0.062
  9
$AUNITS
 70
     0
  9
$AUPREC
 70
     0
  9
$MENU
  1
acad
  9
$ELEVATION
 40
0.0
  9
$PELEVATION
 40
0.0
  9
$THICKNESS
 40
0.0
  9
$LIMCHECK
 70
     0
  9
$BLIPMODE
 70
     0
  9
$CHAMFERA
 40
0.0
  9
$CHAMFERB
 40
0.0
  9
$CHAMFERC
 40
0.0
  9
$CHAMFERD
 40
0.0
  9
$SKPOLY
 70
     0
  9
$TDCREATE
 40
2450407.567642939
  9
$TDUPDATE
 40
2452297.072011527
  9
$TDINDWG
 40
0.0290341667
  9
$TDUSRTIMER
 40
0.0290341667
  9
$USRTIMER
 70
     1
  9
$ANGBASE
 50
0.0
  9
$ANGDIR
 70
     0
  9
$PDMODE
 70
     0
  9
$PDSIZE
 40
0.0
  9
$PLINEWID
 40
0.0
  9
$COORDS
 70
     2
  9
$SPLFRAME
 70
     0
  9
$SPLINETYPE
 70
     6
  9
$SPLINESEGS
 70
     8
  9
$ATTDIA
 70
     0
  9
$ATTREQ
 70
     1
  9
$HANDLING
 70
 22529
  9
$HANDSEED
  5
35D
  9
$SURFTAB1
 70
     6
  9
$SURFTAB2
 70
     6
  9
$SURFTYPE
 70
     6
  9
$SURFU
 70
     6
  9
$SURFV
 70
     6
  9
$UCSNAME
  2

  9
$UCSORG
 10
0.0
 20
0.0
 30
0.0
  9
$UCSXDIR
 10
1.0
 20
0.0
 30
0.0
  9
$UCSYDIR
 10
0.0
 20
1.0
 30
0.0
  9
$PUCSNAME
  2

  9
$PUCSORG
 10
0.0
 20
0.0
 30
0.0
  9
$PUCSXDIR
 10
1.0
 20
0.0
 30
0.0
  9
$PUCSYDIR
 10
0.0
 20
1.0
 30
0.0
  9
$USERI1
 70
     0
  9
$USERI2
 70
     0
  9
$USERI3
 70
     0
  9
$USERI4
 70
     0
  9
$USERI5
 70
     0
  9
$USERR1
 40
0.0
  9
$USERR2
 40
0.0
  9
$USERR3
 40
0.0
  9
$USERR4
 40
0.0
  9
$USERR5
 40
0.0
  9
$WORLDVIEW
 70
     1
  9
$SHADEDGE
 70
     3
  9
$SHADEDIF
 70
    70
  9
$TILEMODE
 70
     1
  9
$MAXACTVP
 70
    15
  9
$PINSBASE
 10
0.0008545038290322
 20
1.250283272183907
 30
0.0
  9
$PLIMCHECK
 70
     0
  9
$PEXTMIN
 10
1.000000000000000E+20
 20
1.000000000000000E+20
 30
1.000000000000000E+20
  9
$PEXTMAX
 10
-1.000000000000000E+20
 20
-1.000000000000000E+20
 30
-1.000000000000000E+20
  9
$PLIMMIN
 10
0.0
 20
0.0
  9
$PLIMMAX
 10
12.0
 20
9.0
  9
$UNITMODE
 70
     0
  9
$VISRETAIN
 70
     0
  9
$PLINEGEN
 70
     0
  9
$PSLTSCALE
 70
     1
  9
$TREEDEPTH
 70
  3020
  9
$PICKSTYLE
 70
     1
  9
$CMLSTYLE
  2
STANDARD
  9
$CMLJUST
 70
     0
  9
$CMLSCALE
 40
1.0
  9
$PROXYGRAPHICS
 70
     1
  9
$MEASUREMENT
 70
     0
  0
ENDSEC
  0
SECTION
  2
CLASSES
  0
CLASS
  1
ACDBDICTIONARYWDFLT
  2
AcDbDictionaryWithDefault
  3
AutoCAD 2000
 90
        0
280
     0
281
     0
  0
CLASS
  1
ACDBPLACEHOLDER
  2
AcDbPlaceHolder
  3
AutoCAD 2000
 90
        0
280
     0
281
     0
  0
CLASS
  1
LAYOUT
  2
AcDbLayout
  3
AutoCAD 2000
 90
        0
280
     0
281
     0
  0
CLASS
  1
DICTIONARYVAR
  2
AcDbDictionaryVar
  3
AutoCAD 2000
 90
        0
280
     0
281
     0
  0
CLASS
  1
LONG_TRANSACTION
  2
AcDbLongTransaction
  3
AutoCAD 2000
 90
        0
280
     0
281
     0
  0
CLASS
  1
LWPOLYLINE
  2
AcDbPolyline
  3
AutoCAD 2000
 90
        0
280
     0
281
     1
  0
CLASS
  1
HATCH
  2
AcDbHatch
  3
AutoCAD 2000
 90
        0
280
     0
281
     1
  0
CLASS
  1
XRECORD
  2
AcDbXrecord
  3
AutoCAD 2000
 90
        0
280
     0
281
     0
  0
CLASS
  1
LONG_TRANSACTION
  2
AcDbLongTransaction
  3
AutoCAD 2000
 90
        0
280
     0
281
     0
  0
CLASS
  1
LWPOLYLINE
  2
AcDbPolyline
  3
AutoCAD 2000
 90
        0
280
     0
281
     1
  0
CLASS
  1
HATCH
  2
AcDbHatch
  3
AutoCAD 2000
 90
        0
280
     0
281
     1
  0
CLASS
  1
XRECORD
  2
AcDbXrecord
  3
AutoCAD 2000
 90
        0
280
     0
281
     0
  0
CLASS
  1
LONG_TRANSACTION
  2
AcDbLongTransaction
  3
AutoCAD 2000
 90
        0
280
     0
281
     0
  0
CLASS
  1
LWPOLYLINE
  2
AcDbPolyline
  3
AutoCAD 2000
 90
        0
280
     0
281
     1
  0
CLASS
  1
HATCH
  2
AcDbHatch
  3
AutoCAD 2000
 90
        0
280
     0
281
     1
  0
CLASS
  1
XRECORD
  2
AcDbXrecord
  3
AutoCAD 2000
 90
        0
280
     0
281
     0
  0
CLASS
  1
LONG_TRANSACTION
  2
AcDbLongTransaction
  3
AutoCAD 2000
 90
        0
280
     0
281
     0
  0
CLASS
  1
LWPOLYLINE
  2
AcDbPolyline
  3
AutoCAD 2000
 90
        0
280
     0
281
     1
  0
CLASS
  1
HATCH
  2
AcDbHatch
  3
AutoCAD 2000
 90
        0
280
     0
281
     1
  0
CLASS
  1
XRECORD
  2
AcDbXrecord
  3
AutoCAD 2000
 90
        0
280
     0
281
     0
  0
CLASS
  1
LONG_TRANSACTION
  2
AcDbLongTransaction
  3
AutoCAD 2000
 90
        0
280
     0
281
     0
  0
CLASS
  1
LWPOLYLINE
  2
AcDbPolyline
  3
AutoCAD 2000
 90
        0
280
     0
281
     1
  0
CLASS
  1
HATCH
  2
AcDbHatch
  3
AutoCAD 2000
 90
        0
280
     0
281
     1
  0
CLASS
  1
XRECORD
  2
AcDbXrecord
  3
AutoCAD 2000
 90
        0
280
     0
281
     0
  0
CLASS
  1
LONG_TRANSACTION
  2
AcDbLongTransaction
  3
AutoCAD 2000
 90
        0
280
     0
281
     0
  0
CLASS
  1
LWPOLYLINE
  2
AcDbPolyline
  3
AutoCAD 2000
 90
        0
280
     0
281
     1
  0
CLASS
  1
HATCH
  2
AcDbHatch
  3
AutoCAD 2000
 90
        0
280
     0
281
     1
  0
CLASS
  1
XRECORD
  2
AcDbXrecord
  3
AutoCAD 2000
 90
        0
280
     0
281
     0
  0
ENDSEC
  0
SECTION
  2
TABLES
  0
TABLE
  2
VPORT
  5
8
330
0
100
AcDbSymbolTable
 70
     2
  0
VPORT
  5
33A
330
8
100
AcDbSymbolTableRecord
100
AcDbViewportTableRecord
  2
*ACTIVE
 70
     0
 10
0.0
 20
0.0
 11
1.0
 21
1.0
 12
-53.95092502176392
 22
76.12156245898763
 13
0.0
 23
0.0
 14
0.5740882589684922
 24
0.5740882589684922
 15
0.5
 25
0.5
 16
0.0
 26
0.0
 36
1.0
 17
0.0
 27
0.0
 37
0.0
 40
24.75000592649136
 41
1.570528967254408
 42
50.0
 43
0.0
 44
0.0
 50
0.0
 51
0.0
 71
     0
 72
   100
 73
     1
 74
     0
 75
     0
 76
     0
 77
     0
 78
     0
  0
ENDTAB
  0
TABLE
  2
LTYPE
  5
5
330
0
100
AcDbSymbolTable
 70
     1
  0
LTYPE
  5
12
330
5
100
AcDbSymbolTableRecord
100
AcDbLinetypeTableRecord
  2
BYBLOCK
 70
     0
  3

 72
    65
 73
     0
 40
0.0
  0
LTYPE
  5
13
330
5
100
AcDbSymbolTableRecord
100
AcDbLinetypeTableRecord
  2
BYLAYER
 70
     0
  3

 72
    65
 73
     0
 40
0.0
  0
LTYPE
  5
14
330
5
100
AcDbSymbolTableRecord
100
AcDbLinetypeTableRecord
  2
CONTINUOUS
 70
     0
  3
Solid line
 72
    65
 73
     0
 40
0.0
  0
ENDTAB
  0
TABLE
  2
LAYER
  5
2
330
0
100
AcDbSymbolTable
 70
     3
  0
LAYER
  5
F
330
2
100
AcDbSymbolTableRecord
100
AcDbLayerTableRecord
  2
0
 70
     0
 62
     7
  6
CONTINUOUS
  0
LAYER
  5
94
330
2
100
AcDbSymbolTableRecord
100
AcDbLayerTableRecord
  2
DEFPOINTS
 70
     0
 62
     7
  6
CONTINUOUS
  0
LAYER
  5
97
330
2
100
AcDbSymbolTableRecord
100
AcDbLayerTableRecord
  2
ADPDIM
 70
     0
 62
     3
  6
CONTINUOUS
  0
ENDTAB
  0
TABLE
  2
STYLE
  5
3
330
0
100
AcDbSymbolTable
 70
     2
  0
STYLE
  5
10
330
3
100
AcDbSymbolTableRecord
100
AcDbTextStyleTableRecord
  2
STANDARD
 70
     0
 40
0.0
 41
1.0
 50
0.0
 71
     0
 42
0.2
  3
txt
  4

  0
STYLE
  5
1F2
330
3
100
AcDbSymbolTableRecord
100
AcDbTextStyleTableRecord
  2
ARIAL_WIDE
 70
     0
 40
0.0
 41
1.25
 50
0.0
 71
     0
 42
0.2
  3
ARIAL.TTF
  4

1001
ACAD
1000
Arial
1071
       34
  0
ENDTAB
  0
TABLE
  2
VIEW
  5
6
330
0
100
AcDbSymbolTable
 70
     0
  0
ENDTAB
  0
TABLE
  2
UCS
  5
7
330
0
100
AcDbSymbolTable
 70
     0
  0
ENDTAB
  0
TABLE
  2
APPID
  5
9
330
0
100
AcDbSymbolTable
 70
     1
  0
APPID
  5
11
330
9
100
AcDbSymbolTableRecord
100
AcDbRegAppTableRecord
  2
ACAD
 70
     0
  0
ENDTAB
  0
TABLE
  2
DIMSTYLE
  5
A
330
0
100
AcDbSymbolTable
 70
     1
  0
DIMSTYLE
105
1E6
330
A
100
AcDbSymbolTableRecord
100
AcDbDimStyleTableRecord
  2
STANDARD
 70
     0
  3

  4

  5

  6

  7

 40
1.0
 41
0.18
 42
0.0625
 43
0.38
 44
0.18
 45
0.0
 46
0.0
 47
0.0
 48
0.0
140
0.18
141
0.09
142
0.0
143
25.4
144
1.0
145
0.0
146
1.0
147
0.09
 71
     0
 72
     0
 73
     1
 74
     1
 75
     0
 76
     0
 77
     0
 78
     0
170
     0
171
     2
172
     0
173
     0
174
     0
175
     0
176
     0
177
     0
178
     0
270
     2
271
     4
272
     4
273
     2
274
     2
340
10
275
     0
280
     0
281
     0
282
     0
283
     1
284
     0
285
     0
286
     0
287
     3
288
     0
  0
ENDTAB
  0
TABLE
  2
BLOCK_RECORD
  5
1
330
0
100
AcDbSymbolTable
 70
     2
  0
BLOCK_RECORD
  5
18
102
{ACAD_XDICTIONARY
360
247
102
}
330
1
100
AcDbSymbolTableRecord
100
AcDbBlockTableRecord
  2
*MODEL_SPACE
  0
BLOCK_RECORD
  5
15
102
{ACAD_XDICTIONARY
360
245
102
}
330
1
100
AcDbSymbolTableRecord
100
AcDbBlockTableRecord
  2
*PAPER_SPACE
  0
BLOCK_RECORD
  5
89
330
1
100
AcDbSymbolTableRecord
100
AcDbBlockTableRecord
  2
*D0
  0
BLOCK_RECORD
  5
8E
330
1
100
AcDbSymbolTableRecord
100
AcDbBlockTableRecord
  2
*D1
  0
ENDTAB
  0
ENDSEC
  0
SECTION
  2
BLOCKS
  0
BLOCK
  5
9A
330
18
100
AcDbEntity
  8
0
100
AcDbBlockBegin
  2
*MODEL_SPACE
 70
     0
 10
0.0
 20
0.0
 30
0.0
  3
*MODEL_SPACE
  1

  0
ENDBLK
  5
9B
330
18
100
AcDbEntity
  8
0
100
AcDbBlockEnd
  0
BLOCK
  5
98
330
15
100
AcDbEntity
 67
     1
  8
0
100
AcDbBlockBegin
  2
*PAPER_SPACE
 70
     0
 10
0.0
 20
0.0
 30
0.0
  3
*PAPER_SPACE
  1

  0
ENDBLK
  5
99
330
15
100
AcDbEntity
 67
     1
  8
0
100
AcDbBlockEnd
  0
BLOCK
  5
9D
330
89
100
AcDbEntity
  8
0
100
AcDbBlockBegin
  2
*D0
 70
     1
 10
0.0
 20
0.0
 30
0.0
  3
*D0
  1

  0
LINE
  5
9E
330
89
100
AcDbEntity
  8
0
  6
BYBLOCK
 62
     0
100
AcDbLine
 10
-57.26586535735593
 20
72.84491890838713
 30
0.0
 11
-57.26586535735593
 21
66.30364929609823
 31
0.0
  0
LINE
  5
9F
330
89
100
AcDbEntity
  8
0
  6
BYBLOCK
 62
     0
100
AcDbLine
 10
-50.82836535735594
 20
66.84234722201281
 30
0.0
 11
-50.82836535735594
 21
66.30364929609823
 31
0.0
  0
LINE
  5
A0
330
89
100
AcDbEntity
  8
0
  6
BYBLOCK
 62
     0
100
AcDbLine
 10
-57.26586535735593
 20
66.48364929609823
 30
0.0
 11
-54.50544869068927
 21
66.48364929609823
 31
0.0
  0
LINE
  5
A1
330
89
100
AcDbEntity
  8
0
  6
BYBLOCK
 62
     0
100
AcDbLine
 10
-50.82836535735594
 20
66.48364929609823
 30
0.0
 11
-53.5887820240226
 21
66.48364929609823
 31
0.0
  0
LINE
  5
A2
330
89
100
AcDbEntity
  8
0
  6
BYBLOCK
 62
     0
100
AcDbLine
 10
-57.39086535735594
 20
66.35864929609823
 30
0.0
 11
-57.14086535735593
 21
66.60864929609823
 31
0.0
  0
LINE
  5
A3
330
89
100
AcDbEntity
  8
0
  6
BYBLOCK
 62
     0
100
AcDbLine
 10
-50.95336535735594
 20
66.35864929609823
 30
0.0
 11
-50.70336535735593
 21
66.60864929609823
 31
0.0
  0
TEXT
  5
A4
330
89
100
AcDbEntity
  8
0
  6
BYBLOCK
 62
     0
100
AcDbText
 10
-54.38044869068927
 20
66.42114929609824
 30
0.0
 40
0.125
  1
6 7/16
 72
     1
 11
-54.04711535735593
 21
66.48364929609823
 31
0.0
100
AcDbText
 73
     2
  0
POINT
  5
A5
330
89
100
AcDbEntity
  8
DEFPOINTS
  6
BYBLOCK
 62
     0
100
AcDbPoint
 10
-57.26586535735593
 20
72.90741890838713
 30
0.0
  0
POINT
  5
A6
330
89
100
AcDbEntity
  8
DEFPOINTS
  6
BYBLOCK
 62
     0
100
AcDbPoint
 10
-50.82836535735594
 20
66.90484722201282
 30
0.0
  0
POINT
  5
A7
330
89
100
AcDbEntity
  8
DEFPOINTS
  6
BYBLOCK
 62
     0
100
AcDbPoint
 10
-50.82836535735594
 20
66.48364929609823
 30
0.0
  0
ENDBLK
  5
A8
330
89
100
AcDbEntity
  8
0
100
AcDbBlockEnd
  0
BLOCK
  5
A9
330
8E
100
AcDbEntity
  8
0
100
AcDbBlockBegin
  2
*D1
 70
     1
 10
0.0
 20
0.0
 30
0.0
  3
*D1
  1

  0
LINE
  5
AA
330
8E
100
AcDbEntity
  8
0
  6
BYBLOCK
 62
     0
100
AcDbLine
 10
-50.98372505913858
 20
66.84140632714036
 30
0.0
 11
-49.52760558329941
 21
66.84140632714036
 31
0.0
  0
LINE
  5
AB
330
8E
100
AcDbEntity
  8
0
  6
BYBLOCK
 62
     0
100
AcDbLine
 10
-54.20396474562168
 20
87.21640632714036
 30
0.0
 11
-49.52760558329941
 21
87.21640632714036
 31
0.0
  0
LINE
  5
AC
330
8E
100
AcDbEntity
  8
0
  6
BYBLOCK
 62
     0
100
AcDbLine
 10
-49.70760558329941
 20
66.84140632714036
 30
0.0
 11
-49.70760558329941
 21
76.56015632714036
 31
0.0
  0
LINE
  5
AD
330
8E
100
AcDbEntity
  8
0
  6
BYBLOCK
 62
     0
100
AcDbLine
 10
-49.70760558329941
 20
87.21640632714036
 30
0.0
 11
-49.70760558329941
 21
77.49765632714036
 31
0.0
  0
LINE
  5
AE
330
8E
100
AcDbEntity
  8
0
  6
BYBLOCK
 62
     0
100
AcDbLine
 10
-49.58260558329941
 20
66.71640632714036
 30
0.0
 11
-49.83260558329941
 21
66.96640632714036
 31
0.0
  0
LINE
  5
AF
330
8E
100
AcDbEntity
  8
0
  6
BYBLOCK
 62
     0
100
AcDbLine
 10
-49.58260558329941
 20
87.09140632714037
 30
0.0
 11
-49.83260558329941
 21
87.34140632714035
 31
0.0
  0
TEXT
  5
B0
330
8E
100
AcDbEntity
  8
0
  6
BYBLOCK
 62
     0
100
AcDbText
 10
-49.64510558329941
 20
76.68515632714036
 30
0.0
 40
0.125
  1
20 3/8
 50
90.0
 72
     1
 11
-49.70760558329941
 21
77.02890632714036
 31
0.0
100
AcDbText
 73
     2
  0
POINT
  5
B1
330
8E
100
AcDbEntity
  8
DEFPOINTS
  6
BYBLOCK
 62
     0
100
AcDbPoint
 10
-51.04622505913859
 20
66.84140632714036
 30
0.0
  0
POINT
  5
B2
330
8E
100
AcDbEntity
  8
DEFPOINTS
  6
BYBLOCK
 62
     0
100
AcDbPoint
 10
-54.26646474562168
 20
87.21640632714036
 30
0.0
  0
POINT
  5
B3
330
8E
100
AcDbEntity
  8
DEFPOINTS
  6
BYBLOCK
 62
     0
100
AcDbPoint
 10
-49.70760558329941
 20
87.21640632714036
 30
0.0
  0
ENDBLK
  5
B4
330
8E
100
AcDbEntity
  8
0
100
AcDbBlockEnd
  0
ENDSEC
  0
SECTION
  2
ENTITIES
  0
LWPOLYLINE
  5
B5
330
18
100
AcDbEntity
  8
0
100
AcDbPolyline
 90
       38
 70
     0
 43
0.0
 10
-55.65240161111471
 20
70.04825149059112
 42
0.2408445583493487
 10
-55.82544486765943
 20
70.07403852867437
 42
-0.0292596493415955
 10
-56.0995722942399
 20
69.99927650324332
 42
-0.637478489445643
 10
-56.24909634510199
 20
70.19864190439276
 42
0.0555756993009989
 10
-56.0995722942399
 20
70.57245203154796
 42
-0.3064110484970239
 10
-56.79735119826295
 20
71.84340646387565
 42
0.2159568822230318
 10
-56.97931052559308
 20
72.81531279447918
 42
0.3124368318751616
 10
-57.2035966018862
 20
72.93991617019758
 42
-0.7325363019418965
 10
-57.27835862731724
 20
73.11436089620333
 42
0.1718744457596587
 10
-57.17867592674251
 20
73.28880562220909
 42
-0.4227992938811207
 10
-55.85036554280311
 20
72.51626469275503
 42
0.3152222308191055
 10
-55.67592081679734
 20
71.86832713901933
 42
-0.3242300314218204
 10
-55.17750731392374
 20
72.2670579413182
 42
0.2655644370746323
 10
-54.82861786191222
 20
71.893247814163
 42
-0.5132133317318112
 10
-54.4797284099007
 20
70.84657945812846
 42
-0.023516399504801
 10
-53.15893262728565
 20
70.62229338183533
 42
-0.065998804137013
 10
-55.99988959366519
 20
73.71245709965165
 42
-0.3681867696494087
 10
-55.92512756823414
 20
79.21992630640497
 42
0.3581886071926154
 10
-55.87528621794678
 20
80.81484951560048
 42
-1.77024932322873
 10
-56.7225891728319
 20
81.21358031789938
 42
0.1284937236316259
 10
-56.52322377168246
 20
81.4378663941925
 42
-0.3047401419722093
 10
-56.49830309653879
 20
83.10755162881907
 42
0.5746558022139774
 10
-56.67274782254455
 20
83.48136175597426
 42
-0.9128862799712027
 10
-56.67274782254455
 20
83.85517188312947
 42
-0.4494829567791291
 10
-55.45163474050422
 20
82.70882082652017
 42
-0.046404540778305
 10
-55.55131744107894
 20
81.88643854677874
 42
-0.680819054538945
 10
-54.38004570932598
 20
81.18865964275569
 42
-0.5508324789144154
 10
-55.37687271507318
 20
80.76500816531313
 42
-0.1720266647199482
 10
-55.42671406536054
 20
79.61865710870384
 42
0.0531435396557026
 10
-53.83179085616502
 20
81.28834234333043
 42
0.2494860046622756
 10
-53.80687018102134
 20
82.4346933999397
 42
-0.5908959764236591
 10
-53.18385330242933
 20
82.16056597335921
 42
0.3420165904958393
 10
-53.25861532786037
 20
83.08263095367539
 42
-0.7505457084814364
 10
-52.48607439840629
 20
82.70882082652017
 42
0.4423698861198639
 10
-52.56083642383734
 20
83.48136175597426
 42
-0.8123666342552981
 10
-51.86305751981429
 20
83.35675838025585
 42
0.4117647058823519
 10
-52.28670899725685
 20
85.47501576746865
 42
0.2382776953047937
 10
-53.28353600300405
 20
85.59961914318709
 42
-7.418934732092492
  0
ARC
  5
DD
330
18
100
AcDbEntity
  8
0
100
AcDbCircle
 10
-52.01185582852738
 20
76.85545264177554
 30
0.0
 40
0.4021991314784674
100
AcDbArc
 50
148.8510281426959
 51
192.4637688418424
  0
ARC
  5
DE
330
18
100
AcDbEntity
  8
0
100
AcDbCircle
 10
-52.8768510861018
 20
76.72830503878171
 30
0.0
 40
0.4021991314784684
100
AcDbArc
 50
3.995286772708134
 51
282.2898229546069
  0
ARC
  5
DF
330
18
100
AcDbEntity
  8
0
100
AcDbCircle
 10
-52.01185582852738
 20
76.85545264177554
 30
0.0
 40
0.4021991314784674
100
AcDbArc
 50
277.5278171624715
 51
74.36042412357784
  0
CIRCLE
  5
E0
330
18
100
AcDbEntity
  8
0
100
AcDbCircle
 10
-53.79272843205815
 20
76.85545264177554
 30
0.0
 40
0.3781145520343632
  0
CIRCLE
  5
E1
330
18
100
AcDbEntity
  8
0
100
AcDbCircle
 10
-54.6322827679009
 20
76.83002317170042
 30
0.0
 40
0.433130890972596
  0
LWPOLYLINE
  5
E2
330
18
100
AcDbEntity
  8
0
100
AcDbPolyline
 90
        9
 70
     0
 43
0.0
 10
-51.29950671363949
 20
79.34754559308955
 42
-0.4868169163748437
 10
-51.19774253687561
 20
78.33036476913901
 42
-0.5304497263642897
 10
-51.55391703308989
 20
78.4066533477765
 42
0.9926634380863362
 10
-51.50303494470795
 20
78.81352571103914
 42
0.1032040650716159
 10
-52.18994301540487
 20
78.76266668668283
 42
-0.5310209894582246
 10
-53.28390767069802
 20
79.39840470165193
 42
0.4923065294079657
 10
-53.51287706841677
 20
79.55098177472087
 42
0.1876008152490634
 10
-55.4209548929024
 20
78.83895518111427
 42
0.3871344976785021
 10
-55.80257055576697
 20
74.33793005197428
 42
2.947587117359606
  0
DIMENSION
  5
ED
330
18
100
AcDbEntity
  8
ADPDIM
100
AcDbDimension
  2
*D1
 10
-49.70760558329941
 20
87.21640632714036
 30
0.0
 11
-49.70760558329941
 21
77.02890632714036
 31
0.0
100
AcDbAlignedDimension
 13
-51.04622505913859
 23
66.84140632714036
 33
0.0
 14
-54.26646474562168
 24
87.21640632714036
 34
0.0
 50
90.0
100
AcDbRotatedDimension
  0
ARC
  5
EE
330
18
100
AcDbEntity
  8
0
100
AcDbCircle
 10
-54.35243128180021
 20
76.16885560245012
 30
0.0
 40
0.3105012597933649
100
AcDbArc
 50
261.319018740804
 51
191.9282374927152
  0
CIRCLE
  5
EF
330
18
100
AcDbEntity
  8
0
100
AcDbCircle
 10
-54.78492891058742
 20
75.71112421483116
 30
0.0
 40
0.4140645729343838
  0
ARC
  5
F0
330
18
100
AcDbEntity
  8
0
100
AcDbCircle
 10
-54.58140067951895
 20
75.20253380285589
 30
0.0
 40
0.3421885164658874
100
AcDbArc
 50
160.8563997950023
 51
62.76430051296799
  0
LWPOLYLINE
  5
F1
330
18
100
AcDbEntity
  8
0
100
AcDbPolyline
 90
        8
 70
     0
 43
0.0
 10
-50.82836535735593
 20
66.90484722201282
 42
-0.2912006872007567
 10
-51.26408476092124
 20
66.90484722201282
 42
0.1456422565882064
 10
-52.32226045529413
 20
69.6436549015662
 42
0.1782609430332706
 10
-54.4697346585803
 20
70.48397089415643
 42
0.6180339887498944
 10
-54.71871717490333
 20
70.29723400691416
 42
-0.4142135623730946
 10
-54.84320843306485
 20
69.95488304696998
 42
-0.618033988749894
 10
-54.99882250576675
 20
69.89263741788923
 42
-0.1958872249296826
 10
-55.65240161111471
 20
70.04825149059112
 42
-0.1622776601683802
  0
LWPOLYLINE
  5
FB
330
18
100
AcDbEntity
  8
0
100
AcDbPolyline
 90
        9
 70
     0
 43
0.0
 10
-53.10582048382054
 20
72.83758837032964
 42
0.3112709426249438
 10
-54.47963650275506
 20
73.82933963999902
 42
0.1823442882765854
 10
-54.4541954585641
 20
73.42246736094242
 42
-0.4026994784121191
 10
-54.37787232599118
 20
73.01559499767977
 42
0.489963597143868
 10
-53.36023080327095
 20
71.84583701645422
 10
-53.309348714889
 20
71.28638758012262
 10
-54.78492891058742
 20
72.81215881604847
 42
-0.1047253022474962
 10
-55.44639593709336
 20
74.18535297890534
 42
-0.3218146019973162
 10
-55.11566248507005
 20
75.45682900884353
 42
-0.361418624851168
  0
DIMENSION
  5
106
330
18
100
AcDbEntity
  8
ADPDIM
100
AcDbDimension
  2
*D0
 10
-50.82836535735594
 20
66.48364929609823
 30
0.0
 11
-54.04711535735593
 21
66.48364929609823
 31
0.0
100
AcDbAlignedDimension
 13
-57.26586535735593
 23
72.90741890838713
 33
0.0
 14
-50.82836535735594
 24
66.90484722201282
 34
0.0
100
AcDbRotatedDimension
  0
LWPOLYLINE
  5
107
330
18
100
AcDbEntity
  8
0
100
AcDbPolyline
 90
       13
 70
     0
 43
0.0
 10
-54.53051859113701
 20
70.82865619250367
 42
-0.854312871407281
 10
-54.75948786639644
 20
71.03209237413499
 10
-55.0647803966881
 20
71.43896473739762
 42
-0.3090226302221907
 10
-55.01389830830615
 20
70.95580379549748
 42
-0.5969128863651983
 10
-55.26830875021587
 20
70.95580379549748
 42
-0.1851866391663736
 10
-56.28595027293612
 20
71.74411896774159
 42
0.3752082535378209
 10
-55.26830875021587
 20
70.72693814379103
 42
-0.9204446265762173
 10
-55.21742666183393
 20
70.5489315164409
 42
0.3210786717675881
 10
-55.31919071613851
 20
70.39635435916588
 42
-0.746358097787841
 10
-55.39551384871142
 20
70.37092480488471
 42
-0.4140806131353374
 10
-55.62448324643017
 20
70.29463631045326
 42
0.4096642469684195
 10
-55.01389830830615
 20
70.52350196215972
 42
-0.1040749919303426
 10
-54.50507754694604
 20
70.52350196215972
 42
-0.2102901577409538
  0
LWPOLYLINE
  5
116
330
18
100
AcDbEntity
  8
0
100
AcDbPolyline
 90
        3
 70
     0
 43
0.0
 10
-55.82801147749862
 20
74.33793005197428
 10
-55.75168846738502
 20
75.25339282721221
 10
-55.37007280452045
 20
75.76198323918749
  0
ARC
  5
11B
330
18
100
AcDbEntity
  8
0
100
AcDbCircle
 10
-55.19198561764295
 20
76.09256702381262
 30
0.0
 40
0.3316672204371545
100
AcDbArc
 50
4.412531061387015
 51
269.3085932875881
  0
LWPOLYLINE
  5
11C
330
18
100
AcDbEntity
  8
0
100
AcDbPolyline
 90
       16
 70
     0
 43
0.0
 10
-50.81612699647035
 20
66.88708049969527
 42
0.1977032515781479
 10
-51.55391703308989
 20
69.45546211385283
 42
-0.2423990429042801
 10
-51.98641478433641
 20
70.67607911943472
 42
-0.3565485785790003
 10
-51.60479912147184
 20
71.03209237413499
 42
1.652029668948092
 10
-51.04509627172977
 20
71.05752192841617
 42
0.7612905490950488
 10
-52.39347136893265
 20
70.70150858950984
 42
-0.4780230320683265
 10
-52.67332273257402
 20
70.80322672242854
 42
-0.3739284180352848
 10
-52.29170719216877
 20
71.74411896774159
 42
0.5802896597016686
 10
-52.11361988283196
 20
71.92212559509172
 42
-1.021330007342196
 10
-51.9100916517635
 20
71.97298461944804
 42
0.6406276971304875
 10
-50.99421418334784
 20
72.07470275236672
 42
0.4136880407823162
 10
-51.37582984621241
 20
72.83758837032964
 42
0.3956249509493162
 10
-51.42671193459435
 20
74.46507765496811
 42
0.3140356843414512
 10
-52.41891241312362
 20
74.64308436652429
 42
1.209923807064194
 10
-52.29170719216877
 20
74.46507765496811
 42
-0.3679954293200163
 10
-51.19774253687561
 20
74.05820537591151
 42
0.5867923691052175
  0
LWPOLYLINE
  5
12E
330
18
100
AcDbEntity
  8
0
100
AcDbPolyline
 90
        8
 70
     0
 43
0.0
 10
-52.08817883864099
 20
74.46507765496811
 42
-0.4269112335418784
 10
-52.18994301540487
 20
74.0073463515552
 42
0.1231597353058998
 10
-52.29170719216877
 20
73.32074922802373
 42
0.5530475502664231
 10
-53.05493839543859
 20
72.71044076733582
 42
0.3895012148663277
 10
-52.29170719216877
 20
72.04927319808554
 42
0.1909803500734458
 10
-52.26626614797779
 20
72.71044076733582
 42
0.0989755474084232
 10
-52.72420482095596
 20
72.65958174297949
 42
-0.3866655942073697
 10
-52.54611763407847
 20
72.86301784040478
 42
-0.0569739002576761
  0
ARC
  5
138
330
18
100
AcDbEntity
  8
0
100
AcDbCircle
 10
-52.93102555376926
 20
73.6386182776113
 30
0.0
 40
1.270316967653895
100
AcDbArc
 50
314.7123481680977
 51
19.2870523609298
  0
ARC
  5
139
330
18
100
AcDbEntity
  8
0
100
AcDbCircle
 10
-51.60298986933985
 20
70.82131168392129
 30
0.0
 40
1.468426392047016
100
AcDbArc
 50
121.3989102734115
 51
162.5784519526595
  0
ARC
  5
13A
330
18
100
AcDbEntity
  8
0
100
AcDbCircle
 10
-50.80284610639001
 20
71.56611234039146
 30
0.0
 40
2.266403699736739
100
AcDbArc
 50
159.6455731711649
 51
186.4422713729654
  0
ARC
  5
13B
330
18
100
AcDbEntity
  8
0
100
AcDbCircle
 10
-55.09601285344378
 20
71.9712594243067
 30
0.0
 40
1.74232477304793
100
AcDbArc
 50
355.0330666200179
 51
31.76362954526786
  0
ARC
  5
13C
330
18
100
AcDbEntity
  8
0
100
AcDbCircle
 10
-56.09308089764345
 20
71.45159525795122
 30
0.0
 40
2.735962413695123
100
AcDbArc
 50
8.284945036413358
 51
28.60051527014238
  0
ARC
  5
13D
330
18
100
AcDbEntity
  8
0
100
AcDbCircle
 10
-51.49726132449569
 20
70.91062891301061
 30
0.0
 40
0.1734411905177206
100
AcDbArc
 50
6.537010935374905
 51
155.9784646340393
  0
ARC
  5
13E
330
18
100
AcDbEntity
  8
0
100
AcDbCircle
 10
-51.98001299881773
 20
71.24732496992265
 30
0.0
 40
1.242884009928438
100
AcDbArc
 50
58.19347409482573
 51
83.24261310198073
  0
ARC
  5
13F
330
18
100
AcDbEntity
  8
0
100
AcDbCircle
 10
-51.5363508287477
 20
72.08584759797028
 30
0.0
 40
0.197042080119289
100
AcDbArc
 50
303.8088355962661
 51
102.607106472789
  0
ARC
  5
140
330
18
100
AcDbEntity
  8
0
100
AcDbCircle
 10
-51.8178822730597
 20
72.11284704168548
 30
0.0
 40
0.1236794599557654
100
AcDbArc
 50
46.02385019940924
 51
197.9635853530763
  0
ARC
  5
141
330
18
100
AcDbEntity
  8
0
100
AcDbCircle
 10
-52.36803032474167
 20
75.73655376911235
 30
0.0
 40
0.3316672204371545
100
AcDbArc
 50
131.4928306631248
 51
48.5071693368751
  0
CIRCLE
  5
142
330
18
100
AcDbEntity
  8
0
100
AcDbCircle
 10
-52.36803032474167
 20
76.34686222980025
 30
0.0
 40
0.4233672127459531
  0
CIRCLE
  5
143
330
18
100
AcDbEntity
  8
0
100
AcDbCircle
 10
-53.79272843205815
 20
75.43139945456236
 30
0.0
 40
0.3981792917095679
  0
ARC
  5
144
330
18
100
AcDbEntity
  8
0
100
AcDbCircle
 10
-53.10582048382054
 20
75.45682900884353
 30
0.0
 40
0.3882922820299084
100
AcDbArc
 50
211.5959541049708
 51
37.51579484272132
  0
CIRCLE
  5
145
330
18
100
AcDbEntity
  8
0
100
AcDbCircle
 10
-53.10582048382054
 20
75.96541942081881
 30
0.0
 40
0.4109868727841829
  0
ARC
  5
146
330
18
100
AcDbEntity
  8
0
100
AcDbCircle
 10
-53.56375915679871
 20
76.11799657809379
 30
0.0
 40
0.3882129877073074
100
AcDbArc
 50
36.6051717854618
 51
228.2265892316485
  0
ARC
  5
147
330
18
100
AcDbEntity
  8
0
100
AcDbCircle
 10
-53.10582048382054
 20
75.45682900884353
 30
0.0
 40
0.3882922820299084
100
AcDbArc
 50
142.4842051572786
 51
152.6443260509711
  0
ARC
  5
148
330
18
100
AcDbEntity
  8
0
100
AcDbCircle
 10
-53.56375915679871
 20
76.11799657809379
 30
0.0
 40
0.3882129877073074
100
AcDbArc
 50
274.8879571688066
 51
286.5404858682049
  0
LINE
  5
149
330
18
100
AcDbEntity
  8
0
100
AcDbLine
 10
-54.27984427791609
 20
87.18681352493044
 30
0.0
 11
-54.49130321854621
 21
86.97535458430035
 31
0.0
  0
LINE
  5
14A
330
18
100
AcDbEntity
  8
0
100
AcDbLine
 10
-54.50204250057777
 20
84.47834789331462
 30
0.0
 11
-54.29646542936428
 21
84.25832536029735
 31
0.0
  0
CIRCLE
  5
14B
330
18
100
AcDbEntity
  8
0
100
AcDbCircle
 10
-54.58408373706487
 20
85.7366828564773
 30
0.0
 40
0.436136846224207
  0
CIRCLE
  5
14C
330
18
100
AcDbEntity
  8
0
100
AcDbCircle
 10
-54.58165766918561
 20
85.72653819294659
 30
0.0
 40
0.240781924609834
  0
LWPOLYLINE
  5
14D
330
18
100
AcDbEntity
  8
0
100
AcDbPolyline
 90
       13
 70
     0
 43
0.0
 10
-53.15670244974317
 20
85.9592210329742
 42
-0.3612354068099492
 10
-51.29950671363949
 20
84.76403349746744
 42
0.0805172971573489
 10
-51.24862462525754
 20
85.9592210329742
 42
0.1551859351022247
 10
-50.76524490808839
 20
85.93379147869303
 42
-0.1760284320696282
 10
-51.60479912147184
 20
82.80596042820384
 42
-0.0458870846071324
 10
-55.01389830830615
 20
79.57641132900206
 42
-0.0095643683987425
 10
-53.38567184746191
 20
79.8307065349897
 42
0.4176621260356381
 10
-53.309348714889
 20
79.93242458370232
 42
-0.4587215031967468
 10
-52.18994301540487
 20
80.56816259867142
 42
0.0626278781041478
 10
-51.50303494470795
 20
80.41558552560248
 42
0.9937866747003951
 10
-51.45215297878532
 20
80.92417593757774
 42
-0.620025125659677
 10
-50.89245012904326
 20
80.41558552560248
 42
-0.2017423733310226
 10
-51.29950671363949
 20
79.9069951136272
 42
3.935241606862577
  0
LINE
  5
15C
330
18
100
AcDbEntity
  8
0
100
AcDbLine
 10
-54.98470741334981
 20
84.54357676705397
 30
0.0
 11
-54.87897794303476
 21
84.26163151288049
 31
0.0
  0
LINE
  5
15D
330
18
100
AcDbEntity
  8
0
100
AcDbLine
 10
-54.87897794303476
 20
84.26163151288049
 30
0.0
 11
-54.66751900240463
 21
84.4730904535106
 31
0.0
  0
LWPOLYLINE
  5
15E
330
18
100
AcDbEntity
  8
0
100
AcDbPolyline
 90
        3
 70
     0
 43
0.0
 10
-55.87889356588057
 20
80.79702833458394
 42
0.5312535349113943
 10
-56.6421247691504
 20
80.74616922602157
 42
0.9415335324263672
 10
-56.18418609617222
 20
80.4410149956776
 42
-0.4971897742345075
  0
LWPOLYLINE
  5
163
330
18
100
AcDbEntity
  8
0
100
AcDbPolyline
 90
        3
 70
     0
 43
0.0
 10
-56.18418609617222
 20
83.06025563419149
 42
0.0123492593753712
 10
-56.26050922874515
 20
82.39908814914727
 42
0.2847930587771692
 10
-55.90433461007155
 20
81.17847114356539
 42
2.242856885842521
  0
LWPOLYLINE
  5
168
330
18
100
AcDbEntity
  8
0
100
AcDbPolyline
 90
        3
 70
     0
 43
0.0
 10
-54.8866930873513
 20
81.0767530106467
 42
0.8728838435798314
 10
-55.34463176032947
 20
81.43276634955304
 42
0.3569201245907848
 10
-55.4209548929024
 20
80.74616922602157
 42
0.7740761361546813
  0
LWPOLYLINE
  5
16D
330
18
100
AcDbEntity
  8
0
100
AcDbPolyline
 90
        2
 70
     0
 43
0.0
 10
-56.6421247691504
 20
83.49255746752927
 42
-0.3250431464464965
 10
-56.13330400779029
 20
83.54341657609163
 42
0.2708017345002991
  0
ARC
  5
171
330
18
100
AcDbEntity
  8
0
100
AcDbCircle
 10
-54.57941111047542
 20
85.71685959215846
 30
0.0
 40
1.24709719481021
100
AcDbArc
 50
153.2089584494402
 51
160.7108783667078
  0
LINE
  5
172
330
18
100
AcDbEntity
  8
0
100
AcDbLine
 10
-55.70158898766039
 20
86.28441111003892
 30
0.0
 11
-55.29676975194036
 21
86.03843297000725
 31
0.0
  0
LINE
  5
173
330
18
100
AcDbEntity
  8
0
100
AcDbLine
 10
-55.29676975194036
 20
86.03843297000725
 30
0.0
 11
-55.76005686232693
 21
86.12951882177986
 31
0.0
  0
LINE
  5
174
330
18
100
AcDbEntity
  8
0
100
AcDbLine
 10
-55.8305431758703
 20
85.81233041083468
 30
0.0
 11
-55.36240721070761
 21
85.73999385642698
 31
0.0
  0
LINE
  5
175
330
18
100
AcDbEntity
  8
0
100
AcDbLine
 10
-55.76902384866424
 20
85.32683608378425
 30
0.0
 11
-55.30884061109182
 21
85.43915369967658
 31
0.0
  0
LINE
  5
176
330
18
100
AcDbEntity
  8
0
100
AcDbLine
 10
-55.82544486765943
 20
84.90184023916402
 30
0.0
 11
-55.52639676593527
 21
84.90184023916402
 31
0.0
  0
LINE
  5
177
330
18
100
AcDbEntity
  8
0
100
AcDbLine
 10
-55.30884061109182
 20
85.43915369967658
 30
0.0
 11
-55.70084149194101
 21
85.17596766574449
 31
0.0
  0
LINE
  5
178
330
18
100
AcDbEntity
  8
0
100
AcDbLine
 10
-56.04530826908355
 20
85.44127683779432
 30
0.0
 11
-55.76902384866424
 21
85.32683608378425
 31
0.0
  0
LINE
  5
179
330
18
100
AcDbEntity
  8
0
100
AcDbLine
 10
-55.82528573606627
 20
85.64685390900782
 30
0.0
 11
-56.04530826908355
 21
85.44127683779432
 31
0.0
  0
LINE
  5
17A
330
18
100
AcDbEntity
  8
0
100
AcDbLine
 10
-56.04200211650042
 20
86.0237893514648
 30
0.0
 11
-55.8305431758703
 21
85.81233041083468
 31
0.0
  0
LINE
  5
17B
330
18
100
AcDbEntity
  8
0
100
AcDbLine
 10
-55.82455018637229
 20
85.64700191557124
 30
0.0
 11
-55.82528573606627
 21
85.64685390900782
 31
0.0
  0
ARC
  5
17C
330
18
100
AcDbEntity
  8
0
100
AcDbCircle
 10
-54.57941111047542
 20
85.71685959215846
 30
0.0
 40
1.24709719481021
100
AcDbArc
 50
175.6636041346566
 51
183.211174096742
  0
LINE
  5
17D
330
18
100
AcDbEntity
  8
0
100
AcDbLine
 10
-55.76005686232693
 20
86.12951882177986
 30
0.0
 11
-56.04200211650042
 21
86.0237893514648
 31
0.0
  0
LINE
  5
17E
330
18
100
AcDbEntity
  8
0
100
AcDbLine
 10
-55.70084149194101
 20
85.17596766574449
 30
0.0
 11
-55.82544486765943
 21
84.90184023916402
 31
0.0
  0
ARC
  5
17F
330
18
100
AcDbEntity
  8
0
100
AcDbCircle
 10
-54.57941111047542
 20
85.71685959215846
 30
0.0
 40
1.24709719481021
100
AcDbArc
 50
198.1693005875135
 51
205.8271140146057
  0
ARC
  5
180
330
18
100
AcDbEntity
  8
0
100
AcDbCircle
 10
-54.57941111047542
 20
85.71685959215846
 30
0.0
 40
1.24709719481021
100
AcDbArc
 50
265.9395497142026
 51
273.8077452896646
  0
LINE
  5
181
330
18
100
AcDbEntity
  8
0
100
AcDbLine
 10
-54.59518244799695
 20
84.94122641867328
 30
0.0
 11
-54.50204250057777
 21
84.47834789331462
 31
0.0
  0
LINE
  5
182
330
18
100
AcDbEntity
  8
0
100
AcDbLine
 10
-54.66751900240463
 20
84.4730904535106
 30
0.0
 11
-54.59518244799695
 21
84.94122641867328
 31
0.0
  0
LINE
  5
183
330
18
100
AcDbEntity
  8
0
100
AcDbLine
 10
-54.89362156157722
 20
85.00686387744051
 30
0.0
 11
-54.98470741334981
 21
84.54357676705397
 31
0.0
  0
LINE
  5
184
330
18
100
AcDbEntity
  8
0
100
AcDbLine
 10
-55.13959970160888
 20
84.60204464172049
 30
0.0
 11
-54.89362156157722
 21
85.00686387744051
 31
0.0
  0
ARC
  5
185
330
18
100
AcDbEntity
  8
0
100
AcDbCircle
 10
-54.57941111047542
 20
85.71685959215846
 30
0.0
 40
1.24709719481021
100
AcDbArc
 50
243.3227501650305
 51
251.1627505953079
  0
ARC
  5
186
330
18
100
AcDbEntity
  8
0
100
AcDbCircle
 10
-54.57941111047542
 20
85.71685959215846
 30
0.0
 40
1.24709719481021
100
AcDbArc
 50
220.7251816965648
 51
228.4940023330445
  0
LINE
  5
187
330
18
100
AcDbEntity
  8
0
100
AcDbLine
 10
-55.40566963802937
 20
84.78854825393232
 30
0.0
 11
-55.41588412202818
 21
84.48760388771043
 31
0.0
  0
LINE
  5
188
330
18
100
AcDbEntity
  8
0
100
AcDbLine
 10
-55.41588412202818
 20
84.48760388771043
 30
0.0
 11
-55.13959970160888
 21
84.60204464172049
 31
0.0
  0
LINE
  5
189
330
18
100
AcDbEntity
  8
0
100
AcDbLine
 10
-55.14422498230207
 20
85.18171268649851
 30
0.0
 11
-55.40566963802937
 21
84.78854825393232
 31
0.0
  0
LINE
  5
18A
330
18
100
AcDbEntity
  8
0
100
AcDbLine
 10
-55.52639676593527
 20
84.90184023916402
 30
0.0
 11
-55.14422498230207
 21
85.18171268649851
 31
0.0
  0
LINE
  5
18B
330
18
100
AcDbEntity
  8
0
100
AcDbLine
 10
-55.51508537544857
 20
86.5504810464594
 30
0.0
 11
-55.81602974167046
 21
86.56069553045822
 31
0.0
  0
LINE
  5
18C
330
18
100
AcDbEntity
  8
0
100
AcDbLine
 10
-55.81602974167046
 20
86.56069553045822
 30
0.0
 11
-55.70158898766039
 21
86.28441111003892
 31
0.0
  0
ARC
  5
18D
330
18
100
AcDbEntity
  8
0
100
AcDbCircle
 10
-54.57941111047542
 20
85.71685959215846
 30
0.0
 40
1.24709719481021
100
AcDbArc
 50
86.05084199342803
 51
93.47869868464561
  0
LINE
  5
18E
330
18
100
AcDbEntity
  8
0
100
AcDbLine
 10
-54.86235679158657
 20
87.1901196775136
 30
0.0
 11
-54.97679754559664
 21
86.91383525709429
 31
0.0
  0
LINE
  5
18F
330
18
100
AcDbEntity
  8
0
100
AcDbLine
 10
-55.12766596363639
 20
86.84565290037106
 30
0.0
 11
-55.40179339021687
 21
86.97025627608947
 31
0.0
  0
ARC
  5
190
330
18
100
AcDbEntity
  8
0
100
AcDbCircle
 10
-54.57941111047542
 20
85.71685959215846
 30
0.0
 40
1.24709719481021
100
AcDbArc
 50
108.4185169352182
 51
115.8556836099139
  0
LINE
  5
191
330
18
100
AcDbEntity
  8
0
100
AcDbLine
 10
-54.65677972037307
 20
86.97009714449633
 30
0.0
 11
-54.86235679158657
 21
87.1901196775136
 31
0.0
  0
LINE
  5
192
330
18
100
AcDbEntity
  8
0
100
AcDbLine
 10
-55.40179339021687
 20
86.67120817436531
 30
0.0
 11
-55.12192094288238
 21
86.28903639073211
 31
0.0
  0
LINE
  5
193
330
18
100
AcDbEntity
  8
0
100
AcDbLine
 10
-55.12192094288238
 20
86.28903639073211
 30
0.0
 11
-55.51508537544857
 21
86.5504810464594
 31
0.0
  0
ARC
  5
194
330
18
100
AcDbEntity
  8
0
100
AcDbCircle
 10
-54.57941111047542
 20
85.71685959215846
 30
0.0
 40
1.24709719481021
100
AcDbArc
 50
130.7984672067666
 51
138.2616293072274
  0
LINE
  5
195
330
18
100
AcDbEntity
  8
0
100
AcDbLine
 10
-55.40179339021687
 20
86.97025627608947
 30
0.0
 11
-55.40179339021687
 21
86.67120817436531
 31
0.0
  0
LINE
  5
196
330
18
100
AcDbEntity
  8
0
100
AcDbLine
 10
-54.5636397729539
 20
86.50721861913766
 30
0.0
 11
-54.65677972037307
 21
86.97009714449633
 31
0.0
  0
LINE
  5
197
330
18
100
AcDbEntity
  8
0
100
AcDbLine
 10
-54.49130321854621
 20
86.97535458430035
 30
0.0
 11
-54.5636397729539
 21
86.50721861913766
 31
0.0
  0
LINE
  5
198
330
18
100
AcDbEntity
  8
0
100
AcDbLine
 10
-54.86447992970429
 20
86.45365201952186
 30
0.0
 11
-55.12766596363639
 21
86.84565290037106
 31
0.0
  0
LINE
  5
199
330
18
100
AcDbEntity
  8
0
100
AcDbLine
 10
-54.97679754559664
 20
86.91383525709429
 30
0.0
 11
-54.86447992970429
 21
86.45365201952186
 31
0.0
  0
LINE
  5
19A
330
18
100
AcDbEntity
  8
0
100
AcDbLine
 10
-54.29646542936428
 20
84.25832536029735
 30
0.0
 11
-54.18202467535421
 21
84.53460978071666
 31
0.0
  0
LWPOLYLINE
  5
19B
330
18
100
AcDbEntity
  8
0
100
AcDbPolyline
 90
        2
 70
     0
 43
0.0
 10
-51.24862462525754
 20
80.69531020166525
 42
-0.3321541544754281
 10
-51.29950671363949
 20
79.93242458370232
 42
2.172360041865236
  0
LWPOLYLINE
  5
19F
330
18
100
AcDbEntity
  8
0
100
AcDbPolyline
 90
        8
 70
     0
 43
0.0
 10
-52.54611763407847
 20
80.11043121105247
 42
2.157080973112711
 10
-52.5206765898875
 20
79.93242458370232
 42
-0.2858075068968842
 10
-51.29950671363949
 20
79.9069951136272
 42
-0.0389617743872899
 10
-50.96877313915687
 20
79.65269990763956
 42
-0.041590786487499
 10
-51.29950671363949
 20
79.37297514737074
 42
-0.3870386459609682
 10
-52.36803032474167
 20
79.22039799009573
 42
0.3659139694935961
 10
-52.85141004191082
 20
79.16953896573942
 42
1.197727644843711
 10
-52.69876377676499
 20
79.19496852002059
 42
-1.421277472013969
  0
CIRCLE
  5
1A9
330
18
100
AcDbEntity
  8
0
100
AcDbCircle
 10
-52.21538405959584
 20
77.44033163238831
 30
0.0
 40
0.4022398956168748
  0
CIRCLE
  5
1AA
330
18
100
AcDbEntity
  8
0
100
AcDbCircle
 10
-53.4874360242258
 20
77.54204968110094
 30
0.0
 40
0.3781307148596015
  0
ARC
  5
1AB
330
18
100
AcDbEntity
  8
0
100
AcDbCircle
 10
-54.09593344969042
 20
77.64794456605975
 30
0.0
 40
0.3413283914399192
100
AcDbArc
 50
22.77953469416455
 51
317.4761942145986
  0
ARC
  5
1AC
330
18
100
AcDbEntity
  8
0
100
AcDbCircle
 10
-52.92773317448374
 20
77.51662021102582
 30
0.0
 40
0.388292282029908
100
AcDbArc
 50
219.7211501838914
 51
328.4040938345577
  0
ARC
  5
1AD
330
18
100
AcDbEntity
  8
0
100
AcDbCircle
 10
-52.92773317448374
 20
77.51662021102582
 30
0.0
 40
0.388292282029908
100
AcDbArc
 50
19.37039238479718
 51
135.0760890332502
  0
LWPOLYLINE
  5
1AE
330
18
100
AcDbEntity
  8
0
100
AcDbPolyline
 90
        3
 70
     0
 43
0.0
 10
-53.309348714889
 20
79.88156555934601
 42
0.186258800516211
 10
-52.85141004191082
 20
79.60184079907719
 42
0.0784448808716426
 10
-53.28390767069802
 20
79.34754559308955
 42
1.985899300444801
  0
LWPOLYLINE
  5
1B3
330
18
100
AcDbEntity
  8
0
100
AcDbPolyline
 90
        2
 70
     0
 43
0.0
 10
-51.24862462525754
 20
79.29668656873324
 42
-0.3636216457277906
 10
-51.32494775783047
 20
78.53380095077032
 42
2.455194120200988
  0
ARC
  5
1B7
330
18
100
AcDbEntity
  8
0
100
AcDbCircle
 10
-51.57935807728087
 20
77.36404305375081
 30
0.0
 40
0.3460220742301291
100
AcDbArc
 50
200.5181352414833
 51
139.3363951474269
  0
LWPOLYLINE
  5
1B8
330
18
100
AcDbEntity
  8
0
100
AcDbPolyline
 90
        2
 70
     0
 43
0.0
 10
-51.98641478433641
 20
83.18740323718531
 42
0.0021101901515773
 10
-52.31714823635973
 20
82.47537664357871
 42
1.559840970244317
  0
LWPOLYLINE
  5
1BC
330
18
100
AcDbEntity
  8
0
100
AcDbPolyline
 90
        2
 70
     0
 43
0.0
 10
-52.64788168838305
 20
82.70424237949121
 42
-0.1587670531855987
 10
-53.05493839543859
 20
81.7124910256158
 42
2.162121167642147
  0
LWPOLYLINE
  5
1C0
330
18
100
AcDbEntity
  8
0
100
AcDbPolyline
 90
        2
 70
     0
 43
0.0
 10
-53.309348714889
 20
82.09393383459724
 42
-0.0783559521071163
 10
-53.99625678558592
 20
80.94960540765288
 42
1.237598632184315
  0
ARC
  5
1C4
330
18
100
AcDbEntity
  8
0
100
AcDbCircle
 10
-54.57941111047542
 20
85.71685959215846
 30
0.0
 40
1.24709719481021
100
AcDbArc
 50
18.82886191872747
 51
26.32946091707064
  0
LINE
  5
1C5
330
18
100
AcDbEntity
  8
0
100
AcDbLine
 10
-53.84998160985904
 20
86.00929133813433
 30
0.0
 11
-53.45798072900982
 21
86.27247737206642
 31
0.0
  0
LINE
  5
1C6
330
18
100
AcDbEntity
  8
0
100
AcDbLine
 10
-53.11682010445044
 20
85.42465568634614
 30
0.0
 11
-53.32827904508055
 21
85.63611462697624
 31
0.0
  0
LINE
  5
1C7
330
18
100
AcDbEntity
  8
0
100
AcDbLine
 10
-53.39876535862392
 20
85.31892621603109
 30
0.0
 11
-53.11682010445044
 21
85.42465568634614
 31
0.0
  0
LINE
  5
1C8
330
18
100
AcDbEntity
  8
0
100
AcDbLine
 10
-53.1135139518673
 20
86.00716820001661
 30
0.0
 11
-53.3897983722866
 21
86.12160895402666
 31
0.0
  0
LINE
  5
1C9
330
18
100
AcDbEntity
  8
0
100
AcDbLine
 10
-53.33353648488458
 20
85.80159112880311
 30
0.0
 11
-53.1135139518673
 21
86.00716820001661
 31
0.0
  0
ARC
  5
1CA
330
18
100
AcDbEntity
  8
0
100
AcDbCircle
 10
-54.57941111047542
 20
85.71685959215846
 30
0.0
 40
1.24709719481021
100
AcDbArc
 50
356.3345639086014
 51
3.880682114423406
  0
LINE
  5
1CB
330
18
100
AcDbEntity
  8
0
100
AcDbLine
 10
-53.86205246901048
 20
85.41001206780368
 30
0.0
 11
-53.39876535862392
 21
85.31892621603109
 31
0.0
  0
LINE
  5
1CC
330
18
100
AcDbEntity
  8
0
100
AcDbLine
 10
-53.79641501024323
 20
85.70845118138393
 30
0.0
 11
-53.33353648488458
 21
85.80159112880311
 31
0.0
  0
LINE
  5
1CD
330
18
100
AcDbEntity
  8
0
100
AcDbLine
 10
-53.32827904508055
 20
85.63611462697624
 30
0.0
 11
-53.79641501024323
 21
85.70845118138393
 31
0.0
  0
LINE
  5
1CE
330
18
100
AcDbEntity
  8
0
100
AcDbLine
 10
-53.3897983722866
 20
86.12160895402666
 30
0.0
 11
-53.84998160985904
 21
86.00929133813433
 31
0.0
  0
LINE
  5
1CF
330
18
100
AcDbEntity
  8
0
100
AcDbLine
 10
-53.34279247928038
 20
84.88774950735271
 30
0.0
 11
-53.45723323329046
 21
85.16403392777201
 31
0.0
  0
ARC
  5
1D0
330
18
100
AcDbEntity
  8
0
100
AcDbCircle
 10
-54.57941111047542
 20
85.71685959215846
 30
0.0
 40
1.24709719481021
100
AcDbArc
 50
311.1995952208624
 51
318.9459545005033
  0
LINE
  5
1D1
330
18
100
AcDbEntity
  8
0
100
AcDbLine
 10
-53.64373684550227
 20
84.89796399135153
 30
0.0
 11
-53.34279247928038
 21
84.88774950735271
 31
0.0
  0
LINE
  5
1D2
330
18
100
AcDbEntity
  8
0
100
AcDbLine
 10
-53.75702883073397
 20
84.47818876172147
 30
0.0
 11
-53.75702883073397
 21
84.77723686344562
 31
0.0
  0
LINE
  5
1D3
330
18
100
AcDbEntity
  8
0
100
AcDbLine
 10
-54.29434229124655
 20
84.99479301828907
 30
0.0
 11
-54.03115625731445
 21
84.60279213743985
 31
0.0
  0
LINE
  5
1D4
330
18
100
AcDbEntity
  8
0
100
AcDbLine
 10
-54.18202467535421
 20
84.53460978071666
 30
0.0
 11
-54.29434229124655
 21
84.99479301828907
 31
0.0
  0
ARC
  5
1D5
330
18
100
AcDbEntity
  8
0
100
AcDbCircle
 10
-54.57941111047542
 20
85.71685959215846
 30
0.0
 40
1.24709719481021
100
AcDbArc
 50
288.5794962092638
 51
296.40711800988
  0
LINE
  5
1D6
330
18
100
AcDbEntity
  8
0
100
AcDbLine
 10
-54.03115625731445
 20
84.60279213743985
 30
0.0
 11
-53.75702883073397
 21
84.47818876172147
 31
0.0
  0
LINE
  5
1D7
330
18
100
AcDbEntity
  8
0
100
AcDbLine
 10
-53.75702883073397
 20
84.77723686344562
 30
0.0
 11
-54.03690127806846
 21
85.1594086470788
 31
0.0
  0
LINE
  5
1D8
330
18
100
AcDbEntity
  8
0
100
AcDbLine
 10
-54.03690127806846
 20
85.1594086470788
 30
0.0
 11
-53.64373684550227
 21
84.89796399135153
 31
0.0
  0
LINE
  5
1D9
330
18
100
AcDbEntity
  8
0
100
AcDbLine
 10
-53.45723323329046
 20
85.16403392777201
 30
0.0
 11
-53.86205246901048
 21
85.41001206780368
 31
0.0
  0
ARC
  5
1DA
330
18
100
AcDbEntity
  8
0
100
AcDbCircle
 10
-54.57941111047542
 20
85.71685959215846
 30
0.0
 40
1.24709719481021
100
AcDbArc
 50
333.789168139442
 51
341.4184420576753
  0
LINE
  5
1DB
330
18
100
AcDbEntity
  8
0
100
AcDbLine
 10
-54.17411480760104
 20
86.90486827075696
 30
0.0
 11
-54.27984427791609
 21
87.18681352493044
 31
0.0
  0
ARC
  5
1DC
330
18
100
AcDbEntity
  8
0
100
AcDbCircle
 10
-54.57941111047542
 20
85.71685959215846
 30
0.0
 40
1.24709719481021
100
AcDbArc
 50
63.6752988955204
 51
71.11193035409389
  0
LINE
  5
1DD
330
18
100
AcDbEntity
  8
0
100
AcDbLine
 10
-53.74293809892266
 20
86.9608411501005
 30
0.0
 11
-54.01922251934197
 21
86.84640039609044
 31
0.0
  0
LINE
  5
1DE
330
18
100
AcDbEntity
  8
0
100
AcDbLine
 10
-53.33337735329141
 20
86.54660479864691
 30
0.0
 11
-53.63242545501559
 21
86.54660479864691
 31
0.0
  0
LINE
  5
1DF
330
18
100
AcDbEntity
  8
0
100
AcDbLine
 10
-53.45798072900982
 20
86.27247737206642
 30
0.0
 11
-53.33337735329141
 21
86.54660479864691
 31
0.0
  0
ARC
  5
1E0
330
18
100
AcDbEntity
  8
0
100
AcDbCircle
 10
-54.57941111047542
 20
85.71685959215846
 30
0.0
 40
1.24709719481021
100
AcDbArc
 50
41.27293152496793
 51
48.73509584358065
  0
LINE
  5
1E1
330
18
100
AcDbEntity
  8
0
100
AcDbLine
 10
-54.01459723864878
 20
86.26673235131242
 30
0.0
 11
-53.75315258292149
 21
86.65989678387862
 31
0.0
  0
LINE
  5
1E2
330
18
100
AcDbEntity
  8
0
100
AcDbLine
 10
-53.63242545501559
 20
86.54660479864691
 30
0.0
 11
-54.01459723864878
 21
86.26673235131242
 31
0.0
  0
LINE
  5
1E3
330
18
100
AcDbEntity
  8
0
100
AcDbLine
 10
-53.75315258292149
 20
86.65989678387862
 30
0.0
 11
-53.74293809892266
 21
86.9608411501005
 31
0.0
  0
LINE
  5
1E4
330
18
100
AcDbEntity
  8
0
100
AcDbLine
 10
-54.26520065937364
 20
86.44158116037042
 30
0.0
 11
-54.17411480760104
 21
86.90486827075696
 31
0.0
  0
LINE
  5
1E5
330
18
100
AcDbEntity
  8
0
100
AcDbLine
 10
-54.01922251934197
 20
86.84640039609044
 30
0.0
 11
-54.26520065937364
 21
86.44158116037042
 31
0.0
  0
TEXT
  5
1F3
330
18
100
AcDbEntity
  8
ADPDIM
100
AcDbText
 10
-73.28720329148478
 20
65.01184062849559
 30
0.0
 40
0.375
  1
J U L I U S  B L U M  &  C O . ,  I N C .      ( 8 0 0 )  5 2 6 - 6 2 9 3        W W W . J U L I U S B L U M . C O M        P A R T  N o .  5 2 2
 41
1.25
  7
ARIAL_WIDE
 72
     1
 11
-53.98308067893362
 21
65.38684062849559
 31
0.0
100
AcDbText
 73
     3
  0
ENDSEC
  0
SECTION
  2
OBJECTS
  0
DICTIONARY
  5
C
330
0
100
AcDbDictionary
  3
ACAD_GROUP
350
D
  3
ACAD_LAYOUT
350
1EC
  3
ACAD_MLINESTYLE
350
E
  3
ACAD_PLOTSETTINGS
350
1ED
  3
ACAD_PLOTSTYLENAME
350
1EA
  3
ACDBHEADERROUNDTRIPXREC
350
33B
  3
ACDBVARIABLEDICTIONARY
350
24D
  0
DICTIONARY
  5
247
330
18
100
AcDbDictionary
280
     1
  3
ACAD_LAYOUTSELFREF
360
35C
  0
DICTIONARY
  5
245
330
15
100
AcDbDictionary
280
     1
  3
ACAD_LAYOUTSELFREF
360
35B
  0
DICTIONARY
  5
D
102
{ACAD_REACTORS
330
C
102
}
330
C
100
AcDbDictionary
  0
DICTIONARY
  5
1EC
102
{ACAD_REACTORS
330
C
102
}
330
C
100
AcDbDictionary
  0
DICTIONARY
  5
E
102
{ACAD_REACTORS
330
C
102
}
330
C
100
AcDbDictionary
  3
STANDARD
350
1B
  0
DICTIONARY
  5
1ED
102
{ACAD_REACTORS
330
C
102
}
330
C
100
AcDbDictionary
  0
ACDBDICTIONARYWDFLT
  5
1EA
102
{ACAD_REACTORS
330
C
102
}
330
C
100
AcDbDictionary
281
     1
  3
Normal
350
1EB
100
AcDbDictionaryWithDefault
340
1EB
  0
DICTIONARY
  5
33B
102
{ACAD_REACTORS
330
C
102
}
330
C
100
AcDbDictionary
  3
CEPSNTYPE
350
345
  3
FINGERPRINTGUID
350
346
  3
HYPERLINKBASE
350
33E
  3
INSUNITS
350
344
  3
LAYOUTDICT
350
340
  3
LWETCUNION
350
343
  3
PLOTSETDICT
350
341
  3
PLOTSTYLNAMDICT
350
342
  3
PSVPSCALE
350
348
  3
PUCSBASE
350
34B
  3
PUCSORGBACK
350
351
  3
PUCSORGBOTTOM
350
34D
  3
PUCSORGFRONT
350
350
  3
PUCSORGLEFT
350
34E
  3
PUCSORGRIGHT
350
34F
  3
PUCSORGTOP
350
34C
  3
PUCSORTHOREF
350
349
  3
PUCSORTHOVIEW
350
34A
  3
STYLESHEET
350
33F
  3
TSTACKALIGN
350
33C
  3
TSTACKSIZE
350
33D
  3
UCSBASE
350
354
  3
UCSORGBACK
350
35A
  3
UCSORGBOTTOM
350
356
  3
UCSORGFRONT
350
359
  3
UCSORGLEFT
350
357
  3
UCSORGRIGHT
350
358
  3
UCSORGTOP
350
355
  3
UCSORTHOREF
350
352
  3
UCSORTHOVIEW
350
353
  3
VERSIONGUID
350
347
  0
DICTIONARY
  5
24D
102
{ACAD_REACTORS
330
C
102
}
330
C
100
AcDbDictionary
  3
DIMASSOC
350
24E
  0
XRECORD
  5
35C
102
{ACAD_REACTORS
330
247
102
}
330
247
100
AcDbXrecord
340
18
  0
XRECORD
  5
35B
102
{ACAD_REACTORS
330
245
102
}
330
245
100
AcDbXrecord
340
15
  0
MLINESTYLE
  5
1B
102
{ACAD_REACTORS
330
E
102
}
330
E
100
AcDbMlineStyle
  2
STANDARD
 70
     0
  3

 62
     0
 51
90.0
 52
90.0
 71
     2
 49
0.5
 62
   256
  6
BYLAYER
 49
-0.5
 62
   256
  6
BYLAYER
  0
ACDBPLACEHOLDER
  5
1EB
102
{ACAD_REACTORS
330
1EA
102
}
330
1EA
100
AcDbPlaceHolder
280
     0
  0
XRECORD
  5
345
102
{ACAD_REACTORS
330
33B
102
}
330
33B
100
AcDbXrecord
 90
        0
  0
XRECORD
  5
346
102
{ACAD_REACTORS
330
33B
102
}
330
33B
100
AcDbXrecord
  1
{F3857607-EF35-4BC8-AAAE-C8D5A522A024}
  0
XRECORD
  5
33E
102
{ACAD_REACTORS
330
33B
102
}
330
33B
100
AcDbXrecord
  1

  0
XRECORD
  5
344
102
{ACAD_REACTORS
330
33B
102
}
330
33B
100
AcDbXrecord
 90
        0
  0
XRECORD
  5
340
102
{ACAD_REACTORS
330
33B
102
}
330
33B
100
AcDbXrecord
340
1EC
  0
XRECORD
  5
343
102
{ACAD_REACTORS
330
33B
102
}
330
33B
100
AcDbXrecord
 90
    14877
  0
XRECORD
  5
341
102
{ACAD_REACTORS
330
33B
102
}
330
33B
100
AcDbXrecord
340
1ED
  0
XRECORD
  5
342
102
{ACAD_REACTORS
330
33B
102
}
330
33B
100
AcDbXrecord
340
1EA
  0
XRECORD
  5
348
102
{ACAD_REACTORS
330
33B
102
}
330
33B
100
AcDbXrecord
 40
0.0
  0
XRECORD
  5
34B
102
{ACAD_REACTORS
330
33B
102
}
330
33B
100
AcDbXrecord
340
0
  0
XRECORD
  5
351
102
{ACAD_REACTORS
330
33B
102
}
330
33B
100
AcDbXrecord
 10
0.0
 20
0.0
 30
0.0
  0
XRECORD
  5
34D
102
{ACAD_REACTORS
330
33B
102
}
330
33B
100
AcDbXrecord
 10
0.0
 20
0.0
 30
0.0
  0
XRECORD
  5
350
102
{ACAD_REACTORS
330
33B
102
}
330
33B
100
AcDbXrecord
 10
0.0
 20
0.0
 30
0.0
  0
XRECORD
  5
34E
102
{ACAD_REACTORS
330
33B
102
}
330
33B
100
AcDbXrecord
 10
0.0
 20
0.0
 30
0.0
  0
XRECORD
  5
34F
102
{ACAD_REACTORS
330
33B
102
}
330
33B
100
AcDbXrecord
 10
0.0
 20
0.0
 30
0.0
  0
XRECORD
  5
34C
102
{ACAD_REACTORS
330
33B
102
}
330
33B
100
AcDbXrecord
 10
0.0
 20
0.0
 30
0.0
  0
XRECORD
  5
349
102
{ACAD_REACTORS
330
33B
102
}
330
33B
100
AcDbXrecord
340
0
  0
XRECORD
  5
34A
102
{ACAD_REACTORS
330
33B
102
}
330
33B
100
AcDbXrecord
 70
     0
  0
XRECORD
  5
33F
102
{ACAD_REACTORS
330
33B
102
}
330
33B
100
AcDbXrecord
  1

  0
XRECORD
  5
33C
102
{ACAD_REACTORS
330
33B
102
}
330
33B
100
AcDbXrecord
 90
        1
  0
XRECORD
  5
33D
102
{ACAD_REACTORS
330
33B
102
}
330
33B
100
AcDbXrecord
 90
       70
  0
XRECORD
  5
354
102
{ACAD_REACTORS
330
33B
102
}
330
33B
100
AcDbXrecord
340
0
  0
XRECORD
  5
35A
102
{ACAD_REACTORS
330
33B
102
}
330
33B
100
AcDbXrecord
 10
0.0
 20
0.0
 30
0.0
  0
XRECORD
  5
356
102
{ACAD_REACTORS
330
33B
102
}
330
33B
100
AcDbXrecord
 10
0.0
 20
0.0
 30
0.0
  0
XRECORD
  5
359
102
{ACAD_REACTORS
330
33B
102
}
330
33B
100
AcDbXrecord
 10
0.0
 20
0.0
 30
0.0
  0
XRECORD
  5
357
102
{ACAD_REACTORS
330
33B
102
}
330
33B
100
AcDbXrecord
 10
0.0
 20
0.0
 30
0.0
  0
XRECORD
  5
358
102
{ACAD_REACTORS
330
33B
102
}
330
33B
100
AcDbXrecord
 10
0.0
 20
0.0
 30
0.0
  0
XRECORD
  5
355
102
{ACAD_REACTORS
330
33B
102
}
330
33B
100
AcDbXrecord
 10
0.0
 20
0.0
 30
0.0
  0
XRECORD
  5
352
102
{ACAD_REACTORS
330
33B
102
}
330
33B
100
AcDbXrecord
340
0
  0
XRECORD
  5
353
102
{ACAD_REACTORS
330
33B
102
}
330
33B
100
AcDbXrecord
 70
     0
  0
XRECORD
  5
347
102
{ACAD_REACTORS
330
33B
102
}
330
33B
100
AcDbXrecord
  1
{33EF21F7-8B7A-466C-AA19-91C8760C254F}
  0
DICTIONARYVAR
  5
24E
102
{ACAD_REACTORS
330
24D
102
}
330
24D
100
DictionaryVariables
280
     0
  1
1
  0
ENDSEC
  0
EOF
