  0
SECTION
  2
HEADER
  9
$ACADVER
  1
AC1014
  9
$ACADMAINTVER
 70
     9
  9
$DWGCODEPAGE
  3
ANSI_1252
  9
$INSBASE
 10
-67.19731856309334
 20
66.79396728365251
 30
0.0
  9
$EXTMIN
 10
-92.941243269607
 20
64.91629873087673
 30
0.0
  9
$EXTMAX
 10
-41.46358296947057
 20
92.31611638240579
 30
0.0
  9
$LIMMIN
 10
0.0
 20
0.0
  9
$LIMMAX
 10
36.0
 20
36.0
  9
$ORTHOMODE
 70
     1
  9
$REGENMODE
 70
     1
  9
$FILLMODE
 70
     1
  9
$QTEXTMODE
 70
     0
  9
$MIRRTEXT
 70
     1
  9
$DRAGMODE
 70
     0
  9
$LTSCALE
 40
1.0
  9
$OSMODE
 70
    37
  9
$ATTMODE
 70
     1
  9
$TEXTSIZE
 40
0.2
  9
$TRACEWID
 40
0.05
  9
$TEXTSTYLE
  7
STANDARD
  9
$CLAYER
  8
ADPDIM
  9
$CELTYPE
  6
BYLAYER
  9
$CECOLOR
 62
   256
  9
$CELTSCALE
 40
1.0
  9
$DELOBJ
 70
     1
  9
$DISPSILH
 70
     0
  9
$DIMSCALE
 40
1.0
  9
$DIMASZ
 40
0.125
  9
$DIMEXO
 40
0.0625
  9
$DIMDLI
 40
0.38
  9
$DIMRND
 40
0.0
  9
$DIMDLE
 40
0.0
  9
$DIMEXE
 40
0.18
  9
$DIMTP
 40
0.0
  9
$DIMTM
 40
0.0
  9
$DIMTXT
 40
0.125
  9
$DIMCEN
 40
0.1875
  9
$DIMTSZ
 40
0.125
  9
$DIMTOL
 70
     0
  9
$DIMLIM
 70
     0
  9
$DIMTIH
 70
     0
  9
$DIMTOH
 70
     0
  9
$DIMSE1
 70
     0
  9
$DIMSE2
 70
     0
  9
$DIMTAD
 70
     0
  9
$DIMZIN
 70
     3
  9
$DIMBLK
  1

  9
$DIMASO
 70
     1
  9
$DIMSHO
 70
     1
  9
$DIMPOST
  1

  9
$DIMAPOST
  1

  9
$DIMALT
 70
     0
  9
$DIMALTD
 70
     1
  9
$DIMALTF
 40
25.4
  9
$DIMLFAC
 40
1.0
  9
$DIMTOFL
 70
     0
  9
$DIMTVP
 40
0.0
  9
$DIMTIX
 70
     0
  9
$DIMSOXD
 70
     0
  9
$DIMSAH
 70
     0
  9
$DIMBLK1
  1

  9
$DIMBLK2
  1

  9
$DIMSTYLE
  2
STANDARD
  9
$DIMCLRD
 70
     0
  9
$DIMCLRE
 70
     0
  9
$DIMCLRT
 70
     0
  9
$DIMTFAC
 40
1.0
  9
$DIMGAP
 40
0.125
  9
$DIMJUST
 70
     0
  9
$DIMSD1
 70
     0
  9
$DIMSD2
 70
     0
  9
$DIMTOLJ
 70
     1
  9
$DIMTZIN
 70
     0
  9
$DIMALTZ
 70
     0
  9
$DIMALTTZ
 70
     0
  9
$DIMFIT
 70
     3
  9
$DIMUPT
 70
     0
  9
$DIMUNIT
 70
     2
  9
$DIMDEC
 70
     4
  9
$DIMTDEC
 70
     4
  9
$DIMALTU
 70
     2
  9
$DIMALTTD
 70
     2
  9
$DIMTXSTY
  7
STANDARD
  9
$DIMAUNIT
 70
     0
  9
$LUNITS
 70
     5
  9
$LUPREC
 70
     4
  9
$SKETCHINC
 40
0.1
  9
$FILLETRAD
 40
0.062
  9
$AUNITS
 70
     0
  9
$AUPREC
 70
     0
  9
$MENU
  1
acad
  9
$ELEVATION
 40
0.0
  9
$PELEVATION
 40
0.0
  9
$THICKNESS
 40
0.0
  9
$LIMCHECK
 70
     0
  9
$BLIPMODE
 70
     0
  9
$CHAMFERA
 40
0.0
  9
$CHAMFERB
 40
0.0
  9
$CHAMFERC
 40
0.0
  9
$CHAMFERD
 40
0.0
  9
$SKPOLY
 70
     0
  9
$TDCREATE
 40
2450407.561957361
  9
$TDUPDATE
 40
2452297.071982234
  9
$TDINDWG
 40
0.0292060417
  9
$TDUSRTIMER
 40
0.0292060417
  9
$USRTIMER
 70
     1
  9
$ANGBASE
 50
0.0
  9
$ANGDIR
 70
     0
  9
$PDMODE
 70
     0
  9
$PDSIZE
 40
0.0
  9
$PLINEWID
 40
0.0
  9
$COORDS
 70
     2
  9
$SPLFRAME
 70
     0
  9
$SPLINETYPE
 70
     6
  9
$SPLINESEGS
 70
     8
  9
$ATTDIA
 70
     0
  9
$ATTREQ
 70
     1
  9
$HANDLING
 70
 22529
  9
$HANDSEED
  5
3B8
  9
$SURFTAB1
 70
     6
  9
$SURFTAB2
 70
     6
  9
$SURFTYPE
 70
     6
  9
$SURFU
 70
     6
  9
$SURFV
 70
     6
  9
$UCSNAME
  2

  9
$UCSORG
 10
0.0
 20
0.0
 30
0.0
  9
$UCSXDIR
 10
1.0
 20
0.0
 30
0.0
  9
$UCSYDIR
 10
0.0
 20
1.0
 30
0.0
  9
$PUCSNAME
  2

  9
$PUCSORG
 10
0.0
 20
0.0
 30
0.0
  9
$PUCSXDIR
 10
1.0
 20
0.0
 30
0.0
  9
$PUCSYDIR
 10
0.0
 20
1.0
 30
0.0
  9
$USERI1
 70
     0
  9
$USERI2
 70
     0
  9
$USERI3
 70
     0
  9
$USERI4
 70
     0
  9
$USERI5
 70
     0
  9
$USERR1
 40
0.0
  9
$USERR2
 40
0.0
  9
$USERR3
 40
0.0
  9
$USERR4
 40
0.0
  9
$USERR5
 40
0.0
  9
$WORLDVIEW
 70
     1
  9
$SHADEDGE
 70
     3
  9
$SHADEDIF
 70
    70
  9
$TILEMODE
 70
     1
  9
$MAXACTVP
 70
    15
  9
$PINSBASE
 10
0.0008545038290322
 20
1.250283272183907
 30
0.0
  9
$PLIMCHECK
 70
     0
  9
$PEXTMIN
 10
1.000000000000000E+20
 20
1.000000000000000E+20
 30
1.000000000000000E+20
  9
$PEXTMAX
 10
-1.000000000000000E+20
 20
-1.000000000000000E+20
 30
-1.000000000000000E+20
  9
$PLIMMIN
 10
0.0
 20
0.0
  9
$PLIMMAX
 10
12.0
 20
9.0
  9
$UNITMODE
 70
     0
  9
$VISRETAIN
 70
     0
  9
$PLINEGEN
 70
     0
  9
$PSLTSCALE
 70
     1
  9
$TREEDEPTH
 70
  3020
  9
$PICKSTYLE
 70
     1
  9
$CMLSTYLE
  2
STANDARD
  9
$CMLJUST
 70
     0
  9
$CMLSCALE
 40
1.0
  9
$PROXYGRAPHICS
 70
     1
  9
$MEASUREMENT
 70
     0
  0
ENDSEC
  0
SECTION
  2
CLASSES
  0
CLASS
  1
ACDBDICTIONARYWDFLT
  2
AcDbDictionaryWithDefault
  3
AutoCAD 2000
 90
        0
280
     0
281
     0
  0
CLASS
  1
ACDBPLACEHOLDER
  2
AcDbPlaceHolder
  3
AutoCAD 2000
 90
        0
280
     0
281
     0
  0
CLASS
  1
LAYOUT
  2
AcDbLayout
  3
AutoCAD 2000
 90
        0
280
     0
281
     0
  0
CLASS
  1
DICTIONARYVAR
  2
AcDbDictionaryVar
  3
AutoCAD 2000
 90
        0
280
     0
281
     0
  0
CLASS
  1
LONG_TRANSACTION
  2
AcDbLongTransaction
  3
AutoCAD 2000
 90
        0
280
     0
281
     0
  0
CLASS
  1
LWPOLYLINE
  2
AcDbPolyline
  3
AutoCAD 2000
 90
        0
280
     0
281
     1
  0
CLASS
  1
HATCH
  2
AcDbHatch
  3
AutoCAD 2000
 90
        0
280
     0
281
     1
  0
CLASS
  1
XRECORD
  2
AcDbXrecord
  3
AutoCAD 2000
 90
        0
280
     0
281
     0
  0
CLASS
  1
LONG_TRANSACTION
  2
AcDbLongTransaction
  3
AutoCAD 2000
 90
        0
280
     0
281
     0
  0
CLASS
  1
LWPOLYLINE
  2
AcDbPolyline
  3
AutoCAD 2000
 90
        0
280
     0
281
     1
  0
CLASS
  1
HATCH
  2
AcDbHatch
  3
AutoCAD 2000
 90
        0
280
     0
281
     1
  0
CLASS
  1
XRECORD
  2
AcDbXrecord
  3
AutoCAD 2000
 90
        0
280
     0
281
     0
  0
CLASS
  1
LONG_TRANSACTION
  2
AcDbLongTransaction
  3
AutoCAD 2000
 90
        0
280
     0
281
     0
  0
CLASS
  1
LWPOLYLINE
  2
AcDbPolyline
  3
AutoCAD 2000
 90
        0
280
     0
281
     1
  0
CLASS
  1
HATCH
  2
AcDbHatch
  3
AutoCAD 2000
 90
        0
280
     0
281
     1
  0
CLASS
  1
XRECORD
  2
AcDbXrecord
  3
AutoCAD 2000
 90
        0
280
     0
281
     0
  0
CLASS
  1
LONG_TRANSACTION
  2
AcDbLongTransaction
  3
AutoCAD 2000
 90
        0
280
     0
281
     0
  0
CLASS
  1
LWPOLYLINE
  2
AcDbPolyline
  3
AutoCAD 2000
 90
        0
280
     0
281
     1
  0
CLASS
  1
HATCH
  2
AcDbHatch
  3
AutoCAD 2000
 90
        0
280
     0
281
     1
  0
CLASS
  1
XRECORD
  2
AcDbXrecord
  3
AutoCAD 2000
 90
        0
280
     0
281
     0
  0
CLASS
  1
LONG_TRANSACTION
  2
AcDbLongTransaction
  3
AutoCAD 2000
 90
        0
280
     0
281
     0
  0
CLASS
  1
LWPOLYLINE
  2
AcDbPolyline
  3
AutoCAD 2000
 90
        0
280
     0
281
     1
  0
CLASS
  1
HATCH
  2
AcDbHatch
  3
AutoCAD 2000
 90
        0
280
     0
281
     1
  0
CLASS
  1
XRECORD
  2
AcDbXrecord
  3
AutoCAD 2000
 90
        0
280
     0
281
     0
  0
CLASS
  1
LONG_TRANSACTION
  2
AcDbLongTransaction
  3
AutoCAD 2000
 90
        0
280
     0
281
     0
  0
CLASS
  1
LWPOLYLINE
  2
AcDbPolyline
  3
AutoCAD 2000
 90
        0
280
     0
281
     1
  0
CLASS
  1
HATCH
  2
AcDbHatch
  3
AutoCAD 2000
 90
        0
280
     0
281
     1
  0
CLASS
  1
XRECORD
  2
AcDbXrecord
  3
AutoCAD 2000
 90
        0
280
     0
281
     0
  0
ENDSEC
  0
SECTION
  2
TABLES
  0
TABLE
  2
VPORT
  5
8
330
0
100
AcDbSymbolTable
 70
     2
  0
VPORT
  5
395
330
8
100
AcDbSymbolTableRecord
100
AcDbViewportTableRecord
  2
*ACTIVE
 70
     0
 10
0.0
 20
0.0
 11
1.0
 21
1.0
 12
-67.16230223878913
 22
78.61889922137963
 13
0.0
 23
0.0
 14
0.5740882589684922
 24
0.5740882589684922
 15
0.5
 25
0.5
 16
0.0
 26
0.0
 36
1.0
 17
0.0
 27
0.0
 37
0.0
 40
32.9963436496539
 41
1.570528967254408
 42
50.0
 43
0.0
 44
0.0
 50
0.0
 51
0.0
 71
     0
 72
   100
 73
     1
 74
     0
 75
     0
 76
     0
 77
     0
 78
     0
  0
ENDTAB
  0
TABLE
  2
LTYPE
  5
5
330
0
100
AcDbSymbolTable
 70
     1
  0
LTYPE
  5
12
330
5
100
AcDbSymbolTableRecord
100
AcDbLinetypeTableRecord
  2
BYBLOCK
 70
     0
  3

 72
    65
 73
     0
 40
0.0
  0
LTYPE
  5
13
330
5
100
AcDbSymbolTableRecord
100
AcDbLinetypeTableRecord
  2
BYLAYER
 70
     0
  3

 72
    65
 73
     0
 40
0.0
  0
LTYPE
  5
14
330
5
100
AcDbSymbolTableRecord
100
AcDbLinetypeTableRecord
  2
CONTINUOUS
 70
     0
  3
Solid line
 72
    65
 73
     0
 40
0.0
  0
ENDTAB
  0
TABLE
  2
LAYER
  5
2
330
0
100
AcDbSymbolTable
 70
     3
  0
LAYER
  5
F
330
2
100
AcDbSymbolTableRecord
100
AcDbLayerTableRecord
  2
0
 70
     0
 62
     7
  6
CONTINUOUS
  0
LAYER
  5
87
330
2
100
AcDbSymbolTableRecord
100
AcDbLayerTableRecord
  2
DEFPOINTS
 70
     0
 62
     7
  6
CONTINUOUS
  0
LAYER
  5
8A
330
2
100
AcDbSymbolTableRecord
100
AcDbLayerTableRecord
  2
ADPDIM
 70
     0
 62
     3
  6
CONTINUOUS
  0
ENDTAB
  0
TABLE
  2
STYLE
  5
3
330
0
100
AcDbSymbolTable
 70
     2
  0
STYLE
  5
10
330
3
100
AcDbSymbolTableRecord
100
AcDbTextStyleTableRecord
  2
STANDARD
 70
     0
 40
0.0
 41
1.0
 50
0.0
 71
     0
 42
0.2
  3
txt
  4

  0
STYLE
  5
24D
330
3
100
AcDbSymbolTableRecord
100
AcDbTextStyleTableRecord
  2
ARIAL_WIDE
 70
     0
 40
0.0
 41
1.25
 50
0.0
 71
     0
 42
0.2
  3
ARIAL.TTF
  4

1001
ACAD
1000
Arial
1071
       34
  0
ENDTAB
  0
TABLE
  2
VIEW
  5
6
330
0
100
AcDbSymbolTable
 70
     0
  0
ENDTAB
  0
TABLE
  2
UCS
  5
7
330
0
100
AcDbSymbolTable
 70
     0
  0
ENDTAB
  0
TABLE
  2
APPID
  5
9
330
0
100
AcDbSymbolTable
 70
     1
  0
APPID
  5
11
330
9
100
AcDbSymbolTableRecord
100
AcDbRegAppTableRecord
  2
ACAD
 70
     0
  0
ENDTAB
  0
TABLE
  2
DIMSTYLE
  5
A
330
0
100
AcDbSymbolTable
 70
     1
  0
DIMSTYLE
105
241
330
A
100
AcDbSymbolTableRecord
100
AcDbDimStyleTableRecord
  2
STANDARD
 70
     0
  3

  4

  5

  6

  7

 40
1.0
 41
0.18
 42
0.0625
 43
0.38
 44
0.18
 45
0.0
 46
0.0
 47
0.0
 48
0.0
140
0.18
141
0.09
142
0.0
143
25.4
144
1.0
145
0.0
146
1.0
147
0.09
 71
     0
 72
     0
 73
     1
 74
     1
 75
     0
 76
     0
 77
     0
 78
     0
170
     0
171
     2
172
     0
173
     0
174
     0
175
     0
176
     0
177
     0
178
     0
270
     2
271
     4
272
     4
273
     2
274
     2
340
10
275
     0
280
     0
281
     0
282
     0
283
     1
284
     0
285
     0
286
     0
287
     3
288
     0
  0
ENDTAB
  0
TABLE
  2
BLOCK_RECORD
  5
1
330
0
100
AcDbSymbolTable
 70
     2
  0
BLOCK_RECORD
  5
18
102
{ACAD_XDICTIONARY
360
2A2
102
}
330
1
100
AcDbSymbolTableRecord
100
AcDbBlockTableRecord
  2
*MODEL_SPACE
  0
BLOCK_RECORD
  5
15
102
{ACAD_XDICTIONARY
360
2A0
102
}
330
1
100
AcDbSymbolTableRecord
100
AcDbBlockTableRecord
  2
*PAPER_SPACE
  0
BLOCK_RECORD
  5
7F
330
1
100
AcDbSymbolTableRecord
100
AcDbBlockTableRecord
  2
*D0
  0
BLOCK_RECORD
  5
81
330
1
100
AcDbSymbolTableRecord
100
AcDbBlockTableRecord
  2
*D1
  0
ENDTAB
  0
ENDSEC
  0
SECTION
  2
BLOCKS
  0
BLOCK
  5
8D
330
18
100
AcDbEntity
  8
0
100
AcDbBlockBegin
  2
*MODEL_SPACE
 70
     0
 10
0.0
 20
0.0
 30
0.0
  3
*MODEL_SPACE
  1

  0
ENDBLK
  5
8E
330
18
100
AcDbEntity
  8
0
100
AcDbBlockEnd
  0
BLOCK
  5
8B
330
15
100
AcDbEntity
 67
     1
  8
0
100
AcDbBlockBegin
  2
*PAPER_SPACE
 70
     0
 10
0.0
 20
0.0
 30
0.0
  3
*PAPER_SPACE
  1

  0
ENDBLK
  5
8C
330
15
100
AcDbEntity
 67
     1
  8
0
100
AcDbBlockEnd
  0
BLOCK
  5
90
330
7F
100
AcDbEntity
  8
0
100
AcDbBlockBegin
  2
*D0
 70
     1
 10
0.0
 20
0.0
 30
0.0
  3
*D0
  1

  0
LINE
  5
91
330
7F
100
AcDbEntity
  8
0
  6
BYBLOCK
 62
     0
100
AcDbLine
 10
-73.29213115531247
 20
87.48459930105687
 30
0.0
 11
-73.29213115531247
 21
92.31611638240579
 31
0.0
  0
LINE
  5
92
330
7F
100
AcDbEntity
  8
0
  6
BYBLOCK
 62
     0
100
AcDbLine
 10
-61.29213115531247
 20
87.48459930105687
 30
0.0
 11
-61.29213115531247
 21
92.31611638240579
 31
0.0
  0
LINE
  5
93
330
7F
100
AcDbEntity
  8
0
  6
BYBLOCK
 62
     0
100
AcDbLine
 10
-73.29213115531247
 20
92.1361163824058
 30
0.0
 11
-67.5004644886458
 21
92.1361163824058
 31
0.0
  0
LINE
  5
94
330
7F
100
AcDbEntity
  8
0
  6
BYBLOCK
 62
     0
100
AcDbLine
 10
-61.29213115531247
 20
92.1361163824058
 30
0.0
 11
-67.08379782197915
 21
92.1361163824058
 31
0.0
  0
LINE
  5
95
330
7F
100
AcDbEntity
  8
0
  6
BYBLOCK
 62
     0
100
AcDbLine
 10
-73.41713115531248
 20
92.01111638240581
 30
0.0
 11
-73.16713115531247
 21
92.26111638240579
 31
0.0
  0
LINE
  5
96
330
7F
100
AcDbEntity
  8
0
  6
BYBLOCK
 62
     0
100
AcDbLine
 10
-61.41713115531247
 20
92.01111638240581
 30
0.0
 11
-61.16713115531247
 21
92.26111638240579
 31
0.0
  0
TEXT
  5
97
330
7F
100
AcDbEntity
  8
0
  6
BYBLOCK
 62
     0
100
AcDbText
 10
-67.37546448864581
 20
92.0736163824058
 30
0.0
 40
0.125
  1
12
 72
     1
 11
-67.29213115531248
 21
92.1361163824058
 31
0.0
100
AcDbText
 73
     2
  0
POINT
  5
98
330
7F
100
AcDbEntity
  8
DEFPOINTS
  6
BYBLOCK
 62
     0
100
AcDbPoint
 10
-73.29213115531247
 20
87.42209930105687
 30
0.0
  0
POINT
  5
99
330
7F
100
AcDbEntity
  8
DEFPOINTS
  6
BYBLOCK
 62
     0
100
AcDbPoint
 10
-61.29213115531247
 20
87.42209930105687
 30
0.0
  0
POINT
  5
9A
330
7F
100
AcDbEntity
  8
DEFPOINTS
  6
BYBLOCK
 62
     0
100
AcDbPoint
 10
-61.29213115531247
 20
92.1361163824058
 30
0.0
  0
ENDBLK
  5
9B
330
7F
100
AcDbEntity
  8
0
100
AcDbBlockEnd
  0
BLOCK
  5
9C
330
81
100
AcDbEntity
  8
0
100
AcDbBlockBegin
  2
*D1
 70
     1
 10
0.0
 20
0.0
 30
0.0
  3
*D1
  1

  0
LINE
  5
9D
330
81
100
AcDbEntity
  8
0
  6
BYBLOCK
 62
     0
100
AcDbLine
 10
-67.19731856309334
 20
66.79396728365251
 30
0.0
 11
-60.60501883056208
 21
66.79396728365251
 31
0.0
  0
LINE
  5
9E
330
81
100
AcDbEntity
  8
0
  6
BYBLOCK
 62
     0
100
AcDbLine
 10
-66.63364631232908
 20
91.6689672836525
 30
0.0
 11
-60.60501883056208
 21
91.6689672836525
 31
0.0
  0
LINE
  5
9F
330
81
100
AcDbEntity
  8
0
  6
BYBLOCK
 62
     0
100
AcDbLine
 10
-60.78501883056208
 20
66.79396728365251
 30
0.0
 11
-60.78501883056208
 21
78.75230061698584
 31
0.0
  0
LINE
  5
A0
330
81
100
AcDbEntity
  8
0
  6
BYBLOCK
 62
     0
100
AcDbLine
 10
-60.78501883056208
 20
91.6689672836525
 30
0.0
 11
-60.78501883056208
 21
79.71063395031918
 31
0.0
  0
LINE
  5
A1
330
81
100
AcDbEntity
  8
0
  6
BYBLOCK
 62
     0
100
AcDbLine
 10
-60.66001883056208
 20
66.66896728365251
 30
0.0
 11
-60.91001883056208
 21
66.9189672836525
 31
0.0
  0
LINE
  5
A2
330
81
100
AcDbEntity
  8
0
  6
BYBLOCK
 62
     0
100
AcDbLine
 10
-60.66001883056208
 20
91.5439672836525
 30
0.0
 11
-60.91001883056208
 21
91.79396728365251
 31
0.0
  0
TEXT
  5
A3
330
81
100
AcDbEntity
  8
0
  6
BYBLOCK
 62
     0
100
AcDbText
 10
-60.72251883056208
 20
78.87730061698583
 30
0.0
 40
0.125
  1
24 7/8
 50
90.0
 72
     1
 11
-60.78501883056208
 21
79.2314672836525
 31
0.0
100
AcDbText
 73
     2
  0
POINT
  5
A4
330
81
100
AcDbEntity
  8
DEFPOINTS
  6
BYBLOCK
 62
     0
100
AcDbPoint
 10
-67.25981856309335
 20
66.79396728365251
 30
0.0
  0
POINT
  5
A5
330
81
100
AcDbEntity
  8
DEFPOINTS
  6
BYBLOCK
 62
     0
100
AcDbPoint
 10
-66.69614631232907
 20
91.6689672836525
 30
0.0
  0
POINT
  5
A6
330
81
100
AcDbEntity
  8
DEFPOINTS
  6
BYBLOCK
 62
     0
100
AcDbPoint
 10
-60.78501883056208
 20
91.6689672836525
 30
0.0
  0
ENDBLK
  5
A7
330
81
100
AcDbEntity
  8
0
100
AcDbBlockEnd
  0
ENDSEC
  0
SECTION
  2
ENTITIES
  0
DIMENSION
  5
A8
330
18
100
AcDbEntity
  8
ADPDIM
100
AcDbDimension
  2
*D1
 10
-60.78501883056208
 20
91.6689672836525
 30
0.0
 11
-60.78501883056208
 21
79.2314672836525
 31
0.0
100
AcDbAlignedDimension
 13
-67.25981856309335
 23
66.79396728365251
 33
0.0
 14
-66.69614631232907
 24
91.6689672836525
 34
0.0
 50
90.0
100
AcDbRotatedDimension
  0
LWPOLYLINE
  5
A9
330
18
100
AcDbEntity
  8
0
100
AcDbPolyline
 90
        4
 70
     0
 43
0.0
 10
-64.44883230837878
 20
81.15705116125544
 42
-0.4386616572227197
 10
-63.93998699818883
 20
81.69348487841933
 42
-0.2680472151709933
 10
-63.50248939243058
 20
81.54408587120494
 42
0.1426097336194742
 10
-63.30555854607403
 20
81.41798665405202
 42
1.747376998033036
  0
LWPOLYLINE
  5
AF
330
18
100
AcDbEntity
  8
0
100
AcDbPolyline
 90
        4
 70
     0
 43
0.0
 10
-64.45757548291841
 20
81.63051799325959
 42
-0.1234955338610771
 10
-64.06297149771717
 20
82.02127029261744
 42
-0.2275838564000189
 10
-63.6543511826336
 20
82.05699346277171
 42
-0.0477760632517066
 10
-63.295391250318
 20
81.8810111342033
 42
-3.535424919692508
  0
LWPOLYLINE
  5
B5
330
18
100
AcDbEntity
  8
0
100
AcDbPolyline
 90
       23
 70
     0
 43
0.0
 10
-62.53566351020007
 20
73.23840808718121
 42
-0.5626318667750054
 10
-62.86293668060884
 20
73.73287730523969
 42
-0.8396903867967683
 10
-61.33620328846075
 20
73.12877046773936
 42
-0.3970405683004551
 10
-62.7895019571186
 20
72.2625134674349
 42
-0.0367578153085241
 10
-64.50194669308952
 20
72.77701508447464
 42
0.4224357734272703
 10
-66.70752781419466
 20
71.34089520724036
 42
0.3285602677132561
 10
-65.90451659741612
 20
69.7644957345194
 42
0.4009130281752943
 10
-64.45993637477572
 20
70.20791389796953
 42
0.5407085462172044
 10
-65.00740633499782
 20
71.25700215612361
 42
0.9053365579936544
 10
-65.15873844758937
 20
70.50169882687554
 42
-0.3729529949627228
 10
-65.65774162206861
 20
70.46885073769205
 42
-0.4185741825922814
 10
-65.47757609064189
 20
71.36201439672652
 42
-0.5385826583540254
 10
-64.10046063229214
 20
70.76486810035996
 42
-0.2221272677831773
 10
-64.3387853493183
 20
69.88172543719279
 42
-0.3330312024845154
 10
-65.87950548280898
 20
69.52568425485129
 42
-0.3429966121900774
 10
-67.03838716696498
 20
71.14836480811172
 42
-0.4187048703453561
 10
-64.85511792961808
 20
73.13021245290946
 42
-0.0659060641532293
 10
-64.03585534172181
 20
72.93679655419125
 42
0.0454589583502307
 10
-62.83058878698759
 20
72.59984439943654
 42
0.3352121496599565
 10
-61.93301951984691
 20
72.83273687817485
 42
0.1463266542554671
 10
-61.70101475261692
 20
73.41452615392753
 42
0.5048056032646031
 10
-62.16158658868436
 20
73.78566353092674
 42
0.6124408719738255
 10
-62.53156533227627
 20
73.2261135534098
 42
-1.214436851137847
  0
LWPOLYLINE
  5
CE
330
18
100
AcDbEntity
  8
0
100
AcDbPolyline
 90
        7
 70
     0
 43
0.0
 10
-66.88354688355035
 20
89.13236826810786
 42
0.3680461744644083
 10
-65.15585380538408
 20
87.12157809167598
 42
0.2212804155972157
 10
-62.31550138247659
 20
87.5686706026892
 10
-61.76321063357791
 20
87.27937544850417
 42
0.1379489196877053
 10
-61.9999066688202
 20
86.09589527229273
 10
-61.9999066688202
 20
77.46963976568479
 42
-0.2830221714189147
 10
-67.10202120626512
 20
73.07761333396673
 42
-4.670799530227809
  0
LWPOLYLINE
  5
D7
330
18
100
AcDbEntity
  8
0
100
AcDbPolyline
 90
        7
 70
     0
 43
0.0
 10
-66.35144317925884
 20
89.03974255614613
 42
0.4333928659555163
 10
-65.07016313183139
 20
87.48718058500086
 42
0.2419249864527814
 10
-62.34728891945682
 20
88.00865227412392
 10
-61.22750597087421
 20
87.42209930105687
 42
0.1915308369309544
 10
-61.6249066688202
 20
86.11096094997677
 10
-61.6249066688202
 20
77.41219192361629
 42
-0.2962890810337795
 10
-67.25981856309333
 20
72.6932816213786
 42
0.9999990584252953
  0
LWPOLYLINE
  5
E0
330
18
100
AcDbEntity
  8
0
100
AcDbPolyline
 90
        7
 70
     0
 43
0.0
 10
-67.26473592953071
 20
88.38848345512358
 42
0.2433982849808956
 10
-65.68864795538276
 20
86.51015255128061
 42
0.1228961371878412
 10
-62.920391250318
 20
86.22739306964955
 10
-62.920391250318
 20
77.25987755735324
 42
-0.2062930203245934
 10
-64.07214772625747
 20
75.66430613514133
 42
-0.0714311158683545
 10
-66.31504198223192
 20
74.47267679875551
 42
0.3503536996732395
 10
-67.06876340401598
 20
73.0883416572729
 42
0.9999990973159354
  0
LWPOLYLINE
  5
E9
330
18
100
AcDbEntity
  8
0
100
AcDbPolyline
 90
        7
 70
     0
 43
0.0
 10
-67.04996872687785
 20
87.08700907972277
 42
0.1283136675873375
 10
-65.82440961959344
 20
86.16048165297527
 42
0.1054379407175235
 10
-63.295391250318
 20
85.80994973494545
 10
-63.295391250318
 20
77.30268451871832
 42
-0.2034986207483454
 10
-64.27897872249278
 20
75.97764028383592
 42
-0.072371115655146
 10
-66.45546786471318
 20
74.82069298775553
 42
0.10533518986308
 10
-67.0479578335895
 20
74.39083128799609
 42
0.3074421042922867
  0
DIMENSION
  5
F2
330
18
100
AcDbEntity
  8
ADPDIM
100
AcDbDimension
  2
*D0
 10
-61.29213115531247
 20
92.1361163824058
 30
0.0
 11
-67.29213115531248
 21
92.1361163824058
 31
0.0
100
AcDbAlignedDimension
 13
-73.29213115531247
 23
87.42209930105687
 33
0.0
 14
-61.29213115531247
 24
87.42209930105687
 34
0.0
100
AcDbRotatedDimension
  0
LINE
  5
F3
330
18
100
AcDbEntity
  8
0
100
AcDbLine
 10
-67.0479578335895
 20
77.89441915160023
 30
0.0
 11
-67.0479578335895
 21
74.37821466906267
 31
0.0
  0
LINE
  5
F4
330
18
100
AcDbEntity
  8
0
100
AcDbLine
 10
-67.47167929259717
 20
77.89441915160023
 30
0.0
 11
-67.47167929259717
 21
74.37821466906267
 31
0.0
  0
LWPOLYLINE
  5
F5
330
18
100
AcDbEntity
  8
0
100
AcDbPolyline
 90
        7
 70
     0
 43
0.0
 10
-67.46966839930883
 20
87.08700907972277
 42
-0.1283136675873375
 10
-68.69522750659324
 20
86.16048165297527
 42
-0.1054379407175235
 10
-71.22424587586869
 20
85.80994973494545
 10
-71.22424587586869
 20
77.30268451871832
 42
0.2034986207483454
 10
-70.24065840369392
 20
75.97764028383592
 42
0.072371115655146
 10
-68.06416926147349
 20
74.82069298775553
 42
-0.10533518986308
 10
-67.47167929259717
 20
74.39083128799609
 42
-0.3074421042922867
  0
LWPOLYLINE
  5
FE
330
18
100
AcDbEntity
  8
0
100
AcDbPolyline
 90
        7
 70
     0
 43
0.0
 10
-67.25490119665597
 20
88.38848345512358
 42
-0.2433982849808956
 10
-68.83098917080392
 20
86.51015255128061
 42
-0.1228961371878412
 10
-71.59924587586869
 20
86.22739306964955
 10
-71.59924587586869
 20
77.25987755735324
 42
0.2062930203245934
 10
-70.44748939992921
 20
75.66430613514133
 42
0.0714311158683545
 10
-68.20459514395477
 20
74.47267679875551
 42
-0.3503536996732395
 10
-67.4508737221707
 20
73.0883416572729
 42
-0.9999990973159354
  0
LWPOLYLINE
  5
107
330
18
100
AcDbEntity
  8
0
100
AcDbPolyline
 90
        7
 70
     0
 43
0.0
 10
-68.16819394692785
 20
89.03974255614613
 42
-0.4333928659555163
 10
-69.44947399435529
 20
87.48718058500086
 42
-0.2419249864527814
 10
-72.17234820672988
 20
88.00865227412392
 10
-73.29213115531247
 20
87.42209930105687
 42
-0.1915308369309544
 10
-72.89473045736648
 20
86.11096094997677
 10
-72.89473045736648
 20
77.41219192361629
 42
0.2962890810337795
 10
-67.25981856309335
 20
72.6932816213786
 42
-0.9999990584252953
  0
LWPOLYLINE
  5
110
330
18
100
AcDbEntity
  8
0
100
AcDbPolyline
 90
        7
 70
     0
 43
0.0
 10
-67.63609024263633
 20
89.13236826810786
 42
-0.3680461744644083
 10
-69.36378332080261
 20
87.12157809167598
 42
-0.2212804155972157
 10
-72.20413574371008
 20
87.5686706026892
 10
-72.75642649260877
 20
87.27937544850417
 42
-0.1379489196877053
 10
-72.51973045736647
 20
86.09589527229273
 10
-72.51973045736647
 20
77.46963976568479
 42
0.2830221714189147
 10
-67.41761591992156
 20
73.07761333396673
 42
4.670799530227809
  0
LWPOLYLINE
  5
119
330
18
100
AcDbEntity
  8
0
100
AcDbPolyline
 90
       23
 70
     0
 43
0.0
 10
-71.98397361598662
 20
73.23840808718121
 42
0.5626318667750054
 10
-71.65670044557785
 20
73.73287730523969
 42
0.8396903867967683
 10
-73.18343383772594
 20
73.12877046773936
 42
0.3970405683004551
 10
-71.73013516906809
 20
72.2625134674349
 42
0.0367578153085241
 10
-70.01769043309716
 20
72.77701508447464
 42
-0.4224357734272703
 10
-67.81210931199203
 20
71.34089520724036
 42
-0.3285602677132561
 10
-68.61512052877057
 20
69.7644957345194
 42
-0.4009130281752943
 10
-70.05970075141096
 20
70.20791389796953
 42
-0.5407085462172044
 10
-69.51223079118887
 20
71.25700215612361
 42
-0.9053365579936544
 10
-69.36089867859732
 20
70.50169882687554
 42
0.3729529949627228
 10
-68.86189550411808
 20
70.46885073769205
 42
0.4185741825922814
 10
-69.04206103554479
 20
71.36201439672652
 42
0.5385826583540254
 10
-70.41917649389455
 20
70.76486810035996
 42
0.2221272677831773
 10
-70.18085177686838
 20
69.88172543719279
 42
0.3330312024845154
 10
-68.64013164337771
 20
69.52568425485129
 42
0.3429966121900774
 10
-67.4812499592217
 20
71.14836480811172
 42
0.4187048703453561
 10
-69.66451919656861
 20
73.13021245290946
 42
0.0659060641532293
 10
-70.48378178446487
 20
72.93679655419125
 42
-0.0454589583502307
 10
-71.6890483391991
 20
72.59984439943654
 42
-0.3352121496599565
 10
-72.58661760633978
 20
72.83273687817485
 42
-0.1463266542554671
 10
-72.81862237356978
 20
73.41452615392753
 42
-0.5048056032646031
 10
-72.35805053750232
 20
73.78566353092674
 42
-0.6124408719738255
 10
-71.98807179391042
 20
73.2261135534098
 42
1.214436851137847
  0
LWPOLYLINE
  5
132
330
18
100
AcDbEntity
  8
0
100
AcDbPolyline
 90
        2
 70
     0
 43
0.0
 10
-66.27532571557037
 20
67.06414783637114
 10
-66.39193310053826
 20
67.63360452339404
  0
LWPOLYLINE
  5
136
330
18
100
AcDbEntity
  8
0
100
AcDbPolyline
 90
        2
 70
     0
 43
0.0
 10
-68.24431141061632
 20
67.06414783637114
 10
-68.12770402564843
 20
67.63360452339404
  0
LWPOLYLINE
  5
13A
330
18
100
AcDbEntity
  8
0
100
AcDbPolyline
 90
        2
 70
     0
 43
0.0
 10
-67.36527399522926
 20
67.47439259818837
 10
-67.46690925701874
 20
66.91539865834625
  0
LWPOLYLINE
  5
13E
330
18
100
AcDbEntity
  8
0
100
AcDbPolyline
 90
        4
 70
     0
 43
0.0
 10
-68.48841323621752
 20
67.7060296861314
 42
0.3222941178521212
 10
-67.95676774505142
 20
66.87418031773287
 42
0.1525370781202612
 10
-67.78580975252066
 20
67.52840628550858
 42
0.4241778403204969
 10
-67.25981856309335
 20
66.79396728365251
 42
1.121873338370346
  0
LWPOLYLINE
  5
144
330
18
100
AcDbEntity
  8
0
100
AcDbPolyline
 90
        4
 70
     0
 43
0.0
 10
-66.03122388996917
 20
67.7060296861314
 42
-0.3222941178521212
 10
-66.56286938113526
 20
66.87418031773287
 42
-0.1525370781202612
 10
-66.73382737366601
 20
67.52840628550858
 42
-0.4241778403204969
 10
-67.25981856309333
 20
66.79396728365251
 42
-1.121873338370346
  0
LWPOLYLINE
  5
14A
330
18
100
AcDbEntity
  8
0
100
AcDbPolyline
 90
        2
 70
     0
 43
0.0
 10
-67.15436313095742
 20
67.47439259818837
 10
-67.05272786916793
 20
66.91539865834625
  0
LWPOLYLINE
  5
14E
330
18
100
AcDbEntity
  8
0
100
AcDbPolyline
 90
        2
 70
     0
 43
0.0
 10
-69.06584753654263
 20
68.14993433884822
 42
0.1605453613206076
 10
-67.8802616423948
 20
69.04897387139908
 42
-0.8689784511515098
  0
LWPOLYLINE
  5
152
330
18
100
AcDbEntity
  8
0
100
AcDbPolyline
 90
        4
 70
     0
 43
0.0
 10
-69.7682064240376
 20
68.29506539464398
 42
-0.5127353044776575
 10
-69.90272797277512
 20
69.46162022384442
 42
0.5072725424579544
 10
-69.21264741854324
 20
68.91165530272745
 42
0.1123788267961605
 10
-67.98344982776495
 20
69.41463868968518
 42
0.890417563220182
  0
LWPOLYLINE
  5
158
330
18
100
AcDbEntity
  8
0
100
AcDbPolyline
 90
        7
 70
     0
 43
0.0
 10
-70.00618546443738
 20
69.65867060268919
 42
0.4248805638004817
 10
-70.30588174477856
 20
69.44167442692151
 42
0.4452900179983914
 10
-69.77291691756443
 20
68.29694959205472
 42
0.0408845002465308
 10
-69.07698788133413
 20
68.14462941275704
 42
0.0041249373214867
 10
-68.97241239798493
 20
67.5177190723013
 42
0.2326924732686892
 10
-68.07156367369083
 20
68.16027248103719
 42
0.2337344935836331
 10
-68.04874607481463
 20
68.81675870129716
 42
0.7810586480211514
  0
LINE
  5
161
330
18
100
AcDbEntity
  8
0
100
AcDbLine
 10
-69.32066116299457
 20
73.12049537836583
 30
0.0
 11
-69.32066116299457
 21
73.27263889446554
 31
0.0
  0
LWPOLYLINE
  5
162
330
18
100
AcDbEntity
  8
0
100
AcDbPolyline
 90
        2
 70
     0
 43
0.0
 10
-67.47021503886426
 20
70.21096135158789
 42
0.1159234353252198
 10
-67.36466512366918
 20
71.91603675085623
 42
0.9145889644086853
  0
LWPOLYLINE
  5
166
330
18
100
AcDbEntity
  8
0
100
AcDbPolyline
 90
        2
 70
     0
 43
0.0
 10
-67.04942208732241
 20
70.21096135158789
 42
-0.1159234353252198
 10
-67.1549720025175
 20
71.91603675085623
 42
-0.9145889644086853
  0
LWPOLYLINE
  5
16A
330
18
100
AcDbEntity
  8
0
100
AcDbPolyline
 90
        7
 70
     0
 43
0.0
 10
-64.51345166174931
 20
69.65867060268919
 42
-0.4248805638004817
 10
-64.21375538140812
 20
69.44167442692151
 42
-0.4452900179983914
 10
-64.74672020862225
 20
68.29694959205472
 42
-0.0408845002465308
 10
-65.44264924485256
 20
68.14462941275704
 42
-0.0041249373214867
 10
-65.54722472820175
 20
67.5177190723013
 42
-0.2326924732686892
 10
-66.44807345249586
 20
68.16027248103719
 42
-0.2337344935836331
 10
-66.47089105137206
 20
68.81675870129716
 42
-0.7810586480211514
  0
LWPOLYLINE
  5
173
330
18
100
AcDbEntity
  8
0
100
AcDbPolyline
 90
        4
 70
     0
 43
0.0
 10
-64.75143070214908
 20
68.29506539464398
 42
0.5127353044776575
 10
-64.61690915341155
 20
69.46162022384442
 42
-0.5072725424579544
 10
-65.30698970764345
 20
68.91165530272745
 42
-0.1123788267961605
 10
-66.53618729842174
 20
69.41463868968518
 42
-0.890417563220182
  0
LWPOLYLINE
  5
179
330
18
100
AcDbEntity
  8
0
100
AcDbPolyline
 90
        2
 70
     0
 43
0.0
 10
-65.45378958964406
 20
68.14993433884822
 42
-0.1605453613206076
 10
-66.63937548379189
 20
69.04897387139908
 42
0.8689784511515098
  0
LWPOLYLINE
  5
17D
330
18
100
AcDbEntity
  8
0
100
AcDbPolyline
 90
        3
 70
     0
 43
0.0
 10
-66.65492869525192
 20
69.29047677009008
 42
-0.1786887744363704
 10
-67.02638001393444
 20
68.71519188196426
 42
-0.1254544501174218
 10
-67.25981856309333
 20
68.63612270266696
 42
1.333352215532277
  0
LWPOLYLINE
  5
182
330
18
100
AcDbEntity
  8
0
100
AcDbPolyline
 90
        3
 70
     0
 43
0.0
 10
-67.86470843093477
 20
69.29047677009008
 42
0.1786887744363704
 10
-67.49325711225224
 20
68.71519188196426
 42
0.1254544501174218
 10
-67.25981856309335
 20
68.63612270266696
 42
-1.333352215532277
  0
LWPOLYLINE
  5
187
330
18
100
AcDbEntity
  8
0
100
AcDbPolyline
 90
        2
 70
     0
 43
0.0
 10
-66.43740634017269
 20
68.13182684817539
 42
-0.2327111004061212
 10
-67.25981856309333
 20
67.67988992709589
 42
-0.8411358891315282
  0
LWPOLYLINE
  5
18B
330
18
100
AcDbEntity
  8
0
100
AcDbPolyline
 90
        2
 70
     0
 43
0.0
 10
-68.082230786014
 20
68.13182684817539
 42
0.2327111004061212
 10
-67.25981856309335
 20
67.67988992709589
 42
0.8411358891315282
  0
LWPOLYLINE
  5
18F
330
18
100
AcDbEntity
  8
0
100
AcDbPolyline
 90
        4
 70
     0
 43
0.0
 10
-66.26112650865036
 20
69.63167983774889
 42
-0.1131638922264859
 10
-66.72552443989005
 20
69.33299078265594
 42
-0.390249325566355
 10
-67.1308144945878
 20
69.50336697471231
 42
-0.0157713042376417
 10
-67.25981856309333
 20
69.81092286343757
 42
15.19590747593021
  0
LWPOLYLINE
  5
195
330
18
100
AcDbEntity
  8
0
100
AcDbPolyline
 90
        4
 70
     0
 43
0.0
 10
-68.25851061753631
 20
69.63167983774889
 42
0.1131638922264859
 10
-67.79411268629664
 20
69.33299078265594
 42
0.390249325566355
 10
-67.38882263159888
 20
69.50336697471231
 42
0.0157713042376417
 10
-67.25981856309335
 20
69.81092286343757
 42
-15.19590747593021
  0
LWPOLYLINE
  5
19B
330
18
100
AcDbEntity
  8
0
100
AcDbPolyline
 90
        2
 70
     0
 43
0.0
 10
-66.77271333565371
 20
72.17655252309373
 10
-67.19536199114024
 20
72.58034576663732
  0
LWPOLYLINE
  5
19F
330
18
100
AcDbEntity
  8
0
100
AcDbPolyline
 90
        2
 70
     0
 43
0.0
 10
-67.74692379053298
 20
72.17655252309373
 10
-67.32427513504643
 20
72.58034576663732
  0
LINE
  5
1A3
330
18
100
AcDbEntity
  8
0
100
AcDbLine
 10
-65.00797748109537
 20
73.12049537836583
 30
0.0
 11
-65.00797748109537
 21
73.32335345378263
 31
0.0
  0
ARC
  5
1A4
330
18
100
AcDbEntity
  8
0
100
AcDbCircle
 10
-67.20924813018445
 20
89.11943064151484
 30
0.0
 40
0.3981043297103871
100
AcDbArc
 50
97.29789058625412
 51
262.7021094137459
  0
ARC
  5
1A5
330
18
100
AcDbEntity
  8
0
100
AcDbCircle
 10
-67.31038899600223
 20
89.11943064151484
 30
0.0
 40
0.3981043297103871
100
AcDbArc
 50
277.297890586254
 51
82.70210941374589
  0
LWPOLYLINE
  5
1A6
330
18
100
AcDbEntity
  8
0
100
AcDbPolyline
 90
        8
 70
     0
 43
0.0
 10
-66.35144317925884
 20
89.03974255614613
 42
-0.4766575766168427
 10
-65.70831661341511
 20
89.54113756304161
 42
-0.7428443513120677
 10
-65.5711360641952
 20
89.01955492779888
 42
0.5982531395444913
 10
-65.97422354136809
 20
89.32804311894548
 42
0.4869702215140487
 10
-66.12798691397793
 20
88.69812577218791
 42
0.5369570310816139
 10
-65.11104905303371
 20
88.7813667980663
 42
0.3692703260752477
 10
-65.32330725716334
 20
89.8078883057918
 42
0.590982400203661
 10
-66.88342757278253
 20
89.13332275425052
 42
0.9712288139726174
  0
LWPOLYLINE
  5
1B0
330
18
100
AcDbEntity
  8
0
100
AcDbPolyline
 90
        8
 70
     0
 43
0.0
 10
-68.16819394692785
 20
89.03974255614613
 42
0.4766575766168427
 10
-68.81132051277157
 20
89.54113756304161
 42
0.7428443513120677
 10
-68.94850106199149
 20
89.01955492779888
 42
-0.5982531395444913
 10
-68.54541358481859
 20
89.32804311894548
 42
-0.4869702215140487
 10
-68.39165021220876
 20
88.69812577218791
 42
-0.5369570310816139
 10
-69.40858807315297
 20
88.7813667980663
 42
-0.3692703260752477
 10
-69.19632986902334
 20
89.8078883057918
 42
-0.590982400203661
 10
-67.63620955340416
 20
89.13332275425052
 42
-0.9712288139726174
  0
LWPOLYLINE
  5
1BA
330
18
100
AcDbEntity
  8
0
100
AcDbPolyline
 90
        2
 70
     0
 43
0.0
 10
-67.31549777827408
 20
81.73270484195549
 42
-0.8122650239504649
 10
-68.22134961777496
 20
81.30692996366816
 42
-1.000000913503764
  0
LWPOLYLINE
  5
1BE
330
18
100
AcDbEntity
  8
0
100
AcDbPolyline
 90
        5
 70
     0
 43
0.0
 10
-67.04996872687785
 20
84.641529182612
 42
0.2318606921258209
 10
-66.74292567071552
 20
84.33402385404665
 42
0.0284109783631256
 10
-65.74412837788369
 20
83.83215829334899
 42
-0.2436047859923253
 10
-64.59970455708258
 20
82.42868100756444
 42
-0.0777170708715495
 10
-64.44759782456057
 20
81.63038629290774
 42
-0.0740601107136829
  0
LWPOLYLINE
  5
1C5
330
18
100
AcDbEntity
  8
0
100
AcDbPolyline
 90
        3
 70
     0
 43
0.0
 10
-66.96294190976178
 20
82.74575543280473
 42
0.344301582212034
 10
-67.74150280948887
 20
81.70334107669919
 42
-0.2187841990674412
 10
-67.93247054817062
 20
81.26288428444247
 42
-2.239621859187632
  0
LWPOLYLINE
  5
1CA
330
18
100
AcDbEntity
  8
0
100
AcDbPolyline
 90
        7
 70
     0
 43
0.0
 10
-67.28611812256471
 20
84.22862654982576
 42
0.1608441320760273
 10
-66.69852500837754
 20
83.81753358550778
 42
-0.109978608806416
 10
-65.36175065017264
 20
83.06875707001259
 42
-0.2584739189329084
 10
-64.78884738726922
 20
81.424385118717
 42
-0.1461133989923775
 10
-65.48152705169939
 20
79.82156965417342
 42
-0.0241262115552548
 10
-66.25783017273715
 20
79.26614693068275
 42
0.1133523410423004
 10
-67.25981856309335
 20
78.67981472087383
 42
0.9999995308584168
  0
LWPOLYLINE
  5
1D3
330
18
100
AcDbEntity
  8
0
100
AcDbPolyline
 90
        4
 70
     0
 43
0.0
 10
-70.07080481780789
 20
81.77180100312524
 42
-0.4386616572227197
 10
-70.57965012799787
 20
81.23536728596134
 42
-0.2680472151709933
 10
-71.0171477337561
 20
81.38476629317574
 42
0.1426097336194742
 10
-71.21407858011264
 20
81.51086551032864
 42
1.747376998033036
  0
CIRCLE
  5
1D9
330
18
100
AcDbEntity
  8
0
100
AcDbCircle
 10
-72.05943341994808
 20
81.31981750375095
 30
0.0
 40
0.4603002321569534
  0
LWPOLYLINE
  5
1DA
330
18
100
AcDbEntity
  8
0
100
AcDbPolyline
 90
       22
 70
     0
 43
0.0
 10
-69.5175510276477
 20
80.80243044857864
 42
0.311558486392282
 10
-67.79665350643691
 20
79.54958785948399
 42
0.2343606986439676
 10
-66.10590492248871
 20
80.11769508187654
 42
0.3195694971076516
 10
-65.62603221692383
 20
82.01379203011683
 42
0.4451698412495335
 10
-67.33005224806664
 20
82.76256854561204
 42
1.190008229532929
 10
-68.31427073775924
 20
82.61574962530687
 42
0.2731826579417518
 10
-67.8588860508351
 20
82.21933851227582
 42
0.468323448619064
 10
-68.0645436408006
 20
81.79356363398849
 42
-0.1638322021235149
 10
-67.99109452495631
 20
81.3090611938473
 42
-0.358615776954789
 10
-68.24082157505677
 20
81.3090611938473
 42
0.2782067815914655
 10
-68.02047418066566
 20
80.86860443293181
 42
0.1663284967004531
 10
-67.37412175505977
 20
81.05946903246264
 42
0.4021538442694583
 10
-67.24191328093856
 20
81.7495179547628
 42
0.5089658964759822
 10
-66.56618119962331
 20
81.66142659631146
 42
0.4916680198652798
 10
-66.63963036232579
 20
82.13124715382448
 42
0.6851826522872426
 10
-66.91873706813561
 20
81.89633687506796
 42
0.4947971817711199
 10
-66.74245913387946
 20
81.83760931321415
 42
-0.8687086225505826
 10
-67.02156588654744
 20
81.86697310981166
 42
-0.6976627863340511
 10
-66.7130794781701
 20
82.35147554995284
 42
-0.3923770063847648
 10
-65.94920842972678
 20
81.47056199678063
 42
-0.5363821165355129
 10
-68.35439753446564
 20
80.08475214218183
 42
-0.5140518071023262
 10
-69.03407227920945
 20
83.08557018281987
 42
2.492362085347279
  0
LWPOLYLINE
  5
1F2
330
18
100
AcDbEntity
  8
0
100
AcDbPolyline
 90
        4
 70
     0
 43
0.0
 10
-69.52158067763079
 20
80.80968381854821
 42
0.1573921015513112
 10
-68.68649344766033
 20
79.7576372571634
 42
0.0575526010415328
 10
-68.02367202883934
 20
79.26602794580415
 42
-0.0885127514854489
 10
-67.25981856309335
 20
78.69171436927529
  0
LWPOLYLINE
  5
1F8
330
18
100
AcDbEntity
  8
0
100
AcDbPolyline
 90
        4
 70
     0
 43
0.0
 10
-70.06148939057357
 20
81.29228977029896
 42
0.1962871950766624
 10
-69.13771123718662
 20
79.53162935607763
 42
0.0740601107136829
 10
-68.0074747238109
 20
78.73076443083276
 42
-0.2037601562685326
 10
-67.47576596303312
 20
77.83235000444573
 42
1.137214174397955
  0
LWPOLYLINE
  5
1FE
330
18
100
AcDbEntity
  8
0
100
AcDbPolyline
 90
        4
 70
     0
 43
0.0
 10
-70.06206164326826
 20
81.29833417112109
 42
-0.1234955338610771
 10
-70.45666562846952
 20
80.90758187176323
 42
-0.2275838564000189
 10
-70.86528594355309
 20
80.87185870160897
 42
-0.0477760632517066
 10
-71.22424587586869
 20
81.04784103017738
 42
-3.535424919692508
  0
LWPOLYLINE
  5
204
330
18
100
AcDbEntity
  8
0
100
AcDbPolyline
 90
        4
 70
     0
 43
0.0
 10
-64.46985971332686
 20
81.19086081351632
 42
-0.1862256444462148
 10
-65.38192588900006
 20
79.53162935607763
 42
-0.0740601107136829
 10
-66.51216240237578
 20
78.73076443083276
 42
0.2037601562685326
 10
-67.04387116315356
 20
77.83235000444573
 42
-1.137214174397955
  0
ARC
  5
20A
330
18
100
AcDbEntity
  8
0
100
AcDbCircle
 10
-68.0148789056826
 20
88.76856261071685
 30
0.0
 40
1.199975401565095
100
AcDbArc
 50
254.5490306244461
 51
294.0254202814666
  0
LWPOLYLINE
  5
20B
330
18
100
AcDbEntity
  8
0
100
AcDbPolyline
 90
        3
 70
     0
 43
0.0
 10
-67.28611812256471
 20
84.22862654982576
 42
-0.1501005356127434
 10
-67.99122985958934
 20
83.74412410968458
 42
0.0701391476140576
 10
-69.01343265058312
 20
83.10620188964875
  0
LWPOLYLINE
  5
210
330
18
100
AcDbEntity
  8
0
100
AcDbPolyline
 90
        5
 70
     0
 43
0.0
 10
-67.46966839930883
 20
84.641529182612
 42
-0.2318606921258209
 10
-67.77671145547116
 20
84.33402385404665
 42
-0.0284109783631256
 10
-68.775508748303
 20
83.83215829334899
 42
0.2436047859923253
 10
-69.91993256910411
 20
82.42868100756444
 42
0.0663913133322087
 10
-70.06544191935507
 20
81.74872015674658
 42
0.0740601107136829
  0
LINE
  5
217
330
18
100
AcDbEntity
  8
0
100
AcDbLine
 10
-67.04996872687785
 20
87.08700907972277
 30
0.0
 11
-67.04996872687785
 21
84.63944582968059
 31
0.0
  0
LINE
  5
218
330
18
100
AcDbEntity
  8
0
100
AcDbLine
 10
-67.46966839930883
 20
87.08700907972277
 30
0.0
 11
-67.46966839930883
 21
84.63944582968059
 31
0.0
  0
LWPOLYLINE
  5
219
330
18
100
AcDbEntity
  8
0
100
AcDbPolyline
 90
        4
 70
     0
 43
0.0
 10
-65.84651499280614
 20
82.12911595498653
 42
0.1064057518553959
 10
-66.49286741841203
 20
82.64298219172522
 42
0.3496106616281133
 10
-67.3595672852672
 20
82.18784351684035
 42
0.280641078309437
 10
-67.30080797384849
 20
81.74738675592486
 42
-0.7129059213752891
  0
LWPOLYLINE
  5
21F
330
18
100
AcDbEntity
  8
0
100
AcDbPolyline
 90
        4
 70
     0
 43
0.0
 10
-66.97763176104555
 20
82.78980111203038
 42
0.1301830219366626
 10
-67.55053502394895
 20
82.65766407435338
 42
-0.5492300785686448
 10
-68.06467902229181
 20
82.95130191496372
 42
-0.3716651903113509
 10
-67.80026212090759
 20
83.28898543479972
 42
-3.388524482343213
  0
ARC
  5
225
330
18
100
AcDbEntity
  8
0
100
AcDbCircle
 10
-66.50475822050407
 20
88.76856261071685
 30
0.0
 40
1.199975401565095
100
AcDbArc
 50
245.9745797185333
 51
285.4509693755538
  0
LWPOLYLINE
  5
226
330
18
100
AcDbEntity
  8
0
100
AcDbPolyline
 90
        3
 70
     0
 43
0.0
 10
-67.25981856309335
 20
91.65695529888164
 42
0.2208442388652363
 10
-67.76879372152141
 20
91.45519194652367
 42
0.2248709955580667
 10
-68.1325062103869
 20
89.95482017349729
 42
4.960934113694083
  0
LWPOLYLINE
  5
22B
330
18
100
AcDbEntity
  8
0
100
AcDbPolyline
 90
        6
 70
     0
 43
0.0
 10
-68.15271265131407
 20
90.43955080580545
 42
0.6644936565668745
 10
-68.88013762904503
 20
90.35876225932339
 42
0.1102563538919725
 10
-68.69828154133156
 20
90.96467549582655
 42
0.602394154810731
 10
-68.85993150155639
 20
91.06566096340106
 42
0.4572745231010945
 10
-69.00137533429256
 20
90.31836820161045
 42
0.1943049519977254
 10
-68.71848766882021
 20
89.99521444673833
 42
0.2383215067638261
  0
LWPOLYLINE
  5
233
330
18
100
AcDbEntity
  8
0
100
AcDbPolyline
 90
        6
 70
     0
 43
0.0
 10
-66.3669244748726
 20
90.43955080580545
 42
-0.6644936565668745
 10
-65.63949949714164
 20
90.35876225932339
 42
-0.1102563538919725
 10
-65.82135558485513
 20
90.96467549582655
 42
-0.602394154810731
 10
-65.6597056246303
 20
91.06566096340106
 42
-0.4572745231010945
 10
-65.51826179189413
 20
90.31836820161045
 42
-0.1943049519977254
 10
-65.80114945736646
 20
89.99521444673833
 42
-0.2383215067638261
  0
LWPOLYLINE
  5
23B
330
18
100
AcDbEntity
  8
0
100
AcDbPolyline
 90
        3
 70
     0
 43
0.0
 10
-67.25981856309333
 20
91.65695529888164
 42
-0.2208442388652363
 10
-66.75084340466527
 20
91.45519194652367
 42
-0.2248709955580666
 10
-66.38713091579979
 20
89.95482017349729
 42
-4.960934113694081
  0
CIRCLE
  5
240
330
18
100
AcDbEntity
  8
0
100
AcDbCircle
 10
-62.46020370623861
 20
81.31981750375095
 30
0.0
 40
0.4603002321569534
  0
TEXT
  5
24E
330
18
100
AcDbEntity
  8
ADPDIM
100
AcDbText
 10
-92.941243269607
 20
65.06432055898041
 30
0.0
 40
0.5
  1
J U L I U S  B L U M  &  C O . ,  I N C .      ( 8 0 0 )  5 2 6 - 6 2 9 3        W W W . J U L I U S B L U M . C O M        P A R T  N o .  5 2 1
 41
1.25
  7
ARIAL_WIDE
 72
     1
 11
-67.20241311953879
 21
65.56432055898041
 31
0.0
100
AcDbText
 73
     3
  0
ENDSEC
  0
SECTION
  2
OBJECTS
  0
DICTIONARY
  5
C
330
0
100
AcDbDictionary
  3
ACAD_GROUP
350
D
  3
ACAD_LAYOUT
350
247
  3
ACAD_MLINESTYLE
350
E
  3
ACAD_PLOTSETTINGS
350
248
  3
ACAD_PLOTSTYLENAME
350
245
  3
ACDBHEADERROUNDTRIPXREC
350
396
  3
ACDBVARIABLEDICTIONARY
350
2A8
  0
DICTIONARY
  5
2A2
330
18
100
AcDbDictionary
280
     1
  3
ACAD_LAYOUTSELFREF
360
3B7
  0
DICTIONARY
  5
2A0
330
15
100
AcDbDictionary
280
     1
  3
ACAD_LAYOUTSELFREF
360
3B6
  0
DICTIONARY
  5
D
102
{ACAD_REACTORS
330
C
102
}
330
C
100
AcDbDictionary
  0
DICTIONARY
  5
247
102
{ACAD_REACTORS
330
C
102
}
330
C
100
AcDbDictionary
  0
DICTIONARY
  5
E
102
{ACAD_REACTORS
330
C
102
}
330
C
100
AcDbDictionary
  3
STANDARD
350
1B
  0
DICTIONARY
  5
248
102
{ACAD_REACTORS
330
C
102
}
330
C
100
AcDbDictionary
  0
ACDBDICTIONARYWDFLT
  5
245
102
{ACAD_REACTORS
330
C
102
}
330
C
100
AcDbDictionary
281
     1
  3
Normal
350
246
100
AcDbDictionaryWithDefault
340
246
  0
DICTIONARY
  5
396
102
{ACAD_REACTORS
330
C
102
}
330
C
100
AcDbDictionary
  3
CEPSNTYPE
350
3A0
  3
FINGERPRINTGUID
350
3A1
  3
HYPERLINKBASE
350
399
  3
INSUNITS
350
39F
  3
LAYOUTDICT
350
39B
  3
LWETCUNION
350
39E
  3
PLOTSETDICT
350
39C
  3
PLOTSTYLNAMDICT
350
39D
  3
PSVPSCALE
350
3A3
  3
PUCSBASE
350
3A6
  3
PUCSORGBACK
350
3AC
  3
PUCSORGBOTTOM
350
3A8
  3
PUCSORGFRONT
350
3AB
  3
PUCSORGLEFT
350
3A9
  3
PUCSORGRIGHT
350
3AA
  3
PUCSORGTOP
350
3A7
  3
PUCSORTHOREF
350
3A4
  3
PUCSORTHOVIEW
350
3A5
  3
STYLESHEET
350
39A
  3
TSTACKALIGN
350
397
  3
TSTACKSIZE
350
398
  3
UCSBASE
350
3AF
  3
UCSORGBACK
350
3B5
  3
UCSORGBOTTOM
350
3B1
  3
UCSORGFRONT
350
3B4
  3
UCSORGLEFT
350
3B2
  3
UCSORGRIGHT
350
3B3
  3
UCSORGTOP
350
3B0
  3
UCSORTHOREF
350
3AD
  3
UCSORTHOVIEW
350
3AE
  3
VERSIONGUID
350
3A2
  0
DICTIONARY
  5
2A8
102
{ACAD_REACTORS
330
C
102
}
330
C
100
AcDbDictionary
  3
DIMASSOC
350
2A9
  0
XRECORD
  5
3B7
102
{ACAD_REACTORS
330
2A2
102
}
330
2A2
100
AcDbXrecord
340
18
  0
XRECORD
  5
3B6
102
{ACAD_REACTORS
330
2A0
102
}
330
2A0
100
AcDbXrecord
340
15
  0
MLINESTYLE
  5
1B
102
{ACAD_REACTORS
330
E
102
}
330
E
100
AcDbMlineStyle
  2
STANDARD
 70
     0
  3

 62
     0
 51
90.0
 52
90.0
 71
     2
 49
0.5
 62
   256
  6
BYLAYER
 49
-0.5
 62
   256
  6
BYLAYER
  0
ACDBPLACEHOLDER
  5
246
102
{ACAD_REACTORS
330
245
102
}
330
245
100
AcDbPlaceHolder
280
     0
  0
XRECORD
  5
3A0
102
{ACAD_REACTORS
330
396
102
}
330
396
100
AcDbXrecord
 90
        0
  0
XRECORD
  5
3A1
102
{ACAD_REACTORS
330
396
102
}
330
396
100
AcDbXrecord
  1
{EA5E7C68-4783-4ACD-A563-B290635988E7}
  0
XRECORD
  5
399
102
{ACAD_REACTORS
330
396
102
}
330
396
100
AcDbXrecord
  1

  0
XRECORD
  5
39F
102
{ACAD_REACTORS
330
396
102
}
330
396
100
AcDbXrecord
 90
        0
  0
XRECORD
  5
39B
102
{ACAD_REACTORS
330
396
102
}
330
396
100
AcDbXrecord
340
247
  0
XRECORD
  5
39E
102
{ACAD_REACTORS
330
396
102
}
330
396
100
AcDbXrecord
 90
    14877
  0
XRECORD
  5
39C
102
{ACAD_REACTORS
330
396
102
}
330
396
100
AcDbXrecord
340
248
  0
XRECORD
  5
39D
102
{ACAD_REACTORS
330
396
102
}
330
396
100
AcDbXrecord
340
245
  0
XRECORD
  5
3A3
102
{ACAD_REACTORS
330
396
102
}
330
396
100
AcDbXrecord
 40
0.0
  0
XRECORD
  5
3A6
102
{ACAD_REACTORS
330
396
102
}
330
396
100
AcDbXrecord
340
0
  0
XRECORD
  5
3AC
102
{ACAD_REACTORS
330
396
102
}
330
396
100
AcDbXrecord
 10
0.0
 20
0.0
 30
0.0
  0
XRECORD
  5
3A8
102
{ACAD_REACTORS
330
396
102
}
330
396
100
AcDbXrecord
 10
0.0
 20
0.0
 30
0.0
  0
XRECORD
  5
3AB
102
{ACAD_REACTORS
330
396
102
}
330
396
100
AcDbXrecord
 10
0.0
 20
0.0
 30
0.0
  0
XRECORD
  5
3A9
102
{ACAD_REACTORS
330
396
102
}
330
396
100
AcDbXrecord
 10
0.0
 20
0.0
 30
0.0
  0
XRECORD
  5
3AA
102
{ACAD_REACTORS
330
396
102
}
330
396
100
AcDbXrecord
 10
0.0
 20
0.0
 30
0.0
  0
XRECORD
  5
3A7
102
{ACAD_REACTORS
330
396
102
}
330
396
100
AcDbXrecord
 10
0.0
 20
0.0
 30
0.0
  0
XRECORD
  5
3A4
102
{ACAD_REACTORS
330
396
102
}
330
396
100
AcDbXrecord
340
0
  0
XRECORD
  5
3A5
102
{ACAD_REACTORS
330
396
102
}
330
396
100
AcDbXrecord
 70
     0
  0
XRECORD
  5
39A
102
{ACAD_REACTORS
330
396
102
}
330
396
100
AcDbXrecord
  1

  0
XRECORD
  5
397
102
{ACAD_REACTORS
330
396
102
}
330
396
100
AcDbXrecord
 90
        1
  0
XRECORD
  5
398
102
{ACAD_REACTORS
330
396
102
}
330
396
100
AcDbXrecord
 90
       70
  0
XRECORD
  5
3AF
102
{ACAD_REACTORS
330
396
102
}
330
396
100
AcDbXrecord
340
0
  0
XRECORD
  5
3B5
102
{ACAD_REACTORS
330
396
102
}
330
396
100
AcDbXrecord
 10
0.0
 20
0.0
 30
0.0
  0
XRECORD
  5
3B1
102
{ACAD_REACTORS
330
396
102
}
330
396
100
AcDbXrecord
 10
0.0
 20
0.0
 30
0.0
  0
XRECORD
  5
3B4
102
{ACAD_REACTORS
330
396
102
}
330
396
100
AcDbXrecord
 10
0.0
 20
0.0
 30
0.0
  0
XRECORD
  5
3B2
102
{ACAD_REACTORS
330
396
102
}
330
396
100
AcDbXrecord
 10
0.0
 20
0.0
 30
0.0
  0
XRECORD
  5
3B3
102
{ACAD_REACTORS
330
396
102
}
330
396
100
AcDbXrecord
 10
0.0
 20
0.0
 30
0.0
  0
XRECORD
  5
3B0
102
{ACAD_REACTORS
330
396
102
}
330
396
100
AcDbXrecord
 10
0.0
 20
0.0
 30
0.0
  0
XRECORD
  5
3AD
102
{ACAD_REACTORS
330
396
102
}
330
396
100
AcDbXrecord
340
0
  0
XRECORD
  5
3AE
102
{ACAD_REACTORS
330
396
102
}
330
396
100
AcDbXrecord
 70
     0
  0
XRECORD
  5
3A2
102
{ACAD_REACTORS
330
396
102
}
330
396
100
AcDbXrecord
  1
{C98AC759-5BF9-4961-8DD2-AF18D74D9675}
  0
DICTIONARYVAR
  5
2A9
102
{ACAD_REACTORS
330
2A8
102
}
330
2A8
100
DictionaryVariables
280
     0
  1
1
  0
ENDSEC
  0
EOF
