  0
SECTION
  2
HEADER
  9
$ACADVER
  1
AC1014
  9
$ACADMAINTVER
 70
     9
  9
$DWGCODEPAGE
  3
ANSI_1252
  9
$INSBASE
 10
-85.70411803861395
 20
66.90484722201282
 30
0.0
  9
$EXTMIN
 10
-108.233366331199
 20
63.79472344737489
 30
0.0
  9
$EXTMAX
 10
-56.75570603106258
 20
91.89414911273228
 30
0.0
  9
$LIMMIN
 10
0.0
 20
0.0
  9
$LIMMAX
 10
36.0
 20
36.0
  9
$ORTHOMODE
 70
     1
  9
$REGENMODE
 70
     1
  9
$FILLMODE
 70
     1
  9
$QTEXTMODE
 70
     0
  9
$MIRRTEXT
 70
     1
  9
$DRAGMODE
 70
     0
  9
$LTSCALE
 40
1.0
  9
$OSMODE
 70
    37
  9
$ATTMODE
 70
     1
  9
$TEXTSIZE
 40
0.2
  9
$TRACEWID
 40
0.05
  9
$TEXTSTYLE
  7
STANDARD
  9
$CLAYER
  8
ADPDIM
  9
$CELTYPE
  6
BYLAYER
  9
$CECOLOR
 62
   256
  9
$CELTSCALE
 40
1.0
  9
$DELOBJ
 70
     1
  9
$DISPSILH
 70
     0
  9
$DIMSCALE
 40
1.0
  9
$DIMASZ
 40
0.125
  9
$DIMEXO
 40
0.0625
  9
$DIMDLI
 40
0.38
  9
$DIMRND
 40
0.0
  9
$DIMDLE
 40
0.0
  9
$DIMEXE
 40
0.18
  9
$DIMTP
 40
0.0
  9
$DIMTM
 40
0.0
  9
$DIMTXT
 40
0.125
  9
$DIMCEN
 40
0.1875
  9
$DIMTSZ
 40
0.125
  9
$DIMTOL
 70
     0
  9
$DIMLIM
 70
     0
  9
$DIMTIH
 70
     0
  9
$DIMTOH
 70
     0
  9
$DIMSE1
 70
     0
  9
$DIMSE2
 70
     0
  9
$DIMTAD
 70
     0
  9
$DIMZIN
 70
     3
  9
$DIMBLK
  1

  9
$DIMASO
 70
     1
  9
$DIMSHO
 70
     1
  9
$DIMPOST
  1

  9
$DIMAPOST
  1

  9
$DIMALT
 70
     0
  9
$DIMALTD
 70
     1
  9
$DIMALTF
 40
25.4
  9
$DIMLFAC
 40
1.0
  9
$DIMTOFL
 70
     0
  9
$DIMTVP
 40
0.0
  9
$DIMTIX
 70
     0
  9
$DIMSOXD
 70
     0
  9
$DIMSAH
 70
     0
  9
$DIMBLK1
  1

  9
$DIMBLK2
  1

  9
$DIMSTYLE
  2
STANDARD
  9
$DIMCLRD
 70
     0
  9
$DIMCLRE
 70
     0
  9
$DIMCLRT
 70
     0
  9
$DIMTFAC
 40
1.0
  9
$DIMGAP
 40
0.125
  9
$DIMJUST
 70
     0
  9
$DIMSD1
 70
     0
  9
$DIMSD2
 70
     0
  9
$DIMTOLJ
 70
     1
  9
$DIMTZIN
 70
     0
  9
$DIMALTZ
 70
     0
  9
$DIMALTTZ
 70
     0
  9
$DIMFIT
 70
     3
  9
$DIMUPT
 70
     0
  9
$DIMUNIT
 70
     2
  9
$DIMDEC
 70
     4
  9
$DIMTDEC
 70
     4
  9
$DIMALTU
 70
     2
  9
$DIMALTTD
 70
     2
  9
$DIMTXSTY
  7
STANDARD
  9
$DIMAUNIT
 70
     0
  9
$LUNITS
 70
     5
  9
$LUPREC
 70
     4
  9
$SKETCHINC
 40
0.1
  9
$FILLETRAD
 40
0.062
  9
$AUNITS
 70
     0
  9
$AUPREC
 70
     0
  9
$MENU
  1
acad
  9
$ELEVATION
 40
0.0
  9
$PELEVATION
 40
0.0
  9
$THICKNESS
 40
0.0
  9
$LIMCHECK
 70
     0
  9
$BLIPMODE
 70
     0
  9
$CHAMFERA
 40
0.0
  9
$CHAMFERB
 40
0.0
  9
$CHAMFERC
 40
0.0
  9
$CHAMFERD
 40
0.0
  9
$SKPOLY
 70
     0
  9
$TDCREATE
 40
2450407.558793981
  9
$TDUPDATE
 40
2452297.071955289
  9
$TDINDWG
 40
0.0293619560
  9
$TDUSRTIMER
 40
0.0293619560
  9
$USRTIMER
 70
     1
  9
$ANGBASE
 50
0.0
  9
$ANGDIR
 70
     0
  9
$PDMODE
 70
     0
  9
$PDSIZE
 40
0.0
  9
$PLINEWID
 40
0.0
  9
$COORDS
 70
     2
  9
$SPLFRAME
 70
     0
  9
$SPLINETYPE
 70
     6
  9
$SPLINESEGS
 70
     8
  9
$ATTDIA
 70
     0
  9
$ATTREQ
 70
     1
  9
$HANDLING
 70
 22529
  9
$HANDSEED
  5
469
  9
$SURFTAB1
 70
     6
  9
$SURFTAB2
 70
     6
  9
$SURFTYPE
 70
     6
  9
$SURFU
 70
     6
  9
$SURFV
 70
     6
  9
$UCSNAME
  2

  9
$UCSORG
 10
0.0
 20
0.0
 30
0.0
  9
$UCSXDIR
 10
1.0
 20
0.0
 30
0.0
  9
$UCSYDIR
 10
0.0
 20
1.0
 30
0.0
  9
$PUCSNAME
  2

  9
$PUCSORG
 10
0.0
 20
0.0
 30
0.0
  9
$PUCSXDIR
 10
1.0
 20
0.0
 30
0.0
  9
$PUCSYDIR
 10
0.0
 20
1.0
 30
0.0
  9
$USERI1
 70
     0
  9
$USERI2
 70
     0
  9
$USERI3
 70
     0
  9
$USERI4
 70
     0
  9
$USERI5
 70
     0
  9
$USERR1
 40
0.0
  9
$USERR2
 40
0.0
  9
$USERR3
 40
0.0
  9
$USERR4
 40
0.0
  9
$USERR5
 40
0.0
  9
$WORLDVIEW
 70
     1
  9
$SHADEDGE
 70
     3
  9
$SHADEDIF
 70
    70
  9
$TILEMODE
 70
     1
  9
$MAXACTVP
 70
    15
  9
$PINSBASE
 10
0.0008545038290322
 20
1.250283272183907
 30
0.0
  9
$PLIMCHECK
 70
     0
  9
$PEXTMIN
 10
1.000000000000000E+20
 20
1.000000000000000E+20
 30
1.000000000000000E+20
  9
$PEXTMAX
 10
-1.000000000000000E+20
 20
-1.000000000000000E+20
 30
-1.000000000000000E+20
  9
$PLIMMIN
 10
0.0
 20
0.0
  9
$PLIMMAX
 10
12.0
 20
9.0
  9
$UNITMODE
 70
     0
  9
$VISRETAIN
 70
     0
  9
$PLINEGEN
 70
     0
  9
$PSLTSCALE
 70
     1
  9
$TREEDEPTH
 70
  3020
  9
$PICKSTYLE
 70
     1
  9
$CMLSTYLE
  2
STANDARD
  9
$CMLJUST
 70
     0
  9
$CMLSCALE
 40
1.0
  9
$PROXYGRAPHICS
 70
     1
  9
$MEASUREMENT
 70
     0
  0
ENDSEC
  0
SECTION
  2
CLASSES
  0
CLASS
  1
ACDBDICTIONARYWDFLT
  2
AcDbDictionaryWithDefault
  3
AutoCAD 2000
 90
        0
280
     0
281
     0
  0
CLASS
  1
ACDBPLACEHOLDER
  2
AcDbPlaceHolder
  3
AutoCAD 2000
 90
        0
280
     0
281
     0
  0
CLASS
  1
LAYOUT
  2
AcDbLayout
  3
AutoCAD 2000
 90
        0
280
     0
281
     0
  0
CLASS
  1
DICTIONARYVAR
  2
AcDbDictionaryVar
  3
AutoCAD 2000
 90
        0
280
     0
281
     0
  0
CLASS
  1
LONG_TRANSACTION
  2
AcDbLongTransaction
  3
AutoCAD 2000
 90
        0
280
     0
281
     0
  0
CLASS
  1
LWPOLYLINE
  2
AcDbPolyline
  3
AutoCAD 2000
 90
        0
280
     0
281
     1
  0
CLASS
  1
HATCH
  2
AcDbHatch
  3
AutoCAD 2000
 90
        0
280
     0
281
     1
  0
CLASS
  1
XRECORD
  2
AcDbXrecord
  3
AutoCAD 2000
 90
        0
280
     0
281
     0
  0
CLASS
  1
LONG_TRANSACTION
  2
AcDbLongTransaction
  3
AutoCAD 2000
 90
        0
280
     0
281
     0
  0
CLASS
  1
LWPOLYLINE
  2
AcDbPolyline
  3
AutoCAD 2000
 90
        0
280
     0
281
     1
  0
CLASS
  1
HATCH
  2
AcDbHatch
  3
AutoCAD 2000
 90
        0
280
     0
281
     1
  0
CLASS
  1
XRECORD
  2
AcDbXrecord
  3
AutoCAD 2000
 90
        0
280
     0
281
     0
  0
CLASS
  1
LONG_TRANSACTION
  2
AcDbLongTransaction
  3
AutoCAD 2000
 90
        0
280
     0
281
     0
  0
CLASS
  1
LWPOLYLINE
  2
AcDbPolyline
  3
AutoCAD 2000
 90
        0
280
     0
281
     1
  0
CLASS
  1
HATCH
  2
AcDbHatch
  3
AutoCAD 2000
 90
        0
280
     0
281
     1
  0
CLASS
  1
XRECORD
  2
AcDbXrecord
  3
AutoCAD 2000
 90
        0
280
     0
281
     0
  0
CLASS
  1
LONG_TRANSACTION
  2
AcDbLongTransaction
  3
AutoCAD 2000
 90
        0
280
     0
281
     0
  0
CLASS
  1
LWPOLYLINE
  2
AcDbPolyline
  3
AutoCAD 2000
 90
        0
280
     0
281
     1
  0
CLASS
  1
HATCH
  2
AcDbHatch
  3
AutoCAD 2000
 90
        0
280
     0
281
     1
  0
CLASS
  1
XRECORD
  2
AcDbXrecord
  3
AutoCAD 2000
 90
        0
280
     0
281
     0
  0
CLASS
  1
LONG_TRANSACTION
  2
AcDbLongTransaction
  3
AutoCAD 2000
 90
        0
280
     0
281
     0
  0
CLASS
  1
LWPOLYLINE
  2
AcDbPolyline
  3
AutoCAD 2000
 90
        0
280
     0
281
     1
  0
CLASS
  1
HATCH
  2
AcDbHatch
  3
AutoCAD 2000
 90
        0
280
     0
281
     1
  0
CLASS
  1
XRECORD
  2
AcDbXrecord
  3
AutoCAD 2000
 90
        0
280
     0
281
     0
  0
CLASS
  1
LONG_TRANSACTION
  2
AcDbLongTransaction
  3
AutoCAD 2000
 90
        0
280
     0
281
     0
  0
CLASS
  1
LWPOLYLINE
  2
AcDbPolyline
  3
AutoCAD 2000
 90
        0
280
     0
281
     1
  0
CLASS
  1
HATCH
  2
AcDbHatch
  3
AutoCAD 2000
 90
        0
280
     0
281
     1
  0
CLASS
  1
XRECORD
  2
AcDbXrecord
  3
AutoCAD 2000
 90
        0
280
     0
281
     0
  0
ENDSEC
  0
SECTION
  2
TABLES
  0
TABLE
  2
VPORT
  5
8
330
0
100
AcDbSymbolTable
 70
     2
  0
VPORT
  5
446
330
8
100
AcDbSymbolTableRecord
100
AcDbViewportTableRecord
  2
*ACTIVE
 70
     0
 10
0.0
 20
0.0
 11
1.0
 21
1.0
 12
-82.45363251640577
 22
77.84588077826379
 13
0.0
 23
0.0
 14
0.5740882589684922
 24
0.5740882589684922
 15
0.5
 25
0.5
 16
0.0
 26
0.0
 36
1.0
 17
0.0
 27
0.0
 37
0.0
 40
32.99523072554921
 41
1.570528967254408
 42
50.0
 43
0.0
 44
0.0
 50
0.0
 51
0.0
 71
     0
 72
   100
 73
     1
 74
     0
 75
     0
 76
     0
 77
     0
 78
     0
  0
ENDTAB
  0
TABLE
  2
LTYPE
  5
5
330
0
100
AcDbSymbolTable
 70
     1
  0
LTYPE
  5
12
330
5
100
AcDbSymbolTableRecord
100
AcDbLinetypeTableRecord
  2
BYBLOCK
 70
     0
  3

 72
    65
 73
     0
 40
0.0
  0
LTYPE
  5
13
330
5
100
AcDbSymbolTableRecord
100
AcDbLinetypeTableRecord
  2
BYLAYER
 70
     0
  3

 72
    65
 73
     0
 40
0.0
  0
LTYPE
  5
14
330
5
100
AcDbSymbolTableRecord
100
AcDbLinetypeTableRecord
  2
CONTINUOUS
 70
     0
  3
Solid line
 72
    65
 73
     0
 40
0.0
  0
ENDTAB
  0
TABLE
  2
LAYER
  5
2
330
0
100
AcDbSymbolTable
 70
     3
  0
LAYER
  5
F
330
2
100
AcDbSymbolTableRecord
100
AcDbLayerTableRecord
  2
0
 70
     0
 62
     7
  6
CONTINUOUS
  0
LAYER
  5
7C
330
2
100
AcDbSymbolTableRecord
100
AcDbLayerTableRecord
  2
DEFPOINTS
 70
     0
 62
     7
  6
CONTINUOUS
  0
LAYER
  5
7F
330
2
100
AcDbSymbolTableRecord
100
AcDbLayerTableRecord
  2
ADPDIM
 70
     0
 62
     3
  6
CONTINUOUS
  0
ENDTAB
  0
TABLE
  2
STYLE
  5
3
330
0
100
AcDbSymbolTable
 70
     2
  0
STYLE
  5
10
330
3
100
AcDbSymbolTableRecord
100
AcDbTextStyleTableRecord
  2
STANDARD
 70
     0
 40
0.0
 41
1.0
 50
0.0
 71
     0
 42
0.2
  3
txt
  4

  0
STYLE
  5
2FE
330
3
100
AcDbSymbolTableRecord
100
AcDbTextStyleTableRecord
  2
ARIAL_WIDE
 70
     0
 40
0.0
 41
1.25
 50
0.0
 71
     0
 42
0.2
  3
ARIAL.TTF
  4

1001
ACAD
1000
Arial
1071
       34
  0
ENDTAB
  0
TABLE
  2
VIEW
  5
6
330
0
100
AcDbSymbolTable
 70
     0
  0
ENDTAB
  0
TABLE
  2
UCS
  5
7
330
0
100
AcDbSymbolTable
 70
     0
  0
ENDTAB
  0
TABLE
  2
APPID
  5
9
330
0
100
AcDbSymbolTable
 70
     1
  0
APPID
  5
11
330
9
100
AcDbSymbolTableRecord
100
AcDbRegAppTableRecord
  2
ACAD
 70
     0
  0
ENDTAB
  0
TABLE
  2
DIMSTYLE
  5
A
330
0
100
AcDbSymbolTable
 70
     1
  0
DIMSTYLE
105
2F2
330
A
100
AcDbSymbolTableRecord
100
AcDbDimStyleTableRecord
  2
STANDARD
 70
     0
  3

  4

  5

  6

  7

 40
1.0
 41
0.18
 42
0.0625
 43
0.38
 44
0.18
 45
0.0
 46
0.0
 47
0.0
 48
0.0
140
0.18
141
0.09
142
0.0
143
25.4
144
1.0
145
0.0
146
1.0
147
0.09
 71
     0
 72
     0
 73
     1
 74
     1
 75
     0
 76
     0
 77
     0
 78
     0
170
     0
171
     2
172
     0
173
     0
174
     0
175
     0
176
     0
177
     0
178
     0
270
     2
271
     4
272
     4
273
     2
274
     2
340
10
275
     0
280
     0
281
     0
282
     0
283
     1
284
     0
285
     0
286
     0
287
     3
288
     0
  0
ENDTAB
  0
TABLE
  2
BLOCK_RECORD
  5
1
330
0
100
AcDbSymbolTable
 70
     2
  0
BLOCK_RECORD
  5
18
102
{ACAD_XDICTIONARY
360
353
102
}
330
1
100
AcDbSymbolTableRecord
100
AcDbBlockTableRecord
  2
*MODEL_SPACE
  0
BLOCK_RECORD
  5
15
102
{ACAD_XDICTIONARY
360
351
102
}
330
1
100
AcDbSymbolTableRecord
100
AcDbBlockTableRecord
  2
*PAPER_SPACE
  0
BLOCK_RECORD
  5
75
330
1
100
AcDbSymbolTableRecord
100
AcDbBlockTableRecord
  2
*D0
  0
BLOCK_RECORD
  5
76
330
1
100
AcDbSymbolTableRecord
100
AcDbBlockTableRecord
  2
*D1
  0
ENDTAB
  0
ENDSEC
  0
SECTION
  2
BLOCKS
  0
BLOCK
  5
82
330
18
100
AcDbEntity
  8
0
100
AcDbBlockBegin
  2
*MODEL_SPACE
 70
     0
 10
0.0
 20
0.0
 30
0.0
  3
*MODEL_SPACE
  1

  0
ENDBLK
  5
83
330
18
100
AcDbEntity
  8
0
100
AcDbBlockEnd
  0
BLOCK
  5
80
330
15
100
AcDbEntity
 67
     1
  8
0
100
AcDbBlockBegin
  2
*PAPER_SPACE
 70
     0
 10
0.0
 20
0.0
 30
0.0
  3
*PAPER_SPACE
  1

  0
ENDBLK
  5
81
330
15
100
AcDbEntity
 67
     1
  8
0
100
AcDbBlockEnd
  0
BLOCK
  5
85
330
75
100
AcDbEntity
  8
0
100
AcDbBlockBegin
  2
*D0
 70
     1
 10
0.0
 20
0.0
 30
0.0
  3
*D0
  1

  0
LINE
  5
86
330
75
100
AcDbEntity
  8
0
  6
BYBLOCK
 62
     0
100
AcDbLine
 10
-79.59029972850743
 20
66.69354132098693
 30
0.0
 11
-77.91513769735418
 21
66.69354132098693
 31
0.0
  0
LINE
  5
87
330
75
100
AcDbEntity
  8
0
  6
BYBLOCK
 62
     0
100
AcDbLine
 10
-82.64960703518006
 20
91.56854132098692
 30
0.0
 11
-77.9151376973542
 21
91.56854132098692
 31
0.0
  0
LINE
  5
88
330
75
100
AcDbEntity
  8
0
  6
BYBLOCK
 62
     0
100
AcDbLine
 10
-78.09513769735419
 20
66.69354132098693
 30
0.0
 11
-78.09513769735419
 21
78.65187465432025
 31
0.0
  0
LINE
  5
89
330
75
100
AcDbEntity
  8
0
  6
BYBLOCK
 62
     0
100
AcDbLine
 10
-78.09513769735419
 20
91.56854132098692
 30
0.0
 11
-78.09513769735419
 21
79.6102079876536
 31
0.0
  0
LINE
  5
8A
330
75
100
AcDbEntity
  8
0
  6
BYBLOCK
 62
     0
100
AcDbLine
 10
-77.97013769735419
 20
66.56854132098692
 30
0.0
 11
-78.22013769735419
 21
66.81854132098692
 31
0.0
  0
LINE
  5
8B
330
75
100
AcDbEntity
  8
0
  6
BYBLOCK
 62
     0
100
AcDbLine
 10
-77.97013769735419
 20
91.44354132098692
 30
0.0
 11
-78.22013769735419
 21
91.69354132098693
 31
0.0
  0
TEXT
  5
8C
330
75
100
AcDbEntity
  8
0
  6
BYBLOCK
 62
     0
100
AcDbText
 10
-78.03263769735419
 20
78.77687465432025
 30
0.0
 40
0.125
  1
24 7/8
 50
90.0
 72
     1
 11
-78.09513769735419
 21
79.13104132098692
 31
0.0
100
AcDbText
 73
     2
  0
POINT
  5
8D
330
75
100
AcDbEntity
  8
DEFPOINTS
  6
BYBLOCK
 62
     0
100
AcDbPoint
 10
-79.65279972850743
 20
66.69354132098693
 30
0.0
  0
POINT
  5
8E
330
75
100
AcDbEntity
  8
DEFPOINTS
  6
BYBLOCK
 62
     0
100
AcDbPoint
 10
-82.71210703518006
 20
91.56854132098692
 30
0.0
  0
POINT
  5
8F
330
75
100
AcDbEntity
  8
DEFPOINTS
  6
BYBLOCK
 62
     0
100
AcDbPoint
 10
-78.09513769735419
 20
91.56854132098692
 30
0.0
  0
ENDBLK
  5
90
330
75
100
AcDbEntity
  8
0
100
AcDbBlockEnd
  0
BLOCK
  5
91
330
76
100
AcDbEntity
  8
0
100
AcDbBlockBegin
  2
*D1
 70
     1
 10
0.0
 20
0.0
 30
0.0
  3
*D1
  1

  0
LINE
  5
92
330
76
100
AcDbEntity
  8
0
  6
BYBLOCK
 62
     0
100
AcDbLine
 10
-85.70411803861395
 20
66.84234722201281
 30
0.0
 11
-85.70411803861395
 21
65.54156847103745
 31
0.0
  0
LINE
  5
93
330
76
100
AcDbEntity
  8
0
  6
BYBLOCK
 62
     0
100
AcDbLine
 10
-79.26661803861396
 20
66.84234722201281
 30
0.0
 11
-79.26661803861396
 21
65.54156847103745
 31
0.0
  0
LINE
  5
94
330
76
100
AcDbEntity
  8
0
  6
BYBLOCK
 62
     0
100
AcDbLine
 10
-85.70411803861395
 20
65.72156847103745
 30
0.0
 11
-82.94370137194729
 21
65.72156847103745
 31
0.0
  0
LINE
  5
95
330
76
100
AcDbEntity
  8
0
  6
BYBLOCK
 62
     0
100
AcDbLine
 10
-79.26661803861396
 20
65.72156847103745
 30
0.0
 11
-82.02703470528062
 21
65.72156847103745
 31
0.0
  0
LINE
  5
96
330
76
100
AcDbEntity
  8
0
  6
BYBLOCK
 62
     0
100
AcDbLine
 10
-85.82911803861396
 20
65.59656847103745
 30
0.0
 11
-85.57911803861395
 21
65.84656847103746
 31
0.0
  0
LINE
  5
97
330
76
100
AcDbEntity
  8
0
  6
BYBLOCK
 62
     0
100
AcDbLine
 10
-79.39161803861395
 20
65.59656847103745
 30
0.0
 11
-79.14161803861396
 21
65.84656847103746
 31
0.0
  0
TEXT
  5
98
330
76
100
AcDbEntity
  8
0
  6
BYBLOCK
 62
     0
100
AcDbText
 10
-82.81870137194728
 20
65.65906847103746
 30
0.0
 40
0.125
  1
6 7/16
 72
     1
 11
-82.48536803861396
 21
65.72156847103745
 31
0.0
100
AcDbText
 73
     2
  0
POINT
  5
99
330
76
100
AcDbEntity
  8
DEFPOINTS
  6
BYBLOCK
 62
     0
100
AcDbPoint
 10
-85.70411803861395
 20
66.90484722201282
 30
0.0
  0
POINT
  5
9A
330
76
100
AcDbEntity
  8
DEFPOINTS
  6
BYBLOCK
 62
     0
100
AcDbPoint
 10
-79.26661803861396
 20
66.90484722201282
 30
0.0
  0
POINT
  5
9B
330
76
100
AcDbEntity
  8
DEFPOINTS
  6
BYBLOCK
 62
     0
100
AcDbPoint
 10
-79.26661803861396
 20
65.72156847103745
 30
0.0
  0
ENDBLK
  5
9C
330
76
100
AcDbEntity
  8
0
100
AcDbBlockEnd
  0
ENDSEC
  0
SECTION
  2
ENTITIES
  0
ARC
  5
9D
330
18
100
AcDbEntity
  8
0
100
AcDbCircle
 10
-85.03779557165358
 20
75.12235030571325
 30
0.0
 40
0.5417050161640113
100
AcDbArc
 50
175.2471386138607
 51
260.141342319517
  0
LWPOLYLINE
  5
9E
330
18
100
AcDbEntity
  8
0
100
AcDbPolyline
 90
       23
 70
     0
 43
0.0
 10
-80.15992861130118
 20
70.40701462289388
 42
0.4737032336007979
 10
-81.68530306064038
 20
75.27243312509651
 42
0.0553851381374273
 10
-82.84248367738047
 20
75.61432739822428
 42
0.3747162343804102
 10
-83.23697706945095
 20
75.37763136298199
 42
-0.4191530367102899
 10
-84.34155856724832
 20
74.8253406140833
 10
-84.86754975667563
 20
74.98313797091149
 42
0.3965771912410856
 10
-85.18314447033201
 20
74.8253406140833
 42
0.2933628847435754
 10
-85.13054535138929
 20
74.58864457884101
 42
-0.6897347623184299
 10
-85.23574358927474
 20
74.35194854359872
 42
-0.4614593240852003
 10
-85.65653654081661
 20
74.9042392924974
 42
-0.0959344137988319
 10
-85.49873918398841
 20
75.27243312509651
 10
-85.34094182716021
 20
75.40393092245335
 10
-85.65653654081661
 20
75.71952563610974
 10
-85.28834270821747
 20
76.08771946870885
 42
-0.5513351963463059
 10
-85.34094182716021
 20
77.13970184756348
 42
-0.5667628249207772
 10
-85.10424579191791
 20
77.03450360967801
 42
0.7873402682880359
 10
-84.99904755403246
 20
76.5874110986648
 42
-0.0523797678810346
 10
-83.52627222363597
 20
76.61371065813617
 42
-0.3620499351813388
 10
-83.28957618839368
 20
76.11401902818022
 42
0.4662765608995882
 10
-83.15807839103687
 20
75.92992211188067
 42
-0.1411956312961789
 10
-81.58010482275491
 20
75.50912916033881
 10
-80.81741759808531
 20
75.08833620879696
 10
-83.55257178310735
 20
77.42899700174851
  0
LWPOLYLINE
  5
B7
330
18
100
AcDbEntity
  8
0
100
AcDbPolyline
 90
       12
 70
     0
 43
0.0
 10
-83.28611803861395
 20
66.90484722201282
 10
-81.65900350116903
 20
67.90855647311414
 42
-0.3286016259173426
 10
-79.68653654081659
 20
67.80335823522868
 42
-0.4447141046033457
 10
-79.92323257605889
 20
66.93547277267362
 42
-1.146404292067737
 10
-80.13362905182981
 20
67.59296175945775
 42
0.5351837584880024
 10
-80.73851891967121
 20
67.48776352157229
 42
0.3394945736809394
 10
-80.50182288442892
 20
66.69877673743133
 42
0.5916278582696863
 10
-79.23944402980338
 20
67.43516440262957
 42
0.5293201882007407
 10
-80.92261583597078
 20
68.56604545989828
 42
0.2862956406770392
 10
-79.34464226768884
 20
73.61556087840049
 42
0.1131171826345949
 10
-80.29142640865799
 20
75.16723488721106
 10
-82.5794880826668
 20
77.45529656121988
  0
DIMENSION
  5
C5
330
18
100
AcDbEntity
  8
ADPDIM
100
AcDbDimension
  2
*D0
 10
-77.95924046594571
 20
91.39516992770316
 30
0.0
 11
-77.95924046594571
 21
78.95766992770315
 31
0.0
 12
0.1358972314084781
 22
-0.173371393283773
 32
0.0
100
AcDbAlignedDimension
 13
-79.51690249709895
 23
66.52016992770315
 33
0.0
 14
-82.5762098037716
 24
91.39516992770316
 34
0.0
 50
90.0
100
AcDbRotatedDimension
  0
LWPOLYLINE
  5
C6
330
18
100
AcDbEntity
  8
0
100
AcDbPolyline
 90
       14
 70
     0
 43
0.0
 10
-83.5788713425787
 20
68.32934942465598
 42
-0.2726297283697818
 10
-84.23636032936284
 20
68.25045074624189
 42
-0.2153359073850106
 10
-84.18376121042014
 20
67.25106748633
 42
0.0990195135927928
 10
-83.4999726641646
 20
67.43516440262957
 42
0.2877491529362936
 10
-83.4999726641646
 20
67.85595735417141
 42
-0.4955260826218238
 10
-82.02719733376813
 20
69.88102343346657
 42
0.0781990662115447
 10
-82.44799028531
 20
68.46084722201283
 42
-0.2483760068523775
 10
-82.71098588002365
 20
68.1715520678278
 10
-83.02658059368003
 20
67.96115559205688
 42
0.1622776601683923
 10
-83.23697706945095
 20
67.69815999734323
 42
0.6398323894828043
 10
-83.1317788315655
 20
67.59296175945775
 42
-0.027252471893908
 10
-82.78988455843773
 20
67.69815999734323
 10
-81.47490658486946
 20
68.77644193566921
 42
0.3116822380396961
 10
-80.76481847914259
 20
71.4589970017485
 42
4.721600946381649
  0
LWPOLYLINE
  5
D6
330
18
100
AcDbEntity
  8
0
100
AcDbPolyline
 90
       16
 70
     1
 43
0.0
 10
-82.94511803861395
 20
71.58584722201282
 42
0.0674590399341527
 10
-83.13013487327431
 20
71.56077099097917
 42
0.079812486174991
 10
-83.27392269186569
 20
71.49505032418066
 42
0.1071181112083435
 10
-83.37833037271543
 20
71.38724118383935
 42
0.1398891526406594
 10
-83.41011803861396
 20
71.27584722201283
 42
0.1398891526406611
 10
-83.37833037271543
 20
71.16445326018629
 42
0.1071181112083423
 10
-83.27392269186569
 20
71.05664411984498
 42
0.0798124861749926
 10
-83.13013487327431
 20
70.99092345304647
 42
0.0674590399341527
 10
-82.94511803861395
 20
70.96584722201282
 42
0.0674590399341524
 10
-82.7601012039536
 20
70.99092345304647
 42
0.0798124861749928
 10
-82.6163133853622
 20
71.05664411984498
 42
0.1071181112083426
 10
-82.51190570451248
 20
71.16445326018629
 42
0.1398891526406597
 10
-82.48011803861395
 20
71.27584722201283
 42
0.1398891526406607
 10
-82.51190570451248
 20
71.38724118383935
 42
0.1071181112083419
 10
-82.6163133853622
 20
71.49505032418066
 42
0.0798124861749942
 10
-82.7601012039536
 20
71.56077099097917
 42
0.0674590399341551
  0
LWPOLYLINE
  5
E8
330
18
100
AcDbEntity
  8
0
100
AcDbPolyline
 90
       16
 70
     1
 43
0.0
 10
-82.51111803861396
 20
72.36084722201282
 42
0.0754446162298026
 10
-82.70667580663022
 20
72.33117074525051
 42
0.085782807107607
 10
-82.86184300208248
 20
72.25189094461422
 42
0.1060700219635842
 10
-82.97193111755872
 20
72.125341206688
 42
0.1268223572478402
 10
-83.00711803861394
 20
71.98884722201282
 42
0.1268223572478395
 10
-82.97193111755872
 20
71.85235323733763
 42
0.1060700219635847
 10
-82.86184300208248
 20
71.72580349941142
 42
0.0857828071076077
 10
-82.70667580663022
 20
71.64652369877514
 42
0.0754446162298043
 10
-82.51111803861396
 20
71.61684722201282
 42
0.0754446162298041
 10
-82.31556027059767
 20
71.64652369877514
 42
0.0857828071076072
 10
-82.16039307514542
 20
71.72580349941142
 42
0.106070021963583
 10
-82.05030495966918
 20
71.85235323733763
 42
0.1268223572478387
 10
-82.01511803861395
 20
71.98884722201282
 42
0.126822357247841
 10
-82.05030495966918
 20
72.125341206688
 42
0.1060700219635833
 10
-82.16039307514542
 20
72.25189094461422
 42
0.0857828071076077
 10
-82.31556027059767
 20
72.33117074525051
 42
0.0754446162298043
  0
LWPOLYLINE
  5
FA
330
18
100
AcDbEntity
  8
0
100
AcDbPolyline
 90
       16
 70
     1
 43
0.0
 10
-82.51111803861396
 20
73.25984722201282
 42
0.0863780754328303
 10
-82.69198403393724
 20
73.22836662670468
 42
0.0926219775485522
 10
-82.83992269186569
 20
73.14181125483099
 42
0.1030783360639567
 10
-82.94182682843979
 20
73.00811693065914
 42
0.1119247190749201
 10
-82.97611803861395
 20
72.85684722201281
 42
0.1119247190749213
 10
-82.94182682843979
 20
72.70557751336649
 42
0.1030783360639579
 10
-82.83992269186569
 20
72.57188318919464
 42
0.092621977548552
 10
-82.69198403393724
 20
72.48532781732095
 42
0.0863780754328281
 10
-82.51111803861396
 20
72.45384722201283
 42
0.0863780754328291
 10
-82.33025204329065
 20
72.48532781732095
 42
0.0926219775485514
 10
-82.1823133853622
 20
72.57188318919464
 42
0.1030783360639577
 10
-82.0804092487881
 20
72.70557751336649
 42
0.1119247190749201
 10
-82.04611803861395
 20
72.85684722201281
 42
0.111924719074919
 10
-82.0804092487881
 20
73.00811693065914
 42
0.1030783360639577
 10
-82.1823133853622
 20
73.14181125483099
 42
0.0926219775485492
 10
-82.33025204329065
 20
73.22836662670468
 42
0.0863780754328259
  0
LWPOLYLINE
  5
10C
330
18
100
AcDbEntity
  8
0
100
AcDbPolyline
 90
       16
 70
     1
 43
0.0
 10
-82.41811803861395
 20
74.12784722201282
 42
0.0920546733704694
 10
-82.58566956479063
 20
74.09673577966394
 42
0.0955880965188983
 10
-82.72500238164893
 20
74.00981125483099
 42
0.1010499065074382
 10
-82.81959452664411
 20
73.87759277564076
 42
0.1052829504643655
 10
-82.85211803861395
 20
73.72484722201282
 42
0.1052829504643659
 10
-82.81959452664411
 20
73.57210166838488
 42
0.1010499065074361
 10
-82.72500238164893
 20
73.43988318919464
 42
0.0955880965188985
 10
-82.58566956479063
 20
73.35295866436169
 42
0.0920546733704688
 10
-82.41811803861395
 20
73.32184722201282
 42
0.0920546733704672
 10
-82.25056651243729
 20
73.35295866436169
 42
0.0955880965188991
 10
-82.11123369557899
 20
73.43988318919464
 42
0.1010499065074398
 10
-82.01664155058379
 20
73.57210166838488
 42
0.1052829504643658
 10
-81.98411803861395
 20
73.72484722201282
 42
0.1052829504643654
 10
-82.01664155058379
 20
73.87759277564076
 42
0.1010499065074375
 10
-82.11123369557899
 20
74.00981125483099
 42
0.0955880965188982
 10
-82.25056651243729
 20
74.09673577966394
 42
0.0920546733704663
  0
DIMENSION
  5
11E
330
18
100
AcDbEntity
  8
ADPDIM
100
AcDbDimension
  2
*D1
 10
-79.26661803861396
 20
65.72156847103745
 30
0.0
 11
-82.48536803861396
 21
65.72156847103745
 31
0.0
100
AcDbAlignedDimension
 13
-85.70411803861395
 23
66.90484722201282
 33
0.0
 14
-79.26661803861396
 24
66.90484722201282
 34
0.0
100
AcDbRotatedDimension
  0
LWPOLYLINE
  5
11F
330
18
100
AcDbEntity
  8
0
100
AcDbPolyline
 90
        8
 70
     0
 43
0.0
 10
-84.60455416196197
 20
67.22476792685863
 42
0.5459512126495256
 10
-84.36785812671969
 20
67.59296175945775
 42
0.007126548567848
 10
-84.60455416196197
 20
68.09265338941369
 42
-1.498941655471863
 10
-85.31464226768884
 20
68.75014237619784
 42
-0.2551364018216902
 10
-85.34094182716021
 20
70.5385124202507
 42
-0.2015370181719883
 10
-84.42045724566241
 20
70.88040669337846
 42
-0.9587522160138894
 10
-84.42045724566241
 20
70.59111153919343
 42
0.1834067586513961
 10
-84.60455416196197
 20
70.51221286077934
  0
LWPOLYLINE
  5
129
330
18
100
AcDbEntity
  8
0
100
AcDbPolyline
 90
        4
 70
     0
 43
0.0
 10
-83.28611803861395
 20
66.90484722201282
 10
-85.70411803861395
 20
66.90484722201282
 10
-85.70411803861395
 20
67.21484722201282
 10
-84.55711803861396
 20
67.21484722201282
  0
LWPOLYLINE
  5
12F
330
18
100
AcDbEntity
  8
0
100
AcDbPolyline
 90
        7
 70
     0
 43
0.0
 10
-85.15684491086066
 20
70.56481197972207
 42
-0.2539631599261609
 10
-84.65715328090471
 20
70.6174110986648
 42
0.9999999999999998
 10
-84.60455416196197
 20
70.51221286077934
 10
-84.57825460249059
 20
70.09141990923748
 42
0.232417964319454
 10
-84.47305636460514
 20
69.90732299293793
 42
-0.2667896641285261
 10
-84.34155856724832
 20
69.35503224403925
 42
-0.3684700722608234
 10
-83.44737354522187
 20
68.96053885196877
 42
0.0620474658511214
  0
LWPOLYLINE
  5
138
330
18
100
AcDbEntity
  8
0
100
AcDbPolyline
 90
       10
 70
     0
 43
0.0
 10
-84.60455416196197
 20
68.09265338941369
 42
0.4267308448828729
 10
-85.28834270821747
 20
68.25045074624189
 42
-0.2034149851511886
 10
-85.18314447033201
 20
68.53974590042692
 10
-84.89384931614699
 20
68.59234501936964
 42
-0.2498811377232451
 10
-84.97274799456109
 20
70.03882079029475
 42
0.3431077501416268
 10
-84.60455416196197
 20
68.69754325725512
 42
-0.7229765506428648
 10
-83.97336473464919
 20
68.72384281672649
 42
0.2769839649484442
 10
-84.4993559240765
 20
68.56604545989828
 42
0.4637989512251472
 10
-84.47305636460514
 20
68.27675030571326
 10
-84.15746165094876
 20
67.85595735417141
  0
LWPOLYLINE
  5
144
330
18
100
AcDbEntity
  8
0
100
AcDbPolyline
 90
       13
 70
     0
 43
0.0
 10
-84.99111803861394
 20
73.13584722201283
 42
0.0801668980116135
 10
-85.17340863127882
 20
73.10643082804472
 42
0.0889226874666981
 10
-85.3199226918657
 20
73.02689094461422
 42
0.1049567332455664
 10
-85.42252507520293
 20
72.90178905429957
 42
0.1200112168691445
 10
-85.45611803861396
 20
72.76384722201282
 42
0.1200112168691445
 10
-85.42252507520293
 20
72.62590538972607
 42
0.1049567332455674
 10
-85.3199226918657
 20
72.50080349941143
 42
0.0889226874666998
 10
-85.17340863127882
 20
72.42126361598092
 42
0.0801668980116158
 10
-84.99111803861394
 20
72.39184722201283
 42
0.0801668980116139
 10
-84.80882744594909
 20
72.42126361598092
 42
0.0889226874666996
 10
-84.66231338536221
 20
72.50080349941143
 42
0.104956733245567
 10
-84.55971100202496
 20
72.62590538972607
 42
0.0634033576877196
 10
-84.53364565638015
 20
72.697063592801
 42
0.1200112168691968
  0
LWPOLYLINE
  5
153
330
18
100
AcDbEntity
  8
0
100
AcDbPolyline
 90
       16
 70
     1
 43
0.0
 10
-83.41011803861396
 20
72.79484722201281
 42
0.0655601761597713
 10
-83.62023728833799
 20
72.76717738321029
 42
0.0782689598597892
 10
-83.78276331229926
 20
72.69497063439743
 42
0.1071758473103608
 10
-83.90145832103415
 20
72.57569420236511
 42
0.143324042043489
 10
-83.93711803861396
 20
72.45384722201283
 42
0.1433240420434873
 10
-83.90145832103415
 20
72.33200024166052
 42
0.1071758473103587
 10
-83.78276331229926
 20
72.21272380962822
 42
0.0782689598597897
 10
-83.62023728833797
 20
72.14051706081534
 42
0.0655601761597712
 10
-83.41011803861396
 20
72.11284722201281
 42
0.065560176159772
 10
-83.19999878888992
 20
72.14051706081534
 42
0.0782689598597898
 10
-83.03747276492863
 20
72.21272380962822
 42
0.1071758473103614
 10
-82.91877775619376
 20
72.33200024166052
 42
0.1433240420434889
 10
-82.88311803861395
 20
72.45384722201283
 42
0.1433240420434874
 10
-82.91877775619376
 20
72.57569420236511
 42
0.1071758473103585
 10
-83.03747276492863
 20
72.69497063439743
 42
0.0782689598597914
 10
-83.19999878888992
 20
72.76717738321029
 42
0.0655601761597716
  0
LWPOLYLINE
  5
165
330
18
100
AcDbEntity
  8
0
100
AcDbPolyline
 90
       16
 70
     1
 43
0.0
 10
-84.30911803861397
 20
73.47684722201282
 42
0.113016866146882
 10
-84.44852510312614
 20
73.44492883535988
 42
0.1033690028891315
 10
-84.57216176121535
 20
73.34973156504779
 42
0.0921264087088342
 10
-84.65200731281194
 20
73.21184714973248
 42
0.0854968845748627
 10
-84.68111803861395
 20
73.04284722201282
 42
0.0854968845748625
 10
-84.65200731281194
 20
72.87384729429317
 42
0.0921264087088341
 10
-84.57216176121535
 20
72.73596287897786
 42
0.1033690028891317
 10
-84.44852510312614
 20
72.64076560866576
 42
0.1130168661468821
 10
-84.30911803861397
 20
72.60884722201282
 42
0.1130168661468798
 10
-84.16971097410176
 20
72.64076560866576
 42
0.1033690028891307
 10
-84.04607431601256
 20
72.73596287897786
 42
0.0921264087088346
 10
-83.96622876441595
 20
72.87384729429317
 42
0.0854968845748623
 10
-83.93711803861396
 20
73.04284722201282
 42
0.0854968845748625
 10
-83.96622876441595
 20
73.21184714973248
 42
0.0921264087088336
 10
-84.04607431601256
 20
73.34973156504779
 42
0.1033690028891318
 10
-84.16971097410176
 20
73.44492883535988
 42
0.1130168661468826
  0
LWPOLYLINE
  5
177
330
18
100
AcDbEntity
  8
0
100
AcDbPolyline
 90
       16
 70
     1
 43
0.0
 10
-83.53411803861396
 20
72.08184722201282
 42
0.063415290845454
 10
-83.73232902233313
 20
72.05660650211751
 42
0.0764678653005982
 10
-83.88484300208247
 20
71.99105032418064
 42
0.1071362639938618
 10
-83.9969664521536
 20
71.88187923774062
 42
0.1473733360632144
 10
-84.03011803861394
 20
71.77184722201282
 42
0.1473733360632125
 10
-83.9969664521536
 20
71.66181520628502
 42
0.1071362639938611
 10
-83.88484300208247
 20
71.552644119845
 42
0.0764678653006014
 10
-83.73232902233313
 20
71.48708794190813
 42
0.0634152908454577
 10
-83.53411803861396
 20
71.46184722201282
 42
0.0634152908454569
 10
-83.33590705489477
 20
71.48708794190813
 42
0.076467865300601
 10
-83.18339307514543
 20
71.55264411984498
 42
0.1071362639938625
 10
-83.0712696250743
 20
71.66181520628502
 42
0.1473733360632142
 10
-83.03811803861396
 20
71.77184722201282
 42
0.1473733360632117
 10
-83.0712696250743
 20
71.88187923774062
 42
0.1071362639938604
 10
-83.18339307514543
 20
71.99105032418064
 42
0.0764678653006003
 10
-83.33590705489477
 20
72.05660650211751
 42
0.0634152908454575
  0
LWPOLYLINE
  5
189
330
18
100
AcDbEntity
  8
0
100
AcDbPolyline
 90
       16
 70
     1
 43
0.0
 10
-84.27811803861395
 20
72.57784722201282
 42
0.0754446162298057
 10
-84.42478636462617
 20
72.55558986444109
 42
0.0857828071076093
 10
-84.54116176121535
 20
72.49613001396387
 42
0.1060700219635847
 10
-84.62372784782253
 20
72.40121771051921
 42
0.1268223572478403
 10
-84.65011803861395
 20
72.29884722201282
 42
0.1268223572478413
 10
-84.62372784782253
 20
72.19647673350644
 42
0.1060700219635835
 10
-84.54116176121535
 20
72.10156443006177
 42
0.0857828071076067
 10
-84.42478636462617
 20
72.04210457958456
 42
0.0754446162298051
 10
-84.27811803861395
 20
72.01984722201283
 42
0.0754446162298057
 10
-84.13144971260173
 20
72.04210457958456
 42
0.0857828071076087
 10
-84.01507431601256
 20
72.10156443006177
 42
0.1060700219635845
 10
-83.93250822940537
 20
72.19647673350644
 42
0.12682235724784
 10
-83.90611803861395
 20
72.29884722201282
 42
0.1268223572478415
 10
-83.93250822940537
 20
72.40121771051921
 42
0.1060700219635859
 10
-84.01507431601256
 20
72.49613001396387
 42
0.0857828071076078
 10
-84.13144971260173
 20
72.55558986444109
 42
0.0754446162298076
  0
LWPOLYLINE
  5
19B
330
18
100
AcDbEntity
  8
0
100
AcDbPolyline
 90
        3
 70
     0
 43
0.0
 10
-84.66231338536221
 20
73.02689094461422
 42
0.0889226874666994
 10
-84.80882744594909
 20
73.10643082804472
 42
0.080166898011614
 10
-84.99111803861394
 20
73.13584722201283
 42
0.0801668980116135
  0
LWPOLYLINE
  5
1A0
330
18
100
AcDbEntity
  8
0
100
AcDbPolyline
 90
       16
 70
     1
 43
0.0
 10
-83.34811803861395
 20
73.78684722201282
 42
0.0894458167924178
 10
-83.52826128718684
 20
73.75436119578465
 42
0.0942731609262419
 10
-83.67692269186569
 20
73.66427140993939
 42
0.102013344594573
 10
-83.77851771107968
 20
73.52628591279163
 42
0.1082535630563451
 10
-83.81311803861395
 20
73.36834722201281
 42
0.1082535630563437
 10
-83.77851771107968
 20
73.21040853123401
 42
0.1020133445945713
 10
-83.67692269186569
 20
73.07242303408625
 42
0.0942731609262376
 10
-83.52826128718684
 20
72.98233324824099
 42
0.0894458167924136
 10
-83.34811803861395
 20
72.94984722201282
 42
0.0894458167924176
 10
-83.16797479004106
 20
72.98233324824099
 42
0.0942731609262409
 10
-83.01931338536221
 20
73.07242303408625
 42
0.1020133445945718
 10
-82.91771836614824
 20
73.21040853123401
 42
0.1082535630563449
 10
-82.88311803861395
 20
73.36834722201281
 42
0.1082535630563456
 10
-82.91771836614824
 20
73.52628591279163
 42
0.1020133445945717
 10
-83.01931338536221
 20
73.66427140993939
 42
0.0942731609262429
 10
-83.16797479004106
 20
73.75436119578465
 42
0.0894458167924196
  0
LWPOLYLINE
  5
1B2
330
18
100
AcDbEntity
  8
0
100
AcDbPolyline
 90
        2
 70
     0
 43
0.0
 10
-80.49498397768511
 20
71.6841348188371
 42
-0.1195891251004878
 10
-80.15992861130118
 20
70.40701462289388
 42
-0.1195891251004878
  0
LWPOLYLINE
  5
1B6
330
18
100
AcDbEntity
  8
0
100
AcDbPolyline
 90
       16
 70
     1
 43
0.0
 10
-80.99211803861395
 20
72.79484722201281
 42
0.09504079407756
 10
-81.14707448189102
 20
72.76512437606768
 42
0.0969945001591993
 10
-81.27708207143212
 20
72.6813510997226
 42
0.0998916669323703
 10
-81.36468826262122
 20
72.55489964356484
 42
0.1020414538184508
 10
-81.39511803861395
 20
72.40734722201281
 42
0.1020414538184495
 10
-81.36468826262122
 20
72.25979480046081
 42
0.0998916669323718
 10
-81.27708207143212
 20
72.13334334430303
 42
0.0969945001591984
 10
-81.14707448189101
 20
72.04957006795797
 42
0.0950407940775584
 10
-80.99211803861395
 20
72.01984722201283
 42
0.0950407940775592
 10
-80.8371615953369
 20
72.04957006795797
 42
0.0969945001591972
 10
-80.70715400579578
 20
72.13334334430303
 42
0.0998916669323723
 10
-80.61954781460668
 20
72.25979480046081
 42
0.1020414538184499
 10
-80.58911803861395
 20
72.40734722201281
 42
0.1020414538184481
 10
-80.61954781460668
 20
72.55489964356484
 42
0.0998916669323723
 10
-80.70715400579578
 20
72.6813510997226
 42
0.0969945001591988
 10
-80.8371615953369
 20
72.76512437606768
 42
0.0950407940775582
  0
LWPOLYLINE
  5
1C8
330
18
100
AcDbEntity
  8
0
100
AcDbPolyline
 90
       16
 70
     1
 43
0.0
 10
-81.61211803861396
 20
73.44584722201282
 42
0.0924876069070365
 10
-81.79153324551071
 20
73.41237352316054
 42
0.095798480619857
 10
-81.94092269186569
 20
73.31873156504778
 42
0.100885442039915
 10
-82.04223193886234
 20
73.17645607313093
 42
0.1048027609082205
 10
-82.07711803861394
 20
73.01184722201282
 42
0.1048027609082207
 10
-82.04223193886234
 20
72.8472383708947
 42
0.1008854420399154
 10
-81.94092269186569
 20
72.70496287897787
 42
0.095798480619857
 10
-81.79153324551071
 20
72.61132092086509
 42
0.0924876069070369
 10
-81.61211803861396
 20
72.57784722201282
 42
0.0924876069070374
 10
-81.43270283171721
 20
72.61132092086509
 42
0.0957984806198567
 10
-81.2833133853622
 20
72.70496287897787
 42
0.1008854420399158
 10
-81.18200413836557
 20
72.8472383708947
 42
0.1048027609082225
 10
-81.14711803861395
 20
73.01184722201282
 42
0.1048027609082208
 10
-81.18200413836557
 20
73.17645607313093
 42
0.100885442039915
 10
-81.2833133853622
 20
73.31873156504778
 42
0.0957984806198548
 10
-81.4327028317172
 20
73.41237352316054
 42
0.0924876069070351
  0
LWPOLYLINE
  5
1DA
330
18
100
AcDbEntity
  8
0
100
AcDbPolyline
 90
       16
 70
     1
 43
0.0
 10
-81.39511803861395
 20
71.58584722201282
 42
0.079383581388875
 10
-81.54109107999369
 20
71.56252452249943
 42
0.0884216424739864
 10
-81.65816176121536
 20
71.49959016907226
 42
0.1051623777981678
 10
-81.74032018048183
 20
71.40036914340242
 42
0.1210988979610728
 10
-81.76711803861396
 20
71.29134722201282
 42
0.1210988979610738
 10
-81.74032018048183
 20
71.18232530062321
 42
0.1051623777981701
 10
-81.65816176121536
 20
71.08310427495339
 42
0.0884216424739861
 10
-81.54109107999369
 20
71.02016992152622
 42
0.079383581388877
 10
-81.39511803861395
 20
70.99684722201281
 42
0.0793835813888725
 10
-81.24914499723422
 20
71.0201699215262
 42
0.0884216424739847
 10
-81.13207431601257
 20
71.08310427495339
 42
0.1051623777981681
 10
-81.04991589674609
 20
71.18232530062321
 42
0.1210988979610728
 10
-81.02311803861395
 20
71.29134722201282
 42
0.1210988979610738
 10
-81.04991589674609
 20
71.40036914340242
 42
0.1051623777981704
 10
-81.13207431601257
 20
71.49959016907226
 42
0.0884216424739845
 10
-81.24914499723422
 20
71.56252452249943
 42
0.0793835813888745
  0
LWPOLYLINE
  5
1EC
330
18
100
AcDbEntity
  8
0
100
AcDbPolyline
 90
       16
 70
     1
 43
0.0
 10
-81.70511803861396
 20
72.45384722201283
 42
0.1021885091793767
 10
-81.84673883532529
 20
72.42459774846718
 42
0.0999466728614844
 10
-81.96816176121535
 20
72.34035109972261
 42
0.0969314442510023
 10
-82.04857546607332
 20
72.21537200686481
 42
0.0949020222363054
 10
-82.07711803861394
 20
72.06634722201282
 42
0.0949020222363048
 10
-82.04857546607332
 20
71.91732243716081
 42
0.0969314442509986
 10
-81.96816176121535
 20
71.79234334430304
 42
0.0999466728614839
 10
-81.84673883532529
 20
71.70809669555847
 42
0.1021885091793754
 10
-81.70511803861396
 20
71.67884722201282
 42
0.1021885091793778
 10
-81.56349724190262
 20
71.70809669555847
 42
0.099946672861486
 10
-81.44207431601257
 20
71.79234334430304
 42
0.0969314442510022
 10
-81.36166061115458
 20
71.91732243716083
 42
0.0949020222363074
 10
-81.33311803861394
 20
72.06634722201282
 42
0.0949020222363045
 10
-81.36166061115458
 20
72.21537200686481
 42
0.0969314442510013
 10
-81.44207431601257
 20
72.34035109972261
 42
0.0999466728614828
 10
-81.56349724190262
 20
72.42459774846718
 42
0.1021885091793754
  0
LWPOLYLINE
  5
1FE
330
18
100
AcDbEntity
  8
0
100
AcDbPolyline
 90
       16
 70
     1
 43
0.0
 10
-82.04611803861395
 20
71.67884722201282
 42
0.0909699873930685
 10
-82.18994189099113
 20
71.65246155835946
 42
0.0950512454097438
 10
-82.30916176121535
 20
71.57897063439744
 42
0.1014563949796541
 10
-82.39032124575082
 20
71.46686618989277
 42
0.1065017977465636
 10
-82.41811803861395
 20
71.33784722201283
 42
0.106501797746561
 10
-82.39032124575082
 20
71.20882825413288
 42
0.1014563949796532
 10
-82.30916176121535
 20
71.0967238096282
 42
0.095051245409744
 10
-82.18994189099113
 20
71.02323288566619
 42
0.0909699873930685
 10
-82.04611803861395
 20
70.99684722201281
 42
0.0909699873930691
 10
-81.90229418623678
 20
71.02323288566619
 42
0.0950512454097455
 10
-81.78307431601256
 20
71.0967238096282
 42
0.1014563949796552
 10
-81.70191483147709
 20
71.20882825413288
 42
0.1065017977465617
 10
-81.67411803861396
 20
71.33784722201283
 42
0.1065017977465617
 10
-81.70191483147709
 20
71.46686618989275
 42
0.1014563949796551
 10
-81.78307431601256
 20
71.57897063439744
 42
0.0950512454097463
 10
-81.90229418623678
 20
71.65246155835946
 42
0.0909699873930672
  0
LWPOLYLINE
  5
210
330
18
100
AcDbEntity
  8
0
100
AcDbPolyline
 90
        7
 70
     0
 43
0.0
 10
-81.15308207143213
 20
72.07043078950582
 42
0.1025135614226499
 10
-81.2412520995428
 20
71.95255962518853
 42
0.1099193888648591
 10
-81.27111803861394
 20
71.81834722201282
 42
0.1099193888648588
 10
-81.24125209954279
 20
71.6841348188371
 42
0.1025135614226451
 10
-81.15308207143213
 20
71.56626365451981
 42
0.0935270135152154
 10
-81.02453191948393
 20
71.48960152007335
 42
0.088033129675936
 10
-80.86811803861396
 20
71.46184722201282
 42
0.0880331296759383
  0
LWPOLYLINE
  5
219
330
18
100
AcDbEntity
  8
0
100
AcDbPolyline
 90
        8
 70
     0
 43
0.0
 10
-80.86811803861396
 20
71.46184722201282
 42
0.0880331296759383
 10
-80.71170415774398
 20
71.48960152007335
 42
0.0935270135152165
 10
-80.58315400579578
 20
71.56626365451981
 42
0.1025135614226505
 10
-80.49498397768511
 20
71.6841348188371
 42
0.1099193888648609
 10
-80.46511803861395
 20
71.81834722201282
 42
0.1099193888648591
 10
-80.49498397768511
 20
71.95255962518853
 42
0.10251356142265
 10
-80.58315400579578
 20
72.07043078950582
 42
0.0935270135151654
 10
-80.71170415774391
 20
72.14709292395224
 42
0.0880331296759378
  0
LWPOLYLINE
  5
223
330
18
100
AcDbEntity
  8
0
100
AcDbPolyline
 90
       13
 70
     0
 43
0.0
 10
-84.14886774181571
 20
89.47674353764725
 42
0.4142135623730734
 10
-83.78067390921657
 20
89.16114882399087
 42
0.5650223177597212
 10
-83.70177523080249
 20
89.66084045394682
 42
0.4770720082005814
 10
-84.35926421758663
 20
89.76603869183227
 42
0.7187722316891624
 10
-84.06996906340159
 20
88.87185366980583
 42
0.1318155048711306
 10
-84.20146686075844
 20
88.55625895614947
 42
0.0489023802551571
 10
-84.12256818234434
 20
88.03026776672215
 42
-0.4027577498607636
 10
-84.22776642022979
 20
87.8461708504226
 42
0.4027577498607644
 10
-84.33296465811526
 20
87.66207393412301
 42
0.3348375423707572
 10
-83.72807479027384
 20
87.47797701782346
 42
0.3032930071793562
 10
-83.2283831603179
 20
88.16176556407896
 42
0.6861361796158853
 10
-82.57089417353375
 20
88.84555411033449
 42
0.2580447839951488
 10
-82.86018932771879
 20
89.05595058610542
 42
0.4104880164185294
  0
LWPOLYLINE
  5
232
330
18
100
AcDbEntity
  8
0
100
AcDbPolyline
 90
       10
 70
     0
 43
0.0
 10
-83.62287655238839
 20
89.45044397817587
 42
-0.635082484693549
 10
-81.88710562727825
 20
88.16176556407896
 42
-0.4074637627254706
 10
-83.41248007661747
 20
86.58379199579703
 42
-0.6245832278138235
 10
-85.77944042904038
 20
89.66084045394682
 42
-0.3569453100227599
 10
-82.99168712507562
 20
91.39661137905694
 42
-0.8180178425507138
 10
-81.94829865535405
 20
84.21428334536084
 42
-0.4417610169296959
 10
-79.31834270821747
 20
81.37393092245336
 42
-0.199303042800649
 10
-80.08102993288707
 20
79.61186043787185
 42
0.1716209812502868
 10
-80.42292420601484
 20
78.63877673743132
 42
0.4586923584839695
 10
-80.05473037341571
 20
78.32318202377493
 42
0.7884530168297596
  0
LWPOLYLINE
  5
23E
330
18
100
AcDbEntity
  8
0
100
AcDbPolyline
 90
       13
 70
     0
 43
0.0
 10
-83.0528801531514
 20
77.00820405020666
 42
-0.1289071423124856
 10
-85.41984050557429
 20
79.92745515152825
 42
-0.2678241835116681
 10
-84.99904755403246
 20
82.84670625284983
 42
-0.0524638923218628
 10
-83.86816649676374
 20
84.24058290483221
 42
0.3635507595028653
 10
-83.86816649676374
 20
85.05586924844454
 42
-0.7500000000000084
 10
-84.07856297253465
 20
85.26626572421546
 42
-0.9207463683828233
 10
-83.18437795050824
 20
84.21428334536084
 42
0.3233830383895726
 10
-80.04613646428266
 20
88.03026776672215
 42
0.4090046889317545
 10
-83.46507919556021
 20
91.05471710592921
 42
0.487417544109811
 10
-85.51644483432673
 20
88.2143646830217
 42
0.476125501899556
 10
-82.5445946140624
 20
87.24128098258118
 42
0.4042724512153966
 10
-82.4656959356483
 20
89.00335146716267
 42
0.4508820400921703
 10
-82.99168712507562
 20
89.00335146716267
 42
3.02267918936686
  0
LWPOLYLINE
  5
24D
330
18
100
AcDbEntity
  8
0
100
AcDbPolyline
 90
       10
 70
     0
 43
0.0
 10
-82.47428984478135
 20
77.32379876386303
 42
-0.2114192711345191
 10
-82.8950827963232
 20
78.13908510747538
 42
-0.2591260281974041
 10
-82.68468632055229
 20
78.48097938060313
 42
0.6180339887499157
 10
-83.15807839103687
 20
78.53357849954585
 42
0.3027756377319994
 10
-83.26327662892232
 20
78.06018642906128
 42
-0.4585526133577285
 10
-83.26327662892232
 20
79.11216880791591
 42
0.6164575162634986
 10
-83.28957618839368
 20
79.21736704580137
 42
0.5991800316499218
 10
-83.97336473464919
 20
78.63877673743132
 42
-0.439491354285265
 10
-83.99966429412055
 20
79.66445955681459
 42
0.4490660643102847
 10
-84.42045724566241
 20
79.69075911628594
 42
0.4490660643102847
  0
LWPOLYLINE
  5
259
330
18
100
AcDbEntity
  8
0
100
AcDbPolyline
 90
       21
 70
     0
 43
0.0
 10
-81.86939997693995
 20
83.18860052597758
 10
-82.23759380953906
 20
83.5567943585767
 10
-82.44799028531
 20
83.24119964492032
 10
-82.65838676108092
 20
83.08340228809212
 10
-82.65838676108092
 20
82.68890889602163
 10
-82.94768191526593
 20
82.66260933655027
 10
-83.0528801531514
 20
82.11031858765158
 10
-83.0528801531514
 20
81.82102343346656
 10
-83.84186693729237
 20
81.82102343346656
 10
-83.89446605623509
 20
81.58432739822428
 10
-83.76296825887827
 20
81.53172827928154
 10
-83.78926781834962
 20
81.18983400615379
 10
-83.7366686994069
 20
81.16353444668243
 10
-83.71036913993554
 20
80.95313797091151
 42
0.3027756377320265
 10
-83.26327662892232
 20
80.82164017355466
 10
-82.8950827963232
 20
80.87423929249741
 10
-83.36847486680779
 20
80.63754325725511
 10
-83.23697706945095
 20
80.24304986518464
 10
-82.9739814747373
 20
80.08525250835644
 10
-82.86878323685185
 20
80.08525250835644
 10
-82.26389336901043
 20
80.61124369778374
  0
LWPOLYLINE
  5
270
330
18
100
AcDbEntity
  8
0
100
AcDbPolyline
 90
        2
 70
     0
 43
0.0
 10
-82.39539116636725
 20
81.11093532773969
 42
0.1813345817725025
 10
-83.0528801531514
 20
81.61062695769564
 42
116.9635771906186
  0
LWPOLYLINE
  5
274
330
18
100
AcDbEntity
  8
0
100
AcDbPolyline
 90
        5
 70
     0
 43
0.0
 10
-81.92199909588268
 20
80.45344634095556
 42
0.5328722828875816
 10
-80.39662464654346
 20
80.03265338941369
 42
0.5505364038418811
 10
-80.60702112231439
 20
83.37269744227715
 42
0.3476576100006809
 10
-84.13116209147739
 20
83.10970184756348
 42
0.4223725608877796
 10
-84.63085372143334
 20
79.40146396210093
 42
-43.97916137992477
  0
LWPOLYLINE
  5
27B
330
18
100
AcDbEntity
  8
0
100
AcDbPolyline
 90
        2
 70
     0
 43
0.0
 10
-83.04428624401834
 20
88.9770519076913
 42
1.149222946329875
 10
-82.91278844666152
 20
88.5299593966781
 42
-2.036217915138371
  0
LWPOLYLINE
  5
27F
330
18
100
AcDbEntity
  8
0
100
AcDbPolyline
 90
        2
 70
     0
 43
0.0
 10
-83.41248007661747
 20
88.9770519076913
 42
0.4399017163416538
 10
-83.2283831603179
 20
88.16176556407896
 42
1.420463844013505
  0
LWPOLYLINE
  5
283
330
18
100
AcDbEntity
  8
0
100
AcDbPolyline
 90
        3
 70
     0
 43
0.0
 10
-83.57027743344564
 20
88.9770519076913
 42
0.3027756377319909
 10
-83.72807479027384
 20
88.26696380196443
 42
-0.1832840762310319
 10
-83.72807479027384
 20
87.97766864777941
 42
-1.112048750273477
  0
LWPOLYLINE
  5
288
330
18
100
AcDbEntity
  8
0
100
AcDbPolyline
 90
        3
 70
     0
 43
0.0
 10
-85.34094182716021
 20
75.40393092245335
 42
0.3296781664134957
 10
-84.21006076989149
 20
75.29873268456788
 42
-0.4508030939065348
 10
-83.78926781834962
 20
75.16723488721106
 42
1.722485635434686
  0
LWPOLYLINE
  5
28D
330
18
100
AcDbEntity
  8
0
100
AcDbPolyline
 90
        3
 70
     0
 43
0.0
 10
-85.28834270821747
 20
76.08771946870885
 42
-0.2867962264113207
 10
-83.97336473464919
 20
76.08771946870885
 42
0.7955126203174102
 10
-83.78926781834962
 20
76.2718163850084
 42
-4.872708338192043
  0
LWPOLYLINE
  5
292
330
18
100
AcDbEntity
  8
0
100
AcDbPolyline
 90
        2
 70
     0
 43
0.0
 10
-85.60393742187386
 20
76.5874110986648
 42
-0.3490217686556491
 10
-85.23574358927474
 20
76.92930537179257
 42
-1.153487961692701
  0
LWPOLYLINE
  5
296
330
18
100
AcDbEntity
  8
0
100
AcDbPolyline
 90
        3
 70
     0
 43
0.0
 10
-83.31587574786505
 20
76.03512034976612
 42
-0.2881457277204127
 10
-84.18376121042014
 20
75.69322607663838
 42
-0.222117693934828
 10
-83.28957618839368
 20
75.32503224403924
 42
-5.655388355256556
  0
LWPOLYLINE
  5
29B
330
18
100
AcDbEntity
  8
0
100
AcDbPolyline
 90
        2
 70
     0
 43
0.0
 10
-84.42045724566241
 20
79.69075911628594
 42
0.0803043894501428
 10
-84.63085372143334
 20
79.40146396210093
 42
-0.4933843848061687
  0
LWPOLYLINE
  5
29F
330
18
100
AcDbEntity
  8
0
100
AcDbPolyline
 90
        2
 70
     0
 43
0.0
 10
-83.0528801531514
 20
81.82102343346656
 10
-82.78988455843773
 20
81.74212475505248
  0
LWPOLYLINE
  5
2A3
330
18
100
AcDbEntity
  8
0
100
AcDbPolyline
 90
        3
 70
     0
 43
0.0
 10
-83.89446605623509
 20
85.08216880791591
 42
0.2769839649484253
 10
-83.60517090205007
 20
85.16106748633001
 42
-0.482439088342721
 10
-83.18437795050824
 20
84.60877673743132
 42
2.712854925234341
  0
LWPOLYLINE
  5
2A8
330
18
100
AcDbEntity
  8
0
100
AcDbPolyline
 90
        3
 70
     0
 43
0.0
 10
-84.22776642022979
 20
87.8461708504226
 42
0.4142135623730276
 10
-84.20146686075844
 20
87.79357173147985
 42
0.3152222308190968
 10
-83.57027743344564
 20
87.60947481518028
 42
-0.2474451952323411
  0
LWPOLYLINE
  5
2AD
330
18
100
AcDbEntity
  8
0
100
AcDbPolyline
 90
        2
 70
     0
 43
0.0
 10
-84.04366950393024
 20
88.68775675350628
 10
-84.09626862287296
 20
88.50365983720672
  0
LWPOLYLINE
  5
2B1
330
18
100
AcDbEntity
  8
0
100
AcDbPolyline
 90
        6
 70
     0
 43
0.0
 10
-81.13301231174171
 20
80.37454766254146
 42
0.5059381085888046
 10
-80.81741759808531
 20
80.79534061408329
 10
-80.60702112231439
 20
80.87423929249741
 10
-80.63332068178576
 20
81.32133180351061
 10
-80.42292420601484
 20
81.92622167135203
 42
0.2769839649484418
 10
-80.87001671702806
 20
82.13661814712295
 42
0.2769839649484418
  0
LWPOLYLINE
  5
2B9
330
18
100
AcDbEntity
  8
0
100
AcDbPolyline
 90
        3
 70
     0
 43
0.0
 10
-81.4486070253981
 20
81.89992211188068
 42
0.1984999113329974
 10
-81.86939997693995
 20
81.05833620879696
 42
0.1813345817725127
 10
-81.94829865535405
 20
81.42653004139608
 42
1.119475456254647
  0
LWPOLYLINE
  5
2BE
330
18
100
AcDbEntity
  8
0
100
AcDbPolyline
 90
        2
 70
     0
 43
0.0
 10
-82.44799028531
 20
82.42591330130798
 42
-0.0644493418629158
 10
-82.07979645271086
 20
80.82164017355466
 42
1.878278991793144
  0
ARC
  5
2C2
330
18
100
AcDbEntity
  8
0
100
AcDbCircle
 10
-79.47238298512125
 20
77.72204923585802
 30
0.0
 40
1.503888277293375
100
AcDbArc
 50
147.3421771655852
 51
182.1475854282993
  0
ARC
  5
2C3
330
18
100
AcDbEntity
  8
0
100
AcDbCircle
 10
-78.96329865535413
 20
77.67884281672647
 30
0.0
 40
1.848561593685762
100
AcDbArc
 50
158.7283910759513
 51
188.5912254322281
  0
LWPOLYLINE
  5
2C4
330
18
100
AcDbEntity
  8
0
100
AcDbPolyline
 90
        6
 70
     0
 43
0.0
 10
-80.26512684918664
 20
76.64001021760753
 42
-0.2264917919524371
 10
-80.29142640865799
 20
77.21860052597758
 42
0.0948827173357332
 10
-80.15992861130118
 20
77.84978995329035
 42
0.8653196843662776
 10
-79.76543521923069
 20
78.3494815832463
 10
-79.81803433817342
 20
78.84917321320225
 42
0.817771773741099
 10
-80.37032508707211
 20
78.90177233214498
 42
-0.0156826856253269
  0
LWPOLYLINE
  5
2CC
330
18
100
AcDbEntity
  8
0
100
AcDbPolyline
 90
       12
 70
     0
 43
0.0
 10
-81.42230746592673
 20
78.61247717795996
 42
0.492401497450519
 10
-80.71221936019986
 20
78.95437145108772
 42
0.5078321657924681
 10
-80.94891539544216
 20
79.21736704580137
 42
0.3801993223490292
 10
-81.60640438222628
 20
78.82287365373088
 42
-0.1188980799889335
 10
-81.76420173905448
 20
78.55987805901722
 42
0.2512769866093785
 10
-81.26451010909853
 20
78.08648598853264
 42
0.4814104987070611
 10
-80.50182288442892
 20
76.19291770659433
 42
0.2033469471805331
 10
-80.02843081394434
 20
76.24551682553705
 42
0.3391896672502274
 10
-79.87063345711615
 20
76.61371065813617
 42
0.3842216491850205
 10
-79.94953213553026
 20
76.66630977707891
 42
0.4000000000000207
 10
-80.47552332495756
 20
76.40331418236525
 42
-0.3431077501416175
 10
-81.29080966856989
 20
76.85040669337846
 42
2.2861121655575
  0
LWPOLYLINE
  5
2DA
330
18
100
AcDbEntity
  8
0
100
AcDbPolyline
 90
        2
 70
     0
 43
0.0
 10
-81.42230746592673
 20
77.2711996449203
 42
0.3748025148308367
 10
-80.42292420601484
 20
76.53481197972206
 42
0.0076732679050535
  0
LWPOLYLINE
  5
2DE
330
18
100
AcDbEntity
  8
0
100
AcDbPolyline
 90
        3
 70
     0
 43
0.0
 10
-80.73851891967121
 20
79.13846836738727
 10
-80.26512684918664
 20
79.71705867575732
 42
-0.6605520070344612
 10
-82.26389336901043
 20
80.61124369778374
 42
-0.005876959408545
  0
LWPOLYLINE
  5
2E3
330
18
100
AcDbEntity
  8
0
100
AcDbPolyline
 90
        5
 70
     0
 43
0.0
 10
-81.92199909588268
 20
80.45344634095556
 42
-0.5884033489985458
 10
-81.55380526328356
 20
80.69014237619784
 42
-0.3974923182479539
 10
-81.47490658486946
 20
80.45344634095556
 10
-81.42230746592673
 20
80.40084722201283
 42
-0.0827625302982087
 10
-81.13301231174171
 20
80.37454766254146
 42
0.3408596606624
  0
LWPOLYLINE
  5
2EA
330
18
100
AcDbEntity
  8
0
100
AcDbPolyline
 90
        6
 70
     0
 43
0.0
 10
-80.87001671702806
 20
82.13661814712295
 10
-80.92261583597078
 20
82.29441550395113
 42
0.1390132534661051
 10
-81.63270394169765
 20
81.84732299293793
 42
0.2052577019546351
 10
-81.4486070253981
 20
82.61001021760753
 10
-81.73790217958311
 20
82.66260933655027
 42
0.5489458918550547
 10
-81.86939997693995
 20
83.18860052597758
 42
0.5489458918550547
  0
TEXT
  5
2FF
330
18
100
AcDbEntity
  8
ADPDIM
100
AcDbText
 10
-108.233366331199
 20
63.94274527547857
 30
0.0
 40
0.5
  1
J U L I U S  B L U M  &  C O . ,  I N C .      ( 8 0 0 )  5 2 6 - 6 2 9 3        W W W . J U L I U S B L U M . C O M        P A R T  N o .  5 2 0
 41
1.25
  7
ARIAL_WIDE
 72
     1
 11
-82.49453618113079
 21
64.44274527547857
 31
0.0
100
AcDbText
 73
     3
  0
ENDSEC
  0
SECTION
  2
OBJECTS
  0
DICTIONARY
  5
C
330
0
100
AcDbDictionary
  3
ACAD_GROUP
350
D
  3
ACAD_LAYOUT
350
2F8
  3
ACAD_MLINESTYLE
350
E
  3
ACAD_PLOTSETTINGS
350
2F9
  3
ACAD_PLOTSTYLENAME
350
2F6
  3
ACDBHEADERROUNDTRIPXREC
350
447
  3
ACDBVARIABLEDICTIONARY
350
359
  0
DICTIONARY
  5
353
330
18
100
AcDbDictionary
280
     1
  3
ACAD_LAYOUTSELFREF
360
468
  0
DICTIONARY
  5
351
330
15
100
AcDbDictionary
280
     1
  3
ACAD_LAYOUTSELFREF
360
467
  0
DICTIONARY
  5
D
102
{ACAD_REACTORS
330
C
102
}
330
C
100
AcDbDictionary
  0
DICTIONARY
  5
2F8
102
{ACAD_REACTORS
330
C
102
}
330
C
100
AcDbDictionary
  0
DICTIONARY
  5
E
102
{ACAD_REACTORS
330
C
102
}
330
C
100
AcDbDictionary
  3
STANDARD
350
1B
  0
DICTIONARY
  5
2F9
102
{ACAD_REACTORS
330
C
102
}
330
C
100
AcDbDictionary
  0
ACDBDICTIONARYWDFLT
  5
2F6
102
{ACAD_REACTORS
330
C
102
}
330
C
100
AcDbDictionary
281
     1
  3
Normal
350
2F7
100
AcDbDictionaryWithDefault
340
2F7
  0
DICTIONARY
  5
447
102
{ACAD_REACTORS
330
C
102
}
330
C
100
AcDbDictionary
  3
CEPSNTYPE
350
451
  3
FINGERPRINTGUID
350
452
  3
HYPERLINKBASE
350
44A
  3
INSUNITS
350
450
  3
LAYOUTDICT
350
44C
  3
LWETCUNION
350
44F
  3
PLOTSETDICT
350
44D
  3
PLOTSTYLNAMDICT
350
44E
  3
PSVPSCALE
350
454
  3
PUCSBASE
350
457
  3
PUCSORGBACK
350
45D
  3
PUCSORGBOTTOM
350
459
  3
PUCSORGFRONT
350
45C
  3
PUCSORGLEFT
350
45A
  3
PUCSORGRIGHT
350
45B
  3
PUCSORGTOP
350
458
  3
PUCSORTHOREF
350
455
  3
PUCSORTHOVIEW
350
456
  3
STYLESHEET
350
44B
  3
TSTACKALIGN
350
448
  3
TSTACKSIZE
350
449
  3
UCSBASE
350
460
  3
UCSORGBACK
350
466
  3
UCSORGBOTTOM
350
462
  3
UCSORGFRONT
350
465
  3
UCSORGLEFT
350
463
  3
UCSORGRIGHT
350
464
  3
UCSORGTOP
350
461
  3
UCSORTHOREF
350
45E
  3
UCSORTHOVIEW
350
45F
  3
VERSIONGUID
350
453
  0
DICTIONARY
  5
359
102
{ACAD_REACTORS
330
C
102
}
330
C
100
AcDbDictionary
  3
DIMASSOC
350
35A
  0
XRECORD
  5
468
102
{ACAD_REACTORS
330
353
102
}
330
353
100
AcDbXrecord
340
18
  0
XRECORD
  5
467
102
{ACAD_REACTORS
330
351
102
}
330
351
100
AcDbXrecord
340
15
  0
MLINESTYLE
  5
1B
102
{ACAD_REACTORS
330
E
102
}
330
E
100
AcDbMlineStyle
  2
STANDARD
 70
     0
  3

 62
     0
 51
90.0
 52
90.0
 71
     2
 49
0.5
 62
   256
  6
BYLAYER
 49
-0.5
 62
   256
  6
BYLAYER
  0
ACDBPLACEHOLDER
  5
2F7
102
{ACAD_REACTORS
330
2F6
102
}
330
2F6
100
AcDbPlaceHolder
280
     0
  0
XRECORD
  5
451
102
{ACAD_REACTORS
330
447
102
}
330
447
100
AcDbXrecord
 90
        0
  0
XRECORD
  5
452
102
{ACAD_REACTORS
330
447
102
}
330
447
100
AcDbXrecord
  1
{2A0F5255-3E70-410E-B152-01AD2DFE6EEA}
  0
XRECORD
  5
44A
102
{ACAD_REACTORS
330
447
102
}
330
447
100
AcDbXrecord
  1

  0
XRECORD
  5
450
102
{ACAD_REACTORS
330
447
102
}
330
447
100
AcDbXrecord
 90
        0
  0
XRECORD
  5
44C
102
{ACAD_REACTORS
330
447
102
}
330
447
100
AcDbXrecord
340
2F8
  0
XRECORD
  5
44F
102
{ACAD_REACTORS
330
447
102
}
330
447
100
AcDbXrecord
 90
    14877
  0
XRECORD
  5
44D
102
{ACAD_REACTORS
330
447
102
}
330
447
100
AcDbXrecord
340
2F9
  0
XRECORD
  5
44E
102
{ACAD_REACTORS
330
447
102
}
330
447
100
AcDbXrecord
340
2F6
  0
XRECORD
  5
454
102
{ACAD_REACTORS
330
447
102
}
330
447
100
AcDbXrecord
 40
0.0
  0
XRECORD
  5
457
102
{ACAD_REACTORS
330
447
102
}
330
447
100
AcDbXrecord
340
0
  0
XRECORD
  5
45D
102
{ACAD_REACTORS
330
447
102
}
330
447
100
AcDbXrecord
 10
0.0
 20
0.0
 30
0.0
  0
XRECORD
  5
459
102
{ACAD_REACTORS
330
447
102
}
330
447
100
AcDbXrecord
 10
0.0
 20
0.0
 30
0.0
  0
XRECORD
  5
45C
102
{ACAD_REACTORS
330
447
102
}
330
447
100
AcDbXrecord
 10
0.0
 20
0.0
 30
0.0
  0
XRECORD
  5
45A
102
{ACAD_REACTORS
330
447
102
}
330
447
100
AcDbXrecord
 10
0.0
 20
0.0
 30
0.0
  0
XRECORD
  5
45B
102
{ACAD_REACTORS
330
447
102
}
330
447
100
AcDbXrecord
 10
0.0
 20
0.0
 30
0.0
  0
XRECORD
  5
458
102
{ACAD_REACTORS
330
447
102
}
330
447
100
AcDbXrecord
 10
0.0
 20
0.0
 30
0.0
  0
XRECORD
  5
455
102
{ACAD_REACTORS
330
447
102
}
330
447
100
AcDbXrecord
340
0
  0
XRECORD
  5
456
102
{ACAD_REACTORS
330
447
102
}
330
447
100
AcDbXrecord
 70
     0
  0
XRECORD
  5
44B
102
{ACAD_REACTORS
330
447
102
}
330
447
100
AcDbXrecord
  1

  0
XRECORD
  5
448
102
{ACAD_REACTORS
330
447
102
}
330
447
100
AcDbXrecord
 90
        1
  0
XRECORD
  5
449
102
{ACAD_REACTORS
330
447
102
}
330
447
100
AcDbXrecord
 90
       70
  0
XRECORD
  5
460
102
{ACAD_REACTORS
330
447
102
}
330
447
100
AcDbXrecord
340
0
  0
XRECORD
  5
466
102
{ACAD_REACTORS
330
447
102
}
330
447
100
AcDbXrecord
 10
0.0
 20
0.0
 30
0.0
  0
XRECORD
  5
462
102
{ACAD_REACTORS
330
447
102
}
330
447
100
AcDbXrecord
 10
0.0
 20
0.0
 30
0.0
  0
XRECORD
  5
465
102
{ACAD_REACTORS
330
447
102
}
330
447
100
AcDbXrecord
 10
0.0
 20
0.0
 30
0.0
  0
XRECORD
  5
463
102
{ACAD_REACTORS
330
447
102
}
330
447
100
AcDbXrecord
 10
0.0
 20
0.0
 30
0.0
  0
XRECORD
  5
464
102
{ACAD_REACTORS
330
447
102
}
330
447
100
AcDbXrecord
 10
0.0
 20
0.0
 30
0.0
  0
XRECORD
  5
461
102
{ACAD_REACTORS
330
447
102
}
330
447
100
AcDbXrecord
 10
0.0
 20
0.0
 30
0.0
  0
XRECORD
  5
45E
102
{ACAD_REACTORS
330
447
102
}
330
447
100
AcDbXrecord
340
0
  0
XRECORD
  5
45F
102
{ACAD_REACTORS
330
447
102
}
330
447
100
AcDbXrecord
 70
     0
  0
XRECORD
  5
453
102
{ACAD_REACTORS
330
447
102
}
330
447
100
AcDbXrecord
  1
{62DD962A-B177-46AF-982B-B08076880716}
  0
DICTIONARYVAR
  5
35A
102
{ACAD_REACTORS
330
359
102
}
330
359
100
DictionaryVariables
280
     0
  1
1
  0
ENDSEC
  0
EOF
