  0
SECTION
  2
HEADER
  9
$ACADVER
  1
AC1014
  9
$ACADMAINTVER
 70
     9
  9
$DWGCODEPAGE
  3
ANSI_1252
  9
$INSBASE
 10
13.12203216992432
 20
-6.397198515597771
 30
0.0
  9
$EXTMIN
 10
-19.02518296144707
 20
-8.642183525589482
 30
0.0
  9
$EXTMAX
 10
45.32189241372345
 20
26.18719831260916
 30
0.0
  9
$LIMMIN
 10
0.0
 20
0.0
  9
$LIMMAX
 10
36.0
 20
36.0
  9
$ORTHOMODE
 70
     1
  9
$REGENMODE
 70
     1
  9
$FILLMODE
 70
     1
  9
$QTEXTMODE
 70
     0
  9
$MIRRTEXT
 70
     1
  9
$DRAGMODE
 70
     0
  9
$LTSCALE
 40
1.0
  9
$OSMODE
 70
    37
  9
$ATTMODE
 70
     1
  9
$TEXTSIZE
 40
0.2
  9
$TRACEWID
 40
0.05
  9
$TEXTSTYLE
  7
STANDARD
  9
$CLAYER
  8
ADPDIM
  9
$CELTYPE
  6
BYLAYER
  9
$CECOLOR
 62
   256
  9
$CELTSCALE
 40
1.0
  9
$DELOBJ
 70
     1
  9
$DISPSILH
 70
     0
  9
$DIMSCALE
 40
1.0
  9
$DIMASZ
 40
0.125
  9
$DIMEXO
 40
0.0625
  9
$DIMDLI
 40
0.38
  9
$DIMRND
 40
0.0
  9
$DIMDLE
 40
0.0
  9
$DIMEXE
 40
0.18
  9
$DIMTP
 40
0.0
  9
$DIMTM
 40
0.0
  9
$DIMTXT
 40
0.125
  9
$DIMCEN
 40
0.1875
  9
$DIMTSZ
 40
0.125
  9
$DIMTOL
 70
     0
  9
$DIMLIM
 70
     0
  9
$DIMTIH
 70
     0
  9
$DIMTOH
 70
     0
  9
$DIMSE1
 70
     0
  9
$DIMSE2
 70
     0
  9
$DIMTAD
 70
     0
  9
$DIMZIN
 70
     3
  9
$DIMBLK
  1

  9
$DIMASO
 70
     1
  9
$DIMSHO
 70
     1
  9
$DIMPOST
  1

  9
$DIMAPOST
  1

  9
$DIMALT
 70
     0
  9
$DIMALTD
 70
     1
  9
$DIMALTF
 40
25.4
  9
$DIMLFAC
 40
1.0
  9
$DIMTOFL
 70
     0
  9
$DIMTVP
 40
0.0
  9
$DIMTIX
 70
     0
  9
$DIMSOXD
 70
     0
  9
$DIMSAH
 70
     0
  9
$DIMBLK1
  1

  9
$DIMBLK2
  1

  9
$DIMSTYLE
  2
STANDARD
  9
$DIMCLRD
 70
     0
  9
$DIMCLRE
 70
     0
  9
$DIMCLRT
 70
     0
  9
$DIMTFAC
 40
1.0
  9
$DIMGAP
 40
0.125
  9
$DIMJUST
 70
     0
  9
$DIMSD1
 70
     0
  9
$DIMSD2
 70
     0
  9
$DIMTOLJ
 70
     1
  9
$DIMTZIN
 70
     0
  9
$DIMALTZ
 70
     0
  9
$DIMALTTZ
 70
     0
  9
$DIMFIT
 70
     3
  9
$DIMUPT
 70
     0
  9
$DIMUNIT
 70
     2
  9
$DIMDEC
 70
     4
  9
$DIMTDEC
 70
     4
  9
$DIMALTU
 70
     2
  9
$DIMALTTD
 70
     2
  9
$DIMTXSTY
  7
STANDARD
  9
$DIMAUNIT
 70
     0
  9
$LUNITS
 70
     5
  9
$LUPREC
 70
     4
  9
$SKETCHINC
 40
0.1
  9
$FILLETRAD
 40
0.062
  9
$AUNITS
 70
     0
  9
$AUPREC
 70
     0
  9
$MENU
  1
acad
  9
$ELEVATION
 40
0.0
  9
$PELEVATION
 40
0.0
  9
$THICKNESS
 40
0.0
  9
$LIMCHECK
 70
     0
  9
$BLIPMODE
 70
     0
  9
$CHAMFERA
 40
0.0
  9
$CHAMFERB
 40
0.0
  9
$CHAMFERC
 40
0.0
  9
$CHAMFERD
 40
0.0
  9
$SKPOLY
 70
     0
  9
$TDCREATE
 40
2450407.549994398
  9
$TDUPDATE
 40
2452297.071932141
  9
$TDINDWG
 40
0.0298223495
  9
$TDUSRTIMER
 40
0.0298223495
  9
$USRTIMER
 70
     1
  9
$ANGBASE
 50
0.0
  9
$ANGDIR
 70
     0
  9
$PDMODE
 70
     0
  9
$PDSIZE
 40
0.0
  9
$PLINEWID
 40
0.0
  9
$COORDS
 70
     2
  9
$SPLFRAME
 70
     0
  9
$SPLINETYPE
 70
     6
  9
$SPLINESEGS
 70
     8
  9
$ATTDIA
 70
     0
  9
$ATTREQ
 70
     1
  9
$HANDLING
 70
 22529
  9
$HANDSEED
  5
67D
  9
$SURFTAB1
 70
     6
  9
$SURFTAB2
 70
     6
  9
$SURFTYPE
 70
     6
  9
$SURFU
 70
     6
  9
$SURFV
 70
     6
  9
$UCSNAME
  2

  9
$UCSORG
 10
0.0
 20
0.0
 30
0.0
  9
$UCSXDIR
 10
1.0
 20
0.0
 30
0.0
  9
$UCSYDIR
 10
0.0
 20
1.0
 30
0.0
  9
$PUCSNAME
  2

  9
$PUCSORG
 10
0.0
 20
0.0
 30
0.0
  9
$PUCSXDIR
 10
1.0
 20
0.0
 30
0.0
  9
$PUCSYDIR
 10
0.0
 20
1.0
 30
0.0
  9
$USERI1
 70
     0
  9
$USERI2
 70
     0
  9
$USERI3
 70
     0
  9
$USERI4
 70
     0
  9
$USERI5
 70
     0
  9
$USERR1
 40
0.0
  9
$USERR2
 40
0.0
  9
$USERR3
 40
0.0
  9
$USERR4
 40
0.0
  9
$USERR5
 40
0.0
  9
$WORLDVIEW
 70
     1
  9
$SHADEDGE
 70
     3
  9
$SHADEDIF
 70
    70
  9
$TILEMODE
 70
     1
  9
$MAXACTVP
 70
    15
  9
$PINSBASE
 10
0.0008545038290322
 20
1.250283272183907
 30
0.0
  9
$PLIMCHECK
 70
     0
  9
$PEXTMIN
 10
1.000000000000000E+20
 20
1.000000000000000E+20
 30
1.000000000000000E+20
  9
$PEXTMAX
 10
-1.000000000000000E+20
 20
-1.000000000000000E+20
 30
-1.000000000000000E+20
  9
$PLIMMIN
 10
0.0
 20
0.0
  9
$PLIMMAX
 10
12.0
 20
9.0
  9
$UNITMODE
 70
     0
  9
$VISRETAIN
 70
     0
  9
$PLINEGEN
 70
     0
  9
$PSLTSCALE
 70
     1
  9
$TREEDEPTH
 70
  3020
  9
$PICKSTYLE
 70
     1
  9
$CMLSTYLE
  2
STANDARD
  9
$CMLJUST
 70
     0
  9
$CMLSCALE
 40
1.0
  9
$PROXYGRAPHICS
 70
     1
  9
$MEASUREMENT
 70
     0
  0
ENDSEC
  0
SECTION
  2
CLASSES
  0
CLASS
  1
ACDBDICTIONARYWDFLT
  2
AcDbDictionaryWithDefault
  3
AutoCAD 2000
 90
        0
280
     0
281
     0
  0
CLASS
  1
ACDBPLACEHOLDER
  2
AcDbPlaceHolder
  3
AutoCAD 2000
 90
        0
280
     0
281
     0
  0
CLASS
  1
LAYOUT
  2
AcDbLayout
  3
AutoCAD 2000
 90
        0
280
     0
281
     0
  0
CLASS
  1
DICTIONARYVAR
  2
AcDbDictionaryVar
  3
AutoCAD 2000
 90
        0
280
     0
281
     0
  0
CLASS
  1
LONG_TRANSACTION
  2
AcDbLongTransaction
  3
AutoCAD 2000
 90
        0
280
     0
281
     0
  0
CLASS
  1
LWPOLYLINE
  2
AcDbPolyline
  3
AutoCAD 2000
 90
        0
280
     0
281
     1
  0
CLASS
  1
HATCH
  2
AcDbHatch
  3
AutoCAD 2000
 90
        0
280
     0
281
     1
  0
CLASS
  1
XRECORD
  2
AcDbXrecord
  3
AutoCAD 2000
 90
        0
280
     0
281
     0
  0
CLASS
  1
LONG_TRANSACTION
  2
AcDbLongTransaction
  3
AutoCAD 2000
 90
        0
280
     0
281
     0
  0
CLASS
  1
LWPOLYLINE
  2
AcDbPolyline
  3
AutoCAD 2000
 90
        0
280
     0
281
     1
  0
CLASS
  1
HATCH
  2
AcDbHatch
  3
AutoCAD 2000
 90
        0
280
     0
281
     1
  0
CLASS
  1
XRECORD
  2
AcDbXrecord
  3
AutoCAD 2000
 90
        0
280
     0
281
     0
  0
CLASS
  1
LONG_TRANSACTION
  2
AcDbLongTransaction
  3
AutoCAD 2000
 90
        0
280
     0
281
     0
  0
CLASS
  1
LWPOLYLINE
  2
AcDbPolyline
  3
AutoCAD 2000
 90
        0
280
     0
281
     1
  0
CLASS
  1
HATCH
  2
AcDbHatch
  3
AutoCAD 2000
 90
        0
280
     0
281
     1
  0
CLASS
  1
XRECORD
  2
AcDbXrecord
  3
AutoCAD 2000
 90
        0
280
     0
281
     0
  0
CLASS
  1
LONG_TRANSACTION
  2
AcDbLongTransaction
  3
AutoCAD 2000
 90
        0
280
     0
281
     0
  0
CLASS
  1
LWPOLYLINE
  2
AcDbPolyline
  3
AutoCAD 2000
 90
        0
280
     0
281
     1
  0
CLASS
  1
HATCH
  2
AcDbHatch
  3
AutoCAD 2000
 90
        0
280
     0
281
     1
  0
CLASS
  1
XRECORD
  2
AcDbXrecord
  3
AutoCAD 2000
 90
        0
280
     0
281
     0
  0
CLASS
  1
LONG_TRANSACTION
  2
AcDbLongTransaction
  3
AutoCAD 2000
 90
        0
280
     0
281
     0
  0
CLASS
  1
LWPOLYLINE
  2
AcDbPolyline
  3
AutoCAD 2000
 90
        0
280
     0
281
     1
  0
CLASS
  1
HATCH
  2
AcDbHatch
  3
AutoCAD 2000
 90
        0
280
     0
281
     1
  0
CLASS
  1
XRECORD
  2
AcDbXrecord
  3
AutoCAD 2000
 90
        0
280
     0
281
     0
  0
CLASS
  1
LONG_TRANSACTION
  2
AcDbLongTransaction
  3
AutoCAD 2000
 90
        0
280
     0
281
     0
  0
CLASS
  1
LWPOLYLINE
  2
AcDbPolyline
  3
AutoCAD 2000
 90
        0
280
     0
281
     1
  0
CLASS
  1
HATCH
  2
AcDbHatch
  3
AutoCAD 2000
 90
        0
280
     0
281
     1
  0
CLASS
  1
XRECORD
  2
AcDbXrecord
  3
AutoCAD 2000
 90
        0
280
     0
281
     0
  0
ENDSEC
  0
SECTION
  2
TABLES
  0
TABLE
  2
VPORT
  5
8
330
0
100
AcDbSymbolTable
 70
     2
  0
VPORT
  5
65A
330
8
100
AcDbSymbolTableRecord
100
AcDbViewportTableRecord
  2
*ACTIVE
 70
     0
 10
0.0
 20
0.0
 11
1.0
 21
1.0
 12
13.20053388254621
 22
8.772436935805009
 13
0.0
 23
0.0
 14
0.5740882589684922
 24
0.5740882589684922
 15
0.5
 25
0.5
 16
0.0
 26
0.0
 36
1.0
 17
0.0
 27
0.0
 37
0.0
 40
41.23906888928352
 41
1.570528967254408
 42
50.0
 43
0.0
 44
0.0
 50
0.0
 51
0.0
 71
     0
 72
   100
 73
     1
 74
     0
 75
     0
 76
     0
 77
     0
 78
     0
  0
ENDTAB
  0
TABLE
  2
LTYPE
  5
5
330
0
100
AcDbSymbolTable
 70
     1
  0
LTYPE
  5
12
330
5
100
AcDbSymbolTableRecord
100
AcDbLinetypeTableRecord
  2
BYBLOCK
 70
     0
  3

 72
    65
 73
     0
 40
0.0
  0
LTYPE
  5
13
330
5
100
AcDbSymbolTableRecord
100
AcDbLinetypeTableRecord
  2
BYLAYER
 70
     0
  3

 72
    65
 73
     0
 40
0.0
  0
LTYPE
  5
14
330
5
100
AcDbSymbolTableRecord
100
AcDbLinetypeTableRecord
  2
CONTINUOUS
 70
     0
  3
Solid line
 72
    65
 73
     0
 40
0.0
  0
ENDTAB
  0
TABLE
  2
LAYER
  5
2
330
0
100
AcDbSymbolTable
 70
     4
  0
LAYER
  5
F
330
2
100
AcDbSymbolTableRecord
100
AcDbLayerTableRecord
  2
0
 70
     0
 62
     7
  6
CONTINUOUS
  0
LAYER
  5
55
330
2
100
AcDbSymbolTableRecord
100
AcDbLayerTableRecord
  2
ADP1DETAIL
 70
     0
 62
     7
  6
CONTINUOUS
  0
LAYER
  5
57
330
2
100
AcDbSymbolTableRecord
100
AcDbLayerTableRecord
  2
DEFPOINTS
 70
     0
 62
     7
  6
CONTINUOUS
  0
LAYER
  5
58
330
2
100
AcDbSymbolTableRecord
100
AcDbLayerTableRecord
  2
ADPDIM
 70
     0
 62
     3
  6
CONTINUOUS
  0
ENDTAB
  0
TABLE
  2
STYLE
  5
3
330
0
100
AcDbSymbolTable
 70
     2
  0
STYLE
  5
10
330
3
100
AcDbSymbolTableRecord
100
AcDbTextStyleTableRecord
  2
STANDARD
 70
     0
 40
0.0
 41
1.0
 50
0.0
 71
     0
 42
0.2
  3
txt
  4

  0
STYLE
  5
512
330
3
100
AcDbSymbolTableRecord
100
AcDbTextStyleTableRecord
  2
ARIAL_WIDE
 70
     0
 40
0.0
 41
1.25
 50
0.0
 71
     0
 42
0.2
  3
ARIAL.TTF
  4

1001
ACAD
1000
Arial
1071
       34
  0
ENDTAB
  0
TABLE
  2
VIEW
  5
6
330
0
100
AcDbSymbolTable
 70
     0
  0
ENDTAB
  0
TABLE
  2
UCS
  5
7
330
0
100
AcDbSymbolTable
 70
     0
  0
ENDTAB
  0
TABLE
  2
APPID
  5
9
330
0
100
AcDbSymbolTable
 70
     1
  0
APPID
  5
11
330
9
100
AcDbSymbolTableRecord
100
AcDbRegAppTableRecord
  2
ACAD
 70
     0
  0
ENDTAB
  0
TABLE
  2
DIMSTYLE
  5
A
330
0
100
AcDbSymbolTable
 70
     1
  0
DIMSTYLE
105
506
330
A
100
AcDbSymbolTableRecord
100
AcDbDimStyleTableRecord
  2
STANDARD
 70
     0
  3

  4

  5

  6

  7

 40
1.0
 41
0.18
 42
0.0625
 43
0.38
 44
0.18
 45
0.0
 46
0.0
 47
0.0
 48
0.0
140
0.18
141
0.09
142
0.0
143
25.4
144
1.0
145
0.0
146
1.0
147
0.09
 71
     0
 72
     0
 73
     1
 74
     1
 75
     0
 76
     0
 77
     0
 78
     0
170
     0
171
     2
172
     0
173
     0
174
     0
175
     0
176
     0
177
     0
178
     0
270
     2
271
     4
272
     4
273
     2
274
     2
340
10
275
     0
280
     0
281
     0
282
     0
283
     1
284
     0
285
     0
286
     0
287
     3
288
     0
  0
ENDTAB
  0
TABLE
  2
BLOCK_RECORD
  5
1
330
0
100
AcDbSymbolTable
 70
     2
  0
BLOCK_RECORD
  5
18
102
{ACAD_XDICTIONARY
360
567
102
}
330
1
100
AcDbSymbolTableRecord
100
AcDbBlockTableRecord
  2
*MODEL_SPACE
  0
BLOCK_RECORD
  5
15
102
{ACAD_XDICTIONARY
360
565
102
}
330
1
100
AcDbSymbolTableRecord
100
AcDbBlockTableRecord
  2
*PAPER_SPACE
  0
BLOCK_RECORD
  5
4F
330
1
100
AcDbSymbolTableRecord
100
AcDbBlockTableRecord
  2
*D0
  0
BLOCK_RECORD
  5
51
330
1
100
AcDbSymbolTableRecord
100
AcDbBlockTableRecord
  2
*D1
  0
ENDTAB
  0
ENDSEC
  0
SECTION
  2
BLOCKS
  0
BLOCK
  5
5B
330
18
100
AcDbEntity
  8
0
100
AcDbBlockBegin
  2
*MODEL_SPACE
 70
     0
 10
0.0
 20
0.0
 30
0.0
  3
*MODEL_SPACE
  1

  0
ENDBLK
  5
5C
330
18
100
AcDbEntity
  8
0
100
AcDbBlockEnd
  0
BLOCK
  5
59
330
15
100
AcDbEntity
 67
     1
  8
0
100
AcDbBlockBegin
  2
*PAPER_SPACE
 70
     0
 10
0.0
 20
0.0
 30
0.0
  3
*PAPER_SPACE
  1

  0
ENDBLK
  5
5A
330
15
100
AcDbEntity
 67
     1
  8
0
100
AcDbBlockEnd
  0
BLOCK
  5
5E
330
4F
100
AcDbEntity
  8
0
100
AcDbBlockBegin
  2
*D0
 70
     1
 10
0.0
 20
0.0
 30
0.0
  3
*D0
  1

  0
LINE
  5
5F
330
4F
100
AcDbEntity
  8
0
  6
BYBLOCK
 62
     0
100
AcDbLine
 10
9.317129707530932
 20
25.14812931656296
 30
0.0
 11
9.317129707530932
 21
26.60684320393523
 31
0.0
  0
LINE
  5
60
330
4F
100
AcDbEntity
  8
0
  6
BYBLOCK
 62
     0
100
AcDbLine
 10
16.94212970753093
 20
25.14812931656296
 30
0.0
 11
16.94212970753093
 21
26.60684320393523
 31
0.0
  0
LINE
  5
61
330
4F
100
AcDbEntity
  8
0
  6
BYBLOCK
 62
     0
100
AcDbLine
 10
9.317129707530932
 20
26.42684320393522
 30
0.0
 11
12.71296304086426
 21
26.42684320393522
 31
0.0
  0
LINE
  5
62
330
4F
100
AcDbEntity
  8
0
  6
BYBLOCK
 62
     0
100
AcDbLine
 10
16.94212970753093
 20
26.42684320393522
 30
0.0
 11
13.54629637419759
 21
26.42684320393522
 31
0.0
  0
LINE
  5
63
330
4F
100
AcDbEntity
  8
0
  6
BYBLOCK
 62
     0
100
AcDbLine
 10
9.192129707530932
 20
26.30184320393523
 30
0.0
 11
9.442129707530932
 21
26.55184320393523
 31
0.0
  0
LINE
  5
64
330
4F
100
AcDbEntity
  8
0
  6
BYBLOCK
 62
     0
100
AcDbLine
 10
16.81712970753093
 20
26.30184320393523
 30
0.0
 11
17.06712970753093
 21
26.55184320393523
 31
0.0
  0
TEXT
  5
65
330
4F
100
AcDbEntity
  8
0
  6
BYBLOCK
 62
     0
100
AcDbText
 10
12.83796304086426
 20
26.36434320393522
 30
0.0
 40
0.125
  1
7 5/8
 72
     1
 11
13.12962970753093
 21
26.42684320393522
 31
0.0
100
AcDbText
 73
     2
  0
POINT
  5
66
330
4F
100
AcDbEntity
  8
DEFPOINTS
  6
BYBLOCK
 62
     0
100
AcDbPoint
 10
9.317129707530932
 20
25.08562931656296
 30
0.0
  0
POINT
  5
67
330
4F
100
AcDbEntity
  8
DEFPOINTS
  6
BYBLOCK
 62
     0
100
AcDbPoint
 10
16.94212970753093
 20
25.08562931656296
 30
0.0
  0
POINT
  5
68
330
4F
100
AcDbEntity
  8
DEFPOINTS
  6
BYBLOCK
 62
     0
100
AcDbPoint
 10
16.94212970753093
 20
26.42684320393522
 30
0.0
  0
ENDBLK
  5
69
330
4F
100
AcDbEntity
  8
0
100
AcDbBlockEnd
  0
BLOCK
  5
6A
330
51
100
AcDbEntity
  8
0
100
AcDbBlockBegin
  2
*D1
 70
     1
 10
0.0
 20
0.0
 30
0.0
  3
*D1
  1

  0
LINE
  5
6B
330
51
100
AcDbEntity
  8
0
  6
BYBLOCK
 62
     0
100
AcDbLine
 10
13.90225653491882
 20
-6.450874426450486
 30
0.0
 11
17.49021898724332
 21
-6.450874426450486
 31
0.0
  0
LINE
  5
6C
330
51
100
AcDbEntity
  8
0
  6
BYBLOCK
 62
     0
100
AcDbLine
 10
15.50959500412846
 20
25.54912557354951
 30
0.0
 11
17.49021898724332
 21
25.54912557354951
 31
0.0
  0
LINE
  5
6D
330
51
100
AcDbEntity
  8
0
  6
BYBLOCK
 62
     0
100
AcDbLine
 10
17.31021898724332
 20
-6.450874426450486
 30
0.0
 11
17.31021898724332
 21
9.319958906882845
 31
0.0
  0
LINE
  5
6E
330
51
100
AcDbEntity
  8
0
  6
BYBLOCK
 62
     0
100
AcDbLine
 10
17.31021898724332
 20
25.54912557354951
 30
0.0
 11
17.31021898724332
 21
9.778292240216178
 31
0.0
  0
LINE
  5
6F
330
51
100
AcDbEntity
  8
0
  6
BYBLOCK
 62
     0
100
AcDbLine
 10
17.43521898724332
 20
-6.575874426450486
 30
0.0
 11
17.18521898724332
 21
-6.325874426450486
 31
0.0
  0
LINE
  5
70
330
51
100
AcDbEntity
  8
0
  6
BYBLOCK
 62
     0
100
AcDbLine
 10
17.43521898724332
 20
25.42412557354951
 30
0.0
 11
17.18521898724332
 21
25.67412557354951
 31
0.0
  0
TEXT
  5
71
330
51
100
AcDbEntity
  8
0
  6
BYBLOCK
 62
     0
100
AcDbText
 10
17.37271898724332
 20
9.444958906882845
 30
0.0
 40
0.125
  1
32
 50
90.0
 72
     1
 11
17.31021898724332
 21
9.549125573549511
 31
0.0
100
AcDbText
 73
     2
  0
POINT
  5
72
330
51
100
AcDbEntity
  8
DEFPOINTS
  6
BYBLOCK
 62
     0
100
AcDbPoint
 10
13.83975653491882
 20
-6.450874426450486
 30
0.0
  0
POINT
  5
73
330
51
100
AcDbEntity
  8
DEFPOINTS
  6
BYBLOCK
 62
     0
100
AcDbPoint
 10
15.44709500412846
 20
25.54912557354951
 30
0.0
  0
POINT
  5
74
330
51
100
AcDbEntity
  8
DEFPOINTS
  6
BYBLOCK
 62
     0
100
AcDbPoint
 10
17.31021898724332
 20
25.54912557354951
 30
0.0
  0
ENDBLK
  5
75
330
51
100
AcDbEntity
  8
0
100
AcDbBlockEnd
  0
ENDSEC
  0
SECTION
  2
ENTITIES
  0
DIMENSION
  5
76
330
18
100
AcDbEntity
  8
ADPDIM
100
AcDbDimension
  2
*D1
 10
17.31021898724332
 20
25.54912557354951
 30
0.0
 11
17.31021898724332
 21
9.549125573549511
 31
0.0
100
AcDbAlignedDimension
 13
13.83975653491882
 23
-6.450874426450486
 33
0.0
 14
15.44709500412846
 24
25.54912557354951
 34
0.0
 50
90.0
100
AcDbRotatedDimension
  0
LWPOLYLINE
  5
77
330
18
100
AcDbEntity
  8
ADP1DETAIL
100
AcDbPolyline
 90
        5
 70
     0
 43
0.0
 10
15.82292590028308
 20
14.60827592490673
 42
-0.2807244158575407
 10
15.93829051008241
 20
14.41608882710369
 42
-0.151716262613884
 10
16.2715659137342
 20
14.63390095130141
 42
-0.2201475936049709
 10
16.5663863892664
 20
14.31358896158778
 42
0.1270098401251381
 10
16.5663863892664
 20
14.51858857258817
 42
1.56365442244834
  0
LWPOLYLINE
  5
7E
330
18
100
AcDbEntity
  8
ADP1DETAIL
100
AcDbPolyline
 90
        5
 70
     0
 43
0.0
 10
15.93829051008241
 20
14.41608882710369
 42
0.1165065942214269
 10
15.8485624026565
 20
13.5320275770526
 42
0.2420360847311167
 10
15.96392701245583
 20
13.36546538561283
 42
-0.4327342260295135
 10
15.89983558196281
 20
13.21171558733898
 42
-0.2099286587383687
 10
15.79728939790967
 20
13.64733995576585
 42
-0.8322016410720454
  0
LWPOLYLINE
  5
85
330
18
100
AcDbEntity
  8
ADP1DETAIL
100
AcDbPolyline
 90
        2
 70
     0
 43
0.0
 10
12.79781111416247
 20
14.31358896158778
 42
-0.6672547950876555
 10
13.75918222243878
 20
13.71140240172114
 42
1.181020123374656
  0
LWPOLYLINE
  5
89
330
18
100
AcDbEntity
  8
ADP1DETAIL
100
AcDbPolyline
 90
        2
 70
     0
 43
0.0
 10
11.1698890240231
 20
13.77546472764501
 42
-0.4398820516437695
 10
10.28542742286705
 20
14.58265101854346
 42
-1.002233308557887
  0
LWPOLYLINE
  5
8D
330
18
100
AcDbEntity
  8
ADP1DETAIL
100
AcDbPolyline
 90
        3
 70
     0
 43
0.0
 10
12.28507967021834
 20
13.91640201272152
 42
-0.5485708352446455
 10
11.91334951300641
 20
14.68515088405936
 42
-0.3280116621885531
 10
13.64381778719893
 20
14.78765074957526
 42
0.2955527483392677
  0
LWPOLYLINE
  5
92
330
18
100
AcDbEntity
  8
ADP1DETAIL
100
AcDbPolyline
 90
        3
 70
     0
 43
0.0
 10
12.60553682268342
 20
14.48015115302756
 42
-0.4447791439806372
 10
13.46436174690658
 20
14.5954635317408
 42
-0.1233499227881228
 10
13.81045540174509
 20
14.10858923055599
 42
0.6828799999933852
  0
LWPOLYLINE
  5
97
330
18
100
AcDbEntity
  8
ADP1DETAIL
100
AcDbPolyline
 90
       11
 70
     0
 43
0.0
 10
14.81028161270046
 20
10.61078213003794
 10
15.74601621860336
 20
12.03296737396895
 42
-0.2197340455940109
 10
15.78447114672296
 20
12.30202955095605
 42
-0.3303340569189785
 10
15.82292590028308
 20
12.80171624530679
 42
-0.2422017615265586
 10
15.45119574307116
 20
13.8395271736003
 42
-0.1668816410996993
 10
15.82292590028308
 20
14.62108843810407
 42
0.1577244647323099
 10
15.22046652347252
 20
15.8382740710347
 42
-0.0387782420341621
 10
14.42573302974237
 20
16.23546101990096
 42
-0.2761095925539058
 10
14.32318684568922
 20
16.58139791597785
 42
-0.2386501882288337
 10
14.82309986388718
 20
16.61983533553847
 42
-0.159824250278718
 10
15.87419907958939
 20
15.50514956812373
 42
0.6351410670173547
  0
LWPOLYLINE
  5
A4
330
18
100
AcDbEntity
  8
ADP1DETAIL
100
AcDbPolyline
 90
       15
 70
     0
 43
0.0
 10
15.56656017831102
 20
10.67484457599322
 10
16.16901955512159
 20
12.17390465904546
 42
0.3004637227076945
 10
16.33565734422721
 20
12.28921703775871
 42
0.1979079648586157
 10
16.42538527709365
 20
12.76327882574618
 42
0.3106188607264771
 10
16.9252982952916
 20
13.51921518388668
 42
0.2197270319416531
 10
16.84838861361188
 20
13.92921452591886
 42
-0.0282721500564952
 10
16.74584225499927
 20
14.4929636662249
 42
0.8301821165029622
 10
16.79711543430557
 20
14.62108843810407
 42
0.5187409726033259
 10
16.5663863892664
 20
14.4929636662249
 42
0.1089477787684301
 10
15.70756129048376
 20
16.33796076538545
 42
-0.4143195972254074
 10
15.8870173307761
 20
16.74796022744905
 42
0.4951382058537488
 10
16.41256702590695
 20
17.01702228440472
 42
0.3638797095354218
 10
16.00238194057542
 20
17.37577169367896
 42
0.0650105544356822
 10
15.46401399425787
 20
17.31170936775509
 42
0.3767023184532995
 10
15.39992256376485
 20
17.04264719076799
 42
0.6022312186821233
  0
LWPOLYLINE
  5
B5
330
18
100
AcDbEntity
  8
ADP1DETAIL
100
AcDbPolyline
 90
        8
 70
     0
 43
0.0
 10
10.59306632414543
 20
12.68640386659355
 42
0.3303906435840923
 10
13.24645095305411
 20
12.4942167687905
 42
0.339190130700342
 10
13.93863826273112
 20
14.08296432419271
 42
0.3888226750215461
 10
12.95163047752192
 20
15.17202506521276
 42
0.2421057738519873
 10
11.77234840083368
 20
14.69796327722529
 42
0.5014936126537842
 10
12.00307744587285
 20
13.64733995576585
 42
0.4997105560247933
 10
12.65681000198973
 20
14.00608936504008
 42
-0.4908450065052074
 10
13.48999842383947
 20
13.1476532614151
 42
1.153268798668446
  0
LWPOLYLINE
  5
BF
330
18
100
AcDbEntity
  8
ADP1DETAIL
100
AcDbPolyline
 90
        7
 70
     0
 43
0.0
 10
10.69561250819857
 20
15.9407739365506
 42
0.2129719460439556
 10
10.25979092049363
 20
14.81327565593853
 42
0.5415921821305699
 10
11.22116220332941
 20
14.22390160926922
 42
-0.244116597289913
 10
11.23398045451612
 20
13.64733995576585
 42
-0.3703807643010641
 10
11.14425252164969
 20
13.60890253620524
 42
-0.4249989627967373
 10
11.1570707728364
 20
13.09640332865715
 42
-0.349943114285749
 10
9.888060763281718
 20
13.96765194547947
 42
-1.350285254999781
  0
LWPOLYLINE
  5
C8
330
18
100
AcDbEntity
  8
ADP1DETAIL
100
AcDbPolyline
 90
        2
 70
     0
 43
0.0
 10
10.27260917168034
 20
13.09640332865715
 42
-0.3374678046243494
 10
10.34951885336007
 20
16.24827341306689
 42
-0.4802621196368557
  0
LINE
  5
CC
330
18
100
AcDbEntity
  8
ADP1DETAIL
100
AcDbLine
 10
13.30622077165478
 20
2.914874856190368
 30
0.0
 11
13.30622077165478
 21
0.4880617288910223
 31
0.0
  0
LINE
  5
CD
330
18
100
AcDbEntity
  8
ADP1DETAIL
100
AcDbLine
 10
12.9518769172377
 20
0.4880617288910223
 30
0.0
 11
12.9518769172377
 21
2.914874856190368
 31
0.0
  0
LWPOLYLINE
  5
CE
330
18
100
AcDbEntity
  8
ADP1DETAIL
100
AcDbPolyline
 90
        7
 70
     0
 43
0.0
 10
9.795456930049713
 20
2.103179895938425
 42
0.3664345063787265
 10
9.50035749951748
 20
1.15124481318232
 42
0.1357742685506941
 10
10.01007468182428
 20
0.72220354927705
 42
0.3343738279110574
 10
10.42589645575543
 20
0.8562789367378291
 42
0.1910215411077282
 10
10.23810598847927
 20
1.21828250691271
 42
-0.1114536747743737
 10
9.902765718568208
 20
1.298727691327626
 42
-0.3846000086009367
 10
9.795456930049713
 20
1.55347085541078
 42
1.407931890043513
  0
LWPOLYLINE
  5
D7
330
18
100
AcDbEntity
  8
ADP1DETAIL
100
AcDbPolyline
 90
        7
 70
     0
 43
0.0
 10
16.47543451955977
 20
2.103179895938425
 42
-0.3664345063787265
 10
16.770533950092
 20
1.15124481318232
 42
-0.1357742685506941
 10
16.2608167677852
 20
0.72220354927705
 42
-0.3343738279110574
 10
15.84499499385405
 20
0.8562789367378291
 42
-0.1910215411077282
 10
16.03278546113021
 20
1.21828250691271
 42
0.1114536747743737
 10
16.36812573104127
 20
1.298727691327626
 42
0.3846000086009367
 10
16.47543451955977
 20
1.55347085541078
 42
-1.407931890043513
  0
LWPOLYLINE
  5
E0
330
18
100
AcDbEntity
  8
ADP1DETAIL
100
AcDbPolyline
 90
       23
 70
     0
 43
0.0
 10
12.71962377613602
 20
-0.2029164319561243
 42
0.0733425183315709
 10
12.07577052081231
 20
1.405987977265474
 42
0.2550114755167834
 10
11.1502313898368
 20
1.928881916270188
 42
0.485034910804086
 10
10.57344625839033
 20
1.486433161680391
 42
-0.7024496056690296
 10
10.19786514910044
 20
1.902066814747256
 42
0.2656687297449763
 10
10.09055636058193
 20
1.499840772518796
 42
0.077717528546846
 10
10.46613729513425
 20
1.338950283535084
 42
-0.2714512347057898
 10
10.93561363806222
 20
1.030576916406067
 42
-0.4740451554375194
 10
10.88195924380297
 20
0.6819809570695919
 42
0.1710015890950142
 10
10.35882850661576
 20
0.7758337523229129
 42
0.0113643893454308
 10
10.56003252877233
 20
0.4808679960323011
 42
-0.7204518593891694
 10
10.43931018537341
 20
0.4808679960323011
 42
-0.067896268210944
 10
10.47955102475225
 20
0.1993096102723362
 42
-0.2395321097590703
 10
10.43931018537341
 20
0.1188644258574198
 42
-0.5433092007654702
 10
10.33200122211735
 20
0.159087018064878
 42
-0.1766519643521699
 10
9.94300655794704
 20
-0.4174370038318207
 42
-0.5452093178177525
 10
9.393048536261414
 20
-0.2699541256865139
 42
0.1261474887386881
 10
9.621080017653969
 20
0.159087018064878
 42
0.2695108245006868
 10
9.56742544865715
 20
0.440645283670964
 42
-0.2361634918583257
 10
9.285739747742912
 20
1.513248263203323
 42
-0.3165009754992543
 10
9.84911132430896
 20
2.129994997461358
 42
-0.2548339375796893
 10
12.39769706110538
 20
1.727768835079019
 42
-0.1457735092932011
 10
12.98789592216984
 20
0.1456795273803513
 42
-1.069941345787881
  0
LWPOLYLINE
  5
F9
330
18
100
AcDbEntity
  8
ADP1DETAIL
100
AcDbPolyline
 90
       23
 70
     0
 43
0.0
 10
13.55126767347345
 20
-0.2029164319561243
 42
-0.0733425183315709
 10
14.19512092879717
 20
1.405987977265474
 42
-0.2550114755167834
 10
15.12066005977268
 20
1.928881916270188
 42
-0.485034910804086
 10
15.69744519121915
 20
1.486433161680391
 42
0.7024496056690296
 10
16.07302630050904
 20
1.902066814747256
 42
-0.2656687297449763
 10
16.18033508902754
 20
1.499840772518796
 42
-0.077717528546846
 10
15.80475415447523
 20
1.338950283535084
 42
0.2714512347057898
 10
15.33527781154726
 20
1.030576916406067
 42
0.4740451554375194
 10
15.3889322058065
 20
0.6819809570695919
 42
-0.1710015890950142
 10
15.91206294299372
 20
0.7758337523229129
 42
-0.0113643893454308
 10
15.71085892083715
 20
0.4808679960323011
 42
0.7204518593891694
 10
15.83158126423606
 20
0.4808679960323011
 42
0.067896268210944
 10
15.79134042485723
 20
0.1993096102723362
 42
0.2395321097590703
 10
15.83158126423606
 20
0.1188644258574198
 42
0.5433092007654702
 10
15.93889022749213
 20
0.159087018064878
 42
0.1766519643521699
 10
16.32788489166244
 20
-0.4174370038318207
 42
0.5452093178177525
 10
16.87784291334807
 20
-0.2699541256865139
 42
-0.1261474887386881
 10
16.64981143195551
 20
0.159087018064878
 42
-0.2695108245006868
 10
16.70346600095233
 20
0.440645283670964
 42
0.2361634918583257
 10
16.98515170186657
 20
1.513248263203323
 42
0.3165009754992543
 10
16.42178012530052
 20
2.129994997461358
 42
0.2548339375796893
 10
13.87319438850409
 20
1.727768835079019
 42
0.1457735092932011
 10
13.28299552743964
 20
0.1456795273803513
 42
1.069941345787881
  0
LWPOLYLINE
  5
112
330
18
100
AcDbEntity
  8
ADP1DETAIL
100
AcDbPolyline
 90
        4
 70
     0
 43
0.0
 10
13.14885927968516
 20
-5.860897085908531
 42
0.4155006568341284
 10
12.61231481287995
 20
-5.123482575028122
 42
0.2082361598007462
 10
11.67336212702401
 20
-5.539116228094987
 42
-0.0611745730017515
 10
11.04292260131829
 20
-6.196085434406602
 42
-0.0611745730017515
  0
LWPOLYLINE
  5
118
330
18
100
AcDbEntity
  8
ADP1DETAIL
100
AcDbPolyline
 90
       18
 70
     0
 43
0.0
 10
13.14885927968516
 20
-6.397198515597771
 42
-0.3873423838496417
 10
12.15625219956998
 20
-5.968157371846379
 42
-0.1896841450061784
 10
11.41850371060818
 20
-6.383791024913245
 42
-0.302059718266316
 10
11.05633615619872
 20
-6.209493045245007
 42
-0.267663955465322
 10
10.3051741123565
 20
-6.289938229659923
 42
-0.4196234368325938
 10
10.25151954335968
 20
-5.351410637588344
 42
-0.4640608976887469
 10
10.62710065264957
 20
-5.364818248426749
 42
0.2840742915475789
 10
10.78806401016489
 20
-5.63296890319443
 42
0.2910893758446544
 10
11.32460830223253
 20
-5.445263432841665
 42
-0.042469364540296
 10
12.02211612655307
 20
-4.975999576728937
 42
-0.3076639517375238
 10
10.72099588628765
 20
-3.380502658191864
 42
-0.0644222707877434
 10
10.70758233140724
 20
-2.348122391020842
 42
-0.3311787836748978
 10
11.86115276903774
 20
-1.597300269302027
 42
-0.3464622703242118
 10
12.37086995134454
 20
-2.053156514576351
 42
-0.4994314747784837
 10
11.98187528717423
 20
-2.468790167643216
 42
-0.4737127007846424
 10
11.78067109028009
 20
-2.160416800514199
 42
-0.4610635855228665
 10
12.12942491507156
 20
-2.012933922368892
 42
-0.809179200383577
 10
12.03552968143348
 20
-2.374937492543773
 42
0.021810295580568
  0
LWPOLYLINE
  5
12C
330
18
100
AcDbEntity
  8
ADP1DETAIL
100
AcDbPolyline
 90
        4
 70
     0
 43
0.0
 10
13.12203216992432
 20
-5.860897085908531
 42
-0.4155006568341284
 10
13.65857663672953
 20
-5.123482575028122
 42
-0.2082361598007462
 10
14.59752932258546
 20
-5.539116228094987
 42
0.0611745730017515
 10
15.22796884829118
 20
-6.196085434406602
 42
0.0611745730017515
  0
LWPOLYLINE
  5
132
330
18
100
AcDbEntity
  8
ADP1DETAIL
100
AcDbPolyline
 90
        3
 70
     0
 43
0.0
 10
10.45272374025384
 20
-6.343568432705787
 42
-0.2954426072692756
 10
10.39906934599458
 20
-5.981564862530905
 42
-0.1430082967097362
 10
10.66734149202841
 20
-5.56593120946404
 42
2.683007610686281
  0
ARC
  5
137
330
18
100
AcDbEntity
  8
ADP1DETAIL
100
AcDbCircle
 10
9.936652330560701
 20
-4.501958422919161
 30
0.0
 40
2.671345786136054
100
AcDbArc
 50
326.7110554716353
 51
342.0643548376157
  0
ARC
  5
138
330
18
100
AcDbEntity
  8
ADP1DETAIL
100
AcDbCircle
 10
16.33423911904878
 20
-4.501958422919161
 30
0.0
 40
2.671345786136054
100
AcDbArc
 50
197.9356451623842
 51
213.2889445283647
  0
LWPOLYLINE
  5
139
330
18
100
AcDbEntity
  8
ADP1DETAIL
100
AcDbPolyline
 90
        3
 70
     0
 43
0.0
 10
15.81816770935564
 20
-6.343568432705787
 42
0.2954426072692756
 10
15.8718221036149
 20
-5.981564862530905
 42
0.1430082967097362
 10
15.60354995758107
 20
-5.56593120946404
 42
-2.683007610686281
  0
LWPOLYLINE
  5
13E
330
18
100
AcDbEntity
  8
ADP1DETAIL
100
AcDbPolyline
 90
       18
 70
     0
 43
0.0
 10
13.12203216992432
 20
-6.397198515597771
 42
0.3873423838496417
 10
14.1146392500395
 20
-5.968157371846379
 42
0.1896841450061784
 10
14.85238773900129
 20
-6.383791024913245
 42
0.302059718266316
 10
15.21455529341076
 20
-6.209493045245007
 42
0.267663955465322
 10
15.96571733725298
 20
-6.289938229659923
 42
0.4196234368325938
 10
16.0193719062498
 20
-5.351410637588344
 42
0.4640608976887469
 10
15.6437907969599
 20
-5.364818248426749
 42
-0.2840742915475789
 10
15.48282743944458
 20
-5.63296890319443
 42
-0.2910893758446544
 10
14.94628314737695
 20
-5.445263432841665
 42
0.042469364540296
 10
14.24877532305641
 20
-4.975999576728937
 42
0.3076639517375238
 10
15.54989556332182
 20
-3.380502658191864
 42
0.0644222707877434
 10
15.56330911820224
 20
-2.348122391020842
 42
0.3311787836748978
 10
14.40973868057174
 20
-1.597300269302027
 42
0.3464622703242118
 10
13.90002149826493
 20
-2.053156514576351
 42
0.4994314747784837
 10
14.28901616243525
 20
-2.468790167643216
 42
0.4737127007846424
 10
14.49022035932939
 20
-2.160416800514199
 42
0.4610635855228665
 10
14.14146653453792
 20
-2.012933922368892
 42
0.809179200383577
 10
14.235361768176
 20
-2.374937492543773
 42
-0.021810295580568
  0
ARC
  5
152
330
18
100
AcDbEntity
  8
ADP1DETAIL
100
AcDbCircle
 10
13.39564160784921
 20
-8.192695745460522
 30
0.0
 40
2.238185089123757
100
AcDbArc
 50
96.33030467801296
 51
116.0961667704045
  0
ARC
  5
153
330
18
100
AcDbEntity
  8
ADP1DETAIL
100
AcDbCircle
 10
12.87524984176027
 20
-8.192695745460522
 30
0.0
 40
2.238185089123757
100
AcDbArc
 50
63.9038332295955
 51
83.66969532198705
  0
LWPOLYLINE
  5
154
330
18
100
AcDbEntity
  8
ADP1DETAIL
100
AcDbPolyline
 90
        9
 70
     0
 43
0.0
 10
12.75986461551485
 20
-3.098944392585778
 42
0.1152061806164302
 10
12.23673387832763
 20
-0.8464782677370914
 42
0.2945905193192325
 10
11.49898521462828
 20
-0.404029513147294
 42
0.2123699153043543
 10
11.05633615619872
 20
-0.6185500850229904
 42
-0.4937673619443988
 10
10.81489111992573
 20
-0.4308446146702254
 42
-0.3027405950593753
 10
11.47215810486743
 20
0.0920493243344884
 42
-0.4640089694594059
 10
11.48557165974785
 20
0.2395323226336732
 42
-0.150569361196104
 10
12.15625219956998
 20
0.1859021195878094
 42
-0.1732722360366772
 10
12.26356098808847
 20
0.4540528945093687
 42
-0.4507750857531169
  0
ARC
  5
15F
330
18
100
AcDbEntity
  8
ADP1DETAIL
100
AcDbCircle
 10
10.32600301812644
 20
-0.1406003095458139
 30
0.0
 40
4.038990718688904
100
AcDbArc
 50
302.6490608380321
 51
306.3437527894547
  0
LWPOLYLINE
  5
160
330
18
100
AcDbEntity
  8
ADP1DETAIL
100
AcDbPolyline
 90
        3
 70
     0
 43
0.0
 10
12.75986461551485
 20
-4.560365923662071
 42
-0.9316527367696192
 10
12.51841957924187
 20
-4.466513248562628
 42
-0.0009298363546827
 10
12.42452434560379
 20
-3.581615739383033
 42
0.9011887465274435
  0
LWPOLYLINE
  5
165
330
18
100
AcDbEntity
  8
ADP1DETAIL
100
AcDbPolyline
 90
       10
 70
     0
 43
0.0
 10
12.1964930389488
 20
-4.89555439231402
 42
-0.3702986960977041
 10
11.64653501726317
 20
-4.506735840770086
 42
-0.1803230424295612
 10
11.68677585664201
 20
-4.144732270595206
 42
-0.8265625677725642
 10
11.78067109028009
 20
-4.171547372118137
 42
-0.1715653452777415
 10
11.96846155755624
 20
-4.372660453309306
 42
-0.2189837372298826
 10
11.95504800267582
 20
-3.822951412781661
 42
-0.1158072519790087
 10
12.26356098808847
 20
-3.420725370553201
 42
-0.2516394827946404
 10
12.42452434560379
 20
-3.581615739383033
 42
-0.2736024539033155
 10
12.62572854249794
 20
-3.139167104947115
 42
-0.0068464387682096
 10
13.14885927968516
 20
-3.031906698855388
 42
10.57638303478138
  0
LWPOLYLINE
  5
171
330
18
100
AcDbEntity
  8
ADP1DETAIL
100
AcDbPolyline
 90
        4
 70
     0
 43
0.0
 10
12.03552968143348
 20
-4.989407187567342
 42
0.0710360258390212
 10
12.73303733101644
 20
-4.935776984521478
 42
0.2911309008001793
 10
12.94765508279101
 20
-4.721256412645782
 42
0.076163246243792
 10
13.13544572480474
 20
-3.930211698719509
 42
1.08451947205321
  0
ARC
  5
177
330
18
100
AcDbEntity
  8
ADP1DETAIL
100
AcDbCircle
 10
12.56395121551468
 20
1.278649231779422
 30
0.0
 40
0.8650211752078272
100
AcDbArc
 50
249.6799741689455
 51
268.7609968693038
  0
LWPOLYLINE
  5
178
330
18
100
AcDbEntity
  8
ADP1DETAIL
100
AcDbPolyline
 90
        3
 70
     0
 43
0.0
 10
12.22332014870965
 20
-0.8062555553757544
 42
-0.0922736427034162
 10
12.78669172527569
 20
-0.1761013304331929
 42
-0.1525212692859962
 10
13.14885927968516
 20
-0.0420259429724128
 42
38.56527058854272
  0
LWPOLYLINE
  5
17D
330
18
100
AcDbEntity
  8
ADP1DETAIL
100
AcDbPolyline
 90
        6
 70
     0
 43
0.0
 10
11.37826287122935
 20
-1.972711330161434
 42
-0.5146882852516309
 10
11.63312146238275
 20
-2.334714780182436
 42
-0.5003215282991535
 10
11.37826287122935
 20
-2.415160084751232
 42
0.2360877408925316
 10
11.20388595883362
 20
-2.629680656626927
 42
-0.1182590017842755
 10
10.94902736768021
 20
-3.233019780046558
 42
0.2004372312199391
 10
10.93561363806222
 20
-3.983841901765372
 42
-1.472686120833017
  0
LWPOLYLINE
  5
185
330
18
100
AcDbEntity
  8
ADP1DETAIL
100
AcDbPolyline
 90
        3
 70
     0
 43
0.0
 10
12.12942491507156
 20
-2.026341533207298
 42
0.3016606057869011
 10
11.2843674628537
 20
-2.012933922368892
 42
0.1762395276333027
 10
10.68075504690883
 20
-2.803978636295165
 42
-0.7351720928989383
  0
LWPOLYLINE
  5
18A
330
18
100
AcDbEntity
  8
ADP1DETAIL
100
AcDbPolyline
 90
        3
 70
     0
 43
0.0
 10
11.43191726548861
 20
-3.782728820574203
 42
0.1122550406333888
 10
11.49898521462828
 20
-4.225177575164
 42
0.4945797228478532
 10
11.59288062300392
 20
-4.251992676686931
 42
3.015456683534438
  0
LWPOLYLINE
  5
18F
330
18
100
AcDbEntity
  8
ADP1DETAIL
100
AcDbPolyline
 90
        5
 70
     0
 43
0.0
 10
11.13681783495637
 20
-2.871016330025555
 42
-0.0383882213462374
 10
11.82091192965891
 20
-2.777163534772233
 42
-0.4124336794828762
 10
12.0489432363139
 20
-2.978276615963403
 42
-0.2836444310724366
 10
11.8074983747785
 20
-3.434132861237727
 42
0.395963240905139
 10
11.44533082036902
 20
-3.782728820574203
 42
-0.0710993621672522
  0
LWPOLYLINE
  5
196
330
18
100
AcDbEntity
  8
ADP1DETAIL
100
AcDbPolyline
 90
        4
 70
     0
 43
0.0
 10
11.78067109028009
 20
-3.447540351922254
 10
11.86115276903774
 20
-3.474355453445185
 42
0.0990637142276508
 10
11.83432548453933
 20
-3.796136311258729
 42
0.6116406744968882
 10
11.9416344477954
 20
-3.836359023620066
 42
2.581109417550795
  0
LWPOLYLINE
  5
19C
330
18
100
AcDbEntity
  8
ADP1DETAIL
100
AcDbPolyline
 90
        4
 70
     0
 43
0.0
 10
10.06372907608352
 20
0.7087960585925233
 42
-0.2133663213978095
 10
10.21127870398086
 20
0.4272377929864373
 42
-0.5895146465682232
 10
9.902765718568208
 20
0.2395323226336732
 42
-0.4803250782269312
 10
9.406462265879401
 20
-0.2967692272094462
 42
0.0357423829107279
  0
LWPOLYLINE
  5
1A2
330
18
100
AcDbEntity
  8
ADP1DETAIL
100
AcDbPolyline
 90
        6
 70
     0
 43
0.0
 10
12.41111079072337
 20
-0.5246972897696685
 42
0.2146529929664194
 10
11.7940846451605
 20
-0.0286184522878861
 42
0.1629711270865016
 10
11.4050899809902
 20
-0.0554335538108184
 10
11.47215810486743
 20
-0.122471247541208
 42
0.0392240425665506
 10
11.06974971107913
 20
-0.2029164319561243
 42
0.2009491907280842
 10
11.06974971107913
 20
-0.6051425943384637
 42
-1.502969744592803
  0
LWPOLYLINE
  5
1AA
330
18
100
AcDbEntity
  8
ADP1DETAIL
100
AcDbPolyline
 90
        9
 70
     0
 43
0.0
 10
13.51102683409463
 20
-3.098944392585778
 42
-0.1152061806164302
 10
14.03415757128184
 20
-0.8464782677370914
 42
-0.2945905193192325
 10
14.7719062349812
 20
-0.404029513147294
 42
-0.2123699153043543
 10
15.21455529341076
 20
-0.6185500850229904
 42
0.4937673619443988
 10
15.45600032968375
 20
-0.4308446146702254
 42
0.3027405950593753
 10
14.79873334474205
 20
0.0920493243344884
 42
0.4640089694594059
 10
14.78531978986162
 20
0.2395323226336732
 42
0.150569361196104
 10
14.1146392500395
 20
0.1859021195878094
 42
0.1732722360366772
 10
14.00733046152101
 20
0.4540528945093687
 42
0.4507750857531169
  0
LWPOLYLINE
  5
1B5
330
18
100
AcDbEntity
  8
ADP1DETAIL
100
AcDbPolyline
 90
        6
 70
     0
 43
0.0
 10
14.89262857838013
 20
-1.972711330161434
 42
0.5146882852516309
 10
14.63776998722672
 20
-2.334714780182436
 42
0.5003215282991535
 10
14.89262857838013
 20
-2.415160084751232
 42
-0.2360877408925316
 10
15.06700549077586
 20
-2.629680656626927
 42
0.1182590017842755
 10
15.32186408192926
 20
-3.233019780046558
 42
-0.2004372312199391
 10
15.33527781154726
 20
-3.983841901765372
 42
1.472686120833017
  0
LWPOLYLINE
  5
1BD
330
18
100
AcDbEntity
  8
ADP1DETAIL
100
AcDbPolyline
 90
        3
 70
     0
 43
0.0
 10
14.14146653453792
 20
-2.026341533207298
 42
-0.3016606057869011
 10
14.98652398675578
 20
-2.012933922368892
 42
-0.1762395276333027
 10
15.59013640270065
 20
-2.803978636295165
 42
0.7351720928989383
  0
LWPOLYLINE
  5
1C2
330
18
100
AcDbEntity
  8
ADP1DETAIL
100
AcDbPolyline
 90
        5
 70
     0
 43
0.0
 10
15.1340736146531
 20
-2.871016330025555
 42
0.0383882213462374
 10
14.44997951995057
 20
-2.777163534772233
 42
0.4124336794828762
 10
14.22194821329558
 20
-2.978276615963403
 42
0.2836444310724366
 10
14.46339307483098
 20
-3.434132861237727
 42
-0.395963240905139
 10
14.82556062924046
 20
-3.782728820574203
 42
0.0710993621672522
  0
LWPOLYLINE
  5
1C9
330
18
100
AcDbEntity
  8
ADP1DETAIL
100
AcDbPolyline
 90
        3
 70
     0
 43
0.0
 10
14.83897418412087
 20
-3.782728820574203
 42
-0.1122550406333888
 10
14.7719062349812
 20
-4.225177575164
 42
-0.4945797228478532
 10
14.67801082660556
 20
-4.251992676686931
 42
-3.015456683534438
  0
LWPOLYLINE
  5
1CE
330
18
100
AcDbEntity
  8
ADP1DETAIL
100
AcDbPolyline
 90
        3
 70
     0
 43
0.0
 10
13.51102683409463
 20
-4.560365923662071
 42
0.9316527367696192
 10
13.75247187036761
 20
-4.466513248562628
 42
0.0009298363546827
 10
13.84636710400569
 20
-3.581615739383033
 42
-0.9011887465274435
  0
LWPOLYLINE
  5
1D3
330
18
100
AcDbEntity
  8
ADP1DETAIL
100
AcDbPolyline
 90
       10
 70
     0
 43
0.0
 10
14.07439841066068
 20
-4.89555439231402
 42
0.3702986960977041
 10
14.6243564323463
 20
-4.506735840770086
 42
0.1803230424295612
 10
14.58411559296747
 20
-4.144732270595206
 42
0.8265625677725642
 10
14.49022035932939
 20
-4.171547372118137
 42
0.1715653452777415
 10
14.30242989205323
 20
-4.372660453309306
 42
0.2189837372298826
 10
14.31584344693366
 20
-3.822951412781661
 42
0.1158072519790087
 10
14.00733046152101
 20
-3.420725370553201
 42
0.2516394827946404
 10
13.84636710400569
 20
-3.581615739383033
 42
0.2736024539033155
 10
13.64516290711153
 20
-3.139167104947115
 42
0.0068464387682096
 10
13.12203216992432
 20
-3.031906698855388
 42
-10.57638303478138
  0
LWPOLYLINE
  5
1DF
330
18
100
AcDbEntity
  8
ADP1DETAIL
100
AcDbPolyline
 90
        4
 70
     0
 43
0.0
 10
14.235361768176
 20
-4.989407187567342
 42
-0.0710360258390212
 10
13.53785411859304
 20
-4.935776984521478
 42
-0.2911309008001793
 10
13.32323636681847
 20
-4.721256412645782
 42
-0.076163246243792
 10
13.13544572480474
 20
-3.930211698719509
 42
-1.08451947205321
  0
ARC
  5
1E5
330
18
100
AcDbEntity
  8
ADP1DETAIL
100
AcDbCircle
 10
13.13086150030912
 20
-5.022925974355598
 30
0.0
 40
0.1557827953708092
100
AcDbArc
 50
261.7911741242036
 51
98.20882587579626
  0
ARC
  5
1E6
330
18
100
AcDbEntity
  8
ADP1DETAIL
100
AcDbCircle
 10
13.14002994930036
 20
-5.022925974355598
 30
0.0
 40
0.1557827953708092
100
AcDbArc
 50
81.79117412420374
 51
278.2088258757963
  0
ARC
  5
1E7
330
18
100
AcDbEntity
  8
ADP1DETAIL
100
AcDbCircle
 10
15.94488843148304
 20
-0.1406003095458139
 30
0.0
 40
4.038990718688904
100
AcDbArc
 50
233.6562472105453
 51
237.3509391619679
  0
ARC
  5
1E8
330
18
100
AcDbEntity
  8
ADP1DETAIL
100
AcDbCircle
 10
13.23991437036495
 20
-2.78876560042501
 30
0.0
 40
0.7980616344521648
100
AcDbArc
 50
229.3117532136579
 51
263.4485532434155
  0
ARC
  5
1E9
330
18
100
AcDbEntity
  8
ADP1DETAIL
100
AcDbCircle
 10
13.03097707924453
 20
-2.78876560042501
 30
0.0
 40
0.7980616344521648
100
AcDbArc
 50
276.5514467565844
 51
310.688246786342
  0
LWPOLYLINE
  5
1EA
330
18
100
AcDbEntity
  8
ADP1DETAIL
100
AcDbPolyline
 90
        4
 70
     0
 43
0.0
 10
14.49022035932939
 20
-3.447540351922254
 10
14.40973868057174
 20
-3.474355453445185
 42
-0.0990637142276508
 10
14.43656596507014
 20
-3.796136311258729
 42
-0.6116406744968882
 10
14.32925700181408
 20
-3.836359023620066
 42
-2.581109417550795
  0
LWPOLYLINE
  5
1F0
330
18
100
AcDbEntity
  8
ADP1DETAIL
100
AcDbPolyline
 90
        6
 70
     0
 43
0.0
 10
13.85978065888611
 20
-0.5246972897696685
 42
-0.2146529929664194
 10
14.47680680444898
 20
-0.0286184522878861
 42
-0.1629711270865016
 10
14.86580146861928
 20
-0.0554335538108184
 10
14.79873334474205
 20
-0.122471247541208
 42
-0.0392240425665506
 10
15.20114173853035
 20
-0.2029164319561243
 42
-0.2009491907280842
 10
15.20114173853035
 20
-0.6051425943384637
 42
1.502969744592803
  0
LWPOLYLINE
  5
1F8
330
18
100
AcDbEntity
  8
ADP1DETAIL
100
AcDbPolyline
 90
        2
 70
     0
 43
0.0
 10
13.24060157171413
 20
-1.269738087471342
 42
0.367494321818107
 10
12.63914209737836
 20
-0.310176717893972
 42
-0.0350374256997144
  0
LWPOLYLINE
  5
1FC
330
18
100
AcDbEntity
  8
ADP1DETAIL
100
AcDbPolyline
 90
        2
 70
     0
 43
0.0
 10
13.13544572480474
 20
-0.8598857584216172
 42
-0.4870426795746102
 10
13.63174935223112
 20
-0.310176717893972
 42
0.0350374256997144
  0
LWPOLYLINE
  5
200
330
18
100
AcDbEntity
  8
ADP1DETAIL
100
AcDbPolyline
 90
        3
 70
     0
 43
0.0
 10
14.04757130089983
 20
-0.8062555553757544
 42
0.0922736427034162
 10
13.48419972433378
 20
-0.1761013304331929
 42
0.1525212692859962
 10
13.12203216992432
 20
-0.0420259429724128
 42
-38.56527058854272
  0
ARC
  5
205
330
18
100
AcDbEntity
  8
ADP1DETAIL
100
AcDbCircle
 10
13.70694023409479
 20
1.278649231779422
 30
0.0
 40
0.8650211752078272
100
AcDbArc
 50
271.2390031306961
 51
290.3200258310544
  0
LWPOLYLINE
  5
206
330
18
100
AcDbEntity
  8
ADP1DETAIL
100
AcDbPolyline
 90
        4
 70
     0
 43
0.0
 10
16.20716237352595
 20
0.7087960585925233
 42
0.2133663213978095
 10
16.05961274562862
 20
0.4272377929864373
 42
0.5895146465682232
 10
16.36812573104127
 20
0.2395323226336732
 42
0.4803250782269312
 10
16.86442918373008
 20
-0.2967692272094462
 42
-0.0357423829107279
  0
LWPOLYLINE
  5
20C
330
18
100
AcDbEntity
  8
ADP1DETAIL
100
AcDbPolyline
 90
       12
 70
     0
 43
0.0
 10
14.32318684568922
 20
9.252659332062211
 42
-0.1491967646863586
 10
16.15620130393488
 20
8.522347880284982
 42
-0.348104583072528
 10
16.2715659137342
 20
7.369224693309642
 42
0.6081097198168907
 10
16.20747448324118
 20
7.125787542717232
 42
0.310561430301362
 10
16.34847559541393
 20
6.984850257640723
 42
0.158336067322435
 10
16.47665845639996
 20
6.344226278213469
 42
0.562490040031168
 10
16.65611432213283
 20
6.318601251818788
 42
0.2053223614509847
 10
16.83557036242517
 20
5.921414422983942
 42
0.3394176507423258
 10
17.11757258677065
 20
6.062351708060451
 42
-0.2497096900195344
 10
17.00220797697133
 20
6.433913630532027
 42
0.1609877316591486
 10
16.79711543430557
 20
8.586410326240276
 42
0.2446565425699896
 10
14.74619018220745
 20
9.713908606852349
 42
-87.84816598176268
  0
ARC
  5
21A
330
18
100
AcDbEntity
  8
ADP1DETAIL
100
AcDbCircle
 10
15.93578662394202
 20
7.709892363540341
 30
0.0
 40
0.6783598722350698
100
AcDbArc
 50
295.9953922779554
 51
14.67313581955687
  0
LWPOLYLINE
  5
21B
330
18
100
AcDbEntity
  8
ADP1DETAIL
100
AcDbPolyline
 90
        3
 70
     0
 43
0.0
 10
14.81028161270046
 20
7.279537340991082
 42
0.5665087473857426
 10
15.23328494921869
 20
7.612661843902052
 42
0.3956989318479249
 10
14.83591811507389
 20
8.202035890571355
 42
-8.891300556211952
  0
LWPOLYLINE
  5
220
330
18
100
AcDbEntity
  8
ADP1DETAIL
100
AcDbPolyline
 90
        4
 70
     0
 43
0.0
 10
14.68209875171443
 20
7.471724558825543
 42
0.5847178229527917
 10
15.00255572962005
 20
7.676724169825928
 42
0.6022090949562128
 10
14.78464493576757
 20
8.009848672736897
 42
0.1040758554708865
 10
14.05400287253045
 20
7.907348807220997
 42
5.709385435696596
  0
LWPOLYLINE
  5
226
330
18
100
AcDbEntity
  8
ADP1DETAIL
100
AcDbPolyline
 90
        6
 70
     0
 43
0.0
 10
11.79798490320709
 20
7.048912703596015
 42
0.181595490025753
 10
13.46436174690658
 20
9.547346295381156
 42
0.3063353204399344
 10
13.34899731166673
 20
10.11109543568719
 42
-0.1082215738786648
 10
12.55426364337711
 20
10.63640715643262
 42
-0.434954722186839
 10
12.90035729821562
 20
11.0079690789042
 42
-0.4731932900027366
 10
13.43872524453317
 20
11.28984364905721
 42
0.2035530502239649
  0
LWPOLYLINE
  5
22E
330
18
100
AcDbEntity
  8
ADP1DETAIL
100
AcDbPolyline
 90
        6
 70
     0
 43
0.0
 10
12.46453571051068
 20
7.087350123156624
 42
0.0025295616366214
 10
14.70773525408785
 20
9.726721000018276
 42
-0.1858807389484121
 10
15.46401399425787
 20
10.17515788164248
 42
-0.0321414633972897
 10
16.33565734422721
 20
10.29047014032431
 42
0.6585855379390963
 10
16.01520019176213
 20
10.61078213003794
 42
0.4098102806740445
 10
15.66910653692363
 20
10.91828172658564
 42
38.86260352059013
  0
LWPOLYLINE
  5
236
330
18
100
AcDbEntity
  8
ADP1DETAIL
100
AcDbPolyline
 90
       11
 70
     0
 43
0.0
 10
16.36129384660064
 20
6.741413107048315
 42
-0.2785343488641506
 10
15.29737637971171
 20
6.10078912762106
 42
-0.2740861886742953
 10
14.41291477855566
 20
6.638913241532415
 42
-0.2583177316871972
 10
14.38727810162277
 20
7.43328701923352
 42
-0.3594663159354292
 10
14.68209875171443
 20
7.458912045628202
 42
0.2396417723382033
 10
15.29737637971171
 20
6.895162905322165
 42
0.5304831041862434
 10
15.89983558196281
 20
7.535786884749419
 42
0.423470548805159
 10
15.06664716011306
 20
8.227660796934625
 42
0.1766672230081467
 10
14.02836619559756
 20
7.881723900857729
 42
0.2850136278028476
 10
14.22064048707661
 20
6.280163832258177
 42
0.449893463439506
 10
16.50229495877337
 20
6.305788858652859
 42
-0.4566623891679521
  0
LWPOLYLINE
  5
243
330
18
100
AcDbEntity
  8
ADP1DETAIL
100
AcDbPolyline
 90
       17
 70
     0
 43
0.0
 10
11.23398045451612
 20
8.394223108405814
 42
-0.1891575464318801
 10
11.75953014964696
 20
8.535160393482325
 42
-0.3075029348550913
 10
11.58007410935462
 20
7.522974491583492
 42
-0.5340480849615314
 10
11.8108031543938
 20
7.317974760551693
 42
-0.0325879715617701
 10
11.74671172390079
 20
7.023287677201333
 42
-0.1304655819256963
 10
12.40044428001766
 20
7.061725216793356
 42
-0.6141136365865162
 10
12.51580888981699
 20
6.907975418519506
 42
-0.3106343684958235
 10
12.31071634715123
 20
6.395476210971419
 42
-0.1809677781513325
 10
12.5029904640708
 20
6.139226547181668
 42
-0.1150617263440062
 10
12.31071634715123
 20
5.831727070665382
 42
-0.1622541842229204
 10
12.66962825317644
 20
5.562665013709705
 42
-0.2020117190910144
 10
12.56708189456382
 20
5.255165417162005
 42
0.2352280508601621
 10
11.70825697034066
 20
4.986103360206327
 42
0.3428738657326633
 10
11.8108031543938
 20
3.1154812346511
 42
-0.191033317485888
 10
12.40044428001766
 20
3.141106141014367
 42
-0.1623425079423696
 10
12.31071634715123
 20
2.807981638103398
 42
0.3321502289036911
 10
12.96444872870863
 20
2.372357389707944
 42
-0.0267949973927204
  0
ARC
  5
256
330
18
100
AcDbEntity
  8
ADP1DETAIL
100
AcDbCircle
 10
13.93833009853682
 20
5.506864631393297
 30
0.0
 40
3.955504502441117
100
AcDbArc
 50
133.387843233566
 51
230.3330395919135
  0
LWPOLYLINE
  5
257
330
18
100
AcDbEntity
  8
ADP1DETAIL
100
AcDbPolyline
 90
       12
 70
     0
 43
0.0
 10
11.23398045451612
 20
2.231420104631435
 42
-0.3963055968130382
 10
10.72124918513146
 20
8.022661185934239
 42
0.0665748555640158
 10
10.99043315829024
 20
9.04765960103041
 42
0.1388703792043006
 10
10.78534061562448
 20
9.521721389017887
 42
-0.2053426933470526
 10
10.8237953691846
 20
9.701096093655007
 42
0.2330980038957027
 10
10.5161566424657
 20
9.816408472368248
 42
-0.1440715814879099
 10
10.58024807295872
 20
9.329534171183428
 42
-0.3819084178786793
 10
10.02906187545445
 20
9.252659332062211
 42
-0.5617517467541152
 10
10.00342519852157
 20
9.944533244247416
 42
-0.3320462909332574
 10
11.43907299718188
 20
9.854845891928857
 42
-0.2853555068582417
 10
11.66980204222106
 20
9.04765960103041
 42
-0.1129725196987916
 10
13.48999842383947
 20
9.726721120049688
 42
-0.0661396146342269
  0
LWPOLYLINE
  5
265
330
18
100
AcDbEntity
  8
ADP1DETAIL
100
AcDbPolyline
 90
       10
 70
     0
 43
0.0
 10
13.58182176088064
 20
3.51829868809433
 42
-0.5785859457529014
 10
12.87313370257134
 20
3.623241926639491
 42
-0.3986783015890914
 10
13.03061995716648
 20
4.475906115299792
 42
-0.4246561454198129
 10
13.92304177530959
 20
3.911835922754092
 42
-0.471454685745914
 10
13.56869792089252
 20
3.164115212946708
 42
-0.5099593592742733
 10
12.58440904809492
 20
3.649477766314251
 42
-0.427754592835643
 10
13.00437227719022
 20
4.869443349959554
 42
-0.2967634308411193
 10
14.76296823350019
 20
4.436552355787651
 42
-0.4432159758551395
 10
14.18551874980977
 20
1.931031709464025
 42
-0.1440222783545897
 10
13.30622077165478
 20
1.734263032057206
 42
-30.32644671077908
  0
LWPOLYLINE
  5
271
330
18
100
AcDbEntity
  8
ADP1DETAIL
100
AcDbPolyline
 90
        5
 70
     0
 43
0.0
 10
12.95163047752192
 20
1.770170829841299
 42
-0.0116214321648535
 10
11.90053126181971
 20
1.949545534478416
 42
0.0293731836144184
 10
11.29807188500913
 20
2.026420373599635
 42
-0.5619079108840224
 10
11.34934506431545
 20
2.295482430555312
 42
-0.1786220003273114
 10
11.77234840083368
 20
2.397982296071213
 42
0.0579564618846679
  0
LWPOLYLINE
  5
278
330
18
100
AcDbEntity
  8
ADP1DETAIL
100
AcDbPolyline
 90
        8
 70
     0
 43
0.0
 10
12.43889903357779
 20
6.305788858652859
 42
-0.3666787227317212
 10
13.28490588117371
 20
6.382663697774078
 42
-0.4774673754274912
 10
13.45154349571987
 20
5.882977003423332
 42
-0.445728387262477
 10
13.15672302018768
 20
5.85735197702865
 42
0.7989713524567969
 10
12.93881222633522
 20
5.472977661391145
 42
0.404381921914902
 10
13.5669081055192
 20
5.421727728633196
 42
0.352602620465023
 10
13.69509096650523
 20
6.523600982850587
 42
0.370764977356693
 10
12.5286271410037
 20
6.831100459366873
 42
4.345681586980702
  0
ARC
  5
282
330
18
100
AcDbEntity
  8
ADP1DETAIL
100
AcDbCircle
 10
12.65193083095941
 20
4.260788735618308
 30
0.0
 40
1.613203963129756
100
AcDbArc
 50
103.1443599625409
 51
233.6358921093214
  0
ARC
  5
283
330
18
100
AcDbEntity
  8
ADP1DETAIL
100
AcDbCircle
 10
13.93384389882811
 20
5.177063116516337
 30
0.0
 40
3.602356087212852
100
AcDbArc
 50
144.7934843830907
 51
225.0271279325652
  0
ARC
  5
284
330
18
100
AcDbEntity
  8
ADP1DETAIL
100
AcDbCircle
 10
13.15600643246422
 20
4.859754164644782
 30
0.0
 40
2.58205128445199
100
AcDbArc
 50
123.0796442179893
 51
204.0530638682719
  0
ARC
  5
285
330
18
100
AcDbEntity
  8
ADP1DETAIL
100
AcDbCircle
 10
11.2248618438485
 20
0.7630519852593008
 30
0.0
 40
1.52825732729959
100
AcDbArc
 50
99.09454287291238
 51
131.6611765936386
  0
ARC
  5
286
330
18
100
AcDbEntity
  8
ADP1DETAIL
100
AcDbCircle
 10
12.64581137345981
 20
2.657265474884122
 30
0.0
 40
0.6573616595651798
100
AcDbArc
 50
127.3913183056684
 51
214.7395432741608
  0
ARC
  5
287
330
18
100
AcDbEntity
  8
ADP1DETAIL
100
AcDbCircle
 10
12.75720326225537
 20
2.7618303927141
 30
0.0
 40
0.9818228262133658
100
AcDbArc
 50
159.6869960532581
 51
233.247139346421
  0
ARC
  5
288
330
18
100
AcDbEntity
  8
ADP1DETAIL
100
AcDbCircle
 10
10.89091394976954
 20
1.49492293632828
 30
0.0
 40
0.4481210105646378
100
AcDbArc
 50
75.55714063660601
 51
152.627974811629
  0
ARC
  5
289
330
18
100
AcDbEntity
  8
ADP1DETAIL
100
AcDbCircle
 10
12.49812384042893
 20
4.96258456259276
 30
0.0
 40
1.445095167983729
100
AcDbArc
 50
97.45140310913306
 51
171.9289211000456
  0
ARC
  5
28A
330
18
100
AcDbEntity
  8
ADP1DETAIL
100
AcDbCircle
 10
11.65652947871372
 20
6.574804545557625
 30
0.0
 40
0.9512474284067888
100
AcDbArc
 50
94.61005201501576
 51
134.4458254704429
  0
LWPOLYLINE
  5
28B
330
18
100
AcDbEntity
  8
ADP1DETAIL
100
AcDbPolyline
 90
        4
 70
     0
 43
0.0
 10
13.30622077165478
 20
2.324568944123787
 42
0.4220948452529498
 10
14.5792342989288
 20
3.505180768256949
 42
0.3255619707153131
 10
13.85742257536894
 20
4.593967273682332
 42
0.1646343104365176
 10
13.01749611717835
 20
4.475906115299792
 42
0.6164182527386851
  0
ARC
  5
291
330
18
100
AcDbEntity
  8
ADP1DETAIL
100
AcDbCircle
 10
13.12904884444624
 20
2.894014776465387
 30
0.0
 40
0.1783957250522584
100
AcDbArc
 50
6.715043582477813
 51
173.2849564175221
  0
ARC
  5
292
330
18
100
AcDbEntity
  8
ADP1DETAIL
100
AcDbCircle
 10
15.37997749983994
 20
1.49492293632828
 30
0.0
 40
0.4481210105646378
100
AcDbArc
 50
27.37202518837093
 51
104.442859363394
  0
ARC
  5
293
330
18
100
AcDbEntity
  8
ADP1DETAIL
100
AcDbCircle
 10
15.26121396571616
 20
1.146076663334289
 30
0.0
 40
1.112869111130727
100
AcDbArc
 50
42.98200208818681
 51
98.79459987816693
  0
LWPOLYLINE
  5
294
330
18
100
AcDbEntity
  8
ADP1DETAIL
100
AcDbPolyline
 90
        4
 70
     0
 43
0.0
 10
15.29737637971171
 20
6.895162905322165
 42
0.3557871112575381
 10
15.48965049663129
 20
6.562038402411196
 42
-0.0611512194094219
 10
15.75883446979007
 20
6.651725754729755
 42
-0.153113373007324
 10
15.73319796741665
 20
7.023287677201333
 42
-0.7888554630506074
  0
ARC
  5
29A
330
18
100
AcDbEntity
  8
ADP1DETAIL
100
AcDbCircle
 10
16.3423609697879
 20
6.465944853509674
 30
0.0
 40
0.3466284798843363
100
AcDbArc
 50
334.8444978230065
 51
11.72984416989513
  0
ARC
  5
29B
330
18
100
AcDbEntity
  8
ADP1DETAIL
100
AcDbCircle
 10
15.74550976317506
 20
7.562516133078125
 30
0.0
 40
0.9366592097661914
100
AcDbArc
 50
311.1038563367619
 51
336.5550744607578
  0
LWPOLYLINE
  5
29C
330
18
100
AcDbEntity
  8
ADP1DETAIL
100
AcDbPolyline
 90
        2
 70
     0
 43
0.0
 10
11.75953014964696
 20
8.547972906679664
 42
-0.1127952334465652
 10
13.40027031641357
 20
9.303909264820163
 42
-0.1039212759147939
  0
LWPOLYLINE
  5
2A0
330
18
100
AcDbEntity
  8
ADP1DETAIL
100
AcDbPolyline
 90
        2
 70
     0
 43
0.0
 10
12.84908411890931
 20
12.80171624530679
 42
0.0695841664905186
 10
11.27243538263572
 20
13.35265287241549
 42
17.09332506456856
  0
LWPOLYLINE
  5
2A4
330
18
100
AcDbEntity
  8
ADP1DETAIL
100
AcDbPolyline
 90
        4
 70
     0
 43
0.0
 10
13.20799602493452
 20
13.82671466040297
 42
0.4740151664257645
 10
13.06699491276178
 20
13.62171504940258
 42
-0.3063628667758305
 10
12.99008523108205
 20
12.89140359762535
 42
-0.3204494926927853
 10
11.01606966066365
 20
12.85296617806474
 42
-3.228427782113248
  0
LWPOLYLINE
  5
2AA
330
18
100
AcDbEntity
  8
ADP1DETAIL
100
AcDbPolyline
 90
        6
 70
     0
 43
0.0
 10
9.772696153482389
 20
10.64921954959854
 42
0.2138782219431735
 10
10.54179314483912
 20
10.49546975132469
 42
0.5619253690604456
 10
10.66997600582515
 20
10.5979696168406
 42
-0.1420454589695645
 10
10.92634172779722
 20
11.11046882438868
 42
-0.6280355993016916
 10
11.41343649480846
 20
10.87984418699361
 42
-0.3451173640737836
 10
11.09297934234338
 20
10.31609504668758
 42
5.072782923653411
  0
LWPOLYLINE
  5
2B2
330
18
100
AcDbEntity
  8
ADP1DETAIL
100
AcDbPolyline
 90
        7
 70
     0
 43
0.0
 10
10.55461139602583
 20
11.14890624394929
 42
-0.5509811694315055
 10
11.00325140947694
 20
11.95609253484774
 42
-0.4968658673291971
 10
11.68262046796724
 20
11.05921889163073
 42
-0.3235887747404543
 10
11.09297934234338
 20
10.30328253349024
 42
-0.3830069896657831
 10
9.695786471802666
 20
10.55953219727998
 42
-0.2796829969034523
 10
9.567603610816629
 20
12.44296683603256
 42
-0.0855691022548278
 10
10.50333839127899
 20
13.25015300689959
 42
-0.2773258164318182
  0
LWPOLYLINE
  5
2BB
330
18
100
AcDbEntity
  8
ADP1DETAIL
100
AcDbPolyline
 90
        2
 70
     0
 43
0.0
 10
10.20851774118732
 20
9.44484654989667
 42
-0.5948267554855171
 10
10.52897489365241
 20
9.803595959170909
 42
0.1162684359752142
  0
LWPOLYLINE
  5
2BF
330
18
100
AcDbEntity
  8
ADP1DETAIL
100
AcDbPolyline
 90
        3
 70
     0
 43
0.0
 10
10.8237953691846
 20
9.701096093655007
 42
-0.5134555194175815
 10
11.41343649480846
 20
8.98359715507512
 42
-0.1690213094598655
 10
11.31089013619585
 20
8.483910460724374
 42
1.759759351504511
  0
ARC
  5
2C4
330
18
100
AcDbEntity
  8
ADP1DETAIL
100
AcDbCircle
 10
14.87155477939084
 20
8.189201708325136
 30
0.0
 40
3.308297352583886
100
AcDbArc
 50
165.4194600988782
 51
174.2205080552548
  0
LWPOLYLINE
  5
2C5
330
18
100
AcDbEntity
  8
ADP1DETAIL
100
AcDbPolyline
 90
        2
 70
     0
 43
0.0
 10
9.734241399922265
 20
11.50765577325494
 42
0.5435472881995995
 10
10.37515553029296
 20
11.46921835369433
 42
-0.5053583427338299
  0
LWPOLYLINE
  5
2C9
330
18
100
AcDbEntity
  8
ADP1DETAIL
100
AcDbPolyline
 90
        8
 70
     0
 43
0.0
 10
9.644513292496359
 20
11.45640584049699
 42
0.2984602555796882
 10
10.02906187545445
 20
11.12328133758602
 42
0.2692244905596393
 10
10.45206521197268
 20
11.41796842093638
 42
-0.4140815132030829
 10
10.37515553029296
 20
11.45640584049699
 42
0.2404723856082386
 10
10.34951885336007
 20
11.67421796469472
 42
-0.3877919324456982
 10
10.08033488020129
 20
11.99452995440835
 42
-0.2898885259127353
 10
10.92634172779722
 20
12.86577869126208
 42
-0.1990115817879369
 10
12.31071634715123
 20
12.62234154066967
 42
0.291324051671352
  0
LWPOLYLINE
  5
2D3
330
18
100
AcDbEntity
  8
ADP1DETAIL
100
AcDbPolyline
 90
        2
 70
     0
 43
0.0
 10
10.68279425701186
 20
13.5960900230079
 42
0.1388585052647651
 10
11.27243538263572
 20
13.37827789881017
 42
0.1388585052647651
  0
LWPOLYLINE
  5
2D7
330
18
100
AcDbEntity
  8
ADP1DETAIL
100
AcDbPolyline
 90
        8
 70
     0
 43
0.0
 10
13.16954127137439
 20
10.67484457599322
 10
13.31054238354714
 20
10.96953165934359
 42
-0.2422177630515792
 10
13.97709319085072
 20
10.44421993859816
 42
-0.3789316206524166
 10
14.42573302974237
 20
11.05921901166215
 42
-0.4304580945559527
 10
14.78464493576757
 20
10.52109477771937
 42
-0.1946765860912978
 10
15.51528717356418
 20
10.77734444150913
 42
-0.2361630257075824
 10
15.56656017831102
 20
10.54671980411406
 42
-0.123051390150765
 10
16.01520019176213
 20
10.61078213003794
 42
0.0515647956990146
  0
LWPOLYLINE
  5
2E1
330
18
100
AcDbEntity
  8
ADP1DETAIL
100
AcDbPolyline
 90
        2
 70
     0
 43
0.0
 10
13.5669081055192
 20
10.86703167379627
 42
0.1325454923375582
 10
12.79781111416247
 20
12.23796710500075
 42
2.450848860113144
  0
LWPOLYLINE
  5
2E5
330
18
100
AcDbEntity
  8
ADP1DETAIL
100
AcDbPolyline
 90
        2
 70
     0
 43
0.0
 10
14.14373080539688
 20
10.91828160655422
 42
0.1102651560928969
 10
13.23363270186741
 20
12.48140425559316
 42
-2.288577392100799
  0
LWPOLYLINE
  5
2E9
330
18
100
AcDbEntity
  8
ADP1DETAIL
100
AcDbPolyline
 90
        2
 70
     0
 43
0.0
 10
12.5414453921904
 20
10.63640715643262
 42
-0.1778841272319922
 10
13.15672302018768
 20
10.68765708919057
  0
ARC
  5
2ED
330
18
100
AcDbEntity
  8
ADP1DETAIL
100
AcDbCircle
 10
13.64694980112301
 20
10.70060886196831
 30
0.0
 40
0.3583180022434103
100
AcDbArc
 50
205.4343237572163
 51
254.9800349126491
  0
ARC
  5
2EE
330
18
100
AcDbEntity
  8
ADP1DETAIL
100
AcDbCircle
 10
15.35128608334951
 20
9.840366114644545
 30
0.0
 40
0.8859048060354986
100
AcDbArc
 50
140.3395866975644
 51
166.509544017688
  0
ARC
  5
2EF
330
18
100
AcDbEntity
  8
ADP1DETAIL
100
AcDbCircle
 10
13.22591875893634
 20
10.08591167047117
 30
0.0
 40
0.7785288657144064
100
AcDbArc
 50
338.7383731826458
 51
15.23330098569925
  0
LWPOLYLINE
  5
2F0
330
18
100
AcDbEntity
  8
ADP1DETAIL
100
AcDbPolyline
 90
        6
 70
     0
 43
0.0
 10
13.95145651391783
 20
11.37953100137577
 42
0.1008629264028808
 10
14.22064048707661
 20
11.45640584049699
 42
-0.0553879662913285
 10
14.5154609626088
 20
11.78953034340796
 42
-0.257212982932479
 10
14.8615546174473
 20
11.72546789745267
 42
-0.0297456200788979
 10
15.00255572962005
 20
11.39234351457311
 42
0.2613481713637817
 10
15.2076482722858
 20
11.21296868990458
 42
0.1040455060817231
  0
LWPOLYLINE
  5
2F8
330
18
100
AcDbEntity
  8
ADP1DETAIL
100
AcDbPolyline
 90
        3
 70
     0
 43
0.0
 10
16.6176595685727
 20
13.21171558733898
 42
-0.7808618248606171
 10
16.51511320996008
 20
13.46796525112873
 42
0.2529905875429978
 10
16.5663863892664
 20
14.31358896158778
 42
-1.567420701543203
  0
LWPOLYLINE
  5
2FD
330
18
100
AcDbEntity
  8
ADP1DETAIL
100
AcDbPolyline
 90
        3
 70
     0
 43
0.0
 10
16.02801844294884
 20
13.42952783156812
 42
0.2170555389147517
 10
16.2715659137342
 20
14.30077644839044
 42
0.039504103987644
 10
16.34847559541393
 20
13.32702796605222
 42
0.8534695135897758
  0
DIMENSION
  5
302
330
18
100
AcDbEntity
  8
ADPDIM
100
AcDbDimension
  2
*D0
 10
16.94212970753093
 20
26.00719831260916
 30
0.0
 11
13.12962970753093
 21
26.00719831260916
 31
0.0
 12
0.0
 22
-0.4196448913260653
 32
0.0
100
AcDbAlignedDimension
 13
9.317129707530932
 23
24.66598442523689
 33
0.0
 14
16.94212970753093
 24
24.66598442523689
 34
0.0
100
AcDbRotatedDimension
  0
ARC
  5
303
330
18
100
AcDbEntity
  8
ADP1DETAIL
100
AcDbCircle
 10
15.51885496802831
 20
24.08219292574663
 30
0.0
 40
1.468686789485375
100
AcDbArc
 50
9.416498819892924
 51
92.80058401132723
  0
ARC
  5
304
330
18
100
AcDbEntity
  8
ADP1DETAIL
100
AcDbCircle
 10
16.02981670771115
 20
24.2013086027824
 30
0.0
 40
0.945729900668374
100
AcDbArc
 50
312.9576301060708
 51
7.361537331535542
  0
LWPOLYLINE
  5
305
330
18
100
AcDbEntity
  8
ADP1DETAIL
100
AcDbPolyline
 90
       15
 70
     0
 43
0.0
 10
11.41343649480846
 20
18.41358250194106
 42
-0.1412416793404801
 10
11.13143427046298
 20
19.45139343023458
 42
0.0940232048391402
 10
10.8237953691846
 20
20.25857972113302
 42
0.3743579117814681
 10
10.61870282651884
 20
20.32264216708831
 42
0.4437280378438649
 10
10.59306632414543
 20
20.24576720793568
 42
-0.0901513910154409
 10
10.4648834631594
 20
20.16889236881446
 42
0.1214282056698051
 10
10.25979092049363
 20
20.02795508373795
 42
0.2374853057365675
 10
10.20851774118732
 20
19.83576786590349
 42
-0.9299474152685819
 10
9.93933376802855
 20
19.75889302678228
 42
-0.2727104535128318
 10
10.05469837782787
 20
20.38670449301219
 42
-0.3679425408040322
 10
10.50333839127899
 20
21.02732859247086
 42
-0.439864912625418
 10
11.31089013619585
 20
20.33545456025424
 42
-0.3136932906750827
 10
11.79798490320709
 20
20.28420462749629
 42
0.2588551683072562
 10
11.5159826788616
 20
19.60514322850843
 42
0.0532675047842106
 10
11.77234840083368
 20
18.69545707209408
 42
-14.44734464238129
  0
LWPOLYLINE
  5
316
330
18
100
AcDbEntity
  8
ADP1DETAIL
100
AcDbPolyline
 90
        4
 70
     0
 43
0.0
 10
16.2743300586994
 20
21.12658388127848
 42
-0.6264358606658182
 10
16.04626439131556
 20
21.00120437476519
 42
-0.5169218900114681
 10
16.04626439131556
 20
21.12658388127848
 42
0.0163538652502019
 10
16.1032807645179
 20
21.67369399681348
 42
-0.7650486095327956
  0
LWPOLYLINE
  5
31C
330
18
100
AcDbEntity
  8
ADP1DETAIL
100
AcDbPolyline
 90
        5
 70
     0
 43
0.0
 10
16.50239590065772
 20
21.66229579438042
 10
16.57081565324522
 20
21.33175008457281
 42
-0.4443459892788734
 10
16.49099269584705
 20
20.98980629237386
 42
-0.342762314622009
 10
16.30854002228039
 20
21.17217633088553
 42
0.0173942040301917
 10
16.25152347450357
 20
21.52551832551754
 42
-1.216542376501735
  0
LWPOLYLINE
  5
323
330
18
100
AcDbEntity
  8
ADP1DETAIL
100
AcDbPolyline
 90
        5
 70
     0
 43
0.0
 10
14.14373080539688
 20
21.09139091839474
 10
14.06682112371715
 20
21.14264085115269
 42
-0.5353180431016398
 10
14.06682112371715
 20
21.28357813622919
 42
0.6986288687864234
 10
14.36164159924935
 20
21.46295284086631
 42
0.2085234169136192
 10
14.09245762609057
 20
21.83451476333789
 42
1.75036373067324
  0
LWPOLYLINE
  5
32A
330
18
100
AcDbEntity
  8
ADP1DETAIL
100
AcDbPolyline
 90
        2
 70
     0
 43
0.0
 10
13.39287522983646
 20
20.84255865467446
 10
13.39287522983646
 20
21.52477057502139
 42
0.0181078073767767
  0
LWPOLYLINE
  5
32E
330
18
100
AcDbEntity
  8
ADP1DETAIL
100
AcDbPolyline
 90
        2
 70
     0
 43
0.0
 10
12.85931196072568
 20
20.70701648272582
 10
12.85931196072568
 20
21.58829893330229
 42
-0.0181078073767767
  0
LWPOLYLINE
  5
332
330
18
100
AcDbEntity
  8
ADP1DETAIL
100
AcDbPolyline
 90
        5
 70
     0
 43
0.0
 10
9.749791289904418
 20
21.66229579438042
 10
9.681371537316923
 20
21.33175008457281
 42
0.4443459892788734
 10
9.761194494715095
 20
20.98980629237386
 42
0.342762314622009
 10
9.943647168281753
 20
21.17217633088553
 42
-0.0173942040301917
 10
10.00066371605857
 20
21.52551832551754
 42
1.216542376501735
  0
LWPOLYLINE
  5
339
330
18
100
AcDbEntity
  8
ADP1DETAIL
100
AcDbPolyline
 90
        4
 70
     0
 43
0.0
 10
9.977857131862737
 20
21.12658388127848
 42
0.6264358606658182
 10
10.20592279924658
 20
21.00120437476519
 42
0.5169218900114681
 10
10.20592279924658
 20
21.12658388127848
 42
-0.0163538652502019
 10
10.14890642604423
 20
21.67369399681348
 42
0.7650486095327956
  0
LWPOLYLINE
  5
33F
330
18
100
AcDbEntity
  8
ADP1DETAIL
100
AcDbPolyline
 90
       13
 70
     0
 43
0.0
 10
11.10579759353009
 20
20.82232886143906
 42
-0.3706780465885935
 10
13.84891032986469
 20
21.94982714205113
 42
0.0293763541325223
 10
14.70773525408785
 20
21.6295151523375
 42
-0.140004575982492
 10
15.04101065773965
 20
21.52701528682161
 42
-0.252644975918503
 10
14.75900843339416
 20
21.20670329710798
 42
0.2284090581894667
 10
15.23328494921869
 20
20.68139157636255
 42
0.4682120544652632
 10
15.60501510643061
 20
20.74545402231784
 42
0.0293974404919364
 10
15.55374192712431
 20
20.88639130739435
 42
-0.6697352473739671
 10
15.70756129048376
 20
21.02732859247086
 42
-0.5659702505573417
 10
15.89983558196281
 20
20.96326614651557
 42
-0.4589992358204866
 10
15.97674526364253
 20
20.07920501649591
 42
-0.3807673254836501
 10
14.81028161270046
 20
20.25857972113302
 42
-0.4084546309532046
 10
13.11826809206809
 20
19.24639381923419
 42
-8.419291609295637
  0
LWPOLYLINE
  5
34E
330
18
100
AcDbEntity
  8
ADP1DETAIL
100
AcDbPolyline
 90
       16
 70
     0
 43
0.0
 10
11.47752792530148
 20
20.37389209984626
 42
-0.4536181933506793
 10
12.72090125792327
 20
21.59107773277689
 42
-0.0613177132813899
 10
13.55408967977302
 20
21.488577867261
 42
-0.0464260296075584
 10
13.73354572006536
 20
21.0785784051974
 42
0.4093976175194923
 10
13.98991144203743
 20
20.89920370056028
 42
0.7638869342636917
 10
14.13091255421017
 20
21.10420343159208
 42
-0.3185934102380082
 10
14.25909541519621
 20
20.22014230157241
 42
-0.1856473332794118
 10
13.83609207867798
 20
19.92545521822205
 42
-0.4728434015518747
 10
13.5156349262129
 20
20.22014230157241
 42
0.3938747475346577
 10
13.81045540174509
 20
20.51482938492277
 42
0.4746143143958351
 10
13.28490588117371
 20
20.86076628099967
 42
0.064524369380909
 10
12.68244650436315
 20
20.60451673724133
 42
0.0558802514044939
 10
12.23380649091203
 20
20.91201621375762
 42
-0.0827254186074071
 10
11.99025919468615
 20
20.88639130739435
 42
-0.1546529517412084
 10
12.24662491665821
 20
20.25857972113302
 42
0.1847245003441711
 10
12.41326253120437
 20
19.75889302678228
 42
0.4729686484414412
  0
LWPOLYLINE
  5
360
330
18
100
AcDbEntity
  8
ADP1DETAIL
100
AcDbPolyline
 90
        3
 70
     0
 43
0.0
 10
13.61818111026604
 20
17.0810846103286
 42
0.2024892423688842
 10
12.43889903357779
 20
16.69671017465969
 42
-0.0257578564200792
 10
11.91334951300641
 20
16.09452361479304
 42
0.4046692908523569
  0
LWPOLYLINE
  5
365
330
18
100
AcDbEntity
  8
ADP1DETAIL
100
AcDbPolyline
 90
        3
 70
     0
 43
0.0
 10
14.33600509687593
 20
16.95295983844943
 42
0.0953671247378727
 10
12.69526475554986
 20
17.1835844758445
 42
0.1414194765361839
 10
11.49034617648819
 20
16.14577354755099
 42
1.848017861665912
  0
LWPOLYLINE
  5
36A
330
18
100
AcDbEntity
  8
ADP1DETAIL
100
AcDbPolyline
 90
        3
 70
     0
 43
0.0
 10
14.28473191756962
 20
16.68389766146234
 42
0.2666943182067107
 10
12.70808300673657
 20
16.70952268785702
 42
0.178020705239151
 10
12.28507967021834
 20
15.8382740710347
 42
1.1049574479546
  0
LWPOLYLINE
  5
36F
330
18
100
AcDbEntity
  8
ADP1DETAIL
100
AcDbPolyline
 90
       19
 70
     0
 43
0.0
 10
14.31036841994304
 20
16.55577288958317
 42
0.1471362658031572
 10
12.99008523108205
 20
16.51733547002256
 42
0.3839586921168212
 10
12.69526475554986
 20
15.92796142335326
 42
0.4086590185571586
 10
13.13108634325479
 20
15.67171175956351
 42
-0.9138541141655814
 10
13.00290365682823
 20
15.18483745837869
 42
-0.4173700881205741
 10
12.27226141903163
 20
15.81264904464002
 42
-0.4356364870898187
 10
11.91334951300641
 20
16.06889870842977
 42
0.0365225250454072
 10
11.5544376069812
 20
15.95358632971653
 42
-0.2321387678261471
 10
11.47752792530148
 20
16.13296103435365
 42
-0.2506360578619633
 10
11.08016109115667
 20
15.95358632971653
 42
-0.1153628296247843
 10
10.68279425701186
 20
15.96639884291387
 42
-0.1504328923630231
 10
10.63152107770555
 20
16.35077327858279
 42
-0.272405454154201
 10
10.08033488020129
 20
16.29952334582484
 42
-0.3234992497358426
 10
10.04188012664117
 20
17.14514705628389
 42
-0.2616723360502986
 10
10.50333839127899
 20
17.0810846103286
 42
-0.4960618063617058
 10
10.50333839127899
 20
16.96577223161536
 42
0.297055698022981
 10
10.74688568750488
 20
16.73514759422029
 42
-0.1716411037765702
 10
13.11826809206809
 20
17.36295918048162
 42
-0.0728486467431651
 10
14.77182668458087
 20
16.79921004017558
 42
11.88898356453958
  0
LWPOLYLINE
  5
384
330
18
100
AcDbEntity
  8
ADP1DETAIL
100
AcDbPolyline
 90
        5
 70
     0
 43
0.0
 10
13.16954127137439
 20
17.65764626383198
 42
-0.1433390593309108
 10
12.20816998853861
 20
18.22139540413802
 42
-0.37240347373968
 10
12.05435062517916
 20
19.079831507763
 42
-0.2377854800857948
 10
12.59271857149671
 20
19.2848312387948
 42
-0.796383397302582
 10
12.66962825317644
 20
18.92608182952056
 42
4.504456846939954
  0
LWPOLYLINE
  5
38B
330
18
100
AcDbEntity
  8
ADP1DETAIL
100
AcDbPolyline
 90
       12
 70
     0
 43
0.0
 10
15.00255572962005
 20
16.83764745973619
 42
0.1032877597578586
 10
13.10544984088138
 20
17.72170858975586
 42
-0.2071045944532893
 10
12.40044428001766
 20
18.45202004153309
 42
-0.3608033614585623
 10
12.4901722128841
 20
18.91326931632322
 42
-0.269280001299699
 10
12.75935618604287
 20
18.86201938356527
 42
0.4964608234868061
 10
13.00290365682823
 20
18.91326931632322
 42
0.3901249477776147
 10
13.01572190801494
 20
19.45139343023458
 42
0.2021986657618999
 10
12.40044428001766
 20
19.74608051358494
 42
0.3002869789488908
 10
11.79798490320709
 20
18.68264467892815
 42
0.1800916757143911
 10
11.97744094349943
 20
18.28545773006189
 42
0.0989792520172249
 10
11.33652681312873
 20
18.41358250194106
 42
0.322405465877895
 10
12.02871412280575
 20
17.2860843413604
 42
0.2008583728892084
  0
LWPOLYLINE
  5
399
330
18
100
AcDbEntity
  8
ADP1DETAIL
100
AcDbPolyline
 90
        3
 70
     0
 43
0.0
 10
12.25944316784492
 20
20.24576720793568
 42
-0.197791292047047
 10
12.81062936534918
 20
20.61732913040726
 42
-0.480488720359579
 10
13.48999842383947
 20
20.23295481476976
 42
0.8514864630908062
  0
LWPOLYLINE
  5
39E
330
18
100
AcDbEntity
  8
ADP1DETAIL
100
AcDbPolyline
 90
        5
 70
     0
 43
0.0
 10
9.772597874100252
 20
17.96930233445654
 10
9.761194494715095
 20
17.75273792872915
 42
0.5863868076299173
 10
9.898033999890092
 20
17.61596045986627
 42
0.2129610001440392
 10
9.977857131862737
 20
18.06048735371238
 42
0.1748672291603312
 10
9.909437379275242
 20
18.16307057540127
 42
0.3293659186465469
  0
LWPOLYLINE
  5
3A5
330
18
100
AcDbEntity
  8
ADP1DETAIL
100
AcDbPolyline
 90
        5
 70
     0
 43
0.0
 10
12.45171745932397
 20
17.27327182816306
 42
0.0444191446921847
 10
10.90070505086433
 20
16.58139791597785
 42
-0.2525835073065008
 10
10.4264285350398
 20
16.45327302406728
 42
-0.5798396465261936
 10
10.08033488020129
 20
16.72233520105437
 42
-0.1231183637394084
 10
10.25979092049363
 20
16.95295983844943
 42
-0.1455965256789785
  0
LWPOLYLINE
  5
3AC
330
18
100
AcDbEntity
  8
ADP1DETAIL
100
AcDbPolyline
 90
        5
 70
     0
 43
0.0
 10
9.749791289904418
 20
19.64482716831901
 10
9.647161573735939
 20
19.16610578721545
 42
1.000000000000006
 10
9.749791289904418
 20
19.10911513517533
 42
0.2557224326743631
 10
9.898033999890092
 20
19.30288337612006
 42
0.0449817486429522
 10
9.909437379275242
 20
19.48525341463173
 42
2.742568165056145
  0
LWPOLYLINE
  5
3B3
330
18
100
AcDbEntity
  8
ADP1DETAIL
100
AcDbPolyline
 90
        4
 70
     0
 43
0.0
 10
9.909437379275242
 20
19.26868900890434
 42
0.1623013990490169
 10
10.04627688445023
 20
19.07492076795961
 42
0.6114486523723071
 10
10.13750322123356
 20
19.1205133376084
 42
0.0675595082920552
 10
10.09189005284189
 20
19.70181782035912
 42
0.8066586536995137
  0
LWPOLYLINE
  5
3B9
330
18
100
AcDbEntity
  8
ADP1DETAIL
100
AcDbPolyline
 90
        5
 70
     0
 43
0.0
 10
9.749791289904418
 20
19.097717052784
 10
9.6927747421276
 20
18.76717134297639
 10
9.681371537316923
 20
18.51641257003328
 42
0.6177552526386757
 10
9.795404458296086
 20
18.53920873481594
 42
0.3107054142860094
 10
9.920840584085919
 20
19.07492076795961
 42
2.395599932408693
  0
LWPOLYLINE
  5
3C0
330
18
100
AcDbEntity
  8
ADP1DETAIL
100
AcDbPolyline
 90
        3
 70
     0
 43
0.0
 10
9.875227415694258
 20
18.60759758928911
 42
0.4687991483750919
 10
10.09189005284189
 20
18.48221820281756
 42
0.0083223216584232
 10
10.06908346864606
 20
19.05212460317695
 42
0.9449045610769307
  0
LWPOLYLINE
  5
3C5
330
18
100
AcDbEntity
  8
ADP1DETAIL
100
AcDbPolyline
 90
        5
 70
     0
 43
0.0
 10
9.749791289904418
 20
18.49361628520889
 42
0.1152681609424283
 10
9.715581326323434
 20
18.04908927132105
 42
0.631659497976049
 10
9.82961424730259
 20
18.01489490410532
 42
0.1366161974804414
 10
9.886630795079408
 20
18.12887620818555
 42
0.1754394855510162
 10
9.82961424730259
 20
18.49361628520889
 42
0.5915634486671087
  0
LWPOLYLINE
  5
3CC
330
18
100
AcDbEntity
  8
ADP1DETAIL
100
AcDbPolyline
 90
        3
 70
     0
 43
0.0
 10
9.977857131862737
 20
18.06048735371238
 42
-1.424482287840024
 10
10.01206692086924
 20
18.08328363853677
 42
0.1261738666928187
 10
10.06908346864606
 20
18.47082000038449
 42
-0.0525199986491303
  0
LWPOLYLINE
  5
3D1
330
18
100
AcDbEntity
  8
ADP1DETAIL
100
AcDbPolyline
 90
        4
 70
     0
 43
0.0
 10
9.749791289904418
 20
20.34011295514996
 10
9.647161573735939
 20
19.79300283961496
 42
0.6141147990149102
 10
9.749791289904418
 20
19.65622537075207
 42
0.0909901814312041
 10
9.920603581993244
 20
19.81936204572299
 42
0.2971519840071102
  0
LWPOLYLINE
  5
3D7
330
18
100
AcDbEntity
  8
ADP1DETAIL
100
AcDbPolyline
 90
        4
 70
     0
 43
0.0
 10
9.749791289904418
 20
20.96701000754947
 42
0.1226618690255677
 10
9.6927747421276
 20
20.35151115758302
 42
1.013431110615172
 10
9.761194494715095
 20
20.36290923997435
 42
0.2586163196738298
 10
9.898033999890092
 20
20.62506621535053
 42
79.7721439988492
  0
LWPOLYLINE
  5
3DD
330
18
100
AcDbEntity
  8
ADP1DETAIL
100
AcDbPolyline
 90
        2
 70
     0
 43
0.0
 10
10.17612148030174
 20
20.80998793719018
 42
0.0253422366274391
 10
10.14890642604423
 20
20.96701000754947
 42
0.7992014336810874
  0
LWPOLYLINE
  5
3E1
330
18
100
AcDbEntity
  8
ADP1DETAIL
100
AcDbPolyline
 90
        2
 70
     0
 43
0.0
 10
10.1059287795747
 20
20.33854112068741
 42
0.0007380084569857
 10
10.10329325765257
 20
20.35151115758302
 42
0.8160054918708336
  0
LWPOLYLINE
  5
3E5
330
18
100
AcDbEntity
  8
ADP1DETAIL
100
AcDbPolyline
 90
        3
 70
     0
 43
0.0
 10
9.863824210883581
 20
20.91001935550936
 10
9.898033999890092
 20
20.62506621535053
 10
10.05317862524518
 20
20.40613780787963
 42
0.1045964345945116
  0
ARC
  5
3EA
330
18
100
AcDbEntity
  8
ADP1DETAIL
100
AcDbCircle
 10
11.69502088291113
 20
19.82293460211116
 30
0.0
 40
0.6282000464685304
100
AcDbArc
 50
129.1891918910146
 51
182.3359064437439
  0
LWPOLYLINE
  5
3EB
330
18
100
AcDbEntity
  8
ADP1DETAIL
100
AcDbPolyline
 90
        4
 70
     0
 43
0.0
 10
10.65715775463844
 20
20.39951700620953
 10
10.49051996553281
 20
20.54045429128604
 42
-0.4212755135627678
 10
10.4777017143461
 20
20.71982899592316
 42
-0.0949013369055482
 10
10.64433950345173
 20
20.84795376780232
 42
0.364745764626556
  0
LWPOLYLINE
  5
3F1
330
18
100
AcDbEntity
  8
ADP1DETAIL
100
AcDbPolyline
 90
        5
 70
     0
 43
0.0
 10
16.47958931646189
 20
17.96930233445654
 10
16.49099269584705
 20
17.75273792872915
 42
-0.5863868076299173
 10
16.35415319067205
 20
17.61596045986627
 42
-0.2129610001440392
 10
16.2743300586994
 20
18.06048735371238
 42
-0.1748672291603312
 10
16.3427498112869
 20
18.16307057540127
 42
-0.3293659186465469
  0
LWPOLYLINE
  5
3F8
330
18
100
AcDbEntity
  8
ADP1DETAIL
100
AcDbPolyline
 90
        5
 70
     0
 43
0.0
 10
16.05365494532226
 20
15.77421162507941
 42
-0.1191302166226358
 10
15.5409236759376
 20
16.46608565729603
 42
-0.2634551508057346
 10
15.5921968552439
 20
17.13233454308655
 42
-0.3232167706743892
 10
16.06647337106844
 20
17.19639698904184
 42
0.7817276876821958
 10
15.9254722588957
 20
16.7351477142517
 42
0.2770109299954202
  0
LWPOLYLINE
  5
3FF
330
18
100
AcDbEntity
  8
ADP1DETAIL
100
AcDbPolyline
 90
        3
 70
     0
 43
0.0
 10
15.16919351872568
 20
16.3892106981434
 42
-0.2448188111024875
 10
15.05382890892636
 20
17.13233454308655
 42
-0.6275201570218131
 10
15.43837749188445
 20
17.33733427411835
 42
0.3264301143927723
  0
LWPOLYLINE
  5
404
330
18
100
AcDbEntity
  8
ADP1DETAIL
100
AcDbPolyline
 90
        3
 70
     0
 43
0.0
 10
14.60518907003471
 20
20.7326415091205
 42
0.1293380607893462
 10
15.29737637971171
 20
20.22014230157241
 42
0.4076312951276271
 10
16.01520019176213
 20
20.66857906316521
 42
-0.7861937555953883
  0
LWPOLYLINE
  5
409
330
18
100
AcDbEntity
  8
ADP1DETAIL
100
AcDbPolyline
 90
        4
 70
     0
 43
0.0
 10
13.2208144506807
 20
20.25857972113302
 42
0.6186430167255446
 10
13.4771799980933
 20
19.73326800038759
 42
0.2401147844405455
 10
14.37445985043606
 20
20.07920501649591
 42
0.1898414471704245
 10
14.5154609626088
 20
20.60451673724133
 42
-1.119884785558214
  0
LWPOLYLINE
  5
40F
330
18
100
AcDbEntity
  8
ADP1DETAIL
100
AcDbPolyline
 90
        5
 70
     0
 43
0.0
 10
16.50239590065772
 20
19.64482716831901
 10
16.6050256168262
 20
19.16610578721545
 42
-1.000000000000006
 10
16.50239590065772
 20
19.10911513517533
 42
-0.2557224326743631
 10
16.35415319067205
 20
19.30288337612006
 42
-0.0449817486429522
 10
16.3427498112869
 20
19.48525341463173
 42
-2.742568165056145
  0
LWPOLYLINE
  5
416
330
18
100
AcDbEntity
  8
ADP1DETAIL
100
AcDbPolyline
 90
        4
 70
     0
 43
0.0
 10
16.3427498112869
 20
19.26868900890434
 42
-0.1623013990490169
 10
16.20591030611191
 20
19.07492076795961
 42
-0.6114486523723071
 10
16.11468396932858
 20
19.1205133376084
 42
-0.0675595082920552
 10
16.16029713772025
 20
19.70181782035912
 42
-0.8066586536995137
  0
LWPOLYLINE
  5
41C
330
18
100
AcDbEntity
  8
ADP1DETAIL
100
AcDbPolyline
 90
        3
 70
     0
 43
0.0
 10
16.37695977486789
 20
18.60759758928911
 42
-0.4687991483750919
 10
16.16029713772025
 20
18.48221820281756
 42
-0.0083223216584232
 10
16.18310372191608
 20
19.05212460317695
 42
-0.9449045610769307
  0
LWPOLYLINE
  5
421
330
18
100
AcDbEntity
  8
ADP1DETAIL
100
AcDbPolyline
 90
        5
 70
     0
 43
0.0
 10
16.50239590065772
 20
19.097717052784
 10
16.55941244843454
 20
18.76717134297639
 10
16.57081565324522
 20
18.51641257003328
 42
-0.6177552526386757
 10
16.45678273226605
 20
18.53920873481594
 42
-0.3107054142860094
 10
16.33134660647622
 20
19.07492076795961
 42
-2.395599932408693
  0
LWPOLYLINE
  5
428
330
18
100
AcDbEntity
  8
ADP1DETAIL
100
AcDbPolyline
 90
        3
 70
     0
 43
0.0
 10
16.2743300586994
 20
18.06048735371238
 42
1.424482287840024
 10
16.24012026969289
 20
18.08328363853677
 42
-0.1261738666928187
 10
16.18310372191608
 20
18.47082000038449
 42
0.0525199986491303
  0
LWPOLYLINE
  5
42D
330
18
100
AcDbEntity
  8
ADP1DETAIL
100
AcDbPolyline
 90
        5
 70
     0
 43
0.0
 10
16.50239590065772
 20
18.49361628520889
 42
-0.1152681609424283
 10
16.53660586423871
 20
18.04908927132105
 42
-0.631659497976049
 10
16.42257294325955
 20
18.01489490410532
 42
-0.1366161974804414
 10
16.36555639548273
 20
18.12887620818555
 42
-0.1754394855510162
 10
16.42257294325955
 20
18.49361628520889
 42
-0.5915634486671087
  0
LWPOLYLINE
  5
434
330
18
100
AcDbEntity
  8
ADP1DETAIL
100
AcDbPolyline
 90
        3
 70
     0
 43
0.0
 10
16.29713664289524
 20
19.82719720683068
 42
-0.7236998139994197
 10
16.06907097551139
 20
19.77020655479057
 42
-0.0327536525288205
 10
16.14889393290956
 20
20.35151115758302
 42
-0.8160054918708336
  0
LWPOLYLINE
  5
439
330
18
100
AcDbEntity
  8
ADP1DETAIL
100
AcDbPolyline
 90
        5
 70
     0
 43
0.0
 10
16.50239590065772
 20
20.34011295514996
 10
16.6050256168262
 20
19.79300283961496
 42
-0.6141147990149102
 10
16.50239590065772
 20
19.65622537075207
 42
-0.1693711346192225
 10
16.24012026969289
 20
19.99816916295102
 42
-0.2971519840071102
 10
16.25152347450357
 20
20.19193728385401
 42
-2.18435311789276
  0
LWPOLYLINE
  5
440
330
18
100
AcDbEntity
  8
ADP1DETAIL
100
AcDbPolyline
 90
        4
 70
     0
 43
0.0
 10
16.50239590065772
 20
20.96701000754947
 42
-0.1226618690255677
 10
16.55941244843454
 20
20.35151115758302
 42
-1.013431110615172
 10
16.49099269584705
 20
20.36290923997435
 42
-0.2586163196738298
 10
16.35415319067205
 20
20.62506621535053
 42
-79.7721439988492
  0
LWPOLYLINE
  5
446
330
18
100
AcDbEntity
  8
ADP1DETAIL
100
AcDbPolyline
 90
        5
 70
     0
 43
0.0
 10
16.38836297967856
 20
20.91001935550936
 10
16.35415319067205
 20
20.62506621535053
 10
16.16029713772025
 20
20.35151115758302
 42
-0.9069072653405035
 10
16.08047418032207
 20
20.39710360719007
 42
-0.0913991936575484
 10
16.1032807645179
 20
20.96701000754947
 42
-0.7992014336810874
  0
LINE
  5
44D
330
18
100
AcDbEntity
  8
ADP1DETAIL
100
AcDbLine
 10
12.42069633330469
 20
25.0291365948649
 30
0.0
 11
12.63412167589652
 21
25.38912890926784
 31
0.0
  0
LWPOLYLINE
  5
44E
330
18
100
AcDbEntity
  8
ADP1DETAIL
100
AcDbPolyline
 90
        9
 70
     0
 43
0.0
 10
12.85931196072568
 20
22.04874458008917
 10
12.85931196072568
 20
22.78918401584482
 42
-0.0181078073767767
 10
12.67256467674685
 20
23.9224934207886
 42
0.2456163204947814
 10
12.2590529335009
 20
24.44248227931933
 42
0.1177697810898634
 10
11.31197757166904
 20
24.58914594832113
 42
-0.5152322385236713
 10
10.89846582842309
 20
24.93580514729032
 42
-0.4891422126839302
 10
11.09855205433963
 20
25.2157992497063
 42
0.5714972555319861
 10
11.32531668834432
 20
25.01580347943116
 42
-0.054154878173551
 10
12.21903558347505
 20
25.1224679222856
 42
188.9798053300991
  0
LWPOLYLINE
  5
459
330
18
100
AcDbEntity
  8
ADP1DETAIL
100
AcDbPolyline
 90
        4
 70
     0
 43
0.0
 10
11.20526481300433
 20
24.80247471387615
 42
-0.0307004919473347
 10
12.23237470015034
 20
24.70914338645544
 42
-0.2403796241033175
 10
12.56585191808214
 20
24.46914839003294
 42
-0.0737013691714597
 10
12.81929461069983
 20
23.4958357695247
 42
-1.113832296211027
  0
LWPOLYLINE
  5
45F
330
18
100
AcDbEntity
  8
ADP1DETAIL
100
AcDbPolyline
 90
        3
 70
     0
 43
0.0
 10
12.37910463410332
 20
25.0291365948649
 42
-0.2116932276043517
 10
13.05939818664223
 20
23.6824984243661
 10
13.12609359528107
 20
23.66916542908624
  0
ARC
  5
464
330
18
100
AcDbEntity
  8
ADP1DETAIL
100
AcDbCircle
 10
10.76158480505991
 20
24.08219292574663
 30
0.0
 40
1.468686789485375
100
AcDbArc
 50
87.19941598867277
 51
170.583501180107
  0
ARC
  5
465
330
18
100
AcDbEntity
  8
ADP1DETAIL
100
AcDbCircle
 10
10.49792960121196
 20
24.4903053076495
 30
0.0
 40
0.3240359521478922
100
AcDbArc
 50
130.742984132437
 51
256.0536869389122
  0
LWPOLYLINE
  5
466
330
18
100
AcDbEntity
  8
ADP1DETAIL
100
AcDbPolyline
 90
        3
 70
     0
 43
0.0
 10
10.40491938512545
 20
23.48250265409095
 42
-0.4527146669176609
 10
9.604574131984133
 20
24.29581873047141
 42
-0.3439379013069887
 10
10.73839660305726
 20
25.54912557354951
 42
-0.9408219431205841
  0
LWPOLYLINE
  5
46B
330
18
100
AcDbEntity
  8
ADP1DETAIL
100
AcDbPolyline
 90
        3
 70
     0
 43
0.0
 10
10.37824132651245
 20
23.69583153979985
 42
-0.3888911976694067
 10
9.764643182612399
 20
24.25581962447793
 42
-0.3999182483934642
 10
10.53831037714072
 20
25.22913236514005
 42
14.43688525952171
  0
LWPOLYLINE
  5
470
330
18
100
AcDbEntity
  8
ADP1DETAIL
100
AcDbPolyline
 90
        4
 70
     0
 43
0.0
 10
10.64502313580542
 20
23.98915863749569
 42
-0.3137234236979149
 10
9.951390466591231
 20
24.22915351376432
 42
-0.3414679985801455
 10
10.17815492585834
 20
24.94913826272407
 42
-0.2413503710618943
 10
11.52540291426086
 20
25.41579501998145
 42
-14.24210600842789
  0
ARC
  5
476
330
18
100
AcDbEntity
  8
ADP1DETAIL
100
AcDbCircle
 10
10.13469666210431
 20
26.91093713968699
 30
0.0
 40
3.442584967132998
100
AcDbArc
 50
261.1683123664843
 51
275.196725523183
  0
LWPOLYLINE
  5
477
330
18
100
AcDbEntity
  8
ADP1DETAIL
100
AcDbPolyline
 90
        7
 70
     0
 43
0.0
 10
10.33135909961089
 20
23.00727491843527
 42
-0.0949714530373508
 10
10.27434255183407
 20
22.67672920862766
 42
-0.6919532860783956
 10
10.17171301024007
 20
22.67672920862766
 42
-0.3234279108919973
 10
10.00066371605857
 20
23.00727491843527
 42
-0.0662384024546355
 10
9.784001078910929
 20
22.73371986066777
 42
-0.6805536989534499
 10
9.658564953121089
 20
22.79071051270789
 42
-0.0586477781593603
 10
9.681371537316923
 20
23.21244124177133
 42
-7.820252795711771
  0
LWPOLYLINE
  5
480
330
18
100
AcDbEntity
  8
ADP1DETAIL
100
AcDbPolyline
 90
        4
 70
     0
 43
0.0
 10
9.738387910519268
 20
22.24360039717288
 10
9.6927747421276
 20
21.98144342179671
 42
0.0828000385088505
 10
9.704178121512757
 20
21.66229579438042
 42
0.4549649941451161
 10
9.943647168281753
 20
21.86746211771648
 42
1.008479206456131
  0
LWPOLYLINE
  5
486
330
18
100
AcDbEntity
  8
ADP1DETAIL
100
AcDbPolyline
 90
        5
 70
     0
 43
0.0
 10
9.863824210883581
 20
22.16381346030837
 42
0.3444991911142119
 10
9.955050547666903
 20
21.86746211771648
 42
-0.073250771167138
 10
10.14890642604423
 20
21.68509207920481
 42
0.19135142829851
 10
10.16030980542939
 20
21.87886032014954
 42
-0.0744057492896135
 10
10.10329325765257
 20
22.20940602995716
 42
1.419455005698312
  0
LWPOLYLINE
  5
48D
330
18
100
AcDbEntity
  8
ADP1DETAIL
100
AcDbPolyline
 90
        5
 70
     0
 43
0.0
 10
9.738387910519268
 20
22.71092357584338
 42
0.0679534734005344
 10
9.681371537316923
 20
22.25499847956421
 42
0.3619444393510433
 10
9.943647168281753
 20
22.40317415086015
 42
0.8213431615253401
 10
10.1260998418484
 20
22.22080411234848
 42
0.2597914916607551
 10
10.24013276282756
 20
22.64253484141194
 42
0.7813487951478147
  0
LWPOLYLINE
  5
494
330
18
100
AcDbEntity
  8
ADP1DETAIL
100
AcDbPolyline
 90
        2
 70
     0
 43
0.0
 10
9.943647168281753
 20
22.41457235329322
 42
-0.2466557094692578
 10
9.977857131862737
 20
22.72232177827644
 42
-0.2466557094692578
  0
ARC
  5
498
330
18
100
AcDbEntity
  8
ADP1DETAIL
100
AcDbCircle
 10
10.25062306537708
 20
24.2013086027824
 30
0.0
 40
0.945729900668374
100
AcDbArc
 50
172.6384626684644
 51
227.0423698939291
  0
LWPOLYLINE
  5
499
330
18
100
AcDbEntity
  8
ADP1DETAIL
100
AcDbPolyline
 90
        2
 70
     0
 43
0.0
 10
9.684608657298266
 20
23.21584166710872
 10
9.737964949261826
 20
23.48250265409095
  0
LWPOLYLINE
  5
49D
330
18
100
AcDbEntity
  8
ADP1DETAIL
100
AcDbPolyline
 90
        2
 70
     0
 43
0.0
 10
10.32488485981131
 20
23.00251290155371
 10
10.28486768452304
 20
23.48250265409095
  0
ARC
  5
4A1
330
18
100
AcDbEntity
  8
ADP1DETAIL
100
AcDbCircle
 10
10.12664399970191
 20
23.52250182016137
 30
0.0
 40
0.3223583178898343
100
AcDbArc
 50
352.872200494725
 51
29.75759276628615
  0
ARC
  5
4A2
330
18
100
AcDbEntity
  8
ADP1DETAIL
100
AcDbCircle
 10
10.37450369691671
 20
23.99598283633878
 30
0.0
 40
0.3151124406008968
100
AcDbArc
 50
275.8267050372739
 51
34.79989167715034
  0
ARC
  5
4A3
330
18
100
AcDbEntity
  8
ADP1DETAIL
100
AcDbCircle
 10
10.52654560964095
 20
24.60553772392544
 30
0.0
 40
0.4427683643157585
100
AcDbArc
 50
256.0536869389119
 51
283.946313061088
  0
ARC
  5
4A4
330
18
100
AcDbEntity
  8
ADP1DETAIL
100
AcDbCircle
 10
10.83770189486515
 20
24.0958824933191
 30
0.0
 40
0.8446265475284281
100
AcDbArc
 50
83.95027307958047
 51
130.7429841324367
  0
ARC
  5
4A5
330
18
100
AcDbEntity
  8
ADP1DETAIL
100
AcDbCircle
 10
10.67906707846847
 20
22.39534777448114
 30
0.0
 40
3.157549051349772
100
AcDbArc
 50
56.52477822255117
 51
87.19941598867253
  0
ARC
  5
4A6
330
18
100
AcDbEntity
  8
ADP1DETAIL
100
AcDbCircle
 10
15.78251017187626
 20
24.4903053076495
 30
0.0
 40
0.3240359521478922
100
AcDbArc
 50
283.9463130610877
 51
49.25701586756296
  0
LWPOLYLINE
  5
4A7
330
18
100
AcDbEntity
  8
ADP1DETAIL
100
AcDbPolyline
 90
        9
 70
     0
 43
0.0
 10
13.39287522983646
 20
22.05044614258671
 10
13.39287522983646
 20
22.78918401584482
 42
0.0181078073767767
 10
13.57962251381529
 20
23.9224934207886
 42
-0.2456163204947814
 10
13.99313425706123
 20
24.44248227931933
 42
-0.1177697810898634
 10
14.9402096188931
 20
24.58914594832113
 42
0.5152322385236713
 10
15.35372136213905
 20
24.93580514729032
 42
0.4891422126839302
 10
15.15363513622251
 20
25.2157992497063
 42
-0.5714972555319861
 10
14.92687050221782
 20
25.01580347943116
 42
0.054154878173551
 10
14.03315160708708
 20
25.1224679222856
 42
-188.9798053300991
  0
LWPOLYLINE
  5
4B2
330
18
100
AcDbEntity
  8
ADP1DETAIL
100
AcDbPolyline
 90
        4
 70
     0
 43
0.0
 10
15.60716405475672
 20
23.98915863749569
 42
0.3137234236979149
 10
16.30079672397091
 20
24.22915351376432
 42
0.3414679985801455
 10
16.0740322647038
 20
24.94913826272407
 42
0.2413503710618943
 10
14.72678427630127
 20
25.41579501998145
 42
14.24210600842789
  0
LWPOLYLINE
  5
4B8
330
18
100
AcDbEntity
  8
ADP1DETAIL
100
AcDbPolyline
 90
        3
 70
     0
 43
0.0
 10
15.87394586404969
 20
23.69583153979985
 42
0.3888911976694067
 10
16.48754400794974
 20
24.25581962447793
 42
0.3999182483934642
 10
15.71387681342142
 20
25.22913236514005
 42
-14.43688525952171
  0
LWPOLYLINE
  5
4BD
330
18
100
AcDbEntity
  8
ADP1DETAIL
100
AcDbPolyline
 90
        3
 70
     0
 43
0.0
 10
15.84726780543669
 20
23.48250265409095
 42
0.4527146669176609
 10
16.64761305857801
 20
24.29581873047141
 42
0.3439379013069887
 10
15.51379058750488
 20
25.54912557354951
 42
0.9408219431205841
  0
LWPOLYLINE
  5
4C2
330
18
100
AcDbEntity
  8
ADP1DETAIL
100
AcDbPolyline
 90
        3
 70
     0
 43
0.0
 10
13.87308255645882
 20
25.0291365948649
 42
0.2116932276043517
 10
13.19278900391991
 20
23.6824984243661
 10
13.12609359528107
 20
23.66916542908624
  0
LWPOLYLINE
  5
4C7
330
18
100
AcDbEntity
  8
ADP1DETAIL
100
AcDbPolyline
 90
        4
 70
     0
 43
0.0
 10
15.0469223775578
 20
24.80247471387615
 42
0.0307004919473347
 10
14.0198124904118
 20
24.70914338645544
 42
0.2403796241033175
 10
13.68633527247999
 20
24.46914839003294
 42
0.0737013691714597
 10
13.43289257986231
 20
23.4958357695247
 42
1.113832296211027
  0
LWPOLYLINE
  5
4CD
330
18
100
AcDbEntity
  8
ADP1DETAIL
100
AcDbPolyline
 90
        2
 70
     0
 43
0.0
 10
14.52827921379551
 20
21.30920316262387
 10
14.75900843339416
 20
21.19389078391063
  0
LINE
  5
4D1
330
18
100
AcDbEntity
  8
ADP1DETAIL
100
AcDbLine
 10
13.12609359528107
 20
23.37583833139039
 30
0.0
 11
12.87265090266339
 21
23.13584333496789
 31
0.0
  0
LINE
  5
4D2
330
18
100
AcDbEntity
  8
ADP1DETAIL
100
AcDbLine
 10
13.12609359528107
 20
23.37583833139039
 30
0.0
 11
13.37953628789875
 21
23.13584333496789
 31
0.0
  0
LWPOLYLINE
  5
4D3
330
18
100
AcDbEntity
  8
ADP1DETAIL
100
AcDbPolyline
 90
        7
 70
     0
 43
0.0
 10
15.92082809095125
 20
23.00727491843527
 42
0.0949714530373508
 10
15.97784463872806
 20
22.67672920862766
 42
0.6919532860783956
 10
16.08047418032207
 20
22.67672920862766
 42
0.3234279108919973
 10
16.25152347450357
 20
23.00727491843527
 42
0.0662384024546355
 10
16.46818611165121
 20
22.73371986066777
 42
0.6805536989534499
 10
16.59362223744105
 20
22.79071051270789
 42
0.0586477781593603
 10
16.57081565324522
 20
23.21244124177133
 42
7.820252795711771
  0
LWPOLYLINE
  5
4DC
330
18
100
AcDbEntity
  8
ADP1DETAIL
100
AcDbPolyline
 90
        5
 70
     0
 43
0.0
 10
16.38836297967856
 20
22.16381346030837
 42
-0.3444991911142119
 10
16.29713664289524
 20
21.86746211771648
 42
0.073250771167138
 10
16.1032807645179
 20
21.68509207920481
 42
-0.19135142829851
 10
16.09187738513275
 20
21.87886032014954
 42
0.0744057492896135
 10
16.14889393290956
 20
22.20940602995716
 42
-1.419455005698312
  0
LWPOLYLINE
  5
4E3
330
18
100
AcDbEntity
  8
ADP1DETAIL
100
AcDbPolyline
 90
        4
 70
     0
 43
0.0
 10
16.51379928004288
 20
22.24360039717288
 10
16.55941244843454
 20
21.98144342179671
 42
-0.0828000385088505
 10
16.54800906904938
 20
21.66229579438042
 42
-0.4549649941451161
 10
16.30854002228039
 20
21.86746211771648
 42
-1.008479206456131
  0
LWPOLYLINE
  5
4E9
330
18
100
AcDbEntity
  8
ADP1DETAIL
100
AcDbPolyline
 90
        2
 70
     0
 43
0.0
 10
16.30854002228039
 20
22.41457235329322
 42
0.2466557094692578
 10
16.2743300586994
 20
22.72232177827644
 42
0.2466557094692578
  0
LWPOLYLINE
  5
4ED
330
18
100
AcDbEntity
  8
ADP1DETAIL
100
AcDbPolyline
 90
        5
 70
     0
 43
0.0
 10
16.51379928004288
 20
22.71092357584338
 42
-0.0679534734005344
 10
16.57081565324522
 20
22.25499847956421
 42
-0.3619444393510433
 10
16.30854002228039
 20
22.40317415086015
 42
-0.8213431615253401
 10
16.12608734871374
 20
22.22080411234848
 42
-0.2597914916607551
 10
16.01205442773458
 20
22.64253484141194
 42
-0.7813487951478147
  0
ARC
  5
4F4
330
18
100
AcDbEntity
  8
ADP1DETAIL
100
AcDbCircle
 10
15.90593607617151
 20
23.99598283633878
 30
0.0
 40
0.3151124406008968
100
AcDbArc
 50
145.2001083228496
 51
264.173294962726
  0
ARC
  5
4F5
330
18
100
AcDbEntity
  8
ADP1DETAIL
100
AcDbCircle
 10
15.75389416344728
 20
24.60553772392544
 30
0.0
 40
0.4427683643157585
100
AcDbArc
 50
256.0536869389119
 51
283.946313061088
  0
ARC
  5
4F6
330
18
100
AcDbEntity
  8
ADP1DETAIL
100
AcDbCircle
 10
16.15379577338631
 20
23.52250182016137
 30
0.0
 40
0.3223583178898343
100
AcDbArc
 50
150.2424072337138
 51
187.127799505275
  0
ARC
  5
4F7
330
18
100
AcDbEntity
  8
ADP1DETAIL
100
AcDbCircle
 10
16.14574311098391
 20
26.91093713968699
 30
0.0
 40
3.442584967132998
100
AcDbArc
 50
264.8032744768169
 51
278.8316876335155
  0
LWPOLYLINE
  5
4F8
330
18
100
AcDbEntity
  8
ADP1DETAIL
100
AcDbPolyline
 90
        2
 70
     0
 43
0.0
 10
15.92730233075083
 20
23.00251290155371
 10
15.9673195060391
 20
23.48250265409095
  0
LWPOLYLINE
  5
4FC
330
18
100
AcDbEntity
  8
ADP1DETAIL
100
AcDbPolyline
 90
        2
 70
     0
 43
0.0
 10
16.56757853326388
 20
23.21584166710872
 10
16.51422224130032
 20
23.48250265409095
  0
ARC
  5
500
330
18
100
AcDbEntity
  8
ADP1DETAIL
100
AcDbCircle
 10
15.60137269461976
 20
22.39534777448114
 30
0.0
 40
3.157549051349772
100
AcDbArc
 50
92.80058401132746
 51
123.4752217774488
  0
ARC
  5
501
330
18
100
AcDbEntity
  8
ADP1DETAIL
100
AcDbCircle
 10
13.11159995082541
 20
23.27956418347515
 30
0.0
 40
2.176278205644253
100
AcDbArc
 50
75.7766156662155
 51
102.7163630421063
  0
ARC
  5
502
330
18
100
AcDbEntity
  8
ADP1DETAIL
100
AcDbCircle
 10
13.14080895005939
 20
25.53109082606533
 30
0.0
 40
0.5288251200080861
100
AcDbArc
 50
268.405452886948
 51
342.9227830740742
  0
ARC
  5
503
330
18
100
AcDbEntity
  8
ADP1DETAIL
100
AcDbCircle
 10
13.11137824050275
 20
25.53109082606533
 30
0.0
 40
0.5288251200080861
100
AcDbArc
 50
197.0772169259258
 51
271.5945471130519
  0
LINE
  5
504
330
18
100
AcDbEntity
  8
ADP1DETAIL
100
AcDbLine
 10
13.85974343978354
 20
25.0291365948649
 30
0.0
 11
13.64631809719171
 21
25.38912890926784
 31
0.0
  0
ARC
  5
505
330
18
100
AcDbEntity
  8
ADP1DETAIL
100
AcDbCircle
 10
15.44273787822307
 20
24.0958824933191
 30
0.0
 40
0.8446265475284281
100
AcDbArc
 50
49.25701586756325
 51
96.04972692041952
  0
TEXT
  5
513
330
18
100
AcDbEntity
  8
ADPDIM
100
AcDbText
 10
-19.02518296144707
 20
-8.457156240459877
 30
0.0
 40
0.625
  1
J U L I U S  B L U M  &  C O . ,  I N C .      ( 8 0 0 )  5 2 6 - 6 2 9 3        W W W . J U L I U S B L U M . C O M        P A R T  N o .  5 1 9
 41
1.25
  7
ARIAL_WIDE
 72
     1
 11
13.14835472613819
 21
-7.832156240459878
 31
0.0
100
AcDbText
 73
     3
  0
ENDSEC
  0
SECTION
  2
OBJECTS
  0
DICTIONARY
  5
C
330
0
100
AcDbDictionary
  3
ACAD_GROUP
350
D
  3
ACAD_LAYOUT
350
50C
  3
ACAD_MLINESTYLE
350
E
  3
ACAD_PLOTSETTINGS
350
50D
  3
ACAD_PLOTSTYLENAME
350
50A
  3
ACDBHEADERROUNDTRIPXREC
350
65B
  3
ACDBVARIABLEDICTIONARY
350
56D
  0
DICTIONARY
  5
567
330
18
100
AcDbDictionary
280
     1
  3
ACAD_LAYOUTSELFREF
360
67C
  0
DICTIONARY
  5
565
330
15
100
AcDbDictionary
280
     1
  3
ACAD_LAYOUTSELFREF
360
67B
  0
DICTIONARY
  5
D
102
{ACAD_REACTORS
330
C
102
}
330
C
100
AcDbDictionary
  0
DICTIONARY
  5
50C
102
{ACAD_REACTORS
330
C
102
}
330
C
100
AcDbDictionary
  0
DICTIONARY
  5
E
102
{ACAD_REACTORS
330
C
102
}
330
C
100
AcDbDictionary
  3
STANDARD
350
1B
  0
DICTIONARY
  5
50D
102
{ACAD_REACTORS
330
C
102
}
330
C
100
AcDbDictionary
  0
ACDBDICTIONARYWDFLT
  5
50A
102
{ACAD_REACTORS
330
C
102
}
330
C
100
AcDbDictionary
281
     1
  3
Normal
350
50B
100
AcDbDictionaryWithDefault
340
50B
  0
DICTIONARY
  5
65B
102
{ACAD_REACTORS
330
C
102
}
330
C
100
AcDbDictionary
  3
CEPSNTYPE
350
665
  3
FINGERPRINTGUID
350
666
  3
HYPERLINKBASE
350
65E
  3
INSUNITS
350
664
  3
LAYOUTDICT
350
660
  3
LWETCUNION
350
663
  3
PLOTSETDICT
350
661
  3
PLOTSTYLNAMDICT
350
662
  3
PSVPSCALE
350
668
  3
PUCSBASE
350
66B
  3
PUCSORGBACK
350
671
  3
PUCSORGBOTTOM
350
66D
  3
PUCSORGFRONT
350
670
  3
PUCSORGLEFT
350
66E
  3
PUCSORGRIGHT
350
66F
  3
PUCSORGTOP
350
66C
  3
PUCSORTHOREF
350
669
  3
PUCSORTHOVIEW
350
66A
  3
STYLESHEET
350
65F
  3
TSTACKALIGN
350
65C
  3
TSTACKSIZE
350
65D
  3
UCSBASE
350
674
  3
UCSORGBACK
350
67A
  3
UCSORGBOTTOM
350
676
  3
UCSORGFRONT
350
679
  3
UCSORGLEFT
350
677
  3
UCSORGRIGHT
350
678
  3
UCSORGTOP
350
675
  3
UCSORTHOREF
350
672
  3
UCSORTHOVIEW
350
673
  3
VERSIONGUID
350
667
  0
DICTIONARY
  5
56D
102
{ACAD_REACTORS
330
C
102
}
330
C
100
AcDbDictionary
  3
DIMASSOC
350
56E
  0
XRECORD
  5
67C
102
{ACAD_REACTORS
330
567
102
}
330
567
100
AcDbXrecord
340
18
  0
XRECORD
  5
67B
102
{ACAD_REACTORS
330
565
102
}
330
565
100
AcDbXrecord
340
15
  0
MLINESTYLE
  5
1B
102
{ACAD_REACTORS
330
E
102
}
330
E
100
AcDbMlineStyle
  2
STANDARD
 70
     0
  3

 62
     0
 51
90.0
 52
90.0
 71
     2
 49
0.5
 62
   256
  6
BYLAYER
 49
-0.5
 62
   256
  6
BYLAYER
  0
ACDBPLACEHOLDER
  5
50B
102
{ACAD_REACTORS
330
50A
102
}
330
50A
100
AcDbPlaceHolder
280
     0
  0
XRECORD
  5
665
102
{ACAD_REACTORS
330
65B
102
}
330
65B
100
AcDbXrecord
 90
        0
  0
XRECORD
  5
666
102
{ACAD_REACTORS
330
65B
102
}
330
65B
100
AcDbXrecord
  1
{D56FD5AE-FC75-46C4-95CE-7E2EACB15D33}
  0
XRECORD
  5
65E
102
{ACAD_REACTORS
330
65B
102
}
330
65B
100
AcDbXrecord
  1

  0
XRECORD
  5
664
102
{ACAD_REACTORS
330
65B
102
}
330
65B
100
AcDbXrecord
 90
        0
  0
XRECORD
  5
660
102
{ACAD_REACTORS
330
65B
102
}
330
65B
100
AcDbXrecord
340
50C
  0
XRECORD
  5
663
102
{ACAD_REACTORS
330
65B
102
}
330
65B
100
AcDbXrecord
 90
    14877
  0
XRECORD
  5
661
102
{ACAD_REACTORS
330
65B
102
}
330
65B
100
AcDbXrecord
340
50D
  0
XRECORD
  5
662
102
{ACAD_REACTORS
330
65B
102
}
330
65B
100
AcDbXrecord
340
50A
  0
XRECORD
  5
668
102
{ACAD_REACTORS
330
65B
102
}
330
65B
100
AcDbXrecord
 40
0.0
  0
XRECORD
  5
66B
102
{ACAD_REACTORS
330
65B
102
}
330
65B
100
AcDbXrecord
340
0
  0
XRECORD
  5
671
102
{ACAD_REACTORS
330
65B
102
}
330
65B
100
AcDbXrecord
 10
0.0
 20
0.0
 30
0.0
  0
XRECORD
  5
66D
102
{ACAD_REACTORS
330
65B
102
}
330
65B
100
AcDbXrecord
 10
0.0
 20
0.0
 30
0.0
  0
XRECORD
  5
670
102
{ACAD_REACTORS
330
65B
102
}
330
65B
100
AcDbXrecord
 10
0.0
 20
0.0
 30
0.0
  0
XRECORD
  5
66E
102
{ACAD_REACTORS
330
65B
102
}
330
65B
100
AcDbXrecord
 10
0.0
 20
0.0
 30
0.0
  0
XRECORD
  5
66F
102
{ACAD_REACTORS
330
65B
102
}
330
65B
100
AcDbXrecord
 10
0.0
 20
0.0
 30
0.0
  0
XRECORD
  5
66C
102
{ACAD_REACTORS
330
65B
102
}
330
65B
100
AcDbXrecord
 10
0.0
 20
0.0
 30
0.0
  0
XRECORD
  5
669
102
{ACAD_REACTORS
330
65B
102
}
330
65B
100
AcDbXrecord
340
0
  0
XRECORD
  5
66A
102
{ACAD_REACTORS
330
65B
102
}
330
65B
100
AcDbXrecord
 70
     0
  0
XRECORD
  5
65F
102
{ACAD_REACTORS
330
65B
102
}
330
65B
100
AcDbXrecord
  1

  0
XRECORD
  5
65C
102
{ACAD_REACTORS
330
65B
102
}
330
65B
100
AcDbXrecord
 90
        1
  0
XRECORD
  5
65D
102
{ACAD_REACTORS
330
65B
102
}
330
65B
100
AcDbXrecord
 90
       70
  0
XRECORD
  5
674
102
{ACAD_REACTORS
330
65B
102
}
330
65B
100
AcDbXrecord
340
0
  0
XRECORD
  5
67A
102
{ACAD_REACTORS
330
65B
102
}
330
65B
100
AcDbXrecord
 10
0.0
 20
0.0
 30
0.0
  0
XRECORD
  5
676
102
{ACAD_REACTORS
330
65B
102
}
330
65B
100
AcDbXrecord
 10
0.0
 20
0.0
 30
0.0
  0
XRECORD
  5
679
102
{ACAD_REACTORS
330
65B
102
}
330
65B
100
AcDbXrecord
 10
0.0
 20
0.0
 30
0.0
  0
XRECORD
  5
677
102
{ACAD_REACTORS
330
65B
102
}
330
65B
100
AcDbXrecord
 10
0.0
 20
0.0
 30
0.0
  0
XRECORD
  5
678
102
{ACAD_REACTORS
330
65B
102
}
330
65B
100
AcDbXrecord
 10
0.0
 20
0.0
 30
0.0
  0
XRECORD
  5
675
102
{ACAD_REACTORS
330
65B
102
}
330
65B
100
AcDbXrecord
 10
0.0
 20
0.0
 30
0.0
  0
XRECORD
  5
672
102
{ACAD_REACTORS
330
65B
102
}
330
65B
100
AcDbXrecord
340
0
  0
XRECORD
  5
673
102
{ACAD_REACTORS
330
65B
102
}
330
65B
100
AcDbXrecord
 70
     0
  0
XRECORD
  5
667
102
{ACAD_REACTORS
330
65B
102
}
330
65B
100
AcDbXrecord
  1
{A0388C66-8921-470F-B502-BBF98AA513A9}
  0
DICTIONARYVAR
  5
56E
102
{ACAD_REACTORS
330
56D
102
}
330
56D
100
DictionaryVariables
280
     0
  1
1
  0
ENDSEC
  0
EOF
