  0
SECTION
  2
HEADER
  9
$ACADVER
  1
AC1014
  9
$ACADMAINTVER
 70
     9
  9
$DWGCODEPAGE
  3
ANSI_1252
  9
$INSBASE
 10
0.1266396591077026
 20
-6.085041355399366
 30
0.0
  9
$EXTMIN
 10
-32.3395918746847
 20
-8.537458367392062
 30
0.0
  9
$EXTMAX
 10
32.00748350048583
 20
29.56957423820226
 30
0.0
  9
$LIMMIN
 10
0.0
 20
0.0
  9
$LIMMAX
 10
36.0
 20
36.0
  9
$ORTHOMODE
 70
     1
  9
$REGENMODE
 70
     1
  9
$FILLMODE
 70
     1
  9
$QTEXTMODE
 70
     0
  9
$MIRRTEXT
 70
     1
  9
$DRAGMODE
 70
     0
  9
$LTSCALE
 40
1.0
  9
$OSMODE
 70
    37
  9
$ATTMODE
 70
     1
  9
$TEXTSIZE
 40
0.2
  9
$TRACEWID
 40
0.05
  9
$TEXTSTYLE
  7
STANDARD
  9
$CLAYER
  8
ADPDIM
  9
$CELTYPE
  6
BYLAYER
  9
$CECOLOR
 62
   256
  9
$CELTSCALE
 40
1.0
  9
$DELOBJ
 70
     1
  9
$DISPSILH
 70
     0
  9
$DIMSCALE
 40
1.0
  9
$DIMASZ
 40
0.125
  9
$DIMEXO
 40
0.0625
  9
$DIMDLI
 40
0.38
  9
$DIMRND
 40
0.0
  9
$DIMDLE
 40
0.0
  9
$DIMEXE
 40
0.18
  9
$DIMTP
 40
0.0
  9
$DIMTM
 40
0.0
  9
$DIMTXT
 40
0.125
  9
$DIMCEN
 40
0.1875
  9
$DIMTSZ
 40
0.125
  9
$DIMTOL
 70
     0
  9
$DIMLIM
 70
     0
  9
$DIMTIH
 70
     0
  9
$DIMTOH
 70
     0
  9
$DIMSE1
 70
     0
  9
$DIMSE2
 70
     0
  9
$DIMTAD
 70
     0
  9
$DIMZIN
 70
     3
  9
$DIMBLK
  1

  9
$DIMASO
 70
     1
  9
$DIMSHO
 70
     1
  9
$DIMPOST
  1

  9
$DIMAPOST
  1

  9
$DIMALT
 70
     0
  9
$DIMALTD
 70
     1
  9
$DIMALTF
 40
25.4
  9
$DIMLFAC
 40
1.0
  9
$DIMTOFL
 70
     0
  9
$DIMTVP
 40
0.0
  9
$DIMTIX
 70
     0
  9
$DIMSOXD
 70
     0
  9
$DIMSAH
 70
     0
  9
$DIMBLK1
  1

  9
$DIMBLK2
  1

  9
$DIMSTYLE
  2
STANDARD
  9
$DIMCLRD
 70
     0
  9
$DIMCLRE
 70
     0
  9
$DIMCLRT
 70
     0
  9
$DIMTFAC
 40
1.0
  9
$DIMGAP
 40
0.125
  9
$DIMJUST
 70
     0
  9
$DIMSD1
 70
     0
  9
$DIMSD2
 70
     0
  9
$DIMTOLJ
 70
     1
  9
$DIMTZIN
 70
     0
  9
$DIMALTZ
 70
     0
  9
$DIMALTTZ
 70
     0
  9
$DIMFIT
 70
     3
  9
$DIMUPT
 70
     0
  9
$DIMUNIT
 70
     2
  9
$DIMDEC
 70
     4
  9
$DIMTDEC
 70
     4
  9
$DIMALTU
 70
     2
  9
$DIMALTTD
 70
     2
  9
$DIMTXSTY
  7
STANDARD
  9
$DIMAUNIT
 70
     0
  9
$LUNITS
 70
     5
  9
$LUPREC
 70
     4
  9
$SKETCHINC
 40
0.1
  9
$FILLETRAD
 40
0.062
  9
$AUNITS
 70
     0
  9
$AUPREC
 70
     0
  9
$MENU
  1
acad
  9
$ELEVATION
 40
0.0
  9
$PELEVATION
 40
0.0
  9
$THICKNESS
 40
0.0
  9
$LIMCHECK
 70
     0
  9
$BLIPMODE
 70
     0
  9
$CHAMFERA
 40
0.0
  9
$CHAMFERB
 40
0.0
  9
$CHAMFERC
 40
0.0
  9
$CHAMFERD
 40
0.0
  9
$SKPOLY
 70
     0
  9
$TDCREATE
 40
2450407.545434988
  9
$TDUPDATE
 40
2452297.071902847
  9
$TDINDWG
 40
0.0303821412
  9
$TDUSRTIMER
 40
0.0303821412
  9
$USRTIMER
 70
     1
  9
$ANGBASE
 50
0.0
  9
$ANGDIR
 70
     0
  9
$PDMODE
 70
     0
  9
$PDSIZE
 40
0.0
  9
$PLINEWID
 40
0.0
  9
$COORDS
 70
     2
  9
$SPLFRAME
 70
     0
  9
$SPLINETYPE
 70
     6
  9
$SPLINESEGS
 70
     8
  9
$ATTDIA
 70
     0
  9
$ATTREQ
 70
     1
  9
$HANDLING
 70
 22529
  9
$HANDSEED
  5
46B
  9
$SURFTAB1
 70
     6
  9
$SURFTAB2
 70
     6
  9
$SURFTYPE
 70
     6
  9
$SURFU
 70
     6
  9
$SURFV
 70
     6
  9
$UCSNAME
  2

  9
$UCSORG
 10
0.0
 20
0.0
 30
0.0
  9
$UCSXDIR
 10
1.0
 20
0.0
 30
0.0
  9
$UCSYDIR
 10
0.0
 20
1.0
 30
0.0
  9
$PUCSNAME
  2

  9
$PUCSORG
 10
0.0
 20
0.0
 30
0.0
  9
$PUCSXDIR
 10
1.0
 20
0.0
 30
0.0
  9
$PUCSYDIR
 10
0.0
 20
1.0
 30
0.0
  9
$USERI1
 70
     0
  9
$USERI2
 70
     0
  9
$USERI3
 70
     0
  9
$USERI4
 70
     0
  9
$USERI5
 70
     0
  9
$USERR1
 40
0.0
  9
$USERR2
 40
0.0
  9
$USERR3
 40
0.0
  9
$USERR4
 40
0.0
  9
$USERR5
 40
0.0
  9
$WORLDVIEW
 70
     1
  9
$SHADEDGE
 70
     3
  9
$SHADEDIF
 70
    70
  9
$TILEMODE
 70
     1
  9
$MAXACTVP
 70
    15
  9
$PINSBASE
 10
0.0008545038290322
 20
1.250283272183907
 30
0.0
  9
$PLIMCHECK
 70
     0
  9
$PEXTMIN
 10
1.000000000000000E+20
 20
1.000000000000000E+20
 30
1.000000000000000E+20
  9
$PEXTMAX
 10
-1.000000000000000E+20
 20
-1.000000000000000E+20
 30
-1.000000000000000E+20
  9
$PLIMMIN
 10
0.0
 20
0.0
  9
$PLIMMAX
 10
12.0
 20
9.0
  9
$UNITMODE
 70
     0
  9
$VISRETAIN
 70
     0
  9
$PLINEGEN
 70
     0
  9
$PSLTSCALE
 70
     1
  9
$TREEDEPTH
 70
  3020
  9
$PICKSTYLE
 70
     1
  9
$CMLSTYLE
  2
STANDARD
  9
$CMLJUST
 70
     0
  9
$CMLSCALE
 40
1.0
  9
$PROXYGRAPHICS
 70
     1
  9
$MEASUREMENT
 70
     0
  0
ENDSEC
  0
SECTION
  2
CLASSES
  0
CLASS
  1
ACDBDICTIONARYWDFLT
  2
AcDbDictionaryWithDefault
  3
AutoCAD 2000
 90
        0
280
     0
281
     0
  0
CLASS
  1
ACDBPLACEHOLDER
  2
AcDbPlaceHolder
  3
AutoCAD 2000
 90
        0
280
     0
281
     0
  0
CLASS
  1
LAYOUT
  2
AcDbLayout
  3
AutoCAD 2000
 90
        0
280
     0
281
     0
  0
CLASS
  1
DICTIONARYVAR
  2
AcDbDictionaryVar
  3
AutoCAD 2000
 90
        0
280
     0
281
     0
  0
CLASS
  1
LONG_TRANSACTION
  2
AcDbLongTransaction
  3
AutoCAD 2000
 90
        0
280
     0
281
     0
  0
CLASS
  1
LWPOLYLINE
  2
AcDbPolyline
  3
AutoCAD 2000
 90
        0
280
     0
281
     1
  0
CLASS
  1
HATCH
  2
AcDbHatch
  3
AutoCAD 2000
 90
        0
280
     0
281
     1
  0
CLASS
  1
XRECORD
  2
AcDbXrecord
  3
AutoCAD 2000
 90
        0
280
     0
281
     0
  0
CLASS
  1
LONG_TRANSACTION
  2
AcDbLongTransaction
  3
AutoCAD 2000
 90
        0
280
     0
281
     0
  0
CLASS
  1
LWPOLYLINE
  2
AcDbPolyline
  3
AutoCAD 2000
 90
        0
280
     0
281
     1
  0
CLASS
  1
HATCH
  2
AcDbHatch
  3
AutoCAD 2000
 90
        0
280
     0
281
     1
  0
CLASS
  1
XRECORD
  2
AcDbXrecord
  3
AutoCAD 2000
 90
        0
280
     0
281
     0
  0
CLASS
  1
LONG_TRANSACTION
  2
AcDbLongTransaction
  3
AutoCAD 2000
 90
        0
280
     0
281
     0
  0
CLASS
  1
LWPOLYLINE
  2
AcDbPolyline
  3
AutoCAD 2000
 90
        0
280
     0
281
     1
  0
CLASS
  1
HATCH
  2
AcDbHatch
  3
AutoCAD 2000
 90
        0
280
     0
281
     1
  0
CLASS
  1
XRECORD
  2
AcDbXrecord
  3
AutoCAD 2000
 90
        0
280
     0
281
     0
  0
CLASS
  1
LONG_TRANSACTION
  2
AcDbLongTransaction
  3
AutoCAD 2000
 90
        0
280
     0
281
     0
  0
CLASS
  1
LWPOLYLINE
  2
AcDbPolyline
  3
AutoCAD 2000
 90
        0
280
     0
281
     1
  0
CLASS
  1
HATCH
  2
AcDbHatch
  3
AutoCAD 2000
 90
        0
280
     0
281
     1
  0
CLASS
  1
XRECORD
  2
AcDbXrecord
  3
AutoCAD 2000
 90
        0
280
     0
281
     0
  0
CLASS
  1
LONG_TRANSACTION
  2
AcDbLongTransaction
  3
AutoCAD 2000
 90
        0
280
     0
281
     0
  0
CLASS
  1
LWPOLYLINE
  2
AcDbPolyline
  3
AutoCAD 2000
 90
        0
280
     0
281
     1
  0
CLASS
  1
HATCH
  2
AcDbHatch
  3
AutoCAD 2000
 90
        0
280
     0
281
     1
  0
CLASS
  1
XRECORD
  2
AcDbXrecord
  3
AutoCAD 2000
 90
        0
280
     0
281
     0
  0
CLASS
  1
LONG_TRANSACTION
  2
AcDbLongTransaction
  3
AutoCAD 2000
 90
        0
280
     0
281
     0
  0
CLASS
  1
LWPOLYLINE
  2
AcDbPolyline
  3
AutoCAD 2000
 90
        0
280
     0
281
     1
  0
CLASS
  1
HATCH
  2
AcDbHatch
  3
AutoCAD 2000
 90
        0
280
     0
281
     1
  0
CLASS
  1
XRECORD
  2
AcDbXrecord
  3
AutoCAD 2000
 90
        0
280
     0
281
     0
  0
ENDSEC
  0
SECTION
  2
TABLES
  0
TABLE
  2
VPORT
  5
8
330
0
100
AcDbSymbolTable
 70
     2
  0
VPORT
  5
448
330
8
100
AcDbSymbolTableRecord
100
AcDbViewportTableRecord
  2
*ACTIVE
 70
     0
 10
0.0
 20
0.0
 11
1.0
 21
1.0
 12
-0.1153971124039046
 22
10.51684480233068
 13
0.0
 23
0.0
 14
0.5740882589684922
 24
0.5740882589684922
 15
0.5
 25
0.5
 16
0.0
 26
0.0
 36
1.0
 17
0.0
 27
0.0
 37
0.0
 40
41.23745663369033
 41
1.570528967254408
 42
50.0
 43
0.0
 44
0.0
 50
0.0
 51
0.0
 71
     0
 72
   100
 73
     1
 74
     0
 75
     0
 76
     0
 77
     0
 78
     0
  0
ENDTAB
  0
TABLE
  2
LTYPE
  5
5
330
0
100
AcDbSymbolTable
 70
     1
  0
LTYPE
  5
12
330
5
100
AcDbSymbolTableRecord
100
AcDbLinetypeTableRecord
  2
BYBLOCK
 70
     0
  3

 72
    65
 73
     0
 40
0.0
  0
LTYPE
  5
13
330
5
100
AcDbSymbolTableRecord
100
AcDbLinetypeTableRecord
  2
BYLAYER
 70
     0
  3

 72
    65
 73
     0
 40
0.0
  0
LTYPE
  5
14
330
5
100
AcDbSymbolTableRecord
100
AcDbLinetypeTableRecord
  2
CONTINUOUS
 70
     0
  3
Solid line
 72
    65
 73
     0
 40
0.0
  0
ENDTAB
  0
TABLE
  2
LAYER
  5
2
330
0
100
AcDbSymbolTable
 70
     4
  0
LAYER
  5
F
330
2
100
AcDbSymbolTableRecord
100
AcDbLayerTableRecord
  2
0
 70
     0
 62
     7
  6
CONTINUOUS
  0
LAYER
  5
4B
330
2
100
AcDbSymbolTableRecord
100
AcDbLayerTableRecord
  2
ADP1DETAIL
 70
     0
 62
     7
  6
CONTINUOUS
  0
LAYER
  5
4D
330
2
100
AcDbSymbolTableRecord
100
AcDbLayerTableRecord
  2
DEFPOINTS
 70
     0
 62
     7
  6
CONTINUOUS
  0
LAYER
  5
4E
330
2
100
AcDbSymbolTableRecord
100
AcDbLayerTableRecord
  2
ADPDIM
 70
     0
 62
     3
  6
CONTINUOUS
  0
ENDTAB
  0
TABLE
  2
STYLE
  5
3
330
0
100
AcDbSymbolTable
 70
     2
  0
STYLE
  5
10
330
3
100
AcDbSymbolTableRecord
100
AcDbTextStyleTableRecord
  2
STANDARD
 70
     0
 40
0.0
 41
1.0
 50
0.0
 71
     0
 42
0.2
  3
txt
  4

  0
STYLE
  5
300
330
3
100
AcDbSymbolTableRecord
100
AcDbTextStyleTableRecord
  2
ARIAL_WIDE
 70
     0
 40
0.0
 41
1.25
 50
0.0
 71
     0
 42
0.2
  3
ARIAL.TTF
  4

1001
ACAD
1000
Arial
1071
       34
  0
ENDTAB
  0
TABLE
  2
VIEW
  5
6
330
0
100
AcDbSymbolTable
 70
     0
  0
ENDTAB
  0
TABLE
  2
UCS
  5
7
330
0
100
AcDbSymbolTable
 70
     0
  0
ENDTAB
  0
TABLE
  2
APPID
  5
9
330
0
100
AcDbSymbolTable
 70
     1
  0
APPID
  5
11
330
9
100
AcDbSymbolTableRecord
100
AcDbRegAppTableRecord
  2
ACAD
 70
     0
  0
ENDTAB
  0
TABLE
  2
DIMSTYLE
  5
A
330
0
100
AcDbSymbolTable
 70
     1
  0
DIMSTYLE
105
2F4
330
A
100
AcDbSymbolTableRecord
100
AcDbDimStyleTableRecord
  2
STANDARD
 70
     0
  3

  4

  5

  6

  7

 40
1.0
 41
0.18
 42
0.0625
 43
0.38
 44
0.18
 45
0.0
 46
0.0
 47
0.0
 48
0.0
140
0.18
141
0.09
142
0.0
143
25.4
144
1.0
145
0.0
146
1.0
147
0.09
 71
     0
 72
     0
 73
     1
 74
     1
 75
     0
 76
     0
 77
     0
 78
     0
170
     0
171
     2
172
     0
173
     0
174
     0
175
     0
176
     0
177
     0
178
     0
270
     2
271
     4
272
     4
273
     2
274
     2
340
10
275
     0
280
     0
281
     0
282
     0
283
     1
284
     0
285
     0
286
     0
287
     3
288
     0
  0
ENDTAB
  0
TABLE
  2
BLOCK_RECORD
  5
1
330
0
100
AcDbSymbolTable
 70
     2
  0
BLOCK_RECORD
  5
18
102
{ACAD_XDICTIONARY
360
355
102
}
330
1
100
AcDbSymbolTableRecord
100
AcDbBlockTableRecord
  2
*MODEL_SPACE
  0
BLOCK_RECORD
  5
15
102
{ACAD_XDICTIONARY
360
353
102
}
330
1
100
AcDbSymbolTableRecord
100
AcDbBlockTableRecord
  2
*PAPER_SPACE
  0
BLOCK_RECORD
  5
41
330
1
100
AcDbSymbolTableRecord
100
AcDbBlockTableRecord
  2
*D0
  0
BLOCK_RECORD
  5
47
330
1
100
AcDbSymbolTableRecord
100
AcDbBlockTableRecord
  2
*D1
  0
ENDTAB
  0
ENDSEC
  0
SECTION
  2
BLOCKS
  0
BLOCK
  5
51
330
18
100
AcDbEntity
  8
0
100
AcDbBlockBegin
  2
*MODEL_SPACE
 70
     0
 10
0.0
 20
0.0
 30
0.0
  3
*MODEL_SPACE
  1

  0
ENDBLK
  5
52
330
18
100
AcDbEntity
  8
0
100
AcDbBlockEnd
  0
BLOCK
  5
4F
330
15
100
AcDbEntity
 67
     1
  8
0
100
AcDbBlockBegin
  2
*PAPER_SPACE
 70
     0
 10
0.0
 20
0.0
 30
0.0
  3
*PAPER_SPACE
  1

  0
ENDBLK
  5
50
330
15
100
AcDbEntity
 67
     1
  8
0
100
AcDbBlockEnd
  0
BLOCK
  5
54
330
41
100
AcDbEntity
  8
0
100
AcDbBlockBegin
  2
*D0
 70
     1
 10
0.0
 20
0.0
 30
0.0
  3
*D0
  1

  0
LINE
  5
55
330
41
100
AcDbEntity
  8
0
  6
BYBLOCK
 62
     0
100
AcDbLine
 10
-19.32082863073541
 20
-1.814653037909723
 30
0.0
 11
-19.32082863073541
 21
-5.705244883930017
 31
0.0
  0
LINE
  5
56
330
41
100
AcDbEntity
  8
0
  6
BYBLOCK
 62
     0
100
AcDbLine
 10
-11.69582863073541
 20
-1.814653037909723
 30
0.0
 11
-11.69582863073541
 21
-5.705244883930017
 31
0.0
  0
LINE
  5
57
330
41
100
AcDbEntity
  8
0
  6
BYBLOCK
 62
     0
100
AcDbLine
 10
-19.32082863073541
 20
-5.525244883930017
 30
0.0
 11
-16.03400414018391
 21
-5.525244883930017
 31
0.0
  0
LINE
  5
58
330
41
100
AcDbEntity
  8
0
  6
BYBLOCK
 62
     0
100
AcDbLine
 10
-11.69582863073541
 20
-5.525244883930017
 30
0.0
 11
-15.20067080685057
 21
-5.525244883930017
 31
0.0
  0
LINE
  5
59
330
41
100
AcDbEntity
  8
0
  6
BYBLOCK
 62
     0
100
AcDbLine
 10
-19.44582863073541
 20
-5.650244883930017
 30
0.0
 11
-19.19582863073541
 21
-5.400244883930017
 31
0.0
  0
LINE
  5
5A
330
41
100
AcDbEntity
  8
0
  6
BYBLOCK
 62
     0
100
AcDbLine
 10
-11.82082863073541
 20
-5.650244883930017
 30
0.0
 11
-11.57082863073541
 21
-5.400244883930017
 31
0.0
  0
TEXT
  5
5B
330
41
100
AcDbEntity
  8
0
  6
BYBLOCK
 62
     0
100
AcDbText
 10
-15.9090041401839
 20
-5.587744883930017
 30
0.0
 40
0.125
  1
7 5/8
 72
     1
 11
-15.61733747351724
 21
-5.525244883930017
 31
0.0
100
AcDbText
 73
     2
  0
POINT
  5
5C
330
41
100
AcDbEntity
  8
DEFPOINTS
  6
BYBLOCK
 62
     0
100
AcDbPoint
 10
-19.32082863073541
 20
-1.752153037909723
 30
0.0
  0
POINT
  5
5D
330
41
100
AcDbEntity
  8
DEFPOINTS
  6
BYBLOCK
 62
     0
100
AcDbPoint
 10
-11.69582863073541
 20
-1.752153037909723
 30
0.0
  0
POINT
  5
5E
330
41
100
AcDbEntity
  8
DEFPOINTS
  6
BYBLOCK
 62
     0
100
AcDbPoint
 10
-11.69582863073541
 20
-5.525244883930017
 30
0.0
  0
ENDBLK
  5
5F
330
41
100
AcDbEntity
  8
0
100
AcDbBlockEnd
  0
BLOCK
  5
60
330
47
100
AcDbEntity
  8
0
100
AcDbBlockBegin
  2
*D1
 70
     1
 10
0.0
 20
0.0
 30
0.0
  3
*D1
  1

  0
LINE
  5
61
330
47
100
AcDbEntity
  8
0
  6
BYBLOCK
 62
     0
100
AcDbLine
 10
0.1891396591077026
 20
-6.085041355399366
 30
0.0
 11
4.939399330358101
 21
-6.085041355399366
 31
0.0
  0
LINE
  5
62
330
47
100
AcDbEntity
  8
0
  6
BYBLOCK
 62
     0
100
AcDbLine
 10
0.079008953623994
 20
29.44457423820226
 30
0.0
 11
4.939399330358103
 21
29.44457423820226
 31
0.0
  0
LINE
  5
63
330
47
100
AcDbEntity
  8
0
  6
BYBLOCK
 62
     0
100
AcDbLine
 10
4.759399330358101
 20
-6.085041355399366
 30
0.0
 11
4.759399330358102
 21
11.22143310806811
 31
0.0
  0
LINE
  5
64
330
47
100
AcDbEntity
  8
0
  6
BYBLOCK
 62
     0
100
AcDbLine
 10
4.759399330358103
 20
29.44457423820226
 30
0.0
 11
4.759399330358102
 21
12.13809977473478
 31
0.0
  0
LINE
  5
65
330
47
100
AcDbEntity
  8
0
  6
BYBLOCK
 62
     0
100
AcDbLine
 10
4.884399330358101
 20
-6.210041355399366
 30
0.0
 11
4.634399330358101
 21
-5.960041355399366
 31
0.0
  0
LINE
  5
66
330
47
100
AcDbEntity
  8
0
  6
BYBLOCK
 62
     0
100
AcDbLine
 10
4.884399330358103
 20
29.31957423820227
 30
0.0
 11
4.634399330358103
 21
29.56957423820226
 31
0.0
  0
TEXT
  5
67
330
47
100
AcDbEntity
  8
0
  6
BYBLOCK
 62
     0
100
AcDbText
 10
4.821899330358102
 20
11.34643310806811
 30
0.0
 40
0.125
  1
35 1/2
 50
90.0
 72
     1
 11
4.759399330358102
 21
11.67976644140145
 31
0.0
100
AcDbText
 73
     2
  0
POINT
  5
68
330
47
100
AcDbEntity
  8
DEFPOINTS
  6
BYBLOCK
 62
     0
100
AcDbPoint
 10
0.1266396591077026
 20
-6.085041355399366
 30
0.0
  0
POINT
  5
69
330
47
100
AcDbEntity
  8
DEFPOINTS
  6
BYBLOCK
 62
     0
100
AcDbPoint
 10
0.016508953623994
 20
29.44457423820226
 30
0.0
  0
POINT
  5
6A
330
47
100
AcDbEntity
  8
DEFPOINTS
  6
BYBLOCK
 62
     0
100
AcDbPoint
 10
4.759399330358103
 20
29.44457423820226
 30
0.0
  0
ENDBLK
  5
6B
330
47
100
AcDbEntity
  8
0
100
AcDbBlockEnd
  0
ENDSEC
  0
SECTION
  2
ENTITIES
  0
DIMENSION
  5
6C
330
18
100
AcDbEntity
  8
ADPDIM
100
AcDbDimension
  2
*D1
 10
4.759399330358103
 20
29.44457423820226
 30
0.0
 11
4.759399330358102
 21
11.67976644140145
 31
0.0
100
AcDbAlignedDimension
 13
0.1266396591077026
 23
-6.085041355399366
 33
0.0
 14
0.016508953623994
 24
29.44457423820226
 34
0.0
 50
90.0
100
AcDbRotatedDimension
  0
LWPOLYLINE
  5
6D
330
18
100
AcDbEntity
  8
ADP1DETAIL
100
AcDbPolyline
 90
        3
 70
     0
 43
0.0
 10
3.114092991297244
 20
14.75371862163734
 42
-0.1455266324499924
 10
2.548262124410847
 20
14.73708402144913
 42
-0.1250004567935023
 10
2.281988849255025
 20
15.00323688333326
 42
-1.758991167857797
  0
ARC
  5
72
330
18
100
AcDbEntity
  8
ADP1DETAIL
100
AcDbCircle
 10
7.163946964903777
 20
21.40527537555307
 30
0.0
 40
9.002830610649043
100
AcDbArc
 50
225.2442775334735
 51
230.9867957555598
  0
ARC
  5
73
330
18
100
AcDbEntity
  8
ADP1DETAIL
100
AcDbCircle
 10
4.208264478445789
 20
11.56045743531552
 30
0.0
 40
4.833215488761764
100
AcDbArc
 50
137.6509017598221
 51
148.853653234352
  0
ARC
  5
74
330
18
100
AcDbEntity
  8
ADP1DETAIL
100
AcDbCircle
 10
7.219535771273822
 20
8.388262398912743
 30
0.0
 40
9.383233024958558
100
AcDbArc
 50
135.5866222561553
 51
141.4080126078115
  0
ARC
  5
75
330
18
100
AcDbEntity
  8
ADP1DETAIL
100
AcDbCircle
 10
15.15190183885564
 20
31.71025841367887
 30
0.0
 40
22.27349617320367
100
AcDbArc
 50
229.3300765571535
 51
231.612149556805
  0
ARC
  5
76
330
18
100
AcDbEntity
  8
ADP1DETAIL
100
AcDbCircle
 10
4.654448893727179
 20
10.71883119870445
 30
0.0
 40
4.857653370624984
100
AcDbArc
 50
118.1165445862501
 51
130.5463261276738
  0
ARC
  5
77
330
18
100
AcDbEntity
  8
ADP1DETAIL
100
AcDbCircle
 10
-15.38234329567423
 20
31.71025841367887
 30
0.0
 40
22.27349617320367
100
AcDbArc
 50
308.387850443195
 51
310.6699234428464
  0
ARC
  5
78
330
18
100
AcDbEntity
  8
ADP1DETAIL
100
AcDbCircle
 10
-7.394388421722364
 20
21.40527537555307
 30
0.0
 40
9.002830610649043
100
AcDbArc
 50
309.0132042444402
 51
314.7557224665264
  0
ARC
  5
79
330
18
100
AcDbEntity
  8
ADP1DETAIL
100
AcDbCircle
 10
-4.88489035054577
 20
10.71883119870445
 30
0.0
 40
4.857653370624984
100
AcDbArc
 50
49.45367387232618
 51
61.88345541374988
  0
LWPOLYLINE
  5
7A
330
18
100
AcDbEntity
  8
ADP1DETAIL
100
AcDbPolyline
 90
        3
 70
     0
 43
0.0
 10
-3.344534448115833
 20
14.75371862163734
 42
0.1455266324499924
 10
-2.778703581229436
 20
14.73708402144913
 42
0.1250004567935023
 10
-2.512430306073614
 20
15.00323688333326
 42
1.758991167857797
  0
ARC
  5
7F
330
18
100
AcDbEntity
  8
ADP1DETAIL
100
AcDbCircle
 10
-4.438705935264376
 20
11.56045743531552
 30
0.0
 40
4.833215488761764
100
AcDbArc
 50
31.14634676564794
 51
42.3490982401779
  0
ARC
  5
80
330
18
100
AcDbEntity
  8
ADP1DETAIL
100
AcDbCircle
 10
-7.449977228092411
 20
8.388262398912743
 30
0.0
 40
9.383233024958558
100
AcDbArc
 50
38.5919873921885
 51
44.41337774384462
  0
LWPOLYLINE
  5
81
330
18
100
AcDbEntity
  8
ADP1DETAIL
100
AcDbPolyline
 90
        5
 70
     0
 43
0.0
 10
3.729850243228478
 20
15.00323688333326
 42
-0.1563231279601591
 10
2.581546261350997
 20
11.62642292682303
 42
-0.1921029288100197
 10
1.18361125242238
 20
10.92777181877869
 42
-1.087610883364355
 10
1.18361125242238
 20
11.59315384996781
 42
-0.9972871349638184
 10
1.050474525027166
 20
11.11075192676418
 42
-7.458318888040063
  0
LWPOLYLINE
  5
88
330
18
100
AcDbEntity
  8
ADP1DETAIL
100
AcDbPolyline
 90
        3
 70
     0
 43
0.0
 10
1.350032116757745
 20
11.27709743456146
 42
0.1104695197400392
 10
2.315272986195179
 20
11.85930671185194
 42
0.190381833064026
 10
3.330440240677443
 20
15.00323688333326
 42
0.938028082688373
  0
LWPOLYLINE
  5
8D
330
18
100
AcDbEntity
  8
ADP1DETAIL
100
AcDbPolyline
 90
        3
 70
     0
 43
0.0
 10
-1.580473573576334
 20
11.27709743456146
 42
-0.1104695197400392
 10
-2.545714443013768
 20
11.85930671185194
 42
-0.190381833064026
 10
-3.560881697496032
 20
15.00323688333326
 42
-0.938028082688373
  0
LWPOLYLINE
  5
92
330
18
100
AcDbEntity
  8
ADP1DETAIL
100
AcDbPolyline
 90
        5
 70
     0
 43
0.0
 10
-3.960291700047068
 20
15.00323688333326
 42
0.1563231279601591
 10
-2.811987718169586
 20
11.62642292682303
 42
0.1921029288100197
 10
-1.414052709240969
 20
10.92777181877869
 42
1.087610883364355
 10
-1.414052709240969
 20
11.59315384996781
 42
0.9972871349638184
 10
-1.280915981845755
 20
11.11075192676418
 42
7.458318888040063
  0
ARC
  5
99
330
18
100
AcDbEntity
  8
ADP1DETAIL
100
AcDbCircle
 10
-4.175862185793842
 20
11.25683796139789
 30
0.0
 40
3.661862004540617
100
AcDbArc
 50
7.889865623721708
 51
66.72296654128269
  0
ARC
  5
9A
330
18
100
AcDbEntity
  8
ADP1DETAIL
100
AcDbCircle
 10
4.311393358360378
 20
0.8725308279853383
 30
0.0
 40
4.133088483581748
100
AcDbArc
 50
147.7047312040045
 51
180.5072688135683
  0
ARC
  5
9B
330
18
100
AcDbEntity
  8
ADP1DETAIL
100
AcDbCircle
 10
-4.541834815178969
 20
0.8725308279853383
 30
0.0
 40
4.133088483581748
100
AcDbArc
 50
359.4927311864316
 51
32.29526879599546
  0
LWPOLYLINE
  5
9C
330
18
100
AcDbEntity
  8
ADP1DETAIL
100
AcDbPolyline
 90
       20
 70
     0
 43
0.0
 10
3.167169208138592
 20
-0.81832726289554
 42
0.0489666379284315
 10
3.443581001819307
 20
-0.4729690537943734
 42
0.5487360516642868
 10
3.70271700168967
 20
-0.4038973620644147
 42
-0.205343176359279
 10
3.650889801715599
 20
-0.1276107199188923
 42
0.1998866102640657
 10
3.357202214224528
 20
0.8393925899775913
 42
0.3502782139287353
 10
0.9558750401498485
 20
0.9084641569332356
 42
0.0230569332332922
 10
0.1611910652714208
 20
0.114140138748807
 42
-0.0583628752846301
 10
0.3685000466246979
 20
1.56464491643206
 42
-0.1294128552270706
 10
0.8694962525550717
 20
2.635255701536326
 42
-0.4958035383274191
 10
1.474147039890576
 20
2.617987809797416
 42
0.7781437407586232
 10
1.698731633597219
 20
2.376236951129715
 42
0.3485116673051263
 10
1.975143427277934
 20
3.049685602367452
 42
0.3203470492089426
 10
0.9040478401757781
 20
3.308704352774062
 42
0.1944586642668592
 10
0.6794632464691333
 20
3.671330578388454
 42
-0.1230723847410707
 10
0.2821212590299193
 20
3.481383519711803
 42
-0.0449716228442763
 10
0.3857756589780656
 20
4.807559302190856
 42
-0.2236875717832786
 10
0.9385992463394963
 20
5.601883445149599
 42
0.5462921700546462
 10
1.284114033804637
 20
5.809098395565161
 42
0.5016793341795577
 10
0.7485660587965733
 20
5.999045454241814
 42
0.1622543655575052
 10
0.1957426528921271
 20
5.584615553410689
 42
1.909178234876039
  0
LWPOLYLINE
  5
B2
330
18
100
AcDbEntity
  8
ADP1DETAIL
100
AcDbPolyline
 90
       20
 70
     0
 43
0.0
 10
-3.397610664957181
 20
-0.81832726289554
 42
-0.0489666379284315
 10
-3.674022458637896
 20
-0.4729690537943734
 42
-0.5487360516642868
 10
-3.933158458508259
 20
-0.4038973620644147
 42
0.205343176359279
 10
-3.881331258534189
 20
-0.1276107199188923
 42
-0.1998866102640657
 10
-3.587643671043117
 20
0.8393925899775913
 42
-0.3502782139287353
 10
-1.186316496968437
 20
0.9084641569332356
 42
-0.0230569332332922
 10
-0.3916325220900099
 20
0.114140138748807
 42
0.0583628752846301
 10
-0.598941503443287
 20
1.56464491643206
 42
0.1294128552270706
 10
-1.09993770937366
 20
2.635255701536326
 42
0.4958035383274191
 10
-1.704588496709165
 20
2.617987809797416
 42
-0.7781437407586232
 10
-1.929173090415808
 20
2.376236951129715
 42
-0.3485116673051263
 10
-2.205584884096523
 20
3.049685602367452
 42
-0.3203470492089426
 10
-1.134489296994367
 20
3.308704352774062
 42
-0.1944586642668592
 10
-0.9099047032877223
 20
3.671330578388454
 42
0.1230723847410707
 10
-0.5125627158485085
 20
3.481383519711803
 42
0.0449716228442763
 10
-0.6162171157966548
 20
4.807559302190856
 42
0.2236875717832786
 10
-1.169040703158085
 20
5.601883445149599
 42
-0.5462921700546462
 10
-1.514555490623227
 20
5.809098395565161
 42
-0.5016793341795577
 10
-0.9790075156151623
 20
5.999045454241814
 42
-0.1622543655575052
 10
-0.4261841097107162
 20
5.584615553410689
 42
-1.909178234876039
  0
DIMENSION
  5
C8
330
18
100
AcDbEntity
  8
ADPDIM
100
AcDbDimension
  2
*D0
 10
3.6384391950865
 20
-6.463556269395372
 30
0.0
 11
-0.2830696476953274
 21
-6.463556269395372
 31
0.0
 12
15.33426782582191
 22
-0.9383113854653544
 32
0.0
 70
   128
100
AcDbAlignedDimension
 13
-3.986560804913499
 23
-2.690464423375077
 33
0.0
 14
3.6384391950865
 24
-2.690464423375077
 34
0.0
100
AcDbRotatedDimension
  0
LINE
  5
C9
330
18
100
AcDbEntity
  8
ADP1DETAIL
100
AcDbLine
 10
-0.4607355158744362
 20
-1.802598464530935
 30
0.0
 11
-0.1324965222196468
 21
-1.560847605863235
 31
0.0
  0
LWPOLYLINE
  5
CA
330
18
100
AcDbEntity
  8
ADP1DETAIL
100
AcDbPolyline
 90
       12
 70
     0
 43
0.0
 10
-0.1152207284092945
 20
-6.085041355399366
 10
-0.3570811159262917
 20
-6.085041355399366
 10
-0.3570811159262917
 20
-4.738143928149578
 42
0.1223730047978522
 10
-0.8408017095032978
 20
-2.873209124860885
 42
0.1979759510148325
 10
-1.514555490623227
 20
-2.30336794883093
 42
0.6456434238791986
 10
-1.77369149049359
 20
-2.527850915759719
 42
-0.6537275541157117
 10
-2.222860677906878
 20
-2.579654590976452
 42
-0.6771922758626216
 10
-1.531831102976594
 20
-1.802598464530935
 42
-0.1291908721525038
 10
-1.03083489704622
 20
-2.147956798406415
 42
-0.2462717823273634
 10
-0.9617319032617963
 20
-1.474508022394364
 42
-0.3682947884459968
 10
-0.4607355158744362
 20
-1.802598464530935
 42
-0.0681838220363607
 10
-0.1497723160300008
 20
-3.114959983528585
 42
-1.446757986259325
  0
LWPOLYLINE
  5
D8
330
18
100
AcDbEntity
  8
ADP1DETAIL
100
AcDbPolyline
 90
        9
 70
     0
 43
0.0
 10
-0.4780113096847885
 20
-1.733526772800975
 42
0.1338656240490159
 10
-0.7198715157447993
 20
-0.3693614538122771
 42
0.1910993169028056
 10
-1.860070096631382
 20
0.7875887899865433
 42
0.2440594150718944
 10
-2.672029683863179
 20
0.7357849899954952
 42
-0.4390018521735211
 10
-3.103923077466113
 20
0.6149096230488027
 42
-0.2424537459413199
 10
-3.155750277440183
 20
0.701249206517673
 42
0.3866654192274563
 10
-3.414886458767533
 20
0.3558908726421919
 42
-0.0233009416434798
 10
-3.397610664957181
 20
-0.0067353529721998
 42
0.7207262464463923
 10
-3.034820265138673
 20
-0.2830219951177222
 42
3.243387098841034
  0
LWPOLYLINE
  5
E3
330
18
100
AcDbEntity
  8
ADP1DETAIL
100
AcDbPolyline
 90
        3
 70
     0
 43
0.0
 10
-1.272695103106231
 20
-1.992545523207586
 42
0.2899002783487091
 10
-1.981000290389882
 20
-2.113420890154278
 42
0.45329997449823
 10
-1.808242896657311
 20
-2.527850915759719
 42
-6.106184774492891
  0
LWPOLYLINE
  5
E8
330
18
100
AcDbEntity
  8
ADP1DETAIL
100
AcDbPolyline
 90
        2
 70
     0
 43
0.0
 10
-2.741132677647604
 20
0.0450684470188483
 42
0.2867272786188736
 10
-2.412893683992816
 20
-0.1103428281799816
 42
17.18155226868857
  0
LWPOLYLINE
  5
EC
330
18
100
AcDbEntity
  8
ADP1DETAIL
100
AcDbPolyline
 90
        3
 70
     0
 43
0.0
 10
-2.30923928404467
 20
-0.9219347381033209
 42
0.3866659276942732
 10
-2.499272290130608
 20
-0.6801840042099361
 42
0.3259288053131335
 10
-2.568375283915033
 20
-1.060078121563239
 42
-1.59398643967159
  0
LWPOLYLINE
  5
F1
330
18
100
AcDbEntity
  8
ADP1DETAIL
100
AcDbPolyline
 90
        9
 70
     0
 43
0.0
 10
-2.361066484018742
 20
0.1486759222266292
 42
-0.2272386183122048
 10
-1.670037090545445
 20
-0.0067353529721998
 42
-0.2288099982852414
 10
-1.929173090415808
 20
-0.5593086372632437
 42
-0.1287177237335652
 10
-2.050103284174307
 20
-1.232757288500979
 42
-0.484930462261589
 10
-2.654754071509811
 20
-0.9219347381033209
 42
-0.4413295957716122
 10
-3.397610664957181
 20
-0.8010593711566285
 42
-0.3952229736903126
 10
-3.069371671302391
 20
-0.3002898868566328
 42
-0.1555392209891097
 10
-2.913890071380174
 20
0.3731588891554178
 42
-0.2310208071344535
 10
-2.378342277829094
 20
0.1832117057044513
 42
-2.382100313197334
  0
CIRCLE
  5
FC
330
18
100
AcDbEntity
  8
ADP1DETAIL
100
AcDbCircle
 10
-2.594805036914063
 20
-0.431658724383369
 30
0.0
 40
0.2693650588724847
  0
LWPOLYLINE
  5
FD
330
18
100
AcDbEntity
  8
ADP1DETAIL
100
AcDbPolyline
 90
        2
 70
     0
 43
0.0
 10
-3.086647465112744
 20
-0.6801840042099361
 42
0.5838230772475188
 10
-2.913890071380174
 20
-0.2312181951266741
 42
0.5838230772475188
  0
ARC
  5
101
330
18
100
AcDbEntity
  8
ADP1DETAIL
100
AcDbCircle
 10
-4.447231460613341
 20
-0.1733517438221881
 30
0.0
 40
0.8586044154420804
100
AcDbArc
 50
340.0361153337511
 51
11.48729404107121
  0
ARC
  5
102
330
18
100
AcDbEntity
  8
ADP1DETAIL
100
AcDbCircle
 10
-1.978633283577288
 20
-0.0196623476391533
 30
0.0
 40
1.737294785734732
100
AcDbArc
 50
149.0290930479408
 51
174.8870746129215
  0
ARC
  5
103
330
18
100
AcDbEntity
  8
ADP1DETAIL
100
AcDbCircle
 10
-3.39233085239681
 20
0.3726017968565145
 30
0.0
 40
0.3931002460866114
100
AcDbArc
 50
220.3717750736322
 51
273.9794780071617
  0
ARC
  5
104
330
18
100
AcDbEntity
  8
ADP1DETAIL
100
AcDbCircle
 10
-2.743573518262257
 20
0.7629844308101408
 30
0.0
 40
0.4299693168736868
100
AcDbArc
 50
101.8549031934135
 51
195.1134464296162
  0
LWPOLYLINE
  5
105
330
18
100
AcDbEntity
  8
ADP1DETAIL
100
AcDbPolyline
 90
        3
 70
     0
 43
0.0
 10
-2.361066484018742
 20
0.1486759222266292
 42
0.26568358902775
 10
-2.378342277829094
 20
-0.179414395135626
 42
0.3210610809869153
 10
-1.94644888422616
 20
-0.1448786116578038
 42
2.734738776577664
  0
LWPOLYLINE
  5
10A
330
18
100
AcDbEntity
  8
ADP1DETAIL
100
AcDbPolyline
 90
       12
 70
     0
 43
0.0
 10
-0.1152207284092945
 20
-6.085041355399366
 10
0.1266396591077026
 20
-6.085041355399366
 10
0.1266396591077026
 20
-4.738143928149578
 42
-0.1223730047978522
 10
0.6103602526847088
 20
-2.873209124860885
 42
-0.1979759510148325
 10
1.284114033804637
 20
-2.30336794883093
 42
-0.6456434238791986
 10
1.543250033675001
 20
-2.527850915759719
 42
0.6537275541157117
 10
1.992419221088288
 20
-2.579654590976452
 42
0.6771922758626216
 10
1.301389646158005
 20
-1.802598464530935
 42
0.1291908721525038
 10
0.8003934402276318
 20
-2.147956798406415
 42
0.2462717823273634
 10
0.7312904464432073
 20
-1.474508022394364
 42
0.3682947884459968
 10
0.2302940590558471
 20
-1.802598464530935
 42
0.0681838220363607
 10
-0.0806691407885882
 20
-3.114959983528585
 42
1.446757986259325
  0
LWPOLYLINE
  5
118
330
18
100
AcDbEntity
  8
ADP1DETAIL
100
AcDbPolyline
 90
        3
 70
     0
 43
0.0
 10
1.042253646287642
 20
-1.992545523207586
 42
-0.2899002783487091
 10
1.750558833571293
 20
-2.113420890154278
 42
-0.45329997449823
 10
1.577801439838722
 20
-2.527850915759719
 42
6.106184774492891
  0
LWPOLYLINE
  5
11D
330
18
100
AcDbEntity
  8
ADP1DETAIL
100
AcDbPolyline
 90
        3
 70
     0
 43
0.0
 10
2.130625027200153
 20
0.1486759222266292
 42
-0.26568358902775
 10
2.147900821010505
 20
-0.179414395135626
 42
-0.3210610809869153
 10
1.716007427407571
 20
-0.1448786116578038
 42
-2.734738776577664
  0
LWPOLYLINE
  5
122
330
18
100
AcDbEntity
  8
ADP1DETAIL
100
AcDbPolyline
 90
        9
 70
     0
 43
0.0
 10
0.2475698528661994
 20
-1.733526772800975
 42
-0.1338656240490159
 10
0.4894300589262102
 20
-0.3693614538122771
 42
-0.1910993169028056
 10
1.629628639812793
 20
0.7875887899865433
 42
-0.2440594150718944
 10
2.44158822704459
 20
0.7357849899954952
 42
0.4390018521735211
 10
2.873481620647524
 20
0.6149096230488027
 42
0.2424537459413199
 10
2.925308820621594
 20
0.701249206517673
 42
-0.3866654192274563
 10
3.184445001948944
 20
0.3558908726421919
 42
0.0233009416434798
 10
3.167169208138592
 20
-0.0067353529721998
 42
-0.7207262464463923
 10
2.804378808320084
 20
-0.2830219951177222
 42
-3.243387098841034
  0
LWPOLYLINE
  5
12D
330
18
100
AcDbEntity
  8
ADP1DETAIL
100
AcDbPolyline
 90
        9
 70
     0
 43
0.0
 10
2.130625027200153
 20
0.1486759222266292
 42
0.2272386183122048
 10
1.439595633726856
 20
-0.0067353529721998
 42
0.2288099982852414
 10
1.698731633597219
 20
-0.5593086372632437
 42
0.1287177237335652
 10
1.819661827355718
 20
-1.232757288500979
 42
0.484930462261589
 10
2.424312614691222
 20
-0.9219347381033209
 42
0.4413295957716122
 10
3.167169208138592
 20
-0.8010593711566285
 42
0.3952229736903126
 10
2.838930214483802
 20
-0.3002898868566328
 42
0.1555392209891097
 10
2.683448614561585
 20
0.3731588891554178
 42
0.2310208071344535
 10
2.147900821010505
 20
0.1832117057044513
 42
2.382100313197334
  0
LINE
  5
138
330
18
100
AcDbEntity
  8
ADP1DETAIL
100
AcDbLine
 10
0.2302940590558471
 20
-1.802598464530935
 30
0.0
 11
-0.0979449345989423
 21
-1.560847605863235
 31
0.0
  0
LWPOLYLINE
  5
139
330
18
100
AcDbEntity
  8
ADP1DETAIL
100
AcDbPolyline
 90
        2
 70
     0
 43
0.0
 10
2.856206008294156
 20
-0.6801840042099361
 42
-0.5838230772475188
 10
2.683448614561585
 20
-0.2312181951266741
 42
-0.5838230772475188
  0
CIRCLE
  5
13D
330
18
100
AcDbEntity
  8
ADP1DETAIL
100
AcDbCircle
 10
2.364363580095474
 20
-0.431658724383369
 30
0.0
 40
0.2693650588724847
  0
ARC
  5
13E
330
18
100
AcDbEntity
  8
ADP1DETAIL
100
AcDbCircle
 10
4.235274301131953
 20
-0.1733517438221881
 30
0.0
 40
0.8586044154420804
100
AcDbArc
 50
168.5127059589287
 51
199.9638846662488
  0
LWPOLYLINE
  5
13F
330
18
100
AcDbEntity
  8
ADP1DETAIL
100
AcDbPolyline
 90
        3
 70
     0
 43
0.0
 10
2.078797827226081
 20
-0.9219347381033209
 42
-0.3866659276942732
 10
2.268830833312019
 20
-0.6801840042099361
 42
-0.3259288053131335
 10
2.337933827096444
 20
-1.060078121563239
 42
1.59398643967159
  0
ARC
  5
144
330
18
100
AcDbEntity
  8
ADP1DETAIL
100
AcDbCircle
 10
2.531616358780869
 20
0.7629844308101408
 30
0.0
 40
0.4299693168736868
100
AcDbArc
 50
344.8865535703837
 51
78.14509680658646
  0
LWPOLYLINE
  5
145
330
18
100
AcDbEntity
  8
ADP1DETAIL
100
AcDbPolyline
 90
        2
 70
     0
 43
0.0
 10
2.510691220829015
 20
0.0450684470188483
 42
-0.2867272786188736
 10
2.182452227174227
 20
-0.1103428281799816
 42
-17.18155226868857
  0
ARC
  5
149
330
18
100
AcDbEntity
  8
ADP1DETAIL
100
AcDbCircle
 10
1.766676124095898
 20
-0.0196623476391533
 30
0.0
 40
1.737294785734732
100
AcDbArc
 50
5.112925387078401
 51
30.97090695205915
  0
ARC
  5
14A
330
18
100
AcDbEntity
  8
ADP1DETAIL
100
AcDbCircle
 10
3.18037369291542
 20
0.3726017968565145
 30
0.0
 40
0.3931002460866114
100
AcDbArc
 50
266.0205219928382
 51
319.6282249263677
  0
ARC
  5
14B
330
18
100
AcDbEntity
  8
ADP1DETAIL
100
AcDbCircle
 10
-2.973722595171585
 20
1.964968166915268
 30
0.0
 40
2.86525207702545
100
AcDbArc
 50
356.0663097264427
 51
31.46725945901137
  0
LWPOLYLINE
  5
14C
330
18
100
AcDbEntity
  8
ADP1DETAIL
100
AcDbPolyline
 90
        6
 70
     0
 43
0.0
 10
-0.2534267159781454
 20
3.771484425338728
 10
-0.2361509221677931
 20
4.514004768306422
 42
0.0953232116275064
 10
-0.1497723160300008
 20
5.429204278211859
 42
0.2399343969017037
 10
-0.2707025097884994
 20
5.61915133688851
 42
0.3106691835911954
 10
-0.598941503443287
 20
4.911166777398637
 42
-0.0036250461746681
 10
-0.5298385096588625
 20
4.341325601368682
 42
0.3228724273894195
  0
LWPOLYLINE
  5
154
330
18
100
AcDbEntity
  8
ADP1DETAIL
100
AcDbPolyline
 90
        6
 70
     0
 43
0.0
 10
-1.330842187255983
 20
10.1293133566475
 10
-1.11449511751039
 20
10.1293133566475
 42
0.3289283221710837
 10
-0.7982954573097363
 20
9.680180510299091
 42
0.2620316800635075
 10
-0.3656013178185518
 20
10.06277520293707
 42
-0.5933144020599129
 10
-0.6984430464892811
 20
10.31229346463299
 42
-0.1812061697867545
 10
-0.348959249348475
 20
11.31036651141667
 42
-2.759464315656768
  0
ARC
  5
15C
330
18
100
AcDbEntity
  8
ADP1DETAIL
100
AcDbCircle
 10
-4.88489035054577
 20
10.71883119870445
 30
0.0
 40
4.857653370624984
100
AcDbArc
 50
10.96806839469681
 51
27.22019509949986
  0
ARC
  5
15D
330
18
100
AcDbEntity
  8
ADP1DETAIL
100
AcDbCircle
 10
2.228554521850638
 20
12.29157416311427
 30
0.0
 40
3.087588315931899
100
AcDbArc
 50
145.0502960095143
 51
162.5964044672499
  0
ARC
  5
15E
330
18
100
AcDbEntity
  8
ADP1DETAIL
100
AcDbCircle
 10
9.599754732424484
 20
7.986171810604513
 30
0.0
 40
11.30815432865829
100
AcDbArc
 50
149.2244854190485
 51
154.0144486378714
  0
ARC
  5
15F
330
18
100
AcDbEntity
  8
ADP1DETAIL
100
AcDbCircle
 10
-1.5461967059596
 20
8.060718801796637
 30
0.0
 40
0.8226565964270356
100
AcDbArc
 50
176.7470081202112
 51
236.4038477588934
  0
LWPOLYLINE
  5
160
330
18
100
AcDbEntity
  8
ADP1DETAIL
100
AcDbPolyline
 90
        6
 70
     0
 43
0.0
 10
-2.417453968465309
 20
7.75807477012726
 42
-0.2151199794178019
 10
-3.133063631216995
 20
7.641632939373403
 42
-0.3051971087694094
 10
-3.182989836627225
 20
8.007593031823178
 42
0.4597275111985476
 10
-2.766937765606115
 20
8.090765785721819
 42
0.0971365580073636
 10
-2.26767517260002
 20
8.922493324708222
 42
-0.2555748374175604
 10
-1.376349503054376
 20
10.16061297816355
 42
0.9999999657331052
  0
LWPOLYLINE
  5
168
330
18
100
AcDbEntity
  8
ADP1DETAIL
100
AcDbPolyline
 90
        9
 70
     0
 43
0.0
 10
-1.082662097020293
 20
9.88432633601803
 42
0.134524194562728
 10
-1.963724496579528
 20
8.485625233551511
 42
0.5541990210332477
 10
-1.468855167497952
 20
7.575094785662971
 42
-0.4140810208602545
 10
-2.0014018974442
 20
7.358845600822265
 42
0.3350799470430402
 10
-1.152655507297296
 20
6.560387138691082
 42
-0.547971690044549
 10
-1.002876711432008
 20
7.092692738938138
 42
-0.7126402830551371
 10
-0.9695925744918572
 20
6.244330599763527
 42
-0.3259523089510626
 10
-2.051328102854427
 20
6.693463569633143
 42
-0.2036324611994629
 10
-2.317601557644852
 20
8.739513340243933
 42
1.31757093096776
  0
ARC
  5
173
330
18
100
AcDbEntity
  8
ADP1DETAIL
100
AcDbCircle
 10
-0.7877012882795889
 20
3.292563169748055
 30
0.0
 40
0.3468182556831811
100
AcDbArc
 50
180.7567122039075
 51
221.3357551954254
  0
ARC
  5
174
330
18
100
AcDbEntity
  8
ADP1DETAIL
100
AcDbCircle
 10
-1.668100576603908
 20
2.944153809003298
 30
0.0
 40
0.3301790493139696
100
AcDbArc
 50
133.3186621187627
 51
266.6642466993518
  0
ARC
  5
175
330
18
100
AcDbEntity
  8
ADP1DETAIL
100
AcDbCircle
 10
-1.54288106011365
 20
2.54826806975503
 30
0.0
 40
0.7268795968249769
100
AcDbArc
 50
47.10339588537652
 51
118.9407516237594
  0
ARC
  5
176
330
18
100
AcDbEntity
  8
ADP1DETAIL
100
AcDbCircle
 10
-0.9876454125203384
 20
5.670939408560156
 30
0.0
 40
0.1940952795616446
100
AcDbArc
 50
32.26785344077184
 51
200.8414916144368
  0
ARC
  5
177
330
18
100
AcDbEntity
  8
ADP1DETAIL
100
AcDbCircle
 10
-1.424084836852985
 20
11.67595962679541
 30
0.0
 40
0.7020202930910583
100
AcDbArc
 50
304.0231848060305
 51
350.4827804394368
  0
ARC
  5
178
330
18
100
AcDbEntity
  8
ADP1DETAIL
100
AcDbCircle
 10
-15.33938735492229
 20
9.115640418638156
 30
0.0
 40
13.02629866690442
100
AcDbArc
 50
355.6342296644942
 51
358.4917753060634
  0
LWPOLYLINE
  5
179
330
18
100
AcDbEntity
  8
ADP1DETAIL
100
AcDbPolyline
 90
        3
 70
     0
 43
0.0
 10
-1.131137185980467
 20
11.02757917286554
 42
0.4685109665707075
 10
-1.031284595525406
 20
10.79469538783663
 42
0.332727931091879
 10
-1.330842187255983
 20
10.14594795683571
 42
-0.0827257480498989
  0
ARC
  5
17E
330
18
100
AcDbEntity
  8
ADP1DETAIL
100
AcDbCircle
 10
-0.7976614070470927
 20
10.52262847030819
 30
0.0
 40
0.2438321661907738
100
AcDbArc
 50
78.3369308241755
 51
145.2479795447238
  0
LWPOLYLINE
  5
17F
330
18
100
AcDbEntity
  8
ADP1DETAIL
100
AcDbPolyline
 90
        7
 70
     0
 43
0.0
 10
-3.560881697496032
 20
14.63727666736228
 42
0.3368506241381026
 10
-3.427744970100821
 20
14.52083483660842
 42
-0.0383914610354838
 10
-3.261324105765456
 20
14.470931159565
 42
-0.6181600928189054
 10
-3.228039968825303
 20
14.38775840566636
 42
0.0554100334484947
 10
-3.211397900355226
 20
13.98852923636137
 42
0.369771896960042
 10
-2.911840308624649
 20
14.08833659044821
 42
0.2772011899684074
 10
-2.911840308624649
 20
14.6871803444057
 42
0.5659240029751863
  0
ARC
  5
188
330
18
100
AcDbEntity
  8
ADP1DETAIL
100
AcDbCircle
 10
-2.839296100346448
 20
14.64559402921699
 30
0.0
 40
0.1104649335300711
100
AcDbArc
 50
258.184972251859
 51
31.80657818430369
  0
ARC
  5
189
330
18
100
AcDbEntity
  8
ADP1DETAIL
100
AcDbCircle
 10
-1.271334542542296
 20
11.60483650321397
 30
0.0
 40
0.3916977857785014
100
AcDbArc
 50
330.2001622297745
 51
34.38312604984733
  0
LWPOLYLINE
  5
18A
330
18
100
AcDbEntity
  8
ADP1DETAIL
100
AcDbPolyline
 90
        2
 70
     0
 43
0.0
 10
-0.5653063190940682
 20
11.7761339579533
 42
0.7055341782761421
 10
-1.347484255726058
 20
11.60978845015602
 42
-0.8756612372557787
  0
ARC
  5
18E
330
18
100
AcDbEntity
  8
ADP1DETAIL
100
AcDbCircle
 10
-4.88489035054577
 20
10.71883119870445
 30
0.0
 40
4.857653370624984
100
AcDbArc
 50
30.92250918145045
 51
46.65930438845133
  0
ARC
  5
18F
330
18
100
AcDbEntity
  8
ADP1DETAIL
100
AcDbCircle
 10
1.315755249141011
 20
8.060718801796637
 30
0.0
 40
0.8226565964270356
100
AcDbArc
 50
303.5961522411064
 51
3.252991879788761
  0
LWPOLYLINE
  5
190
330
18
100
AcDbEntity
  8
ADP1DETAIL
100
AcDbPolyline
 90
        6
 70
     0
 43
0.0
 10
2.18701251164672
 20
7.75807477012726
 42
0.2151199794178019
 10
2.902622174398407
 20
7.641632939373403
 42
0.3051971087694094
 10
2.952548379808636
 20
8.007593031823178
 42
-0.4597275111985476
 10
2.536496308787526
 20
8.090765785721819
 42
-0.0971365580073636
 10
2.037233715781431
 20
8.922493324708222
 42
0.2555748374175604
 10
1.145908046235787
 20
10.16061297816355
 42
-0.9999999657331052
  0
LWPOLYLINE
  5
198
330
18
100
AcDbEntity
  8
ADP1DETAIL
100
AcDbPolyline
 90
        9
 70
     0
 43
0.0
 10
0.852220640201704
 20
9.88432633601803
 42
-0.134524194562728
 10
1.733283039760939
 20
8.485625233551511
 42
-0.5541990210332477
 10
1.238413710679363
 20
7.575094785662971
 42
0.4140810208602545
 10
1.770960440625611
 20
7.358845600822265
 42
-0.3350799470430402
 10
0.9222140504787077
 20
6.560387138691082
 42
0.547971690044549
 10
0.7724352546134199
 20
7.092692738938138
 42
0.7126402830551371
 10
0.7391511176732682
 20
6.244330599763527
 42
0.3259523089510626
 10
1.820886646035837
 20
6.693463569633143
 42
0.2036324611994629
 10
2.087160100826263
 20
8.739513340243933
 42
-1.31757093096776
  0
LINE
  5
1A3
330
18
100
AcDbEntity
  8
ADP1DETAIL
100
AcDbLine
 10
-0.3570811159262917
 20
5.498275969941818
 30
0.0
 11
-0.3570811159262917
 21
11.35209900544019
 31
0.0
  0
LINE
  5
1A4
330
18
100
AcDbEntity
  8
ADP1DETAIL
100
AcDbLine
 10
0.1266396591077026
 20
5.498275969941818
 30
0.0
 11
0.1266396591077026
 21
11.35209900544019
 31
0.0
  0
LWPOLYLINE
  5
1A5
330
18
100
AcDbEntity
  8
ADP1DETAIL
100
AcDbPolyline
 90
        6
 70
     0
 43
0.0
 10
0.0229852591595563
 20
3.771484425338728
 10
0.005709465349204
 20
4.514004768306422
 42
-0.0953232116275064
 10
-0.0806691407885882
 20
5.429204278211859
 42
-0.2399343969017037
 10
0.0402610529699104
 20
5.61915133688851
 42
-0.3106691835911954
 10
0.3685000466246979
 20
4.911166777398637
 42
0.0036250461746681
 10
0.2993970528402734
 20
4.341325601368682
 42
-0.3228724273894195
  0
ARC
  5
1AD
330
18
100
AcDbEntity
  8
ADP1DETAIL
100
AcDbCircle
 10
1.437659119785319
 20
2.944153809003298
 30
0.0
 40
0.3301790493139696
100
AcDbArc
 50
273.335753300648
 51
46.68133788123729
  0
ARC
  5
1AE
330
18
100
AcDbEntity
  8
ADP1DETAIL
100
AcDbCircle
 10
0.5572598314609998
 20
3.292563169748055
 30
0.0
 40
0.3468182556831811
100
AcDbArc
 50
318.6642448045745
 51
359.2432877960924
  0
ARC
  5
1AF
330
18
100
AcDbEntity
  8
ADP1DETAIL
100
AcDbCircle
 10
2.743281138352996
 20
1.964968166915268
 30
0.0
 40
2.86525207702545
100
AcDbArc
 50
148.5327405409886
 51
183.9336902735572
  0
ARC
  5
1B0
330
18
100
AcDbEntity
  8
ADP1DETAIL
100
AcDbCircle
 10
1.312439603295061
 20
2.54826806975503
 30
0.0
 40
0.7268795968249769
100
AcDbArc
 50
61.05924837624055
 51
132.8966041146234
  0
ARC
  5
1B1
330
18
100
AcDbEntity
  8
ADP1DETAIL
100
AcDbCircle
 10
0.7572039557017494
 20
5.670939408560156
 30
0.0
 40
0.1940952795616446
100
AcDbArc
 50
339.158508385563
 51
147.7321465592281
  0
ARC
  5
1B2
330
18
100
AcDbEntity
  8
ADP1DETAIL
100
AcDbCircle
 10
1.193643380034396
 20
11.67595962679541
 30
0.0
 40
0.7020202930910583
100
AcDbArc
 50
189.5172195605631
 51
235.9768151939694
  0
LWPOLYLINE
  5
1B3
330
18
100
AcDbEntity
  8
ADP1DETAIL
100
AcDbPolyline
 90
        6
 70
     0
 43
0.0
 10
1.100400730437394
 20
10.1293133566475
 10
0.8840536606918014
 20
10.1293133566475
 42
-0.3289283221710837
 10
0.5678540004911472
 20
9.680180510299091
 42
-0.2620316800635075
 10
0.1351598609999627
 20
10.06277520293707
 42
0.5933144020599129
 10
0.468001589670692
 20
10.31229346463299
 42
0.1812061697867545
 10
0.1185177925298859
 20
11.31036651141667
 42
2.759464315656768
  0
ARC
  5
1BB
330
18
100
AcDbEntity
  8
ADP1DETAIL
100
AcDbCircle
 10
0.5672199502285036
 20
10.52262847030819
 30
0.0
 40
0.2438321661907738
100
AcDbArc
 50
34.75202045527614
 51
101.6630691758245
  0
LWPOLYLINE
  5
1BC
330
18
100
AcDbEntity
  8
ADP1DETAIL
100
AcDbPolyline
 90
        3
 70
     0
 43
0.0
 10
0.9006957291618782
 20
11.02757917286554
 42
-0.4685109665707075
 10
0.8008431387068171
 20
10.79469538783663
 42
-0.332727931091879
 10
1.100400730437394
 20
10.14594795683571
 42
0.0827257480498989
  0
ARC
  5
1C1
330
18
100
AcDbEntity
  8
ADP1DETAIL
100
AcDbCircle
 10
15.1089458981037
 20
9.115640418638156
 30
0.0
 40
13.02629866690442
100
AcDbArc
 50
181.5082246939365
 51
184.3657703355057
  0
ARC
  5
1C2
330
18
100
AcDbEntity
  8
ADP1DETAIL
100
AcDbCircle
 10
3.945420728975252
 20
11.25683796139789
 30
0.0
 40
3.661862004540617
100
AcDbArc
 50
113.2770334587173
 51
172.1101343762782
  0
ARC
  5
1C3
330
18
100
AcDbEntity
  8
ADP1DETAIL
100
AcDbCircle
 10
-9.830196189243071
 20
7.986171810604513
 30
0.0
 40
11.30815432865829
100
AcDbArc
 50
25.9855513621285
 51
30.77551458095141
  0
ARC
  5
1C4
330
18
100
AcDbEntity
  8
ADP1DETAIL
100
AcDbCircle
 10
1.040893085723707
 20
11.60483650321397
 30
0.0
 40
0.3916977857785014
100
AcDbArc
 50
145.6168739501526
 51
209.7998377702253
  0
LWPOLYLINE
  5
1C5
330
18
100
AcDbEntity
  8
ADP1DETAIL
100
AcDbPolyline
 90
        2
 70
     0
 43
0.0
 10
0.3348648622754791
 20
11.7761339579533
 42
-0.7055341782761421
 10
1.117042798907469
 20
11.60978845015602
 42
0.8756612372557787
  0
ARC
  5
1C9
330
18
100
AcDbEntity
  8
ADP1DETAIL
100
AcDbCircle
 10
4.654448893727179
 20
10.71883119870445
 30
0.0
 40
4.857653370624984
100
AcDbArc
 50
152.7798049005001
 51
169.0319316053031
  0
ARC
  5
1CA
330
18
100
AcDbEntity
  8
ADP1DETAIL
100
AcDbCircle
 10
4.654448893727179
 20
10.71883119870445
 30
0.0
 40
4.857653370624984
100
AcDbArc
 50
133.3406956115486
 51
149.0774908185495
  0
ARC
  5
1CB
330
18
100
AcDbEntity
  8
ADP1DETAIL
100
AcDbCircle
 10
-2.458995978669227
 20
12.29157416311427
 30
0.0
 40
3.087588315931899
100
AcDbArc
 50
17.40359553275007
 51
34.94970399048568
  0
LWPOLYLINE
  5
1CC
330
18
100
AcDbEntity
  8
ADP1DETAIL
100
AcDbPolyline
 90
        7
 70
     0
 43
0.0
 10
3.330440240677443
 20
14.63727666736228
 42
-0.3368506241381026
 10
3.19730351328223
 20
14.52083483660842
 42
0.0383914610354838
 10
3.030882648946866
 20
14.470931159565
 42
0.6181600928189054
 10
2.997598512006714
 20
14.38775840566636
 42
-0.0554100334484947
 10
2.980956443536637
 20
13.98852923636137
 42
-0.369771896960042
 10
2.68139885180606
 20
14.08833659044821
 42
-0.2772011899684074
 10
2.68139885180606
 20
14.6871803444057
 42
-0.5659240029751863
  0
ARC
  5
1D5
330
18
100
AcDbEntity
  8
ADP1DETAIL
100
AcDbCircle
 10
2.608854643527859
 20
14.64559402921699
 30
0.0
 40
0.1104649335300711
100
AcDbArc
 50
148.1934218156963
 51
281.8150277481409
  0
CIRCLE
  5
1D6
330
18
100
AcDbEntity
  8
ADP1DETAIL
100
AcDbCircle
 10
1.497137664166249
 20
28.15015931149393
 30
0.0
 40
0.2490935980772621
  0
LWPOLYLINE
  5
1D7
330
18
100
AcDbEntity
  8
ADP1DETAIL
100
AcDbPolyline
 90
        4
 70
     0
 43
0.0
 10
1.163183840046141
 20
27.76007162116833
 42
-0.463623620906016
 10
0.886772046365424
 20
27.88094698811502
 42
-0.1623499573728204
 10
0.973150652503218
 20
28.53712774761384
 42
-0.071035842469542
 10
1.180459633856493
 20
28.55439563935275
 42
0.0293733645432029
  0
LWPOLYLINE
  5
1DD
330
18
100
AcDbEntity
  8
ADP1DETAIL
100
AcDbPolyline
 90
        4
 70
     0
 43
0.0
 10
-1.39362529686473
 20
27.76007162116833
 42
0.463623620906016
 10
-1.117213503184013
 20
27.88094698811502
 42
0.1623499573728204
 10
-1.203592109321807
 20
28.53712774761384
 42
0.071035842469542
 10
-1.410901090675082
 20
28.55439563935275
 42
-0.0293733645432029
  0
CIRCLE
  5
1E3
330
18
100
AcDbEntity
  8
ADP1DETAIL
100
AcDbCircle
 10
-1.727579120984838
 20
28.15015931149393
 30
0.0
 40
0.2490935980772621
  0
LWPOLYLINE
  5
1E4
330
18
100
AcDbEntity
  8
ADP1DETAIL
100
AcDbPolyline
 90
        5
 70
     0
 43
0.0
 10
1.90604043349351
 20
28.41625238066715
 42
-0.6466364134640209
 10
2.165176433363873
 20
28.07089404679167
 42
-0.4505456600644262
 10
1.923316227303862
 20
27.72553571291619
 42
-0.5063360625051886
 10
1.646904433623147
 20
27.44924907077066
 42
-0.6356679588891045
 10
1.163183840046141
 20
27.76007162116833
 42
-0.8752941902454432
  0
LWPOLYLINE
  5
1EB
330
18
100
AcDbEntity
  8
ADP1DETAIL
100
AcDbPolyline
 90
        4
 70
     0
 43
0.0
 10
1.923316227303862
 20
28.70980691455158
 42
-0.4199279134535452
 10
2.683448614561585
 20
27.9845544633228
 42
-0.334356281743178
 10
2.061522033415727
 20
26.74126463605511
 42
0.0202637800016418
 10
0.7312904464432073
 20
26.13688755177302
 42
4.204733547767583
  0
LWPOLYLINE
  5
1F1
330
18
100
AcDbEntity
  8
ADP1DETAIL
100
AcDbPolyline
 90
        5
 70
     0
 43
0.0
 10
1.042253646287642
 20
25.72245765094189
 42
-0.0859754764106564
 10
2.147900821010505
 20
26.41317419391854
 42
0.2276884943377313
 10
2.994411814406021
 20
27.19023044513837
 42
0.2284225192159178
 10
2.769827220699378
 20
28.70980691455158
 42
0.5622676518250703
 10
0.9558750401498485
 20
28.48532407239711
 42
1.54724567985325
  0
LWPOLYLINE
  5
1F8
330
18
100
AcDbEntity
  8
ADP1DETAIL
100
AcDbPolyline
 90
        5
 70
     0
 43
0.0
 10
-1.272695103106231
 20
25.72245765094189
 42
0.0859754764106564
 10
-2.378342277829094
 20
26.41317419391854
 42
-0.2276884943377313
 10
-3.22485327122461
 20
27.19023044513837
 42
-0.2284225192159178
 10
-3.000268677517967
 20
28.70980691455158
 42
-0.5622676518250703
 10
-1.186316496968437
 20
28.48532407239711
 42
-1.54724567985325
  0
LWPOLYLINE
  5
1FF
330
18
100
AcDbEntity
  8
ADP1DETAIL
100
AcDbPolyline
 90
        4
 70
     0
 43
0.0
 10
-2.153757684122451
 20
28.70980691455158
 42
0.4199279134535452
 10
-2.913890071380174
 20
27.9845544633228
 42
0.334356281743178
 10
-2.291963490234316
 20
26.74126463605511
 42
-0.0202637800016418
 10
-0.9617319032617963
 20
26.13688755177302
 42
-4.204733547767583
  0
LWPOLYLINE
  5
205
330
18
100
AcDbEntity
  8
ADP1DETAIL
100
AcDbPolyline
 90
        5
 70
     0
 43
0.0
 10
-2.136481890312099
 20
28.41625238066715
 42
0.6466364134640209
 10
-2.395617890182462
 20
28.07089404679167
 42
0.4505456600644262
 10
-2.153757684122451
 20
27.72553571291619
 42
0.5063360625051886
 10
-1.877345890441736
 20
27.44924907077066
 42
0.6356679588891045
 10
-1.39362529686473
 20
27.76007162116833
 42
0.8752941902454432
  0
ARC
  5
20C
330
18
100
AcDbEntity
  8
ADP1DETAIL
100
AcDbCircle
 10
1.437294100185493
 20
27.13913812802325
 30
0.0
 40
1.807938510584607
100
AcDbArc
 50
134.3147068316477
 51
173.8908627835975
  0
LWPOLYLINE
  5
20D
330
18
100
AcDbEntity
  8
ADP1DETAIL
100
AcDbPolyline
 90
        6
 70
     0
 43
0.0
 10
0.1266396591077026
 20
25.87786892614072
 10
0.1266396591077026
 20
27.32837370382398
 42
-0.1892993499582777
 10
0.5758088465209888
 20
27.91548277159284
 42
0.6162068214648553
 10
0.1784668590817731
 20
28.43352027240606
 42
-0.0044466865589085
 10
0.1439154529180548
 20
28.95155777321928
 42
0.210733770986839
 10
-0.1152207284092945
 20
29.33145189057258
 42
-3.498825559496691
  0
LWPOLYLINE
  5
215
330
18
100
AcDbEntity
  8
ADP1DETAIL
100
AcDbPolyline
 90
        6
 70
     0
 43
0.0
 10
-0.3570811159262917
 20
25.87786892614072
 10
-0.3570811159262917
 20
27.32837370382398
 42
0.1892993499582777
 10
-0.8062503033395778
 20
27.91548277159284
 42
-0.6162068214648553
 10
-0.4089083159003622
 20
28.43352027240606
 42
0.0044466865589085
 10
-0.3743569097366439
 20
28.95155777321928
 42
-0.210733770986839
 10
-0.1152207284092945
 20
29.33145189057258
 42
3.498825559496691
  0
LWPOLYLINE
  5
21D
330
18
100
AcDbEntity
  8
ADP1DETAIL
100
AcDbPolyline
 90
        3
 70
     0
 43
0.0
 10
-0.2534267159781454
 20
24.16834527327655
 42
0.4445567709035912
 10
-1.013559103235868
 20
25.27349184185863
 42
0.5188901125560595
 10
-1.687312702898811
 20
24.77272235755863
 42
-1.025998309214417
  0
LWPOLYLINE
  5
222
330
18
100
AcDbEntity
  8
ADP1DETAIL
100
AcDbPolyline
 90
       10
 70
     0
 43
0.0
 10
-0.3570811159262917
 20
18.7462200303482
 10
-0.3570811159262917
 20
24.32375654847537
 42
0.3133299352525292
 10
-0.8753531156670177
 20
24.9799373079742
 42
0.4511152488360319
 10
-1.272695103106231
 20
24.87632983276641
 42
0.3274583155984046
 10
-1.134489296994367
 20
24.54823939062984
 42
-0.4838073095562353
 10
-1.704588496709165
 20
24.77272235755863
 42
-0.2181913796250357
 10
-1.929173090415808
 20
24.87632983276641
 42
-0.0694464321791901
 10
-1.635485502924741
 20
25.3598314253275
 42
-0.3699939250144228
 10
-1.739139902872885
 20
25.56704637574306
 42
-0.426218699053243
 10
-0.4780113096847885
 20
25.25622395011972
 42
-1.731540996219327
  0
ARC
  5
22E
330
18
100
AcDbEntity
  8
ADP1DETAIL
100
AcDbCircle
 10
-4.175862185793842
 20
18.74963580526861
 30
0.0
 40
3.661862004540617
100
AcDbArc
 50
293.2770334587173
 51
352.1101343762783
  0
ARC
  5
22F
330
18
100
AcDbEntity
  8
ADP1DETAIL
100
AcDbCircle
 10
-4.88489035054577
 20
19.28764256796206
 30
0.0
 40
4.857653370624984
100
AcDbArc
 50
332.7798049005001
 51
349.0319316053032
  0
ARC
  5
230
330
18
100
AcDbEntity
  8
ADP1DETAIL
100
AcDbCircle
 10
-4.438705935264376
 20
18.44601633135099
 30
0.0
 40
4.833215488761764
100
AcDbArc
 50
317.650901759822
 51
328.853653234352
  0
ARC
  5
231
330
18
100
AcDbEntity
  8
ADP1DETAIL
100
AcDbCircle
 10
-7.449977228092411
 20
21.52160097277062
 30
0.0
 40
9.383233024958558
100
AcDbArc
 50
315.5866222561553
 51
321.4080126078115
  0
ARC
  5
232
330
18
100
AcDbEntity
  8
ADP1DETAIL
100
AcDbCircle
 10
2.228554521850638
 20
17.71489960355224
 30
0.0
 40
3.087588315931899
100
AcDbArc
 50
197.40359553275
 51
214.9497039904856
  0
ARC
  5
233
330
18
100
AcDbEntity
  8
ADP1DETAIL
100
AcDbCircle
 10
9.599754732424484
 20
22.020301956062
 30
0.0
 40
11.30815432865829
100
AcDbArc
 50
205.9855513621285
 51
210.7755145809514
  0
LWPOLYLINE
  5
234
330
18
100
AcDbEntity
  8
ADP1DETAIL
100
AcDbPolyline
 90
        6
 70
     0
 43
0.0
 10
-1.330842187255983
 20
19.87716041001901
 10
-1.11449511751039
 20
19.87716041001901
 42
-0.3289283221710837
 10
-0.7982954573097363
 20
20.32629325636742
 42
-0.2620316800635075
 10
-0.3656013178185518
 20
19.94369856372944
 42
0.5933144020599129
 10
-0.6984430464892811
 20
19.69418030203352
 42
0.1812061697867545
 10
-0.348959249348475
 20
18.69610725524984
 42
2.759464315656768
  0
ARC
  5
23C
330
18
100
AcDbEntity
  8
ADP1DETAIL
100
AcDbCircle
 10
-1.137309922703657
 20
24.88791612945546
 30
0.0
 40
1.274068485645455
100
AcDbArc
 50
52.23736896567622
 51
83.64490867730042
  0
LWPOLYLINE
  5
23D
330
18
100
AcDbEntity
  8
ADP1DETAIL
100
AcDbPolyline
 90
        6
 70
     0
 43
0.0
 10
-2.395935647148476
 20
22.45551565735565
 42
0.2151199794178019
 10
-3.111545309900165
 20
22.57195748810951
 42
0.3051971087694094
 10
-3.161471515310392
 20
22.20599739565973
 42
-0.4597275111985476
 10
-2.745419444289282
 20
22.12282464176109
 42
-0.0971365580073636
 10
-2.246156851283188
 20
21.29109710277469
 42
0.1588040928882004
 10
-1.347484255726058
 20
19.84389108612139
 42
-2.738994614764921
  0
LWPOLYLINE
  5
245
330
18
100
AcDbEntity
  8
ADP1DETAIL
100
AcDbPolyline
 90
        9
 70
     0
 43
0.0
 10
-1.047926843630087
 20
20.14331302486073
 42
-0.1754563430554315
 10
-1.946599439187217
 20
21.85667177987696
 42
-0.6270396101373139
 10
-1.447336846181121
 20
22.63849564181994
 42
0.4140810208602545
 10
-1.979883576127367
 20
22.85474482666065
 42
-0.3350799470430402
 10
-1.131137185980467
 20
23.65320328879183
 42
0.547971690044549
 10
-0.9813583901151776
 20
23.12089768854477
 42
0.7126402830551371
 10
-0.9480742531750259
 20
23.96925982771938
 42
0.3259523089510626
 10
-2.029809781537595
 20
23.52012685784977
 42
0.2036324611994629
 10
-2.296083236328023
 20
21.47407708723898
 42
-1.31757093096776
  0
LWPOLYLINE
  5
250
330
18
100
AcDbEntity
  8
ADP1DETAIL
100
AcDbPolyline
 90
        2
 70
     0
 43
0.0
 10
-0.5653063190940682
 20
18.23033980871321
 42
-0.7055341782761421
 10
-1.347484255726058
 20
18.39668531651049
 42
0.8756612372557787
  0
LWPOLYLINE
  5
254
330
18
100
AcDbEntity
  8
ADP1DETAIL
100
AcDbPolyline
 90
        5
 70
     0
 43
0.0
 10
-3.960291700047068
 20
15.00323688333326
 42
-0.1563231279601591
 10
-2.811987718169586
 20
18.38005083984349
 42
-0.1921029288100197
 10
-1.414052709240969
 20
19.07870194788782
 42
-1.087610883364355
 10
-1.414052709240969
 20
18.4133199166987
 42
-0.9972871349638184
 10
-1.280915981845755
 20
18.89572183990233
 42
-7.458318888040063
  0
LWPOLYLINE
  5
25B
330
18
100
AcDbEntity
  8
ADP1DETAIL
100
AcDbPolyline
 90
        3
 70
     0
 43
0.0
 10
-1.580473573576334
 20
18.72937633210505
 42
0.1104695197400392
 10
-2.545714443013768
 20
18.14716705481457
 42
0.190381833064026
 10
-3.560881697496032
 20
15.00323688333326
 42
0.938028082688373
  0
ARC
  5
260
330
18
100
AcDbEntity
  8
ADP1DETAIL
100
AcDbCircle
 10
-4.88489035054577
 20
19.28764256796206
 30
0.0
 40
4.857653370624984
100
AcDbArc
 50
298.1165445862501
 51
310.5463261276738
  0
LWPOLYLINE
  5
261
330
18
100
AcDbEntity
  8
ADP1DETAIL
100
AcDbPolyline
 90
        3
 70
     0
 43
0.0
 10
-3.344534448115833
 20
15.25275514502918
 42
-0.1455266324499924
 10
-2.778703581229436
 20
15.26938974521739
 42
-0.1250004567935023
 10
-2.512430306073614
 20
15.00323688333326
 42
-1.758991167857797
  0
LWPOLYLINE
  5
266
330
18
100
AcDbEntity
  8
ADP1DETAIL
100
AcDbPolyline
 90
        7
 70
     0
 43
0.0
 10
-3.560881697496032
 20
15.36919709930423
 42
-0.3368506241381026
 10
-3.427744970100821
 20
15.48563893005809
 42
0.0383914610354838
 10
-3.261324105765456
 20
15.53554260710151
 42
0.6181600928189054
 10
-3.228039968825303
 20
15.61871536100015
 42
-0.0554100334484947
 10
-3.211397900355226
 20
16.01794453030514
 42
-0.369771896960042
 10
-2.911840308624649
 20
15.9181371762183
 42
-0.2772011899684074
 10
-2.911840308624649
 20
15.31929342226081
 42
-0.5659240029751863
  0
ARC
  5
26F
330
18
100
AcDbEntity
  8
ADP1DETAIL
100
AcDbCircle
 10
-2.839296100346448
 20
15.36087973744953
 30
0.0
 40
0.1104649335300711
100
AcDbArc
 50
328.1934218156962
 51
101.8150277481409
  0
ARC
  5
270
330
18
100
AcDbEntity
  8
ADP1DETAIL
100
AcDbCircle
 10
-4.88489035054577
 20
19.28764256796206
 30
0.0
 40
4.857653370624984
100
AcDbArc
 50
313.3406956115487
 51
329.0774908185495
  0
ARC
  5
271
330
18
100
AcDbEntity
  8
ADP1DETAIL
100
AcDbCircle
 10
-7.394388421722364
 20
8.601198391113445
 30
0.0
 40
9.002830610649043
100
AcDbArc
 50
45.24427753347358
 51
50.98679575555981
  0
ARC
  5
272
330
18
100
AcDbEntity
  8
ADP1DETAIL
100
AcDbCircle
 10
-15.38234329567423
 20
-1.703784647012356
 30
0.0
 40
22.27349617320367
100
AcDbArc
 50
49.33007655715356
 51
51.61214955680498
  0
LWPOLYLINE
  5
273
330
18
100
AcDbEntity
  8
ADP1DETAIL
100
AcDbPolyline
 90
        3
 70
     0
 43
0.0
 10
-1.131137185980467
 20
18.97889459380097
 42
-0.4685109665707075
 10
-1.031284595525406
 20
19.21177837882989
 42
-0.332727931091879
 10
-1.330842187255983
 20
19.8605258098308
 42
0.0827257480498989
  0
ARC
  5
278
330
18
100
AcDbEntity
  8
ADP1DETAIL
100
AcDbCircle
 10
-1.424084836852985
 20
18.3305141398711
 30
0.0
 40
0.7020202930910583
100
AcDbArc
 50
9.517219560563193
 51
55.97681519396939
  0
ARC
  5
279
330
18
100
AcDbEntity
  8
ADP1DETAIL
100
AcDbCircle
 10
-1.2713345425423
 20
18.40163726345254
 30
0.0
 40
0.3916977857785043
100
AcDbArc
 50
325.6168739501529
 51
29.79983777022536
  0
ARC
  5
27A
330
18
100
AcDbEntity
  8
ADP1DETAIL
100
AcDbCircle
 10
-0.7976614070470927
 20
19.48384529635832
 30
0.0
 40
0.2438321661907738
100
AcDbArc
 50
214.7520204552761
 51
281.6630691758244
  0
ARC
  5
27B
330
18
100
AcDbEntity
  8
ADP1DETAIL
100
AcDbCircle
 10
-1.524678384642768
 20
22.15287162568627
 30
0.0
 40
0.8226565964270356
100
AcDbArc
 50
123.5961522411064
 51
183.2529918797887
  0
ARC
  5
27C
330
18
100
AcDbEntity
  8
ADP1DETAIL
100
AcDbCircle
 10
-15.31786903360546
 20
21.09795000884476
 30
0.0
 40
13.02629866690442
100
AcDbArc
 50
1.50822469393654
 51
4.365770335505779
  0
ARC
  5
27D
330
18
100
AcDbEntity
  8
ADP1DETAIL
100
AcDbCircle
 10
-0.6199114165216493
 20
25.97246558613329
 30
0.0
 40
0.3880777368643931
100
AcDbArc
 50
157.7166607839028
 51
235.3061801869456
  0
LINE
  5
27E
330
18
100
AcDbEntity
  8
ADP1DETAIL
100
AcDbLine
 10
-1.410901090675082
 20
27.76007162116833
 30
0.0
 11
-1.514555490623227
 21
27.91548277159284
 31
0.0
  0
LINE
  5
27F
330
18
100
AcDbEntity
  8
ADP1DETAIL
100
AcDbLine
 10
-2.171033296475819
 20
27.74280372942941
 30
0.0
 11
-1.981000290389882
 21
27.89821487985393
 31
0.0
  0
LWPOLYLINE
  5
280
330
18
100
AcDbEntity
  8
ADP1DETAIL
100
AcDbPolyline
 90
        9
 70
     0
 43
0.0
 10
0.8174853868114979
 20
20.14331302486073
 42
0.1754563430554315
 10
1.716157982368628
 20
21.85667177987696
 42
0.6270396101373139
 10
1.216895389362532
 20
22.63849564181994
 42
-0.4140810208602545
 10
1.749442119308778
 20
22.85474482666065
 42
0.3350799470430402
 10
0.9006957291618782
 20
23.65320328879183
 42
-0.547971690044549
 10
0.7509169332965886
 20
23.12089768854477
 42
-0.7126402830551371
 10
0.7176327963564369
 20
23.96925982771938
 42
-0.3259523089510626
 10
1.799368324719006
 20
23.52012685784977
 42
-0.2036324611994629
 10
2.065641779509434
 20
21.47407708723898
 42
1.31757093096776
  0
LWPOLYLINE
  5
28B
330
18
100
AcDbEntity
  8
ADP1DETAIL
100
AcDbPolyline
 90
        6
 70
     0
 43
0.0
 10
2.165494190329887
 20
22.45551565735565
 42
-0.2151199794178019
 10
2.881103853081576
 20
22.57195748810951
 42
-0.3051971087694094
 10
2.931030058491803
 20
22.20599739565973
 42
0.4597275111985476
 10
2.514977987470693
 20
22.12282464176109
 42
0.0971365580073636
 10
2.015715394464599
 20
21.29109710277469
 42
-0.1588040928882004
 10
1.117042798907469
 20
19.84389108612139
 42
2.738994614764921
  0
LWPOLYLINE
  5
293
330
18
100
AcDbEntity
  8
ADP1DETAIL
100
AcDbPolyline
 90
       10
 70
     0
 43
0.0
 10
0.1266396591077026
 20
18.7462200303482
 10
0.1266396591077026
 20
24.32375654847537
 42
-0.3133299352525292
 10
0.6449116588484288
 20
24.9799373079742
 42
-0.4511152488360319
 10
1.042253646287642
 20
24.87632983276641
 42
-0.3274583155984046
 10
0.9040478401757781
 20
24.54823939062984
 42
0.4838073095562353
 10
1.474147039890576
 20
24.77272235755863
 42
0.2181913796250357
 10
1.698731633597219
 20
24.87632983276641
 42
0.0694464321791901
 10
1.405044046106151
 20
25.3598314253275
 42
0.3699939250144228
 10
1.508698446054296
 20
25.56704637574306
 42
0.426218699053243
 10
0.2475698528661994
 20
25.25622395011972
 42
1.731540996219327
  0
LWPOLYLINE
  5
29F
330
18
100
AcDbEntity
  8
ADP1DETAIL
100
AcDbPolyline
 90
        2
 70
     0
 43
0.0
 10
0.3348648622754791
 20
18.23033980871321
 42
0.7055341782761421
 10
1.117042798907469
 20
18.39668531651049
 42
-0.8756612372557787
  0
LWPOLYLINE
  5
2A3
330
18
100
AcDbEntity
  8
ADP1DETAIL
100
AcDbPolyline
 90
        3
 70
     0
 43
0.0
 10
1.350032116757745
 20
18.72937633210505
 42
-0.1104695197400392
 10
2.315272986195179
 20
18.14716705481457
 42
-0.190381833064026
 10
3.330440240677443
 20
15.00323688333326
 42
-0.938028082688373
  0
ARC
  5
2A8
330
18
100
AcDbEntity
  8
ADP1DETAIL
100
AcDbCircle
 10
3.945420728975252
 20
18.74963580526861
 30
0.0
 40
3.661862004540617
100
AcDbArc
 50
187.8898656237216
 51
246.7229665412826
  0
ARC
  5
2A9
330
18
100
AcDbEntity
  8
ADP1DETAIL
100
AcDbCircle
 10
4.654448893727179
 20
19.28764256796206
 30
0.0
 40
4.857653370624984
100
AcDbArc
 50
190.9680683946968
 51
207.2201950994998
  0
LWPOLYLINE
  5
2AA
330
18
100
AcDbEntity
  8
ADP1DETAIL
100
AcDbPolyline
 90
        5
 70
     0
 43
0.0
 10
3.729850243228478
 20
15.00323688333326
 42
0.1563231279601591
 10
2.581546261350997
 20
18.38005083984349
 42
0.1921029288100197
 10
1.18361125242238
 20
19.07870194788782
 42
1.087610883364355
 10
1.18361125242238
 20
18.4133199166987
 42
0.9972871349638184
 10
1.050474525027166
 20
18.89572183990233
 42
7.458318888040063
  0
ARC
  5
2B1
330
18
100
AcDbEntity
  8
ADP1DETAIL
100
AcDbCircle
 10
4.654448893727179
 20
19.28764256796206
 30
0.0
 40
4.857653370624984
100
AcDbArc
 50
229.4536738723261
 51
241.8834554137498
  0
ARC
  5
2B2
330
18
100
AcDbEntity
  8
ADP1DETAIL
100
AcDbCircle
 10
-2.458995978669227
 20
17.71489960355224
 30
0.0
 40
3.087588315931899
100
AcDbArc
 50
325.0502960095143
 51
342.5964044672499
  0
ARC
  5
2B3
330
18
100
AcDbEntity
  8
ADP1DETAIL
100
AcDbCircle
 10
-9.830196189243071
 20
22.020301956062
 30
0.0
 40
11.30815432865829
100
AcDbArc
 50
329.2244854190486
 51
334.0144486378715
  0
ARC
  5
2B4
330
18
100
AcDbEntity
  8
ADP1DETAIL
100
AcDbCircle
 10
4.654448893727179
 20
19.28764256796206
 30
0.0
 40
4.857653370624984
100
AcDbArc
 50
210.9225091814504
 51
226.6593043884513
  0
ARC
  5
2B5
330
18
100
AcDbEntity
  8
ADP1DETAIL
100
AcDbCircle
 10
15.15190183885564
 20
-1.703784647012356
 30
0.0
 40
22.27349617320367
100
AcDbArc
 50
128.387850443195
 51
130.6699234428464
  0
ARC
  5
2B6
330
18
100
AcDbEntity
  8
ADP1DETAIL
100
AcDbCircle
 10
4.208264478445789
 20
18.44601633135099
 30
0.0
 40
4.833215488761764
100
AcDbArc
 50
211.1463467656479
 51
222.3490982401779
  0
ARC
  5
2B7
330
18
100
AcDbEntity
  8
ADP1DETAIL
100
AcDbCircle
 10
7.219535771273822
 20
21.52160097277062
 30
0.0
 40
9.383233024958558
100
AcDbArc
 50
218.5919873921884
 51
224.4133777438446
  0
ARC
  5
2B8
330
18
100
AcDbEntity
  8
ADP1DETAIL
100
AcDbCircle
 10
7.163946964903777
 20
8.601198391113445
 30
0.0
 40
9.002830610649043
100
AcDbArc
 50
129.0132042444402
 51
134.7557224665264
  0
LWPOLYLINE
  5
2B9
330
18
100
AcDbEntity
  8
ADP1DETAIL
100
AcDbPolyline
 90
        3
 70
     0
 43
0.0
 10
3.114092991297244
 20
15.25275514502918
 42
0.1455266324499924
 10
2.548262124410847
 20
15.26938974521739
 42
0.1250004567935023
 10
2.281988849255025
 20
15.00323688333326
 42
1.758991167857797
  0
LWPOLYLINE
  5
2BE
330
18
100
AcDbEntity
  8
ADP1DETAIL
100
AcDbPolyline
 90
        7
 70
     0
 43
0.0
 10
3.330440240677443
 20
15.36919709930423
 42
0.3368506241381026
 10
3.19730351328223
 20
15.48563893005809
 42
-0.0383914610354838
 10
3.030882648946866
 20
15.53554260710151
 42
-0.6181600928189054
 10
2.997598512006714
 20
15.61871536100015
 42
0.0554100334484947
 10
2.980956443536637
 20
16.01794453030514
 42
0.369771896960042
 10
2.68139885180606
 20
15.9181371762183
 42
0.2772011899684074
 10
2.68139885180606
 20
15.31929342226081
 42
0.5659240029751863
  0
ARC
  5
2C7
330
18
100
AcDbEntity
  8
ADP1DETAIL
100
AcDbCircle
 10
2.608854643527859
 20
15.36087973744953
 30
0.0
 40
0.1104649335300711
100
AcDbArc
 50
78.18497225185905
 51
211.8065781843037
  0
LWPOLYLINE
  5
2C8
330
18
100
AcDbEntity
  8
ADP1DETAIL
100
AcDbPolyline
 90
        3
 70
     0
 43
0.0
 10
0.9006957291618782
 20
18.97889459380097
 42
0.4685109665707075
 10
0.8008431387068171
 20
19.21177837882989
 42
0.332727931091879
 10
1.100400730437394
 20
19.8605258098308
 42
-0.0827257480498989
  0
LWPOLYLINE
  5
2CD
330
18
100
AcDbEntity
  8
ADP1DETAIL
100
AcDbPolyline
 90
        6
 70
     0
 43
0.0
 10
1.100400730437394
 20
19.87716041001901
 10
0.8840536606918014
 20
19.87716041001901
 42
0.3289283221710837
 10
0.5678540004911472
 20
20.32629325636742
 42
0.2620316800635075
 10
0.1351598609999627
 20
19.94369856372944
 42
-0.5933144020599129
 10
0.468001589670692
 20
19.69418030203352
 42
-0.1812061697867545
 10
0.1185177925298859
 20
18.69610725524984
 42
-2.759464315656768
  0
ARC
  5
2D5
330
18
100
AcDbEntity
  8
ADP1DETAIL
100
AcDbCircle
 10
0.5672199502285036
 20
19.48384529635832
 30
0.0
 40
0.2438321661907738
100
AcDbArc
 50
258.3369308241755
 51
325.2479795447238
  0
ARC
  5
2D6
330
18
100
AcDbEntity
  8
ADP1DETAIL
100
AcDbCircle
 10
1.193643380034396
 20
18.3305141398711
 30
0.0
 40
0.7020202930910583
100
AcDbArc
 50
124.0231848060306
 51
170.4827804394368
  0
ARC
  5
2D7
330
18
100
AcDbEntity
  8
ADP1DETAIL
100
AcDbCircle
 10
1.040893085723711
 20
18.40163726345254
 30
0.0
 40
0.3916977857785043
100
AcDbArc
 50
150.2001622297746
 51
214.383126049847
  0
LWPOLYLINE
  5
2D8
330
18
100
AcDbEntity
  8
ADP1DETAIL
100
AcDbPolyline
 90
        3
 70
     0
 43
0.0
 10
0.0229852591595563
 20
24.16834527327655
 42
-0.4445567709035912
 10
0.7831176464172796
 20
25.27349184185863
 42
-0.5188901125560595
 10
1.456871246080222
 20
24.77272235755863
 42
1.025998309214417
  0
ARC
  5
2DD
330
18
100
AcDbEntity
  8
ADP1DETAIL
100
AcDbCircle
 10
1.294236927824179
 20
22.15287162568627
 30
0.0
 40
0.8226565964270356
100
AcDbArc
 50
356.7470081202112
 51
56.40384775889352
  0
ARC
  5
2DE
330
18
100
AcDbEntity
  8
ADP1DETAIL
100
AcDbCircle
 10
15.08742757678687
 20
21.09795000884476
 30
0.0
 40
13.02629866690442
100
AcDbArc
 50
175.6342296644942
 51
178.4917753060634
  0
LINE
  5
2DF
330
18
100
AcDbEntity
  8
ADP1DETAIL
100
AcDbLine
 10
1.94059183965723
 20
27.74280372942941
 30
0.0
 11
1.750558833571293
 21
27.89821487985393
 31
0.0
  0
ARC
  5
2E0
330
18
100
AcDbEntity
  8
ADP1DETAIL
100
AcDbCircle
 10
0.9068684658850685
 20
24.88791612945546
 30
0.0
 40
1.274068485645455
100
AcDbArc
 50
96.35509132269959
 51
127.7626310343237
  0
ARC
  5
2E1
330
18
100
AcDbEntity
  8
ADP1DETAIL
100
AcDbCircle
 10
0.3894699597030602
 20
25.97246558613329
 30
0.0
 40
0.3880777368643931
100
AcDbArc
 50
304.6938198130543
 51
22.28333921609718
  0
LINE
  5
2E2
330
18
100
AcDbEntity
  8
ADP1DETAIL
100
AcDbLine
 10
1.180459633856493
 20
27.76007162116833
 30
0.0
 11
1.284114033804637
 21
27.91548277159284
 31
0.0
  0
ARC
  5
2E3
330
18
100
AcDbEntity
  8
ADP1DETAIL
100
AcDbCircle
 10
-0.333792099909715
 20
28.12021147770559
 30
0.0
 40
0.3196505823687119
100
AcDbArc
 50
17.08508580188417
 51
102.1154073266853
  0
LWPOLYLINE
  5
2E4
330
18
100
AcDbEntity
  8
ADP1DETAIL
100
AcDbPolyline
 90
        5
 70
     0
 43
0.0
 10
-1.410901090675082
 20
28.55439563935275
 42
0.4667484228098017
 10
-1.963724496579528
 20
28.86521818975041
 42
0.304800941086465
 10
-2.188309090286171
 20
28.69253902281267
 42
0.0516077710025657
 10
-2.136481890312099
 20
28.43352027240606
 42
-0.067250211242126
 10
-1.963724496579528
 20
28.31264490545937
  0
LINE
  5
2EB
330
18
100
AcDbEntity
  8
ADP1DETAIL
100
AcDbLine
 10
-1.445452496838802
 20
28.53712774761384
 30
0.0
 11
-1.531831102976594
 21
28.3644485806761
 31
0.0
  0
LWPOLYLINE
  5
2EC
330
18
100
AcDbEntity
  8
ADP1DETAIL
100
AcDbPolyline
 90
        5
 70
     0
 43
0.0
 10
1.180459633856493
 20
28.55439563935275
 42
-0.4667484228098017
 10
1.733283039760939
 20
28.86521818975041
 42
-0.304800941086465
 10
1.957867633467582
 20
28.69253902281267
 42
-0.0516077710025657
 10
1.90604043349351
 20
28.43352027240606
 42
0.067250211242126
 10
1.733283039760939
 20
28.31264490545937
  0
LINE
  5
2F3
330
18
100
AcDbEntity
  8
ADP1DETAIL
100
AcDbLine
 10
1.215011040020213
 20
28.53712774761384
 30
0.0
 11
1.301389646158005
 21
28.3644485806761
 31
0.0
  0
TEXT
  5
301
330
18
100
AcDbEntity
  8
ADPDIM
100
AcDbText
 10
-32.3395918746847
 20
-8.352431082262457
 30
0.0
 40
0.625
  1
J U L I U S  B L U M  &  C O . ,  I N C .      ( 8 0 0 )  5 2 6 - 6 2 9 3        W W W . J U L I U S B L U M . C O M        P A R T  N o .  5 1 8
 41
1.25
  7
ARIAL_WIDE
 72
     1
 11
-0.1660541870994336
 21
-7.727431082262457
 31
0.0
100
AcDbText
 73
     3
  0
ENDSEC
  0
SECTION
  2
OBJECTS
  0
DICTIONARY
  5
C
330
0
100
AcDbDictionary
  3
ACAD_GROUP
350
D
  3
ACAD_LAYOUT
350
2FA
  3
ACAD_MLINESTYLE
350
E
  3
ACAD_PLOTSETTINGS
350
2FB
  3
ACAD_PLOTSTYLENAME
350
2F8
  3
ACDBHEADERROUNDTRIPXREC
350
449
  3
ACDBVARIABLEDICTIONARY
350
35B
  0
DICTIONARY
  5
355
330
18
100
AcDbDictionary
280
     1
  3
ACAD_LAYOUTSELFREF
360
46A
  0
DICTIONARY
  5
353
330
15
100
AcDbDictionary
280
     1
  3
ACAD_LAYOUTSELFREF
360
469
  0
DICTIONARY
  5
D
102
{ACAD_REACTORS
330
C
102
}
330
C
100
AcDbDictionary
  0
DICTIONARY
  5
2FA
102
{ACAD_REACTORS
330
C
102
}
330
C
100
AcDbDictionary
  0
DICTIONARY
  5
E
102
{ACAD_REACTORS
330
C
102
}
330
C
100
AcDbDictionary
  3
STANDARD
350
1B
  0
DICTIONARY
  5
2FB
102
{ACAD_REACTORS
330
C
102
}
330
C
100
AcDbDictionary
  0
ACDBDICTIONARYWDFLT
  5
2F8
102
{ACAD_REACTORS
330
C
102
}
330
C
100
AcDbDictionary
281
     1
  3
Normal
350
2F9
100
AcDbDictionaryWithDefault
340
2F9
  0
DICTIONARY
  5
449
102
{ACAD_REACTORS
330
C
102
}
330
C
100
AcDbDictionary
  3
CEPSNTYPE
350
453
  3
FINGERPRINTGUID
350
454
  3
HYPERLINKBASE
350
44C
  3
INSUNITS
350
452
  3
LAYOUTDICT
350
44E
  3
LWETCUNION
350
451
  3
PLOTSETDICT
350
44F
  3
PLOTSTYLNAMDICT
350
450
  3
PSVPSCALE
350
456
  3
PUCSBASE
350
459
  3
PUCSORGBACK
350
45F
  3
PUCSORGBOTTOM
350
45B
  3
PUCSORGFRONT
350
45E
  3
PUCSORGLEFT
350
45C
  3
PUCSORGRIGHT
350
45D
  3
PUCSORGTOP
350
45A
  3
PUCSORTHOREF
350
457
  3
PUCSORTHOVIEW
350
458
  3
STYLESHEET
350
44D
  3
TSTACKALIGN
350
44A
  3
TSTACKSIZE
350
44B
  3
UCSBASE
350
462
  3
UCSORGBACK
350
468
  3
UCSORGBOTTOM
350
464
  3
UCSORGFRONT
350
467
  3
UCSORGLEFT
350
465
  3
UCSORGRIGHT
350
466
  3
UCSORGTOP
350
463
  3
UCSORTHOREF
350
460
  3
UCSORTHOVIEW
350
461
  3
VERSIONGUID
350
455
  0
DICTIONARY
  5
35B
102
{ACAD_REACTORS
330
C
102
}
330
C
100
AcDbDictionary
  3
DIMASSOC
350
35C
  0
XRECORD
  5
46A
102
{ACAD_REACTORS
330
355
102
}
330
355
100
AcDbXrecord
340
18
  0
XRECORD
  5
469
102
{ACAD_REACTORS
330
353
102
}
330
353
100
AcDbXrecord
340
15
  0
MLINESTYLE
  5
1B
102
{ACAD_REACTORS
330
E
102
}
330
E
100
AcDbMlineStyle
  2
STANDARD
 70
     0
  3

 62
     0
 51
90.0
 52
90.0
 71
     2
 49
0.5
 62
   256
  6
BYLAYER
 49
-0.5
 62
   256
  6
BYLAYER
  0
ACDBPLACEHOLDER
  5
2F9
102
{ACAD_REACTORS
330
2F8
102
}
330
2F8
100
AcDbPlaceHolder
280
     0
  0
XRECORD
  5
453
102
{ACAD_REACTORS
330
449
102
}
330
449
100
AcDbXrecord
 90
        0
  0
XRECORD
  5
454
102
{ACAD_REACTORS
330
449
102
}
330
449
100
AcDbXrecord
  1
{283A7E6E-1514-4E02-86AC-4352A7FC4128}
  0
XRECORD
  5
44C
102
{ACAD_REACTORS
330
449
102
}
330
449
100
AcDbXrecord
  1

  0
XRECORD
  5
452
102
{ACAD_REACTORS
330
449
102
}
330
449
100
AcDbXrecord
 90
        0
  0
XRECORD
  5
44E
102
{ACAD_REACTORS
330
449
102
}
330
449
100
AcDbXrecord
340
2FA
  0
XRECORD
  5
451
102
{ACAD_REACTORS
330
449
102
}
330
449
100
AcDbXrecord
 90
    14877
  0
XRECORD
  5
44F
102
{ACAD_REACTORS
330
449
102
}
330
449
100
AcDbXrecord
340
2FB
  0
XRECORD
  5
450
102
{ACAD_REACTORS
330
449
102
}
330
449
100
AcDbXrecord
340
2F8
  0
XRECORD
  5
456
102
{ACAD_REACTORS
330
449
102
}
330
449
100
AcDbXrecord
 40
0.0
  0
XRECORD
  5
459
102
{ACAD_REACTORS
330
449
102
}
330
449
100
AcDbXrecord
340
0
  0
XRECORD
  5
45F
102
{ACAD_REACTORS
330
449
102
}
330
449
100
AcDbXrecord
 10
0.0
 20
0.0
 30
0.0
  0
XRECORD
  5
45B
102
{ACAD_REACTORS
330
449
102
}
330
449
100
AcDbXrecord
 10
0.0
 20
0.0
 30
0.0
  0
XRECORD
  5
45E
102
{ACAD_REACTORS
330
449
102
}
330
449
100
AcDbXrecord
 10
0.0
 20
0.0
 30
0.0
  0
XRECORD
  5
45C
102
{ACAD_REACTORS
330
449
102
}
330
449
100
AcDbXrecord
 10
0.0
 20
0.0
 30
0.0
  0
XRECORD
  5
45D
102
{ACAD_REACTORS
330
449
102
}
330
449
100
AcDbXrecord
 10
0.0
 20
0.0
 30
0.0
  0
XRECORD
  5
45A
102
{ACAD_REACTORS
330
449
102
}
330
449
100
AcDbXrecord
 10
0.0
 20
0.0
 30
0.0
  0
XRECORD
  5
457
102
{ACAD_REACTORS
330
449
102
}
330
449
100
AcDbXrecord
340
0
  0
XRECORD
  5
458
102
{ACAD_REACTORS
330
449
102
}
330
449
100
AcDbXrecord
 70
     0
  0
XRECORD
  5
44D
102
{ACAD_REACTORS
330
449
102
}
330
449
100
AcDbXrecord
  1

  0
XRECORD
  5
44A
102
{ACAD_REACTORS
330
449
102
}
330
449
100
AcDbXrecord
 90
        1
  0
XRECORD
  5
44B
102
{ACAD_REACTORS
330
449
102
}
330
449
100
AcDbXrecord
 90
       70
  0
XRECORD
  5
462
102
{ACAD_REACTORS
330
449
102
}
330
449
100
AcDbXrecord
340
0
  0
XRECORD
  5
468
102
{ACAD_REACTORS
330
449
102
}
330
449
100
AcDbXrecord
 10
0.0
 20
0.0
 30
0.0
  0
XRECORD
  5
464
102
{ACAD_REACTORS
330
449
102
}
330
449
100
AcDbXrecord
 10
0.0
 20
0.0
 30
0.0
  0
XRECORD
  5
467
102
{ACAD_REACTORS
330
449
102
}
330
449
100
AcDbXrecord
 10
0.0
 20
0.0
 30
0.0
  0
XRECORD
  5
465
102
{ACAD_REACTORS
330
449
102
}
330
449
100
AcDbXrecord
 10
0.0
 20
0.0
 30
0.0
  0
XRECORD
  5
466
102
{ACAD_REACTORS
330
449
102
}
330
449
100
AcDbXrecord
 10
0.0
 20
0.0
 30
0.0
  0
XRECORD
  5
463
102
{ACAD_REACTORS
330
449
102
}
330
449
100
AcDbXrecord
 10
0.0
 20
0.0
 30
0.0
  0
XRECORD
  5
460
102
{ACAD_REACTORS
330
449
102
}
330
449
100
AcDbXrecord
340
0
  0
XRECORD
  5
461
102
{ACAD_REACTORS
330
449
102
}
330
449
100
AcDbXrecord
 70
     0
  0
XRECORD
  5
455
102
{ACAD_REACTORS
330
449
102
}
330
449
100
AcDbXrecord
  1
{6F655542-C160-467B-A4CE-FA5DC00173B8}
  0
DICTIONARYVAR
  5
35C
102
{ACAD_REACTORS
330
35B
102
}
330
35B
100
DictionaryVariables
280
     0
  1
1
  0
ENDSEC
  0
EOF
