  0
SECTION
  2
HEADER
  9
$ACADVER
  1
AC1014
  9
$ACADMAINTVER
 70
     9
  9
$DWGCODEPAGE
  3
ANSI_1252
  9
$INSBASE
 10
49.06649240590151
 20
15.59020423249887
 30
0.0
  9
$EXTMIN
 10
42.14882108609354
 20
14.65235786503109
 30
0.0
  9
$EXTMAX
 10
67.88765123616176
 20
24.51999671777437
 30
0.0
  9
$LIMMIN
 10
0.0
 20
0.0
  9
$LIMMAX
 10
36.0
 20
36.0
  9
$ORTHOMODE
 70
     1
  9
$REGENMODE
 70
     1
  9
$FILLMODE
 70
     1
  9
$QTEXTMODE
 70
     0
  9
$MIRRTEXT
 70
     1
  9
$DRAGMODE
 70
     0
  9
$LTSCALE
 40
1.0
  9
$OSMODE
 70
    37
  9
$ATTMODE
 70
     1
  9
$TEXTSIZE
 40
0.2
  9
$TRACEWID
 40
0.05
  9
$TEXTSTYLE
  7
STANDARD
  9
$CLAYER
  8
ADPDIM
  9
$CELTYPE
  6
BYLAYER
  9
$CECOLOR
 62
   256
  9
$CELTSCALE
 40
1.0
  9
$DELOBJ
 70
     1
  9
$DISPSILH
 70
     0
  9
$DIMSCALE
 40
1.0
  9
$DIMASZ
 40
0.125
  9
$DIMEXO
 40
0.0625
  9
$DIMDLI
 40
0.38
  9
$DIMRND
 40
0.0
  9
$DIMDLE
 40
0.0
  9
$DIMEXE
 40
0.18
  9
$DIMTP
 40
0.0
  9
$DIMTM
 40
0.0
  9
$DIMTXT
 40
0.125
  9
$DIMCEN
 40
0.1875
  9
$DIMTSZ
 40
0.125
  9
$DIMTOL
 70
     0
  9
$DIMLIM
 70
     0
  9
$DIMTIH
 70
     0
  9
$DIMTOH
 70
     0
  9
$DIMSE1
 70
     0
  9
$DIMSE2
 70
     0
  9
$DIMTAD
 70
     0
  9
$DIMZIN
 70
     3
  9
$DIMBLK
  1

  9
$DIMASO
 70
     1
  9
$DIMSHO
 70
     1
  9
$DIMPOST
  1

  9
$DIMAPOST
  1

  9
$DIMALT
 70
     0
  9
$DIMALTD
 70
     1
  9
$DIMALTF
 40
25.4
  9
$DIMLFAC
 40
1.0
  9
$DIMTOFL
 70
     0
  9
$DIMTVP
 40
0.0
  9
$DIMTIX
 70
     0
  9
$DIMSOXD
 70
     0
  9
$DIMSAH
 70
     0
  9
$DIMBLK1
  1

  9
$DIMBLK2
  1

  9
$DIMSTYLE
  2
STANDARD
  9
$DIMCLRD
 70
     0
  9
$DIMCLRE
 70
     0
  9
$DIMCLRT
 70
     0
  9
$DIMTFAC
 40
1.0
  9
$DIMGAP
 40
0.125
  9
$DIMJUST
 70
     0
  9
$DIMSD1
 70
     0
  9
$DIMSD2
 70
     0
  9
$DIMTOLJ
 70
     1
  9
$DIMTZIN
 70
     0
  9
$DIMALTZ
 70
     0
  9
$DIMALTTZ
 70
     0
  9
$DIMFIT
 70
     3
  9
$DIMUPT
 70
     0
  9
$DIMUNIT
 70
     2
  9
$DIMDEC
 70
     4
  9
$DIMTDEC
 70
     4
  9
$DIMALTU
 70
     2
  9
$DIMALTTD
 70
     2
  9
$DIMTXSTY
  7
STANDARD
  9
$DIMAUNIT
 70
     0
  9
$LUNITS
 70
     5
  9
$LUPREC
 70
     4
  9
$SKETCHINC
 40
0.1
  9
$FILLETRAD
 40
0.01
  9
$AUNITS
 70
     0
  9
$AUPREC
 70
     0
  9
$MENU
  1
acad
  9
$ELEVATION
 40
0.0
  9
$PELEVATION
 40
0.0
  9
$THICKNESS
 40
0.0
  9
$LIMCHECK
 70
     0
  9
$BLIPMODE
 70
     0
  9
$CHAMFERA
 40
0.0
  9
$CHAMFERB
 40
0.0
  9
$CHAMFERC
 40
0.0
  9
$CHAMFERD
 40
0.0
  9
$SKPOLY
 70
     0
  9
$TDCREATE
 40
2450386.592543206
  9
$TDUPDATE
 40
2452297.071856551
  9
$TDINDWG
 40
0.0310907292
  9
$TDUSRTIMER
 40
0.0310907292
  9
$USRTIMER
 70
     1
  9
$ANGBASE
 50
0.0
  9
$ANGDIR
 70
     0
  9
$PDMODE
 70
     0
  9
$PDSIZE
 40
0.0
  9
$PLINEWID
 40
0.0
  9
$COORDS
 70
     2
  9
$SPLFRAME
 70
     0
  9
$SPLINETYPE
 70
     6
  9
$SPLINESEGS
 70
     8
  9
$ATTDIA
 70
     0
  9
$ATTREQ
 70
     1
  9
$HANDLING
 70
 22529
  9
$HANDSEED
  5
2EC
  9
$SURFTAB1
 70
     6
  9
$SURFTAB2
 70
     6
  9
$SURFTYPE
 70
     6
  9
$SURFU
 70
     6
  9
$SURFV
 70
     6
  9
$UCSNAME
  2

  9
$UCSORG
 10
0.0
 20
0.0
 30
0.0
  9
$UCSXDIR
 10
1.0
 20
0.0
 30
0.0
  9
$UCSYDIR
 10
0.0
 20
1.0
 30
0.0
  9
$PUCSNAME
  2

  9
$PUCSORG
 10
0.0
 20
0.0
 30
0.0
  9
$PUCSXDIR
 10
1.0
 20
0.0
 30
0.0
  9
$PUCSYDIR
 10
0.0
 20
1.0
 30
0.0
  9
$USERI1
 70
     0
  9
$USERI2
 70
     0
  9
$USERI3
 70
     0
  9
$USERI4
 70
     0
  9
$USERI5
 70
     0
  9
$USERR1
 40
0.0
  9
$USERR2
 40
0.0
  9
$USERR3
 40
0.0
  9
$USERR4
 40
0.0
  9
$USERR5
 40
0.0
  9
$WORLDVIEW
 70
     1
  9
$SHADEDGE
 70
     3
  9
$SHADEDIF
 70
    70
  9
$TILEMODE
 70
     1
  9
$MAXACTVP
 70
    15
  9
$PINSBASE
 10
4.403525741743744E+99
 20
7.061986388769092E+99
 30
0.0
  9
$PLIMCHECK
 70
     0
  9
$PEXTMIN
 10
1.000000000000000E+20
 20
1.000000000000000E+20
 30
1.000000000000000E+20
  9
$PEXTMAX
 10
-1.000000000000000E+20
 20
-1.000000000000000E+20
 30
-1.000000000000000E+20
  9
$PLIMMIN
 10
0.0
 20
0.0
  9
$PLIMMAX
 10
12.0
 20
9.0
  9
$UNITMODE
 70
     0
  9
$VISRETAIN
 70
     0
  9
$PLINEGEN
 70
     0
  9
$PSLTSCALE
 70
     1
  9
$TREEDEPTH
 70
  3020
  9
$PICKSTYLE
 70
     1
  9
$CMLSTYLE
  2
STANDARD
  9
$CMLJUST
 70
     0
  9
$CMLSCALE
 40
1.0
  9
$PROXYGRAPHICS
 70
     1
  9
$MEASUREMENT
 70
     0
  0
ENDSEC
  0
SECTION
  2
CLASSES
  0
CLASS
  1
ACDBDICTIONARYWDFLT
  2
AcDbDictionaryWithDefault
  3
AutoCAD 2000
 90
        0
280
     0
281
     0
  0
CLASS
  1
ACDBPLACEHOLDER
  2
AcDbPlaceHolder
  3
AutoCAD 2000
 90
        0
280
     0
281
     0
  0
CLASS
  1
LAYOUT
  2
AcDbLayout
  3
AutoCAD 2000
 90
        0
280
     0
281
     0
  0
CLASS
  1
DICTIONARYVAR
  2
AcDbDictionaryVar
  3
AutoCAD 2000
 90
        0
280
     0
281
     0
  0
CLASS
  1
LONG_TRANSACTION
  2
AcDbLongTransaction
  3
AutoCAD 2000
 90
        0
280
     0
281
     0
  0
CLASS
  1
LWPOLYLINE
  2
AcDbPolyline
  3
AutoCAD 2000
 90
        0
280
     0
281
     1
  0
CLASS
  1
HATCH
  2
AcDbHatch
  3
AutoCAD 2000
 90
        0
280
     0
281
     1
  0
CLASS
  1
XRECORD
  2
AcDbXrecord
  3
AutoCAD 2000
 90
        0
280
     0
281
     0
  0
CLASS
  1
LONG_TRANSACTION
  2
AcDbLongTransaction
  3
AutoCAD 2000
 90
        0
280
     0
281
     0
  0
CLASS
  1
LWPOLYLINE
  2
AcDbPolyline
  3
AutoCAD 2000
 90
        0
280
     0
281
     1
  0
CLASS
  1
HATCH
  2
AcDbHatch
  3
AutoCAD 2000
 90
        0
280
     0
281
     1
  0
CLASS
  1
XRECORD
  2
AcDbXrecord
  3
AutoCAD 2000
 90
        0
280
     0
281
     0
  0
CLASS
  1
LONG_TRANSACTION
  2
AcDbLongTransaction
  3
AutoCAD 2000
 90
        0
280
     0
281
     0
  0
CLASS
  1
LWPOLYLINE
  2
AcDbPolyline
  3
AutoCAD 2000
 90
        0
280
     0
281
     1
  0
CLASS
  1
HATCH
  2
AcDbHatch
  3
AutoCAD 2000
 90
        0
280
     0
281
     1
  0
CLASS
  1
XRECORD
  2
AcDbXrecord
  3
AutoCAD 2000
 90
        0
280
     0
281
     0
  0
CLASS
  1
LONG_TRANSACTION
  2
AcDbLongTransaction
  3
AutoCAD 2000
 90
        0
280
     0
281
     0
  0
CLASS
  1
LWPOLYLINE
  2
AcDbPolyline
  3
AutoCAD 2000
 90
        0
280
     0
281
     1
  0
CLASS
  1
HATCH
  2
AcDbHatch
  3
AutoCAD 2000
 90
        0
280
     0
281
     1
  0
CLASS
  1
XRECORD
  2
AcDbXrecord
  3
AutoCAD 2000
 90
        0
280
     0
281
     0
  0
CLASS
  1
LONG_TRANSACTION
  2
AcDbLongTransaction
  3
AutoCAD 2000
 90
        0
280
     0
281
     0
  0
CLASS
  1
LWPOLYLINE
  2
AcDbPolyline
  3
AutoCAD 2000
 90
        0
280
     0
281
     1
  0
CLASS
  1
HATCH
  2
AcDbHatch
  3
AutoCAD 2000
 90
        0
280
     0
281
     1
  0
CLASS
  1
XRECORD
  2
AcDbXrecord
  3
AutoCAD 2000
 90
        0
280
     0
281
     0
  0
CLASS
  1
LONG_TRANSACTION
  2
AcDbLongTransaction
  3
AutoCAD 2000
 90
        0
280
     0
281
     0
  0
CLASS
  1
LWPOLYLINE
  2
AcDbPolyline
  3
AutoCAD 2000
 90
        0
280
     0
281
     1
  0
CLASS
  1
HATCH
  2
AcDbHatch
  3
AutoCAD 2000
 90
        0
280
     0
281
     1
  0
CLASS
  1
XRECORD
  2
AcDbXrecord
  3
AutoCAD 2000
 90
        0
280
     0
281
     0
  0
ENDSEC
  0
SECTION
  2
TABLES
  0
TABLE
  2
VPORT
  5
8
330
0
100
AcDbSymbolTable
 70
     2
  0
VPORT
  5
2C9
330
8
100
AcDbSymbolTableRecord
100
AcDbViewportTableRecord
  2
*ACTIVE
 70
     0
 10
0.0
 20
0.0
 11
1.0
 21
1.0
 12
55.04014232568473
 22
19.58615120871243
 13
0.0
 23
0.0
 14
0.5740882589684922
 24
0.5740882589684922
 15
0.5
 25
0.5
 16
0.0
 26
0.0
 36
1.0
 17
0.0
 27
0.0
 37
0.0
 40
16.49596146705263
 41
1.570528967254408
 42
50.0
 43
0.0
 44
0.0
 50
0.0
 51
0.0
 71
     0
 72
   100
 73
     1
 74
     1
 75
     0
 76
     0
 77
     0
 78
     0
  0
ENDTAB
  0
TABLE
  2
LTYPE
  5
5
330
0
100
AcDbSymbolTable
 70
     1
  0
LTYPE
  5
12
330
5
100
AcDbSymbolTableRecord
100
AcDbLinetypeTableRecord
  2
BYBLOCK
 70
     0
  3

 72
    65
 73
     0
 40
0.0
  0
LTYPE
  5
13
330
5
100
AcDbSymbolTableRecord
100
AcDbLinetypeTableRecord
  2
BYLAYER
 70
     0
  3

 72
    65
 73
     0
 40
0.0
  0
LTYPE
  5
14
330
5
100
AcDbSymbolTableRecord
100
AcDbLinetypeTableRecord
  2
CONTINUOUS
 70
     0
  3
Solid line
 72
    65
 73
     0
 40
0.0
  0
ENDTAB
  0
TABLE
  2
LAYER
  5
2
330
0
100
AcDbSymbolTable
 70
     4
  0
LAYER
  5
F
330
2
100
AcDbSymbolTableRecord
100
AcDbLayerTableRecord
  2
0
 70
     0
 62
     7
  6
CONTINUOUS
  0
LAYER
  5
B5
330
2
100
AcDbSymbolTableRecord
100
AcDbLayerTableRecord
  2
ADP1DETAIL
 70
     0
 62
     7
  6
CONTINUOUS
  0
LAYER
  5
B7
330
2
100
AcDbSymbolTableRecord
100
AcDbLayerTableRecord
  2
DEFPOINTS
 70
     0
 62
     7
  6
CONTINUOUS
  0
LAYER
  5
B8
330
2
100
AcDbSymbolTableRecord
100
AcDbLayerTableRecord
  2
ADPDIM
 70
     0
 62
     3
  6
CONTINUOUS
  0
ENDTAB
  0
TABLE
  2
STYLE
  5
3
330
0
100
AcDbSymbolTable
 70
     2
  0
STYLE
  5
10
330
3
100
AcDbSymbolTableRecord
100
AcDbTextStyleTableRecord
  2
STANDARD
 70
     0
 40
0.0
 41
1.0
 50
0.0
 71
     0
 42
0.2
  3
txt
  4

  0
STYLE
  5
181
330
3
100
AcDbSymbolTableRecord
100
AcDbTextStyleTableRecord
  2
ARIAL_WIDE
 70
     0
 40
0.0
 41
1.25
 50
0.0
 71
     0
 42
0.2
  3
ARIAL.TTF
  4

1001
ACAD
1000
Arial
1071
       34
  0
ENDTAB
  0
TABLE
  2
VIEW
  5
6
330
0
100
AcDbSymbolTable
 70
     0
  0
ENDTAB
  0
TABLE
  2
UCS
  5
7
330
0
100
AcDbSymbolTable
 70
     0
  0
ENDTAB
  0
TABLE
  2
APPID
  5
9
330
0
100
AcDbSymbolTable
 70
     1
  0
APPID
  5
11
330
9
100
AcDbSymbolTableRecord
100
AcDbRegAppTableRecord
  2
ACAD
 70
     0
  0
ENDTAB
  0
TABLE
  2
DIMSTYLE
  5
A
330
0
100
AcDbSymbolTable
 70
     1
  0
DIMSTYLE
105
175
330
A
100
AcDbSymbolTableRecord
100
AcDbDimStyleTableRecord
  2
STANDARD
 70
     0
  3

  4

  5

  6

  7

 40
1.0
 41
0.18
 42
0.0625
 43
0.38
 44
0.18
 45
0.0
 46
0.0
 47
0.0
 48
0.0
140
0.18
141
0.09
142
0.0
143
25.4
144
1.0
145
0.0
146
1.0
147
0.09
 71
     0
 72
     0
 73
     1
 74
     1
 75
     0
 76
     0
 77
     0
 78
     0
170
     0
171
     2
172
     0
173
     0
174
     0
175
     0
176
     0
177
     0
178
     0
270
     2
271
     4
272
     4
273
     2
274
     2
340
10
275
     0
280
     0
281
     0
282
     0
283
     1
284
     0
285
     0
286
     0
287
     3
288
     0
  0
ENDTAB
  0
TABLE
  2
BLOCK_RECORD
  5
1
330
0
100
AcDbSymbolTable
 70
     2
  0
BLOCK_RECORD
  5
18
102
{ACAD_XDICTIONARY
360
1D6
102
}
330
1
100
AcDbSymbolTableRecord
100
AcDbBlockTableRecord
  2
*MODEL_SPACE
  0
BLOCK_RECORD
  5
15
102
{ACAD_XDICTIONARY
360
1D4
102
}
330
1
100
AcDbSymbolTableRecord
100
AcDbBlockTableRecord
  2
*PAPER_SPACE
  0
BLOCK_RECORD
  5
AF
330
1
100
AcDbSymbolTableRecord
100
AcDbBlockTableRecord
  2
*D0
  0
BLOCK_RECORD
  5
B1
330
1
100
AcDbSymbolTableRecord
100
AcDbBlockTableRecord
  2
*D1
  0
ENDTAB
  0
ENDSEC
  0
SECTION
  2
BLOCKS
  0
BLOCK
  5
BB
330
18
100
AcDbEntity
  8
0
100
AcDbBlockBegin
  2
*MODEL_SPACE
 70
     0
 10
0.0
 20
0.0
 30
0.0
  3
*MODEL_SPACE
  1

  0
ENDBLK
  5
BC
330
18
100
AcDbEntity
  8
0
100
AcDbBlockEnd
  0
BLOCK
  5
B9
330
15
100
AcDbEntity
 67
     1
  8
0
100
AcDbBlockBegin
  2
*PAPER_SPACE
 70
     0
 10
0.0
 20
0.0
 30
0.0
  3
*PAPER_SPACE
  1

  0
ENDBLK
  5
BA
330
15
100
AcDbEntity
 67
     1
  8
0
100
AcDbBlockEnd
  0
BLOCK
  5
BE
330
AF
100
AcDbEntity
  8
0
100
AcDbBlockBegin
  2
*D0
 70
     1
 10
0.0
 20
0.0
 30
0.0
  3
*D0
  1

  0
LINE
  5
BF
330
AF
100
AcDbEntity
  8
0
  6
BYBLOCK
 62
     0
100
AcDbLine
 10
49.0039924059015
 20
15.59020423249887
 30
0.0
 11
47.77579848113779
 21
15.59020423249887
 31
0.0
  0
LINE
  5
C0
330
AF
100
AcDbEntity
  8
0
  6
BYBLOCK
 62
     0
100
AcDbLine
 10
49.0039924059015
 20
23.84020423249887
 30
0.0
 11
47.77579848113779
 21
23.84020423249887
 31
0.0
  0
LINE
  5
C1
330
AF
100
AcDbEntity
  8
0
  6
BYBLOCK
 62
     0
100
AcDbLine
 10
47.95579848113779
 20
15.59020423249887
 30
0.0
 11
47.95579848113779
 21
19.31937089916554
 31
0.0
  0
LINE
  5
C2
330
AF
100
AcDbEntity
  8
0
  6
BYBLOCK
 62
     0
100
AcDbLine
 10
47.95579848113779
 20
23.84020423249887
 30
0.0
 11
47.95579848113779
 21
20.1110375658322
 31
0.0
  0
LINE
  5
C3
330
AF
100
AcDbEntity
  8
0
  6
BYBLOCK
 62
     0
100
AcDbLine
 10
48.08079848113779
 20
15.46520423249887
 30
0.0
 11
47.83079848113779
 21
15.71520423249888
 31
0.0
  0
LINE
  5
C4
330
AF
100
AcDbEntity
  8
0
  6
BYBLOCK
 62
     0
100
AcDbLine
 10
48.08079848113779
 20
23.71520423249887
 30
0.0
 11
47.83079848113779
 21
23.96520423249887
 31
0.0
  0
TEXT
  5
C5
330
AF
100
AcDbEntity
  8
0
  6
BYBLOCK
 62
     0
100
AcDbText
 10
48.01829848113779
 20
19.44437089916554
 30
0.0
 40
0.125
  1
8 1/4
 50
90.0
 72
     1
 11
47.95579848113779
 21
19.71520423249887
 31
0.0
100
AcDbText
 73
     2
  0
POINT
  5
C6
330
AF
100
AcDbEntity
  8
DEFPOINTS
  6
BYBLOCK
 62
     0
100
AcDbPoint
 10
49.06649240590151
 20
15.59020423249887
 30
0.0
  0
POINT
  5
C7
330
AF
100
AcDbEntity
  8
DEFPOINTS
  6
BYBLOCK
 62
     0
100
AcDbPoint
 10
49.06649240590151
 20
23.84020423249887
 30
0.0
  0
POINT
  5
C8
330
AF
100
AcDbEntity
  8
DEFPOINTS
  6
BYBLOCK
 62
     0
100
AcDbPoint
 10
47.95579848113779
 20
23.84020423249887
 30
0.0
  0
ENDBLK
  5
C9
330
AF
100
AcDbEntity
  8
0
100
AcDbBlockEnd
  0
BLOCK
  5
CA
330
B1
100
AcDbEntity
  8
0
100
AcDbBlockBegin
  2
*D1
 70
     1
 10
0.0
 20
0.0
 30
0.0
  3
*D1
  1

  0
LINE
  5
CB
330
B1
100
AcDbEntity
  8
0
  6
BYBLOCK
 62
     0
100
AcDbLine
 10
48.30465338877153
 20
23.00739001125089
 30
0.0
 11
48.30465338877153
 21
24.51999671777437
 31
0.0
  0
LINE
  5
CC
330
B1
100
AcDbEntity
  8
0
  6
BYBLOCK
 62
     0
100
AcDbLine
 10
61.55465338877153
 20
23.82619336451262
 30
0.0
 11
61.55465338877153
 21
24.51999671777437
 31
0.0
  0
LINE
  5
CD
330
B1
100
AcDbEntity
  8
0
  6
BYBLOCK
 62
     0
100
AcDbLine
 10
48.30465338877153
 20
24.33999671777437
 30
0.0
 11
54.49215338877152
 21
24.33999671777437
 31
0.0
  0
LINE
  5
CE
330
B1
100
AcDbEntity
  8
0
  6
BYBLOCK
 62
     0
100
AcDbLine
 10
61.55465338877153
 20
24.33999671777437
 30
0.0
 11
55.36715338877153
 21
24.33999671777437
 31
0.0
  0
LINE
  5
CF
330
B1
100
AcDbEntity
  8
0
  6
BYBLOCK
 62
     0
100
AcDbLine
 10
48.17965338877153
 20
24.21499671777437
 30
0.0
 11
48.42965338877153
 21
24.46499671777437
 31
0.0
  0
LINE
  5
D0
330
B1
100
AcDbEntity
  8
0
  6
BYBLOCK
 62
     0
100
AcDbLine
 10
61.42965338877153
 20
24.21499671777437
 30
0.0
 11
61.67965338877152
 21
24.46499671777437
 31
0.0
  0
TEXT
  5
D1
330
B1
100
AcDbEntity
  8
0
  6
BYBLOCK
 62
     0
100
AcDbText
 10
54.61715338877152
 20
24.27749671777437
 30
0.0
 40
0.125
  1
13 1/4
 72
     1
 11
54.92965338877152
 21
24.33999671777437
 31
0.0
100
AcDbText
 73
     2
  0
POINT
  5
D2
330
B1
100
AcDbEntity
  8
DEFPOINTS
  6
BYBLOCK
 62
     0
100
AcDbPoint
 10
48.30465338877153
 20
22.94489001125088
 30
0.0
  0
POINT
  5
D3
330
B1
100
AcDbEntity
  8
DEFPOINTS
  6
BYBLOCK
 62
     0
100
AcDbPoint
 10
61.55465338877153
 20
23.76369336451263
 30
0.0
  0
POINT
  5
D4
330
B1
100
AcDbEntity
  8
DEFPOINTS
  6
BYBLOCK
 62
     0
100
AcDbPoint
 10
61.55465338877153
 20
24.33999671777437
 30
0.0
  0
ENDBLK
  5
D5
330
B1
100
AcDbEntity
  8
0
100
AcDbBlockEnd
  0
ENDSEC
  0
SECTION
  2
ENTITIES
  0
DIMENSION
  5
D6
330
18
100
AcDbEntity
  8
ADPDIM
100
AcDbDimension
  2
*D1
 10
61.55465338877153
 20
24.33999671777437
 30
0.0
 11
54.92965338877152
 21
24.33999671777437
 31
0.0
100
AcDbAlignedDimension
 13
48.30465338877153
 23
22.94489001125088
 33
0.0
 14
61.55465338877153
 24
23.76369336451263
 34
0.0
100
AcDbRotatedDimension
  0
DIMENSION
  5
D7
330
18
100
AcDbEntity
  8
ADPDIM
100
AcDbDimension
  2
*D0
 10
47.95579848113779
 20
23.84020423249887
 30
0.0
 11
47.95579848113779
 21
19.71520423249887
 31
0.0
100
AcDbAlignedDimension
 13
49.06649240590151
 23
15.59020423249887
 33
0.0
 14
49.06649240590151
 24
23.84020423249887
 34
0.0
 50
90.0
100
AcDbRotatedDimension
  0
ARC
  5
D8
330
18
100
AcDbEntity
  8
ADP1DETAIL
100
AcDbCircle
 10
51.17507462190706
 20
20.77526594574493
 30
0.0
 40
2.456441167639018
100
AcDbArc
 50
87.54063020432193
 51
180.7743212741972
  0
ARC
  5
D9
330
18
100
AcDbEntity
  8
ADP1DETAIL
100
AcDbCircle
 10
51.09708252803684
 20
20.82947959283791
 30
0.0
 40
2.749934547631643
100
AcDbArc
 50
83.84643887740043
 51
181.047764828256
  0
ARC
  5
DA
330
18
100
AcDbEntity
  8
ADP1DETAIL
100
AcDbCircle
 10
49.73575399140348
 20
16.61126252597771
 30
0.0
 40
1.427755107593974
100
AcDbArc
 50
125.6070171897988
 51
212.6219287008837
  0
ARC
  5
DB
330
18
100
AcDbEntity
  8
ADP1DETAIL
100
AcDbCircle
 10
51.62480010563179
 20
20.95672874916814
 30
0.0
 40
3.281997561452537
100
AcDbArc
 50
183.100834400758
 51
232.1252212454108
  0
ARC
  5
DC
330
18
100
AcDbEntity
  8
ADP1DETAIL
100
AcDbCircle
 10
52.14509761649423
 20
21.23444335279763
 30
0.0
 40
3.461437776454773
100
AcDbArc
 50
188.1778031311371
 51
228.9021672447827
  0
ARC
  5
DD
330
18
100
AcDbEntity
  8
ADP1DETAIL
100
AcDbCircle
 10
49.7480452736913
 20
16.57493556235093
 30
0.0
 40
1.145135822989179
100
AcDbArc
 50
125.0681069586916
 51
185.1223554251179
  0
ARC
  5
DE
330
18
100
AcDbEntity
  8
ADP1DETAIL
100
AcDbCircle
 10
49.19502625195217
 20
16.55420807787888
 30
0.0
 40
0.9725350191576707
100
AcDbArc
 50
227.1186076563488
 51
297.692105606468
  0
ARC
  5
DF
330
18
100
AcDbEntity
  8
ADP1DETAIL
100
AcDbCircle
 10
49.18121989201191
 20
16.47425317412845
 30
0.0
 40
0.5737392355697563
100
AcDbArc
 50
180.1556562173635
 51
283.2640173981504
  0
ARC
  5
E0
330
18
100
AcDbEntity
  8
ADP1DETAIL
100
AcDbCircle
 10
49.10200681215285
 20
16.38559352938389
 30
0.0
 40
0.8812424992599011
100
AcDbArc
 50
308.2006785580413
 51
356.0047793800632
  0
ARC
  5
E1
330
18
100
AcDbEntity
  8
ADP1DETAIL
100
AcDbCircle
 10
49.29058277369131
 20
16.32419449092235
 30
0.0
 40
0.4089820488114339
100
AcDbArc
 50
273.1221304621153
 51
15.80251395393573
  0
ARC
  5
E2
330
18
100
AcDbEntity
  8
ADP1DETAIL
100
AcDbCircle
 10
57.34010777369135
 20
21.84963199092232
 30
0.0
 40
1.00920340066131
100
AcDbArc
 50
121.5461331123873
 51
164.7140715959243
  0
ARC
  5
E3
330
18
100
AcDbEntity
  8
ADP1DETAIL
100
AcDbCircle
 10
57.65043040882648
 20
21.31951374767909
 30
0.0
 40
1.448091756616004
100
AcDbArc
 50
130.9823853001297
 51
164.4663260707151
  0
ARC
  5
E4
330
18
100
AcDbEntity
  8
ADP1DETAIL
100
AcDbCircle
 10
58.93132652369128
 20
20.32905386592238
 30
0.0
 40
3.48047734373936
100
AcDbArc
 50
108.07257697468
 51
139.3075580772795
  0
ARC
  5
E5
330
18
100
AcDbEntity
  8
ADP1DETAIL
100
AcDbCircle
 10
51.68743179673739
 20
21.26744486667385
 30
0.0
 40
1.789139841803357
100
AcDbArc
 50
258.0706778227616
 51
4.580323135579043
  0
ARC
  5
E6
330
18
100
AcDbEntity
  8
ADP1DETAIL
100
AcDbCircle
 10
49.86160633359912
 20
20.57996839645232
 30
0.0
 40
1.496948105421795
100
AcDbArc
 50
310.5597448335647
 51
13.43193195460828
  0
ARC
  5
E7
330
18
100
AcDbEntity
  8
ADP1DETAIL
100
AcDbCircle
 10
51.65040730038211
 20
20.77533026558629
 30
0.0
 40
0.2674020661476202
100
AcDbArc
 50
271.3503351336311
 51
7.738989011176354
  0
ARC
  5
E8
330
18
100
AcDbEntity
  8
ADP1DETAIL
100
AcDbCircle
 10
51.66948933058965
 20
21.23097608749156
 30
0.0
 40
1.470073267659582
100
AcDbArc
 50
261.3381522809602
 51
346.6112101210836
  0
ARC
  5
E9
330
18
100
AcDbEntity
  8
ADP1DETAIL
100
AcDbCircle
 10
51.45673317426215
 20
20.7354225719358
 30
0.0
 40
1.25289303250021
100
AcDbArc
 50
179.6960297636394
 51
245.9610538191856
  0
ARC
  5
EA
330
18
100
AcDbEntity
  8
ADP1DETAIL
100
AcDbCircle
 10
49.77085904920151
 20
20.55758097051419
 30
0.0
 40
1.844145682932424
100
AcDbArc
 50
339.9495210170511
 51
11.57768938483106
  0
ARC
  5
EB
330
18
100
AcDbEntity
  8
ADP1DETAIL
100
AcDbCircle
 10
51.20677506212038
 20
20.67525493079779
 30
0.0
 40
0.2330743047110299
100
AcDbArc
 50
163.341519910426
 51
279.0303304209929
  0
ARC
  5
EC
330
18
100
AcDbEntity
  8
ADP1DETAIL
100
AcDbCircle
 10
51.472744105257
 20
20.81492339739161
 30
0.0
 40
1.010549046243036
100
AcDbArc
 50
175.8247361256973
 51
252.5143639742311
  0
LINE
  5
ED
330
18
100
AcDbEntity
  8
ADP1DETAIL
100
AcDbLine
 10
51.24629367414566
 20
20.45285041996133
 30
0.0
 11
51.3532085495573
 21
20.64932961476056
 31
0.0
  0
LINE
  5
EE
330
18
100
AcDbEntity
  8
ADP1DETAIL
100
AcDbLine
 10
51.66360653774084
 20
20.50800245902591
 30
0.0
 11
51.61187352492361
 21
20.58728354856024
 31
0.0
  0
ARC
  5
EF
330
18
100
AcDbEntity
  8
ADP1DETAIL
100
AcDbCircle
 10
55.8932640236913
 20
20.81631949092235
 30
0.0
 40
0.6573982164860604
100
AcDbArc
 50
166.9447527762033
 51
210.547571748907
  0
ARC
  5
F0
330
18
100
AcDbEntity
  8
ADP1DETAIL
100
AcDbCircle
 10
55.36137700446054
 20
20.20232910630697
 30
0.0
 40
0.4060116525430438
100
AcDbArc
 50
105.5025387916307
 51
177.1778447001889
  0
ARC
  5
F1
330
18
100
AcDbEntity
  8
ADP1DETAIL
100
AcDbCircle
 10
54.2566702736912
 20
21.15663199092237
 30
0.0
 40
1.851810315694584
100
AcDbArc
 50
339.8696879739592
 51
357.5104470780003
  0
ARC
  5
F2
330
18
100
AcDbEntity
  8
ADP1DETAIL
100
AcDbCircle
 10
55.5653265236913
 20
20.84416324092236
 30
0.0
 40
0.3252118450189509
100
AcDbArc
 50
267.273689006095
 51
348.4762782961016
  0
ARC
  5
F3
330
18
100
AcDbEntity
  8
ADP1DETAIL
100
AcDbCircle
 10
51.57569573853201
 20
21.47761462458042
 30
0.0
 40
3.385730617947186
100
AcDbArc
 50
246.7828433711686
 51
332.7108298396835
  0
ARC
  5
F4
330
18
100
AcDbEntity
  8
ADP1DETAIL
100
AcDbCircle
 10
51.72553945374249
 20
21.28661515042395
 30
0.0
 40
3.45467145349357
100
AcDbArc
 50
264.3515915247587
 51
334.2680031663338
  0
ARC
  5
F5
330
18
100
AcDbEntity
  8
ADP1DETAIL
100
AcDbCircle
 10
51.72297462151739
 20
21.58498307787887
 30
0.0
 40
3.906697379414884
100
AcDbArc
 50
257.4203287457106
 51
329.943846703366
  0
ARC
  5
F6
330
18
100
AcDbEntity
  8
ADP1DETAIL
100
AcDbCircle
 10
51.71360777369131
 20
21.83106949092235
 30
0.0
 40
4.208446217132862
100
AcDbArc
 50
280.8473468429533
 51
327.2445278702498
  0
ARC
  5
F7
330
18
100
AcDbEntity
  8
ADP1DETAIL
100
AcDbCircle
 10
51.93374220290976
 20
21.59902863097566
 30
0.0
 40
4.019829961091109
100
AcDbArc
 50
240.3311748665666
 51
325.6580587172664
  0
ARC
  5
F8
330
18
100
AcDbEntity
  8
ADP1DETAIL
100
AcDbCircle
 10
87.84432411984543
 20
-25.27436800907801
 30
0.0
 40
58.0457321902747
100
AcDbArc
 50
129.6122982515465
 51
132.1325183434299
  0
ARC
  5
F9
330
18
100
AcDbEntity
  8
ADP1DETAIL
100
AcDbCircle
 10
44.84444131329531
 20
24.52606268399162
 30
0.0
 40
8.198782270720462
100
AcDbArc
 50
301.1875481034138
 51
315.8137593372769
  0
ARC
  5
FA
330
18
100
AcDbEntity
  8
ADP1DETAIL
100
AcDbCircle
 10
49.1705452736913
 20
16.37369449092235
 30
0.0
 40
0.8120725438076732
100
AcDbArc
 50
356.5053610727468
 51
35.38543072909886
  0
ARC
  5
FB
330
18
100
AcDbEntity
  8
ADP1DETAIL
100
AcDbCircle
 10
49.27280185263867
 20
16.24310567513288
 30
0.0
 40
0.4541088868115256
100
AcDbArc
 50
25.07646796093377
 51
84.93949164194878
  0
ARC
  5
FC
330
18
100
AcDbEntity
  8
ADP1DETAIL
100
AcDbCircle
 10
49.61728277369131
 20
16.61376949092236
 30
0.0
 40
0.3151910313603465
100
AcDbArc
 50
46.90915243299566
 51
164.9816393688497
  0
ARC
  5
FD
330
18
100
AcDbEntity
  8
ADP1DETAIL
100
AcDbCircle
 10
48.97873277369122
 20
20.8627257409224
 30
0.0
 40
2.692922339678513
100
AcDbArc
 50
310.3871058128103
 51
339.6288537900725
  0
LINE
  5
FE
330
18
100
AcDbEntity
  8
ADP1DETAIL
100
AcDbLine
 10
51.24974256828275
 20
20.44595639282559
 30
0.0
 11
51.34631080564303
 21
20.40803937709504
 31
0.0
  0
LINE
  5
FF
330
18
100
AcDbEntity
  8
ADP1DETAIL
100
AcDbLine
 10
51.66015768796365
 20
20.50800245902591
 30
0.0
 11
51.60842467514642
 21
20.48387343822638
 31
0.0
  0
ARC
  5
100
330
18
100
AcDbEntity
  8
ADP1DETAIL
100
AcDbCircle
 10
54.64873277369131
 20
20.01306949092236
 30
0.0
 40
0.2508649101109964
100
AcDbArc
 50
79.14358665193721
 51
174.5962086397512
  0
LINE
  5
101
330
18
100
AcDbEntity
  8
ADP1DETAIL
100
AcDbLine
 10
54.5474827736913
 20
19.99956949092235
 30
0.0
 11
54.73310777369131
 21
20.07381949092235
 31
0.0
  0
ARC
  5
102
330
18
100
AcDbEntity
  8
ADP1DETAIL
100
AcDbCircle
 10
54.38042027369132
 20
19.79538199092236
 30
0.0
 40
0.2420253892931452
100
AcDbArc
 50
32.47119229084784
 51
85.60129464500445
  0
LINE
  5
103
330
18
100
AcDbEntity
  8
ADP1DETAIL
100
AcDbLine
 10
55.25285777369131
 20
19.33131949092235
 30
0.0
 11
55.4384827736913
 21
19.47981949092236
 31
0.0
  0
ARC
  5
104
330
18
100
AcDbEntity
  8
ADP1DETAIL
100
AcDbCircle
 10
55.64885777369131
 20
20.72350699092235
 30
0.0
 40
0.4021874999999993
100
AcDbArc
 50
216.8698976458435
 51
329.4897625938841
  0
ARC
  5
105
330
18
100
AcDbEntity
  8
ADP1DETAIL
100
AcDbCircle
 10
55.6818577736913
 20
19.15188199092235
 30
0.0
 40
0.5880440333480556
100
AcDbArc
 50
88.39211963008617
 51
136.8476102659949
  0
ARC
  5
106
330
18
100
AcDbEntity
  8
ADP1DETAIL
100
AcDbCircle
 10
55.6241077736913
 20
19.56644449092236
 30
0.0
 40
0.4113640609302146
100
AcDbArc
 50
43.78112476486876
 51
105.7086378290159
  0
ARC
  5
107
330
18
100
AcDbEntity
  8
ADP1DETAIL
100
AcDbCircle
 10
55.66123277369131
 20
19.33750699092234
 30
0.0
 40
0.2643301158707672
100
AcDbArc
 50
73.68614757374
 51
147.4259428654264
  0
ARC
  5
108
330
18
100
AcDbEntity
  8
ADP1DETAIL
100
AcDbCircle
 10
55.3456702736913
 20
19.88819449092235
 30
0.0
 40
0.0928125000000021
100
AcDbArc
 50
306.8698976458446
 51
53.13010235415533
  0
ARC
  5
109
330
18
100
AcDbEntity
  8
ADP1DETAIL
100
AcDbCircle
 10
54.61518130310309
 20
18.76570919680473
 30
0.0
 40
1.49591911764704
100
AcDbArc
 50
53.13010235415581
 51
86.90368460204441
  0
ARC
  5
10A
330
18
100
AcDbEntity
  8
ADP1DETAIL
100
AcDbCircle
 10
54.38789200372407
 20
20.44722891640287
 30
0.0
 40
0.799077147905599
100
AcDbArc
 50
304.2509393951642
 51
323.5839779124581
  0
LINE
  5
10B
330
18
100
AcDbEntity
  8
ADP1DETAIL
100
AcDbLine
 10
54.73310777369131
 20
20.07381949092235
 30
0.0
 11
54.88160777369131
 21
20.03669449092235
 31
0.0
  0
LINE
  5
10C
330
18
100
AcDbEntity
  8
ADP1DETAIL
100
AcDbLine
 10
55.40135777369131
 20
19.96244449092236
 30
0.0
 11
55.40135777369131
 21
19.96244449092236
 31
0.0
  0
ARC
  5
10D
330
18
100
AcDbEntity
  8
ADP1DETAIL
100
AcDbCircle
 10
53.84867411063555
 20
19.03250954888521
 30
0.0
 40
1.510627289541869
100
AcDbArc
 50
31.15075805671088
 51
38.49827764603963
  0
ARC
  5
10E
330
18
100
AcDbEntity
  8
ADP1DETAIL
100
AcDbCircle
 10
55.2714202736913
 20
19.98100699092237
 30
0.0
 40
0.2116450632840447
100
AcDbArc
 50
232.1250163489052
 51
307.8749836510947
  0
LINE
  5
10F
330
18
100
AcDbEntity
  8
ADP1DETAIL
100
AcDbLine
 10
55.06723277369131
 20
20.03669449092235
 30
0.0
 11
55.40135777369131
 21
19.96244449092236
 31
0.0
  0
ARC
  5
110
330
18
100
AcDbEntity
  8
ADP1DETAIL
100
AcDbCircle
 10
55.34567027369129
 20
20.20375699092235
 30
0.0
 40
0.4584599304328745
100
AcDbArc
 50
328.2405199151885
 51
21.37062226934232
  0
ARC
  5
111
330
18
100
AcDbEntity
  8
ADP1DETAIL
100
AcDbCircle
 10
55.63338902369132
 20
19.73969449092235
 30
0.0
 40
0.3085230456976585
100
AcDbArc
 50
313.7811247648677
 51
21.16125981682879
  0
ARC
  5
112
330
18
100
AcDbEntity
  8
ADP1DETAIL
100
AcDbCircle
 10
55.80973277369131
 20
19.58191324092235
 30
0.0
 40
0.0748278297263933
100
AcDbArc
 50
172.8749836510966
 51
299.744881296943
  0
ARC
  5
113
330
18
100
AcDbEntity
  8
ADP1DETAIL
100
AcDbCircle
 10
55.59626402369131
 20
19.59119449092235
 30
0.0
 40
0.1802092777552306
100
AcDbArc
 50
348.1113419603719
 51
55.49147701233161
  0
ARC
  5
114
330
18
100
AcDbEntity
  8
ADP1DETAIL
100
AcDbCircle
 10
51.26699869350263
 20
21.34208187299782
 30
0.0
 40
1.887410785165081
100
AcDbArc
 50
346.1593045083444
 51
89.59066279385199
  0
ARC
  5
115
330
18
100
AcDbEntity
  8
ADP1DETAIL
100
AcDbCircle
 10
51.21346882773043
 20
21.31105171551186
 30
0.0
 40
2.259570522152663
100
AcDbArc
 50
2.517936775337226
 51
85.47189121415438
  0
ARC
  5
116
330
18
100
AcDbEntity
  8
ADP1DETAIL
100
AcDbCircle
 10
51.2359032368111
 20
20.78882633941911
 30
0.0
 40
1.033104080345974
100
AcDbArc
 50
85.46394305496765
 51
182.594013082874
  0
ARC
  5
117
330
18
100
AcDbEntity
  8
ADP1DETAIL
100
AcDbCircle
 10
51.19497143941483
 20
20.84382358299204
 30
0.0
 40
0.7314599868511428
100
AcDbArc
 50
79.58678549368293
 51
176.4983579169545
  0
ARC
  5
118
330
18
100
AcDbEntity
  8
ADP1DETAIL
100
AcDbCircle
 10
51.30901629382581
 20
21.12991509830512
 30
0.0
 40
0.6888329733835631
100
AcDbArc
 50
349.2934547465889
 51
89.28535897841177
  0
LINE
  5
119
330
18
100
AcDbEntity
  8
ADP1DETAIL
100
AcDbLine
 10
51.55324281255201
 20
21.0319469784905
 30
0.0
 11
51.87398739442702
 21
21.18361513042342
 31
0.0
  0
LINE
  5
11A
330
18
100
AcDbEntity
  8
ADP1DETAIL
100
AcDbLine
 10
51.91882266332996
 20
20.82167978876025
 30
0.0
 11
51.57393599993494
 21
20.93543089529238
 31
0.0
  0
ARC
  5
11B
330
18
100
AcDbEntity
  8
ADP1DETAIL
100
AcDbCircle
 10
51.61603565830669
 20
21.19185314476851
 30
0.0
 40
0.2584826128405951
100
AcDbArc
 50
359.050433143564
 51
98.57771652501675
  0
ARC
  5
11C
330
18
100
AcDbEntity
  8
ADP1DETAIL
100
AcDbCircle
 10
51.4475452736913
 20
20.95553824092236
 30
0.0
 40
0.1328872767435332
100
AcDbArc
 50
347.905242922988
 51
192.094757077012
  0
ARC
  5
11D
330
18
100
AcDbEntity
  8
ADP1DETAIL
100
AcDbCircle
 10
51.09342988907592
 20
20.94054545246082
 30
0.0
 40
0.2268944148497634
100
AcDbArc
 50
130.405746668734
 51
241.0154396062649
  0
LINE
  5
11E
330
18
100
AcDbEntity
  8
ADP1DETAIL
100
AcDbLine
 10
50.99107754855654
 20
20.73895170049316
 30
0.0
 11
51.32216876848291
 21
20.9078548757601
 31
0.0
  0
ARC
  5
11F
330
18
100
AcDbEntity
  8
ADP1DETAIL
100
AcDbCircle
 10
51.20194911984516
 20
21.15187237553774
 30
0.0
 40
0.2584826128405957
100
AcDbArc
 50
89.0504331435639
 51
188.5777165250163
  0
ARC
  5
120
330
18
100
AcDbEntity
  8
ADP1DETAIL
100
AcDbCircle
 10
51.39875241654845
 20
21.35993556235093
 30
0.0
 40
0.1990033998305878
100
AcDbArc
 50
26.08702835133519
 51
165.3341579236639
  0
LINE
  5
121
330
18
100
AcDbEntity
  8
ADP1DETAIL
100
AcDbLine
 10
50.94969117379068
 20
21.11122806802483
 30
0.0
 11
51.3256176182601
 21
21.00092396022545
 31
0.0
  0
LINE
  5
122
330
18
100
AcDbEntity
  8
ADP1DETAIL
100
AcDbLine
 10
51.20490729937981
 20
21.41456437189067
 30
0.0
 11
51.36010629347158
 21
21.05607602896026
 31
0.0
  0
LINE
  5
123
330
18
100
AcDbEntity
  8
ADP1DETAIL
100
AcDbLine
 10
51.208356149157
 20
21.41111737315791
 30
0.0
 11
51.36355514324876
 21
21.05262900055727
 31
0.0
  0
LINE
  5
124
330
18
100
AcDbEntity
  8
ADP1DETAIL
100
AcDbLine
 10
51.57393599993494
 20
21.4490344185587
 30
0.0
 11
51.46702112452331
 21
21.08020504975979
 31
0.0
  0
ARC
  5
125
330
18
100
AcDbEntity
  8
ADP1DETAIL
100
AcDbCircle
 10
51.7519702736913
 20
20.98783699092235
 30
0.0
 40
0.2343125780074569
100
AcDbArc
 50
312.945427119074
 51
58.47575915592519
  0
ARC
  5
126
330
18
100
AcDbEntity
  8
ADP1DETAIL
100
AcDbCircle
 10
54.7786702736913
 20
22.36122574092235
 30
0.0
 40
0.7966916976678073
100
AcDbArc
 50
14.5366305667187
 51
85.26155434085685
  0
ARC
  5
127
330
18
100
AcDbEntity
  8
ADP1DETAIL
100
AcDbCircle
 10
54.96381313083415
 20
22.26154270520805
 30
0.0
 40
0.6582093254454417
100
AcDbArc
 50
27.08121540684327
 51
74.33997086815565
  0
ARC
  5
128
330
18
100
AcDbEntity
  8
ADP1DETAIL
100
AcDbCircle
 10
54.31921915982993
 20
21.93723718894216
 30
0.0
 40
1.706582922810738
100
AcDbArc
 50
16.17678144490588
 51
94.80617257975735
  0
ARC
  5
129
330
18
100
AcDbEntity
  8
ADP1DETAIL
100
AcDbCircle
 10
53.84885777369131
 20
22.63544449092235
 30
0.0
 40
0.4084307813142888
100
AcDbArc
 50
269.0530485532265
 51
90.94695144677332
  0
ARC
  5
12A
330
18
100
AcDbEntity
  8
ADP1DETAIL
100
AcDbCircle
 10
53.85678098797702
 20
22.71022484806521
 30
0.0
 40
0.4833781153024189
100
AcDbArc
 50
162.1746987346877
 51
268.2604872016974
  0
ARC
  5
12B
330
18
100
AcDbEntity
  8
ADP1DETAIL
100
AcDbCircle
 10
54.03392027369132
 20
22.63338199092235
 30
0.0
 40
0.453046329377594
100
AcDbArc
 50
115.0484093052378
 51
184.4387163677039
  0
ARC
  5
12C
330
18
100
AcDbEntity
  8
ADP1DETAIL
100
AcDbCircle
 10
54.95353746119131
 20
22.76499527217235
 30
0.0
 40
0.4051522617224726
100
AcDbArc
 50
105.6148614402249
 51
223.3369165662664
  0
ARC
  5
12D
330
18
100
AcDbEntity
  8
ADP1DETAIL
100
AcDbCircle
 10
55.23429527369135
 20
22.43125699092228
 30
0.0
 40
0.4732527486054116
100
AcDbArc
 50
101.3099324740233
 51
131.8201698801336
  0
ARC
  5
12E
330
18
100
AcDbEntity
  8
ADP1DETAIL
100
AcDbCircle
 10
60.06054527369127
 20
20.30163199092237
 30
0.0
 40
4.853213034455851
100
AcDbArc
 50
162.2454617004216
 51
172.1460061690052
  0
ARC
  5
12F
330
18
100
AcDbEntity
  8
ADP1DETAIL
100
AcDbCircle
 10
58.35279527369124
 20
21.95538199092235
 30
0.0
 40
2.743550142208468
100
AcDbArc
 50
168.8282959176622
 51
194.6431132601945
  0
ARC
  5
130
330
18
100
AcDbEntity
  8
ADP1DETAIL
100
AcDbCircle
 10
54.06088009511985
 20
21.65826145520807
 30
0.0
 40
2.023971863518103
100
AcDbArc
 50
334.2574804158722
 51
13.06213609230788
  0
ARC
  5
131
330
18
100
AcDbEntity
  8
ADP1DETAIL
100
AcDbCircle
 10
41.46092027369134
 20
25.28988199092232
 30
0.0
 40
15.23991424296118
100
AcDbArc
 50
343.949157744203
 51
347.9783553199441
  0
LWPOLYLINE
  5
132
330
18
100
AcDbEntity
  8
ADP1DETAIL
100
AcDbPolyline
 90
        2
 70
     0
 43
0.0
 10
55.80973277369131
 20
21.70731949092235
 10
55.84685777369131
 20
21.33606949092235
  0
ARC
  5
136
330
18
100
AcDbEntity
  8
ADP1DETAIL
100
AcDbCircle
 10
53.80233098797704
 20
21.80543556235093
 30
0.0
 40
1.636325840186303
100
AcDbArc
 50
359.1643023542055
 51
24.61301372505054
  0
ARC
  5
137
330
18
100
AcDbEntity
  8
ADP1DETAIL
100
AcDbCircle
 10
54.82061670226274
 20
22.62218556235093
 30
0.0
 40
0.2108461485864168
100
AcDbArc
 50
219.8978347476421
 51
353.5006537203447
  0
ARC
  5
138
330
18
100
AcDbEntity
  8
ADP1DETAIL
100
AcDbCircle
 10
54.98767920226274
 20
22.69908734806521
 30
0.0
 40
0.1093359259650418
100
AcDbArc
 50
129.0938588862303
 51
292.8336541779172
  0
ARC
  5
139
330
18
100
AcDbEntity
  8
ADP1DETAIL
100
AcDbCircle
 10
55.00412027369131
 20
22.17880699092236
 30
0.0
 40
0.4203166518382254
100
AcDbArc
 50
47.14758542829851
 51
86.45523354440518
  0
ARC
  5
13A
330
18
100
AcDbEntity
  8
ADP1DETAIL
100
AcDbCircle
 10
56.2459515236913
 20
22.18994449092235
 30
0.0
 40
0.363867615488872
100
AcDbArc
 50
142.2531946127246
 51
217.7468053872754
  0
ARC
  5
13B
330
18
100
AcDbEntity
  8
ADP1DETAIL
100
AcDbCircle
 10
55.71692027369131
 20
22.29513199092236
 30
0.0
 40
0.6504236900378868
100
AcDbArc
 50
357.2736890060938
 51
39.5962086397502
  0
LINE
  5
13C
330
18
100
AcDbEntity
  8
ADP1DETAIL
100
AcDbLine
 10
55.95823277369131
 20
22.41269449092235
 30
0.0
 11
56.2181077736913
 21
22.70969449092235
 31
0.0
  0
ARC
  5
13D
330
18
100
AcDbEntity
  8
ADP1DETAIL
100
AcDbCircle
 10
54.41489348797702
 20
22.45512306235093
 30
0.0
 40
0.8213689545524198
100
AcDbArc
 50
58.46520809481113
 51
134.2151753970085
  0
ARC
  5
13E
330
18
100
AcDbEntity
  8
ADP1DETAIL
100
AcDbCircle
 10
54.28495598797701
 20
22.74947127663665
 30
0.0
 40
0.8949766964280245
100
AcDbArc
 50
96.97761849083128
 51
173.0223815091686
  0
ARC
  5
13F
330
18
100
AcDbEntity
  8
ADP1DETAIL
100
AcDbCircle
 10
60.91831971603747
 20
22.84722574092237
 30
0.0
 40
0.871281678158833
100
AcDbArc
 50
114.8526458032788
 51
166.959636424262
  0
ARC
  5
140
330
18
100
AcDbEntity
  8
ADP1DETAIL
100
AcDbCircle
 10
60.18552284103749
 20
22.77930386592235
 30
0.0
 40
0.2101132332833428
100
AcDbArc
 50
223.2100893917524
 51
329.470294100066
  0
ARC
  5
141
330
18
100
AcDbEntity
  8
ADP1DETAIL
100
AcDbCircle
 10
59.83349828746608
 20
22.47633734806518
 30
0.0
 40
0.5576636634740984
100
AcDbArc
 50
108.004161605915
 51
155.2629170672254
  0
ARC
  5
142
330
18
100
AcDbEntity
  8
ADP1DETAIL
100
AcDbCircle
 10
59.15994471603749
 20
22.61688199092236
 30
0.0
 40
0.211645063284025
100
AcDbArc
 50
74.74488129694167
 51
164.7448812969434
  0
ARC
  5
143
330
18
100
AcDbEntity
  8
ADP1DETAIL
100
AcDbCircle
 10
59.37670681281169
 20
22.22647070059978
 30
0.0
 40
0.7189399890564723
100
AcDbArc
 50
79.10185630278812
 51
176.9922287608639
  0
LINE
  5
144
330
18
100
AcDbEntity
  8
ADP1DETAIL
100
AcDbLine
 10
59.2527572160375
 20
22.59831949092235
 30
0.0
 11
59.21563221603749
 21
22.82106949092236
 31
0.0
  0
ARC
  5
145
330
18
100
AcDbEntity
  8
ADP1DETAIL
100
AcDbCircle
 10
56.98572174427955
 20
22.59722757915766
 30
0.0
 40
0.3103220150983671
100
AcDbArc
 50
28.81962614301134
 51
143.0091402970382
  0
ARC
  5
146
330
18
100
AcDbEntity
  8
ADP1DETAIL
100
AcDbCircle
 10
57.14285777369131
 20
22.44813199092236
 30
0.0
 40
0.1147624074174543
100
AcDbArc
 50
160.2328313232082
 51
0.8425242607400207
  0
ARC
  5
147
330
18
100
AcDbEntity
  8
ADP1DETAIL
100
AcDbCircle
 10
56.9606077736913
 20
22.03216324092234
 30
0.0
 40
0.460802612678769
100
AcDbArc
 50
80.72739822280018
 51
124.3302171955025
  0
ARC
  5
148
330
18
100
AcDbEntity
  8
ADP1DETAIL
100
AcDbCircle
 10
56.92967027369131
 20
22.60450699092235
 30
0.0
 40
0.1577509162017768
100
AcDbArc
 50
311.8201698801377
 51
138.1798301198622
  0
ARC
  5
149
330
18
100
AcDbEntity
  8
ADP1DETAIL
100
AcDbCircle
 10
57.14623277369131
 20
22.59831949092235
 30
0.0
 40
0.1856249999999999
100
AcDbArc
 50
306.8698976458444
 51
53.13010235415574
  0
ARC
  5
14A
330
18
100
AcDbEntity
  8
ADP1DETAIL
100
AcDbCircle
 10
59.06945252853749
 20
22.49880386592235
 30
0.0
 40
0.972576086210855
100
AcDbArc
 50
297.1084447671494
 51
8.076404357213705
  0
ARC
  5
14B
330
18
100
AcDbEntity
  8
ADP1DETAIL
100
AcDbCircle
 10
59.37047063067163
 20
22.33391705189795
 30
0.0
 40
0.7151204234806736
100
AcDbArc
 50
185.595092163526
 51
281.4664390563701
  0
LINE
  5
14C
330
18
100
AcDbEntity
  8
ADP1DETAIL
100
AcDbLine
 10
59.35446995300946
 20
22.36149775899948
 30
0.0
 11
59.5868822160375
 21
22.11569449092235
 31
0.0
  0
ARC
  5
14D
330
18
100
AcDbEntity
  8
ADP1DETAIL
100
AcDbCircle
 10
59.40125721603749
 20
22.15900699092235
 30
0.0
 40
0.1906111572842738
100
AcDbArc
 50
234.2461127455624
 51
346.8659776936034
  0
LINE
  5
14E
330
18
100
AcDbEntity
  8
ADP1DETAIL
100
AcDbLine
 10
59.32700721603748
 20
22.33844449092236
 30
0.0
 11
59.51263221603749
 21
22.56119449092235
 31
0.0
  0
LINE
  5
14F
330
18
100
AcDbEntity
  8
ADP1DETAIL
100
AcDbLine
 10
59.28988221603749
 20
22.00431949092235
 30
0.0
 11
59.29384753192931
 21
22.34029137302999
 31
0.0
  0
LINE
  5
150
330
18
100
AcDbEntity
  8
ADP1DETAIL
100
AcDbLine
 10
58.95575721603749
 20
22.67256949092235
 30
0.0
 11
59.17850721603748
 21
22.48694449092235
 31
0.0
  0
LINE
  5
151
330
18
100
AcDbEntity
  8
ADP1DETAIL
100
AcDbLine
 10
58.99288221603749
 20
22.07856949092235
 30
0.0
 11
59.22110066408533
 21
22.36755672641933
 31
0.0
  0
ARC
  5
152
330
18
100
AcDbEntity
  8
ADP1DETAIL
100
AcDbCircle
 10
59.05785096603749
 20
22.29667886592235
 30
0.0
 40
0.2275799594416259
100
AcDbArc
 50
159.7174409110827
 51
253.4126614430737
  0
ARC
  5
153
330
18
100
AcDbEntity
  8
ADP1DETAIL
100
AcDbCircle
 10
59.10796971603748
 20
22.44610699092235
 30
0.0
 40
0.272862436151436
100
AcDbArc
 50
123.906276988441
 51
194.9816325723911
  0
LINE
  5
154
330
18
100
AcDbEntity
  8
ADP1DETAIL
100
AcDbLine
 10
58.84438221603748
 20
22.37556949092236
 30
0.0
 11
59.18472723016335
 21
22.42814636930539
 31
0.0
  0
ARC
  5
155
330
18
100
AcDbEntity
  8
ADP1DETAIL
100
AcDbCircle
 10
59.15375721603749
 20
22.09094449092235
 30
0.0
 40
0.1613502595287628
100
AcDbArc
 50
184.3987053549954
 51
327.5288077091517
  0
LINE
  5
156
330
18
100
AcDbEntity
  8
ADP1DETAIL
100
AcDbLine
 10
59.17850721603748
 20
22.48694449092235
 30
0.0
 11
59.32700721603748
 21
22.70969449092235
 31
0.0
  0
ARC
  5
157
330
18
100
AcDbEntity
  8
ADP1DETAIL
100
AcDbCircle
 10
59.28988221603749
 20
22.44981949092235
 30
0.0
 40
0.1173995581337496
100
AcDbArc
 50
161.5650511770772
 51
288.4349488229229
  0
ARC
  5
158
330
18
100
AcDbEntity
  8
ADP1DETAIL
100
AcDbCircle
 10
59.83961779296057
 20
22.42268968323006
 30
0.0
 40
0.287093592753936
100
AcDbArc
 50
47.82215529981119
 51
119.4974612083706
  0
ARC
  5
159
330
18
100
AcDbEntity
  8
ADP1DETAIL
100
AcDbCircle
 10
59.44535411712826
 20
22.54600718128979
 30
0.0
 40
0.2536384461825283
100
AcDbArc
 50
328.291270473936
 51
26.29999184690268
  0
LINE
  5
15A
330
18
100
AcDbEntity
  8
ADP1DETAIL
100
AcDbLine
 10
59.39690563372098
 20
22.4190579181756
 30
0.0
 11
59.66113221603748
 21
22.41269449092235
 31
0.0
  0
LWPOLYLINE
  5
15B
330
18
100
AcDbEntity
  8
ADP1DETAIL
100
AcDbPolyline
 90
        2
 70
     0
 43
0.0
 10
59.51263221603749
 20
22.56119449092235
 42
-0.1103681669271948
 10
59.69825721603749
 20
22.67256949092235
 42
-0.0793289216157304
  0
ARC
  5
15F
330
18
100
AcDbEntity
  8
ADP1DETAIL
100
AcDbCircle
 10
59.57675721603749
 20
22.27600699092235
 30
0.0
 40
0.1606319186253143
100
AcDbArc
 50
273.6138807520025
 51
58.31363231214488
  0
ARC
  5
160
330
18
100
AcDbEntity
  8
ADP1DETAIL
100
AcDbCircle
 10
58.39831317518842
 20
21.25617064117726
 30
0.0
 40
2.108544826546538
100
AcDbArc
 50
69.36530160304639
 51
128.9783299646069
  0
ARC
  5
161
330
18
100
AcDbEntity
  8
ADP1DETAIL
100
AcDbCircle
 10
58.417363189026
 20
21.93399836925664
 30
0.0
 40
1.795295408732146
100
AcDbArc
 50
35.22753253929217
 51
108.3687955605076
  0
ARC
  5
162
330
18
100
AcDbEntity
  8
ADP1DETAIL
100
AcDbCircle
 10
59.40125721603749
 20
22.39413199092234
 30
0.0
 40
0.4655451315729341
100
AcDbArc
 50
85.42607874009929
 51
113.4985656759516
  0
ARC
  5
163
330
18
100
AcDbEntity
  8
ADP1DETAIL
100
AcDbCircle
 10
58.7330072160375
 20
22.33844449092236
 30
0.0
 40
0.9801281245964597
100
AcDbArc
 50
37.30394827798327
 51
65.37643521383664
  0
LWPOLYLINE
  5
164
330
18
100
AcDbEntity
  8
ADP1DETAIL
100
AcDbPolyline
 90
        2
 70
     0
 43
0.0
 10
59.88388221603749
 20
22.96956949092235
 42
0.5668507530377274
 10
60.06950721603749
 20
23.04381949092236
 42
2.766843910887686
  0
LWPOLYLINE
  5
168
330
18
100
AcDbEntity
  8
ADP1DETAIL
100
AcDbPolyline
 90
        2
 70
     0
 43
0.0
 10
59.66113221603748
 20
23.00669449092235
 42
-0.2477509698215996
 10
59.88388221603749
 20
22.96956949092235
 42
0.4574216934385947
  0
ARC
  5
16C
330
18
100
AcDbEntity
  8
ADP1DETAIL
100
AcDbCircle
 10
59.21563221603769
 20
23.11806949092231
 30
0.0
 40
1.234092182790454
100
AcDbArc
 50
338.83874018317
 51
353.0887728809762
  0
LWPOLYLINE
  5
16D
330
18
100
AcDbEntity
  8
ADP1DETAIL
100
AcDbPolyline
 90
        4
 70
     0
 43
0.0
 10
60.5470447721946
 20
23.64292988583301
 42
-0.1509363621326393
 10
61.55406616908329
 20
23.86772129986756
 42
-0.6975771786601968
 10
61.48980849907605
 20
23.75532566951873
 42
-0.0217205522861437
 10
61.28097074406143
 20
23.6910994416968
 42
6.326401204704978
  0
ARC
  5
173
330
18
100
AcDbEntity
  8
ADP1DETAIL
100
AcDbCircle
 10
60.98994023938451
 20
23.85897194172712
 30
0.0
 40
0.3483169172881153
100
AcDbArc
 50
252.6823700324806
 51
328.107083620634
  0
ARC
  5
174
330
18
100
AcDbEntity
  8
ADP1DETAIL
100
AcDbCircle
 10
61.34413221603747
 20
22.70350699092238
 30
0.0
 40
0.9417407522939587
100
AcDbArc
 50
119.0911680886968
 51
163.589215403123
  0
TEXT
  5
182
330
18
100
AcDbEntity
  8
ADPDIM
100
AcDbText
 10
42.14882108609354
 20
14.72636877908293
 30
0.0
 40
0.25
  1
J U L I U S  B L U M  &  C O . ,  I N C .      ( 8 0 0 )  5 2 6 - 6 2 9 3        W W W . J U L I U S B L U M . C O M        P A R T  N o .  5 1 6
 41
1.25
  7
ARIAL_WIDE
 72
     1
 11
55.01823616112765
 21
14.97636877908293
 31
0.0
100
AcDbText
 73
     3
  0
ENDSEC
  0
SECTION
  2
OBJECTS
  0
DICTIONARY
  5
C
330
0
100
AcDbDictionary
  3
ACAD_GROUP
350
D
  3
ACAD_LAYOUT
350
17B
  3
ACAD_MLINESTYLE
350
E
  3
ACAD_PLOTSETTINGS
350
17C
  3
ACAD_PLOTSTYLENAME
350
179
  3
ACDBHEADERROUNDTRIPXREC
350
2CA
  3
ACDBVARIABLEDICTIONARY
350
1DC
  0
DICTIONARY
  5
1D6
330
18
100
AcDbDictionary
280
     1
  3
ACAD_LAYOUTSELFREF
360
2EB
  0
DICTIONARY
  5
1D4
330
15
100
AcDbDictionary
280
     1
  3
ACAD_LAYOUTSELFREF
360
2EA
  0
DICTIONARY
  5
D
102
{ACAD_REACTORS
330
C
102
}
330
C
100
AcDbDictionary
  0
DICTIONARY
  5
17B
102
{ACAD_REACTORS
330
C
102
}
330
C
100
AcDbDictionary
  0
DICTIONARY
  5
E
102
{ACAD_REACTORS
330
C
102
}
330
C
100
AcDbDictionary
  3
STANDARD
350
1B
  0
DICTIONARY
  5
17C
102
{ACAD_REACTORS
330
C
102
}
330
C
100
AcDbDictionary
  0
ACDBDICTIONARYWDFLT
  5
179
102
{ACAD_REACTORS
330
C
102
}
330
C
100
AcDbDictionary
281
     1
  3
Normal
350
17A
100
AcDbDictionaryWithDefault
340
17A
  0
DICTIONARY
  5
2CA
102
{ACAD_REACTORS
330
C
102
}
330
C
100
AcDbDictionary
  3
CEPSNTYPE
350
2D4
  3
FINGERPRINTGUID
350
2D5
  3
HYPERLINKBASE
350
2CD
  3
INSUNITS
350
2D3
  3
LAYOUTDICT
350
2CF
  3
LWETCUNION
350
2D2
  3
PLOTSETDICT
350
2D0
  3
PLOTSTYLNAMDICT
350
2D1
  3
PSVPSCALE
350
2D7
  3
PUCSBASE
350
2DA
  3
PUCSORGBACK
350
2E0
  3
PUCSORGBOTTOM
350
2DC
  3
PUCSORGFRONT
350
2DF
  3
PUCSORGLEFT
350
2DD
  3
PUCSORGRIGHT
350
2DE
  3
PUCSORGTOP
350
2DB
  3
PUCSORTHOREF
350
2D8
  3
PUCSORTHOVIEW
350
2D9
  3
STYLESHEET
350
2CE
  3
TSTACKALIGN
350
2CB
  3
TSTACKSIZE
350
2CC
  3
UCSBASE
350
2E3
  3
UCSORGBACK
350
2E9
  3
UCSORGBOTTOM
350
2E5
  3
UCSORGFRONT
350
2E8
  3
UCSORGLEFT
350
2E6
  3
UCSORGRIGHT
350
2E7
  3
UCSORGTOP
350
2E4
  3
UCSORTHOREF
350
2E1
  3
UCSORTHOVIEW
350
2E2
  3
VERSIONGUID
350
2D6
  0
DICTIONARY
  5
1DC
102
{ACAD_REACTORS
330
C
102
}
330
C
100
AcDbDictionary
  3
DIMASSOC
350
1DD
  0
XRECORD
  5
2EB
102
{ACAD_REACTORS
330
1D6
102
}
330
1D6
100
AcDbXrecord
340
18
  0
XRECORD
  5
2EA
102
{ACAD_REACTORS
330
1D4
102
}
330
1D4
100
AcDbXrecord
340
15
  0
MLINESTYLE
  5
1B
102
{ACAD_REACTORS
330
E
102
}
330
E
100
AcDbMlineStyle
  2
STANDARD
 70
     0
  3

 62
     0
 51
90.0
 52
90.0
 71
     2
 49
0.5
 62
   256
  6
BYLAYER
 49
-0.5
 62
   256
  6
BYLAYER
  0
ACDBPLACEHOLDER
  5
17A
102
{ACAD_REACTORS
330
179
102
}
330
179
100
AcDbPlaceHolder
280
     0
  0
XRECORD
  5
2D4
102
{ACAD_REACTORS
330
2CA
102
}
330
2CA
100
AcDbXrecord
 90
        0
  0
XRECORD
  5
2D5
102
{ACAD_REACTORS
330
2CA
102
}
330
2CA
100
AcDbXrecord
  1
{DD8F6412-8D25-4AB6-9D41-00DC9FD4F5F7}
  0
XRECORD
  5
2CD
102
{ACAD_REACTORS
330
2CA
102
}
330
2CA
100
AcDbXrecord
  1

  0
XRECORD
  5
2D3
102
{ACAD_REACTORS
330
2CA
102
}
330
2CA
100
AcDbXrecord
 90
        0
  0
XRECORD
  5
2CF
102
{ACAD_REACTORS
330
2CA
102
}
330
2CA
100
AcDbXrecord
340
17B
  0
XRECORD
  5
2D2
102
{ACAD_REACTORS
330
2CA
102
}
330
2CA
100
AcDbXrecord
 90
    14877
  0
XRECORD
  5
2D0
102
{ACAD_REACTORS
330
2CA
102
}
330
2CA
100
AcDbXrecord
340
17C
  0
XRECORD
  5
2D1
102
{ACAD_REACTORS
330
2CA
102
}
330
2CA
100
AcDbXrecord
340
179
  0
XRECORD
  5
2D7
102
{ACAD_REACTORS
330
2CA
102
}
330
2CA
100
AcDbXrecord
 40
0.0
  0
XRECORD
  5
2DA
102
{ACAD_REACTORS
330
2CA
102
}
330
2CA
100
AcDbXrecord
340
0
  0
XRECORD
  5
2E0
102
{ACAD_REACTORS
330
2CA
102
}
330
2CA
100
AcDbXrecord
 10
0.0
 20
0.0
 30
0.0
  0
XRECORD
  5
2DC
102
{ACAD_REACTORS
330
2CA
102
}
330
2CA
100
AcDbXrecord
 10
0.0
 20
0.0
 30
0.0
  0
XRECORD
  5
2DF
102
{ACAD_REACTORS
330
2CA
102
}
330
2CA
100
AcDbXrecord
 10
0.0
 20
0.0
 30
0.0
  0
XRECORD
  5
2DD
102
{ACAD_REACTORS
330
2CA
102
}
330
2CA
100
AcDbXrecord
 10
0.0
 20
0.0
 30
0.0
  0
XRECORD
  5
2DE
102
{ACAD_REACTORS
330
2CA
102
}
330
2CA
100
AcDbXrecord
 10
0.0
 20
0.0
 30
0.0
  0
XRECORD
  5
2DB
102
{ACAD_REACTORS
330
2CA
102
}
330
2CA
100
AcDbXrecord
 10
0.0
 20
0.0
 30
0.0
  0
XRECORD
  5
2D8
102
{ACAD_REACTORS
330
2CA
102
}
330
2CA
100
AcDbXrecord
340
0
  0
XRECORD
  5
2D9
102
{ACAD_REACTORS
330
2CA
102
}
330
2CA
100
AcDbXrecord
 70
     0
  0
XRECORD
  5
2CE
102
{ACAD_REACTORS
330
2CA
102
}
330
2CA
100
AcDbXrecord
  1

  0
XRECORD
  5
2CB
102
{ACAD_REACTORS
330
2CA
102
}
330
2CA
100
AcDbXrecord
 90
        1
  0
XRECORD
  5
2CC
102
{ACAD_REACTORS
330
2CA
102
}
330
2CA
100
AcDbXrecord
 90
       70
  0
XRECORD
  5
2E3
102
{ACAD_REACTORS
330
2CA
102
}
330
2CA
100
AcDbXrecord
340
0
  0
XRECORD
  5
2E9
102
{ACAD_REACTORS
330
2CA
102
}
330
2CA
100
AcDbXrecord
 10
0.0
 20
0.0
 30
0.0
  0
XRECORD
  5
2E5
102
{ACAD_REACTORS
330
2CA
102
}
330
2CA
100
AcDbXrecord
 10
0.0
 20
0.0
 30
0.0
  0
XRECORD
  5
2E8
102
{ACAD_REACTORS
330
2CA
102
}
330
2CA
100
AcDbXrecord
 10
0.0
 20
0.0
 30
0.0
  0
XRECORD
  5
2E6
102
{ACAD_REACTORS
330
2CA
102
}
330
2CA
100
AcDbXrecord
 10
0.0
 20
0.0
 30
0.0
  0
XRECORD
  5
2E7
102
{ACAD_REACTORS
330
2CA
102
}
330
2CA
100
AcDbXrecord
 10
0.0
 20
0.0
 30
0.0
  0
XRECORD
  5
2E4
102
{ACAD_REACTORS
330
2CA
102
}
330
2CA
100
AcDbXrecord
 10
0.0
 20
0.0
 30
0.0
  0
XRECORD
  5
2E1
102
{ACAD_REACTORS
330
2CA
102
}
330
2CA
100
AcDbXrecord
340
0
  0
XRECORD
  5
2E2
102
{ACAD_REACTORS
330
2CA
102
}
330
2CA
100
AcDbXrecord
 70
     0
  0
XRECORD
  5
2D6
102
{ACAD_REACTORS
330
2CA
102
}
330
2CA
100
AcDbXrecord
  1
{9FDE0AA7-BDEA-4C3B-80CF-966727B9137A}
  0
DICTIONARYVAR
  5
1DD
102
{ACAD_REACTORS
330
1DC
102
}
330
1DC
100
DictionaryVariables
280
     0
  1
1
  0
ENDSEC
  0
EOF
