  0
SECTION
  2
HEADER
  9
$ACADVER
  1
AC1014
  9
$ACADMAINTVER
 70
     9
  9
$DWGCODEPAGE
  3
ANSI_1252
  9
$INSBASE
 10
101.9877909299032
 20
1.530106441831662
 30
0.0
  9
$EXTMIN
 10
88.08651292057767
 20
-0.1870136485979038
 30
0.0
  9
$EXTMAX
 10
139.5641732207141
 20
25.77981523221502
 30
0.0
  9
$LIMMIN
 10
0.0
 20
0.0
  9
$LIMMAX
 10
36.0
 20
36.0
  9
$ORTHOMODE
 70
     1
  9
$REGENMODE
 70
     1
  9
$FILLMODE
 70
     1
  9
$QTEXTMODE
 70
     0
  9
$MIRRTEXT
 70
     1
  9
$DRAGMODE
 70
     0
  9
$LTSCALE
 40
1.0
  9
$OSMODE
 70
    37
  9
$ATTMODE
 70
     1
  9
$TEXTSIZE
 40
0.2
  9
$TRACEWID
 40
0.05
  9
$TEXTSTYLE
  7
STANDARD
  9
$CLAYER
  8
ADPDIM
  9
$CELTYPE
  6
BYLAYER
  9
$CECOLOR
 62
   256
  9
$CELTSCALE
 40
1.0
  9
$DELOBJ
 70
     1
  9
$DISPSILH
 70
     0
  9
$DIMSCALE
 40
1.0
  9
$DIMASZ
 40
0.125
  9
$DIMEXO
 40
0.0625
  9
$DIMDLI
 40
0.38
  9
$DIMRND
 40
0.0
  9
$DIMDLE
 40
0.0
  9
$DIMEXE
 40
0.18
  9
$DIMTP
 40
0.0
  9
$DIMTM
 40
0.0
  9
$DIMTXT
 40
0.125
  9
$DIMCEN
 40
0.1875
  9
$DIMTSZ
 40
0.125
  9
$DIMTOL
 70
     0
  9
$DIMLIM
 70
     0
  9
$DIMTIH
 70
     0
  9
$DIMTOH
 70
     0
  9
$DIMSE1
 70
     0
  9
$DIMSE2
 70
     0
  9
$DIMTAD
 70
     0
  9
$DIMZIN
 70
     3
  9
$DIMBLK
  1

  9
$DIMASO
 70
     1
  9
$DIMSHO
 70
     1
  9
$DIMPOST
  1

  9
$DIMAPOST
  1

  9
$DIMALT
 70
     0
  9
$DIMALTD
 70
     1
  9
$DIMALTF
 40
25.4
  9
$DIMLFAC
 40
1.0
  9
$DIMTOFL
 70
     0
  9
$DIMTVP
 40
0.0
  9
$DIMTIX
 70
     0
  9
$DIMSOXD
 70
     0
  9
$DIMSAH
 70
     0
  9
$DIMBLK1
  1

  9
$DIMBLK2
  1

  9
$DIMSTYLE
  2
STANDARD
  9
$DIMCLRD
 70
     0
  9
$DIMCLRE
 70
     0
  9
$DIMCLRT
 70
     0
  9
$DIMTFAC
 40
1.0
  9
$DIMGAP
 40
0.125
  9
$DIMJUST
 70
     0
  9
$DIMSD1
 70
     0
  9
$DIMSD2
 70
     0
  9
$DIMTOLJ
 70
     1
  9
$DIMTZIN
 70
     0
  9
$DIMALTZ
 70
     0
  9
$DIMALTTZ
 70
     0
  9
$DIMFIT
 70
     3
  9
$DIMUPT
 70
     0
  9
$DIMUNIT
 70
     2
  9
$DIMDEC
 70
     4
  9
$DIMTDEC
 70
     4
  9
$DIMALTU
 70
     2
  9
$DIMALTTD
 70
     2
  9
$DIMTXSTY
  7
STANDARD
  9
$DIMAUNIT
 70
     0
  9
$LUNITS
 70
     5
  9
$LUPREC
 70
     4
  9
$SKETCHINC
 40
0.1
  9
$FILLETRAD
 40
0.01
  9
$AUNITS
 70
     0
  9
$AUPREC
 70
     0
  9
$MENU
  1
acad
  9
$ELEVATION
 40
0.0
  9
$PELEVATION
 40
0.0
  9
$THICKNESS
 40
0.0
  9
$LIMCHECK
 70
     0
  9
$BLIPMODE
 70
     0
  9
$CHAMFERA
 40
0.0
  9
$CHAMFERB
 40
0.0
  9
$CHAMFERC
 40
0.0
  9
$CHAMFERD
 40
0.0
  9
$SKPOLY
 70
     0
  9
$TDCREATE
 40
2450386.585074837
  9
$TDUPDATE
 40
2452297.071800486
  9
$TDINDWG
 40
0.0323535995
  9
$TDUSRTIMER
 40
0.0323535995
  9
$USRTIMER
 70
     1
  9
$ANGBASE
 50
0.0
  9
$ANGDIR
 70
     0
  9
$PDMODE
 70
     0
  9
$PDSIZE
 40
0.0
  9
$PLINEWID
 40
0.0
  9
$COORDS
 70
     2
  9
$SPLFRAME
 70
     0
  9
$SPLINETYPE
 70
     6
  9
$SPLINESEGS
 70
     8
  9
$ATTDIA
 70
     0
  9
$ATTREQ
 70
     1
  9
$HANDLING
 70
 22529
  9
$HANDSEED
  5
521
  9
$SURFTAB1
 70
     6
  9
$SURFTAB2
 70
     6
  9
$SURFTYPE
 70
     6
  9
$SURFU
 70
     6
  9
$SURFV
 70
     6
  9
$UCSNAME
  2

  9
$UCSORG
 10
0.0
 20
0.0
 30
0.0
  9
$UCSXDIR
 10
1.0
 20
0.0
 30
0.0
  9
$UCSYDIR
 10
0.0
 20
1.0
 30
0.0
  9
$PUCSNAME
  2

  9
$PUCSORG
 10
0.0
 20
0.0
 30
0.0
  9
$PUCSXDIR
 10
1.0
 20
0.0
 30
0.0
  9
$PUCSYDIR
 10
0.0
 20
1.0
 30
0.0
  9
$USERI1
 70
     0
  9
$USERI2
 70
     0
  9
$USERI3
 70
     0
  9
$USERI4
 70
     0
  9
$USERI5
 70
     0
  9
$USERR1
 40
0.0
  9
$USERR2
 40
0.0
  9
$USERR3
 40
0.0
  9
$USERR4
 40
0.0
  9
$USERR5
 40
0.0
  9
$WORLDVIEW
 70
     1
  9
$SHADEDGE
 70
     3
  9
$SHADEDIF
 70
    70
  9
$TILEMODE
 70
     1
  9
$MAXACTVP
 70
    15
  9
$PINSBASE
 10
4.403525741743744E+99
 20
7.061986388769092E+99
 30
0.0
  9
$PLIMCHECK
 70
     0
  9
$PEXTMIN
 10
1.000000000000000E+20
 20
1.000000000000000E+20
 30
1.000000000000000E+20
  9
$PEXTMAX
 10
-1.000000000000000E+20
 20
-1.000000000000000E+20
 30
-1.000000000000000E+20
  9
$PLIMMIN
 10
0.0
 20
0.0
  9
$PLIMMAX
 10
12.0
 20
9.0
  9
$UNITMODE
 70
     0
  9
$VISRETAIN
 70
     0
  9
$PLINEGEN
 70
     0
  9
$PSLTSCALE
 70
     1
  9
$TREEDEPTH
 70
  3020
  9
$PICKSTYLE
 70
     1
  9
$CMLSTYLE
  2
STANDARD
  9
$CMLJUST
 70
     0
  9
$CMLSCALE
 40
1.0
  9
$PROXYGRAPHICS
 70
     1
  9
$MEASUREMENT
 70
     0
  0
ENDSEC
  0
SECTION
  2
CLASSES
  0
CLASS
  1
ACDBDICTIONARYWDFLT
  2
AcDbDictionaryWithDefault
  3
AutoCAD 2000
 90
        0
280
     0
281
     0
  0
CLASS
  1
ACDBPLACEHOLDER
  2
AcDbPlaceHolder
  3
AutoCAD 2000
 90
        0
280
     0
281
     0
  0
CLASS
  1
LAYOUT
  2
AcDbLayout
  3
AutoCAD 2000
 90
        0
280
     0
281
     0
  0
CLASS
  1
DICTIONARYVAR
  2
AcDbDictionaryVar
  3
AutoCAD 2000
 90
        0
280
     0
281
     0
  0
CLASS
  1
LONG_TRANSACTION
  2
AcDbLongTransaction
  3
AutoCAD 2000
 90
        0
280
     0
281
     0
  0
CLASS
  1
LWPOLYLINE
  2
AcDbPolyline
  3
AutoCAD 2000
 90
        0
280
     0
281
     1
  0
CLASS
  1
HATCH
  2
AcDbHatch
  3
AutoCAD 2000
 90
        0
280
     0
281
     1
  0
CLASS
  1
XRECORD
  2
AcDbXrecord
  3
AutoCAD 2000
 90
        0
280
     0
281
     0
  0
CLASS
  1
LONG_TRANSACTION
  2
AcDbLongTransaction
  3
AutoCAD 2000
 90
        0
280
     0
281
     0
  0
CLASS
  1
LWPOLYLINE
  2
AcDbPolyline
  3
AutoCAD 2000
 90
        0
280
     0
281
     1
  0
CLASS
  1
HATCH
  2
AcDbHatch
  3
AutoCAD 2000
 90
        0
280
     0
281
     1
  0
CLASS
  1
XRECORD
  2
AcDbXrecord
  3
AutoCAD 2000
 90
        0
280
     0
281
     0
  0
CLASS
  1
LONG_TRANSACTION
  2
AcDbLongTransaction
  3
AutoCAD 2000
 90
        0
280
     0
281
     0
  0
CLASS
  1
LWPOLYLINE
  2
AcDbPolyline
  3
AutoCAD 2000
 90
        0
280
     0
281
     1
  0
CLASS
  1
HATCH
  2
AcDbHatch
  3
AutoCAD 2000
 90
        0
280
     0
281
     1
  0
CLASS
  1
XRECORD
  2
AcDbXrecord
  3
AutoCAD 2000
 90
        0
280
     0
281
     0
  0
CLASS
  1
LONG_TRANSACTION
  2
AcDbLongTransaction
  3
AutoCAD 2000
 90
        0
280
     0
281
     0
  0
CLASS
  1
LWPOLYLINE
  2
AcDbPolyline
  3
AutoCAD 2000
 90
        0
280
     0
281
     1
  0
CLASS
  1
HATCH
  2
AcDbHatch
  3
AutoCAD 2000
 90
        0
280
     0
281
     1
  0
CLASS
  1
XRECORD
  2
AcDbXrecord
  3
AutoCAD 2000
 90
        0
280
     0
281
     0
  0
CLASS
  1
LONG_TRANSACTION
  2
AcDbLongTransaction
  3
AutoCAD 2000
 90
        0
280
     0
281
     0
  0
CLASS
  1
LWPOLYLINE
  2
AcDbPolyline
  3
AutoCAD 2000
 90
        0
280
     0
281
     1
  0
CLASS
  1
HATCH
  2
AcDbHatch
  3
AutoCAD 2000
 90
        0
280
     0
281
     1
  0
CLASS
  1
XRECORD
  2
AcDbXrecord
  3
AutoCAD 2000
 90
        0
280
     0
281
     0
  0
CLASS
  1
LONG_TRANSACTION
  2
AcDbLongTransaction
  3
AutoCAD 2000
 90
        0
280
     0
281
     0
  0
CLASS
  1
LWPOLYLINE
  2
AcDbPolyline
  3
AutoCAD 2000
 90
        0
280
     0
281
     1
  0
CLASS
  1
HATCH
  2
AcDbHatch
  3
AutoCAD 2000
 90
        0
280
     0
281
     1
  0
CLASS
  1
XRECORD
  2
AcDbXrecord
  3
AutoCAD 2000
 90
        0
280
     0
281
     0
  0
ENDSEC
  0
SECTION
  2
TABLES
  0
TABLE
  2
VPORT
  5
8
330
0
100
AcDbSymbolTable
 70
     2
  0
VPORT
  5
4FE
330
8
100
AcDbSymbolTableRecord
100
AcDbViewportTableRecord
  2
*ACTIVE
 70
     0
 10
0.0
 20
0.0
 11
1.0
 21
1.0
 12
113.8671447506409
 22
12.79724204370547
 13
0.0
 23
0.0
 14
0.5740882589684922
 24
0.5740882589684922
 15
0.5
 25
0.5
 16
0.0
 26
0.0
 36
1.0
 17
0.0
 27
0.0
 37
0.0
 40
32.99903294675623
 41
1.570528967254408
 42
50.0
 43
0.0
 44
0.0
 50
0.0
 51
0.0
 71
     0
 72
   100
 73
     1
 74
     1
 75
     0
 76
     0
 77
     0
 78
     0
  0
ENDTAB
  0
TABLE
  2
LTYPE
  5
5
330
0
100
AcDbSymbolTable
 70
     1
  0
LTYPE
  5
12
330
5
100
AcDbSymbolTableRecord
100
AcDbLinetypeTableRecord
  2
BYBLOCK
 70
     0
  3

 72
    65
 73
     0
 40
0.0
  0
LTYPE
  5
13
330
5
100
AcDbSymbolTableRecord
100
AcDbLinetypeTableRecord
  2
BYLAYER
 70
     0
  3

 72
    65
 73
     0
 40
0.0
  0
LTYPE
  5
14
330
5
100
AcDbSymbolTableRecord
100
AcDbLinetypeTableRecord
  2
CONTINUOUS
 70
     0
  3
Solid line
 72
    65
 73
     0
 40
0.0
  0
ENDTAB
  0
TABLE
  2
LAYER
  5
2
330
0
100
AcDbSymbolTable
 70
     4
  0
LAYER
  5
F
330
2
100
AcDbSymbolTableRecord
100
AcDbLayerTableRecord
  2
0
 70
     0
 62
     7
  6
CONTINUOUS
  0
LAYER
  5
98
330
2
100
AcDbSymbolTableRecord
100
AcDbLayerTableRecord
  2
ADP1DETAIL
 70
     0
 62
     7
  6
CONTINUOUS
  0
LAYER
  5
9A
330
2
100
AcDbSymbolTableRecord
100
AcDbLayerTableRecord
  2
DEFPOINTS
 70
     0
 62
     7
  6
CONTINUOUS
  0
LAYER
  5
9B
330
2
100
AcDbSymbolTableRecord
100
AcDbLayerTableRecord
  2
ADPDIM
 70
     0
 62
     3
  6
CONTINUOUS
  0
ENDTAB
  0
TABLE
  2
STYLE
  5
3
330
0
100
AcDbSymbolTable
 70
     2
  0
STYLE
  5
10
330
3
100
AcDbSymbolTableRecord
100
AcDbTextStyleTableRecord
  2
STANDARD
 70
     0
 40
0.0
 41
1.0
 50
0.0
 71
     0
 42
0.2
  3
txt
  4

  0
STYLE
  5
3B6
330
3
100
AcDbSymbolTableRecord
100
AcDbTextStyleTableRecord
  2
ARIAL_WIDE
 70
     0
 40
0.0
 41
1.25
 50
0.0
 71
     0
 42
0.2
  3
ARIAL.TTF
  4

1001
ACAD
1000
Arial
1071
       34
  0
ENDTAB
  0
TABLE
  2
VIEW
  5
6
330
0
100
AcDbSymbolTable
 70
     0
  0
ENDTAB
  0
TABLE
  2
UCS
  5
7
330
0
100
AcDbSymbolTable
 70
     0
  0
ENDTAB
  0
TABLE
  2
APPID
  5
9
330
0
100
AcDbSymbolTable
 70
     1
  0
APPID
  5
11
330
9
100
AcDbSymbolTableRecord
100
AcDbRegAppTableRecord
  2
ACAD
 70
     0
  0
ENDTAB
  0
TABLE
  2
DIMSTYLE
  5
A
330
0
100
AcDbSymbolTable
 70
     1
  0
DIMSTYLE
105
3AA
330
A
100
AcDbSymbolTableRecord
100
AcDbDimStyleTableRecord
  2
STANDARD
 70
     0
  3

  4

  5

  6

  7

 40
1.0
 41
0.18
 42
0.0625
 43
0.38
 44
0.18
 45
0.0
 46
0.0
 47
0.0
 48
0.0
140
0.18
141
0.09
142
0.0
143
25.4
144
1.0
145
0.0
146
1.0
147
0.09
 71
     0
 72
     0
 73
     1
 74
     1
 75
     0
 76
     0
 77
     0
 78
     0
170
     0
171
     2
172
     0
173
     0
174
     0
175
     0
176
     0
177
     0
178
     0
270
     2
271
     4
272
     4
273
     2
274
     2
340
10
275
     0
280
     0
281
     0
282
     0
283
     1
284
     0
285
     0
286
     0
287
     3
288
     0
  0
ENDTAB
  0
TABLE
  2
BLOCK_RECORD
  5
1
330
0
100
AcDbSymbolTable
 70
     2
  0
BLOCK_RECORD
  5
18
102
{ACAD_XDICTIONARY
360
40B
102
}
330
1
100
AcDbSymbolTableRecord
100
AcDbBlockTableRecord
  2
*MODEL_SPACE
  0
BLOCK_RECORD
  5
15
102
{ACAD_XDICTIONARY
360
409
102
}
330
1
100
AcDbSymbolTableRecord
100
AcDbBlockTableRecord
  2
*PAPER_SPACE
  0
BLOCK_RECORD
  5
91
330
1
100
AcDbSymbolTableRecord
100
AcDbBlockTableRecord
  2
*D0
  0
BLOCK_RECORD
  5
94
330
1
100
AcDbSymbolTableRecord
100
AcDbBlockTableRecord
  2
*D1
  0
ENDTAB
  0
ENDSEC
  0
SECTION
  2
BLOCKS
  0
BLOCK
  5
9E
330
18
100
AcDbEntity
  8
0
100
AcDbBlockBegin
  2
*MODEL_SPACE
 70
     0
 10
0.0
 20
0.0
 30
0.0
  3
*MODEL_SPACE
  1

  0
ENDBLK
  5
9F
330
18
100
AcDbEntity
  8
0
100
AcDbBlockEnd
  0
BLOCK
  5
9C
330
15
100
AcDbEntity
 67
     1
  8
0
100
AcDbBlockBegin
  2
*PAPER_SPACE
 70
     0
 10
0.0
 20
0.0
 30
0.0
  3
*PAPER_SPACE
  1

  0
ENDBLK
  5
9D
330
15
100
AcDbEntity
 67
     1
  8
0
100
AcDbBlockEnd
  0
BLOCK
  5
A1
330
91
100
AcDbEntity
  8
0
100
AcDbBlockBegin
  2
*D0
 70
     1
 10
0.0
 20
0.0
 30
0.0
  3
*D0
  1

  0
LINE
  5
A2
330
91
100
AcDbEntity
  8
0
  6
BYBLOCK
 62
     0
100
AcDbLine
 10
101.442217961662
 20
15.53639338484478
 30
0.0
 11
101.442217961662
 21
25.77981523221502
 31
0.0
  0
LINE
  5
A3
330
91
100
AcDbEntity
  8
0
  6
BYBLOCK
 62
     0
100
AcDbLine
 10
126.442217961662
 20
23.53518607141256
 30
0.0
 11
126.442217961662
 21
25.77981523221502
 31
0.0
  0
LINE
  5
A4
330
91
100
AcDbEntity
  8
0
  6
BYBLOCK
 62
     0
100
AcDbLine
 10
101.442217961662
 20
25.59981523221502
 30
0.0
 11
113.7130512949953
 21
25.59981523221502
 31
0.0
  0
LINE
  5
A5
330
91
100
AcDbEntity
  8
0
  6
BYBLOCK
 62
     0
100
AcDbLine
 10
126.442217961662
 20
25.59981523221502
 30
0.0
 11
114.1713846283287
 21
25.59981523221502
 31
0.0
  0
LINE
  5
A6
330
91
100
AcDbEntity
  8
0
  6
BYBLOCK
 62
     0
100
AcDbLine
 10
101.317217961662
 20
25.47481523221502
 30
0.0
 11
101.567217961662
 21
25.72481523221502
 31
0.0
  0
LINE
  5
A7
330
91
100
AcDbEntity
  8
0
  6
BYBLOCK
 62
     0
100
AcDbLine
 10
126.317217961662
 20
25.47481523221502
 30
0.0
 11
126.567217961662
 21
25.72481523221502
 31
0.0
  0
TEXT
  5
A8
330
91
100
AcDbEntity
  8
0
  6
BYBLOCK
 62
     0
100
AcDbText
 10
113.8380512949953
 20
25.53731523221502
 30
0.0
 40
0.125
  1
25
 72
     1
 11
113.942217961662
 21
25.59981523221502
 31
0.0
100
AcDbText
 73
     2
  0
POINT
  5
A9
330
91
100
AcDbEntity
  8
DEFPOINTS
  6
BYBLOCK
 62
     0
100
AcDbPoint
 10
101.442217961662
 20
15.47389338484478
 30
0.0
  0
POINT
  5
AA
330
91
100
AcDbEntity
  8
DEFPOINTS
  6
BYBLOCK
 62
     0
100
AcDbPoint
 10
126.442217961662
 20
23.47268607141256
 30
0.0
  0
POINT
  5
AB
330
91
100
AcDbEntity
  8
DEFPOINTS
  6
BYBLOCK
 62
     0
100
AcDbPoint
 10
126.442217961662
 20
25.59981523221502
 30
0.0
  0
ENDBLK
  5
AC
330
91
100
AcDbEntity
  8
0
100
AcDbBlockEnd
  0
BLOCK
  5
AD
330
94
100
AcDbEntity
  8
0
100
AcDbBlockBegin
  2
*D1
 70
     1
 10
0.0
 20
0.0
 30
0.0
  3
*D1
  1

  0
LINE
  5
AE
330
94
100
AcDbEntity
  8
0
  6
BYBLOCK
 62
     0
100
AcDbLine
 10
101.836111587883
 20
1.605727877981639
 30
0.0
 11
100.7171850923765
 21
1.605727877981639
 31
0.0
  0
LINE
  5
AF
330
94
100
AcDbEntity
  8
0
  6
BYBLOCK
 62
     0
100
AcDbLine
 10
108.014352732878
 20
25.10572787798164
 30
0.0
 11
100.7171850923765
 21
25.10572787798164
 31
0.0
  0
LINE
  5
B0
330
94
100
AcDbEntity
  8
0
  6
BYBLOCK
 62
     0
100
AcDbLine
 10
100.8971850923765
 20
1.605727877981639
 30
0.0
 11
100.8971850923765
 21
12.8973945446483
 31
0.0
  0
LINE
  5
B1
330
94
100
AcDbEntity
  8
0
  6
BYBLOCK
 62
     0
100
AcDbLine
 10
100.8971850923765
 20
25.10572787798164
 30
0.0
 11
100.8971850923765
 21
13.81406121131497
 31
0.0
  0
LINE
  5
B2
330
94
100
AcDbEntity
  8
0
  6
BYBLOCK
 62
     0
100
AcDbLine
 10
101.0221850923765
 20
1.480727877981639
 30
0.0
 11
100.7721850923765
 21
1.730727877981639
 31
0.0
  0
LINE
  5
B3
330
94
100
AcDbEntity
  8
0
  6
BYBLOCK
 62
     0
100
AcDbLine
 10
101.0221850923765
 20
24.98072787798164
 30
0.0
 11
100.7721850923765
 21
25.23072787798164
 31
0.0
  0
TEXT
  5
B4
330
94
100
AcDbEntity
  8
0
  6
BYBLOCK
 62
     0
100
AcDbText
 10
100.9596850923765
 20
13.0223945446483
 30
0.0
 40
0.125
  1
23 1/2
 50
90.0
 72
     1
 11
100.8971850923765
 21
13.35572787798164
 31
0.0
100
AcDbText
 73
     2
  0
POINT
  5
B5
330
94
100
AcDbEntity
  8
DEFPOINTS
  6
BYBLOCK
 62
     0
100
AcDbPoint
 10
101.898611587883
 20
1.605727877981639
 30
0.0
  0
POINT
  5
B6
330
94
100
AcDbEntity
  8
DEFPOINTS
  6
BYBLOCK
 62
     0
100
AcDbPoint
 10
108.076852732878
 20
25.10572787798164
 30
0.0
  0
POINT
  5
B7
330
94
100
AcDbEntity
  8
DEFPOINTS
  6
BYBLOCK
 62
     0
100
AcDbPoint
 10
100.8971850923765
 20
25.10572787798164
 30
0.0
  0
ENDBLK
  5
B8
330
94
100
AcDbEntity
  8
0
100
AcDbBlockEnd
  0
ENDSEC
  0
SECTION
  2
ENTITIES
  0
DIMENSION
  5
B9
330
18
100
AcDbEntity
  8
ADPDIM
100
AcDbDimension
  2
*D1
 10
100.8971850923765
 20
25.10572787798164
 30
0.0
 11
100.8971850923765
 21
13.35572787798164
 31
0.0
100
AcDbAlignedDimension
 13
101.898611587883
 23
1.605727877981639
 33
0.0
 14
108.076852732878
 24
25.10572787798164
 34
0.0
 50
90.0
100
AcDbRotatedDimension
  0
ARC
  5
BA
330
18
100
AcDbEntity
  8
ADP1DETAIL
100
AcDbCircle
 10
100.7640277452157
 20
7.388246165142459
 30
0.0
 40
3.701964006290191
100
AcDbArc
 50
6.474322586669503
 51
38.1126099388764
  0
LWPOLYLINE
  5
BB
330
18
100
AcDbEntity
  8
ADP1DETAIL
100
AcDbPolyline
 90
       25
 70
     0
 43
0.0
 10
102.377925904453
 20
11.17612525625743
 42
0.1839748424222335
 10
102.9110775968937
 20
10.34811739786683
 42
-0.2570538379232577
 10
103.0461927876911
 20
10.05562371378971
 42
-0.1838897989770075
 10
102.640847447887
 20
9.943126137186258
 42
0.3771881313755998
 10
102.3931363422878
 20
9.763129954253255
 42
0.4283719456436887
 10
102.4832130973881
 20
9.628132892512843
 42
0.1460040975515392
 10
102.3030595871876
 20
9.335639132976384
 42
0.2767764386708119
 10
102.5732898524883
 20
9.268140602106177
 42
0.0655219859733392
 10
102.3255787468891
 20
8.953147357432762
 42
0.5258827151913608
 10
102.4606939376865
 20
8.660653597896301
 42
0.2732444035169525
 10
102.9335968728893
 20
8.840649705369964
 42
0.9993004095059788
 10
103.0461927876911
 20
8.728152128766508
 42
0.078384505535313
 10
103.2263462978916
 20
8.975646842569716
 42
-0.0622306759619779
 10
103.4290189677937
 20
8.86314926596626
 42
0.0729724342856479
 10
103.4290189677937
 20
9.49313575531309
 42
-0.5419308759478723
 10
103.6992492330944
 20
9.268140602106177
 10
103.6992492330944
 20
8.638154112759346
 10
103.8118451478962
 20
8.728152128766508
 42
0.236224608504825
 10
103.9019219029965
 20
8.300661307489635
 42
0.9495150649207959
 10
104.0595562534954
 20
8.413158884093091
 42
-0.0078787480899977
 10
104.3072672428006
 20
7.738173349013009
 42
0.7877137470355549
 10
104.5324591886982
 20
7.760672909609305
 42
0.4144695172870135
 10
104.6675742632016
 20
8.210663216023133
 42
-0.4886715319178132
 10
104.802689337705
 20
8.233162776619428
 42
1.449960137870002
 10
104.8477277734021
 20
8.345660353222886
 42
-0.9826156446146773
  0
LWPOLYLINE
  5
D6
330
18
100
AcDbEntity
  8
ADP1DETAIL
100
AcDbPolyline
 90
       10
 70
     0
 43
0.0
 10
103.1550636911089
 20
3.351802786331218
 42
0.3072238303628276
 10
103.5742931325369
 20
6.231487264363581
 42
0.2760569921035554
 10
104.5699629396346
 20
6.7027083580249
 42
0.7638289725843976
 10
103.888715097314
 20
7.488076872613547
 42
0.8810531013314546
 10
103.993522457671
 20
7.17392945168622
 42
-1.525318483701832
 10
104.2555408585636
 20
7.016855778952226
 42
-0.4866019253217506
 10
103.6791004928939
 20
6.7027083580249
 42
-0.3275368184076297
 10
102.8406417263318
 20
7.226287367750664
 42
-0.2055012686686455
 10
101.9497792795912
 20
9.896540256984588
 42
-0.0832599130523549
 10
102.4214122849038
 20
11.2578456219041
 42
-0.2559763662359296
  0
LWPOLYLINE
  5
E2
330
18
100
AcDbEntity
  8
ADP1DETAIL
100
AcDbPolyline
 90
       15
 70
     0
 43
0.0
 10
104.3079445387421
 20
14.03281434326691
 42
0.2753716347426427
 10
104.7271738638761
 20
13.4045195768716
 42
0.2262011428083575
 10
101.8973755994127
 20
11.46727728616188
 42
0.2770339858085262
 10
101.9497792795912
 20
7.959297966274866
 42
0.0656730820141701
 10
102.7358343659748
 20
6.7027083580249
 42
-0.1651348933952102
 10
103.3122747316444
 20
5.184329244912052
 42
-0.3323284985189798
 10
102.2117976804837
 20
4.765466067315176
 42
-0.47542157224506
 10
101.8973755994127
 20
5.498476665839378
 42
-0.5390777831847383
 10
102.4214122849038
 20
5.550834581903823
 42
-0.5486116856924425
 10
102.3166049245468
 20
5.236687160976496
 42
1.047924316865436
 10
102.6310270056178
 20
5.393760833710489
 42
0.5485414170066635
 10
101.7401645588772
 20
5.707908254637817
 42
0.519974460510502
 10
101.7925682390557
 20
4.713108151250732
 42
0.4717795068352121
 10
103.3122747316444
 20
4.922539740049169
 42
0.0000000759261601
 10
102.9454490866888
 20
3.456518543000766
 42
1.281047738712511
  0
ARC
  5
F3
330
18
100
AcDbEntity
  8
ADP1DETAIL
100
AcDbCircle
 10
102.3255787626727
 20
4.029265045642119
 30
0.0
 40
1.048606044040949
100
AcDbArc
 50
241.8060415674309
 51
278.6459051035289
  0
ARC
  5
F4
330
18
100
AcDbEntity
  8
ADP1DETAIL
100
AcDbCircle
 10
101.1637739053522
 20
3.967064310120253
 30
0.0
 40
1.860950822972204
100
AcDbArc
 50
288.7708797155771
 51
322.5345019530575
  0
ARC
  5
F5
330
18
100
AcDbEntity
  8
ADP1DETAIL
100
AcDbCircle
 10
101.7961616818132
 20
2.423147381537137
 30
0.0
 40
0.6239500702684585
100
AcDbArc
 50
266.9165417799719
 51
6.851807338601446
  0
LWPOLYLINE
  5
F6
330
18
100
AcDbEntity
  8
ADP1DETAIL
100
AcDbPolyline
 90
       32
 70
     0
 43
0.0
 10
102.9561159884845
 20
3.465065014006591
 42
-0.4323087251468764
 10
102.6858858153058
 20
3.532563563585202
 42
0.1900195915282386
 10
102.4381747456945
 20
3.735059212321034
 42
0.7540136290634261
 10
102.3480979825363
 20
3.600062113163812
 42
0.1621431281559526
 10
101.8076374035866
 20
3.667560662742423
 42
0.6666570832954017
 10
101.7625990801555
 20
3.442565497480387
 42
-0.5003495662584708
 10
101.7175606404283
 20
3.037574124548013
 42
0.9340328802010514
 10
101.7400798602919
 20
2.992575091495605
 42
0.6591691919957925
 10
102.0328293696303
 20
2.83507847581218
 42
-0.7288169027832714
 10
102.1679444562197
 20
2.745080409707366
 42
-0.0769669826958198
 10
101.8301566234502
 20
2.565084277497737
 42
0.1264860453010094
 10
101.5599263339754
 20
2.385088145288109
 42
1.12923919521844
 10
101.7851183000191
 20
2.227591529604683
 42
0.1366467778683043
 10
101.582445553839
 20
1.822600156672308
 42
0.6588679363098479
 10
101.7175606404283
 20
1.800100640146105
 42
0.839130042150651
 10
101.9877909299032
 20
1.530106441831662
 42
0.0784506019020657
 10
102.3255787626727
 20
1.800100640146105
 42
-0.5088824225042603
 10
102.5282513925567
 20
1.777601123619901
 42
1.442557850475586
 10
102.7084049188733
 20
1.845099673198512
 42
-0.1210826906608566
 10
102.5732898322839
 20
2.160092980026073
 42
-0.4083410883856241
 10
102.7309241387369
 20
2.385088145288109
 42
-0.1098657897036353
 10
102.775962462168
 20
2.025095880868851
 42
0.3553112656447821
 10
102.8660392253262
 20
1.890098706250919
 42
0.1509272318738639
 10
103.09123119137
 20
1.890098706250919
 42
0.4488055025184658
 10
103.4290189078434
 20
1.687603057515087
 42
0.1115887012067521
 10
103.4965765674342
 20
2.047595397395055
 42
0.5828771789854902
 10
103.6767299774546
 20
2.317589595709498
 42
0.0566573823430559
 10
103.451538127707
 20
2.677581860128755
 42
-0.0710766745292313
 10
103.60917243416
 20
2.857577992338383
 42
1.079276100476335
 10
103.5190956710017
 20
2.947576058443198
 42
-0.1314253523817444
 10
103.1813078382322
 20
3.127572190652827
 42
-0.4345414328254395
 10
103.1813078382322
 20
3.352567355914862
 42
-0.3941737437731911
  0
ARC
  5
118
330
18
100
AcDbEntity
  8
ADP1DETAIL
100
AcDbCircle
 10
102.5765321276404
 20
3.512896173473769
 30
0.0
 40
0.2292792290706818
100
AcDbArc
 50
175.0791662835472
 51
263.548697999211
  0
ARC
  5
119
330
18
100
AcDbEntity
  8
ADP1DETAIL
100
AcDbCircle
 10
101.9871753051245
 20
2.227591529604683
 30
0.0
 40
0.9978218507318539
100
AcDbArc
 50
353.5265293201514
 51
28.26311216345762
  0
ARC
  5
11A
330
18
100
AcDbEntity
  8
ADP1DETAIL
100
AcDbCircle
 10
102.832313283441
 20
1.516858016639255
 30
0.0
 40
1.326316434600206
100
AcDbArc
 50
61.06255589278312
 51
83.66612033731803
  0
ARC
  5
11B
330
18
100
AcDbEntity
  8
ADP1DETAIL
100
AcDbCircle
 10
104.1352910572441
 20
7.699837880595128
 30
0.0
 40
0.172878165320092
100
AcDbArc
 50
290.0890676306862
 51
5.855128945145131
  0
ARC
  5
11C
330
18
100
AcDbEntity
  8
ADP1DETAIL
100
AcDbCircle
 10
105.1954764202205
 20
7.481228864855352
 30
0.0
 40
0.7551917111239774
100
AcDbArc
 50
165.330588593258
 51
184.2715056666871
  0
DIMENSION
  5
11D
330
18
100
AcDbEntity
  8
ADPDIM
100
AcDbDimension
  2
*D0
 10
126.442217961662
 20
25.59981523221502
 30
0.0
 11
113.942217961662
 21
25.59981523221502
 31
0.0
100
AcDbAlignedDimension
 13
101.442217961662
 23
15.47389338484478
 33
0.0
 14
126.442217961662
 24
23.47268607141256
 34
0.0
100
AcDbRotatedDimension
  0
LWPOLYLINE
  5
11E
330
18
100
AcDbEntity
  8
ADP1DETAIL
100
AcDbPolyline
 90
       47
 70
     0
 43
0.0
 10
105.6788672599169
 20
21.9669983803188
 42
-0.1540804346283036
 10
104.6942837189547
 20
22.03782524295208
 42
-0.2274931926709901
 10
104.3001977638883
 20
22.464378511495
 42
-0.0758674352983452
 10
104.0210536876349
 20
21.97220174817908
 42
-0.591596491176357
 10
103.8240110507066
 20
22.00501360606926
 42
0.2280761812155412
 10
103.7747503914745
 20
22.05423128240085
 42
-0.2821140968301306
 10
103.3806644364081
 20
21.95579592973767
 42
-0.5379585488288531
 10
103.3478239969201
 20
22.07063710084227
 42
-0.1040360264632817
 10
102.8880575034824
 20
22.00501360606926
 42
-0.4144692640468196
 10
103.0358394811786
 20
22.53000222727536
 42
0.7030349974634751
 10
103.0029990416906
 20
22.72687293260174
 42
-0.1101824855347007
 10
103.298563337688
 20
22.94014967737687
 42
-1.151469289047742
 10
103.3970846561521
 20
23.10420852481306
 42
0.0229575285085586
 10
103.8240110507066
 20
23.02217899059129
 42
0.5559174975763558
 10
103.6598085126614
 20
23.23545573536642
 42
-0.10436009717655
 10
103.1507813599917
 20
23.25186155380783
 42
-0.4626285281927803
 10
103.0522597009227
 20
23.4487322591342
 42
0.1787723017883352
 10
102.7566954049253
 20
23.57997946968756
 42
-1.508342938373646
 10
102.8223766245063
 20
23.71122668024092
 42
-0.1965061003850237
 10
102.2312480325116
 20
24.25262111988844
 42
-0.1884422895313993
 10
102.8880575034824
 20
24.40027436989058
 42
-0.5664446444637626
 10
102.9701586022025
 20
24.56433321732677
 42
-0.0990027994729902
 10
103.2657228981999
 20
24.33465065411021
 10
103.314983557432
 20
24.59714507521695
 10
103.6926489521495
 20
24.26902715933721
 10
103.8732717099387
 20
24.31824483566881
 10
103.9389525889148
 20
23.64560318546793
 42
0.1784057638940421
 10
104.135995566448
 20
23.3338910880296
 42
0.8255024487205126
 10
104.2837775441443
 20
23.46513829858297
 42
-0.1873056734286576
 10
104.2509371046562
 20
23.66200900390933
 42
-0.2200379069109027
 10
104.168836005936
 20
24.38386833044181
 10
104.3330382033763
 20
24.20340344355685
 10
104.4644003019334
 20
24.44949204622218
 42
-0.0384027972064363
 10
104.6942837189547
 20
24.66276856998995
 42
-0.1139849704002558
 10
104.7435443781868
 20
24.20340344355685
 42
-0.0000007005777339
 10
104.973427795208
 20
24.36746251200041
 42
-0.6550751572945942
 10
105.0555288939282
 20
24.31824483566881
 42
0.0330319418752154
 10
105.0062682346961
 20
23.82606785134552
 10
105.1540502123923
 20
23.94090924345748
 42
-0.1512957899232135
 10
104.8092252571629
 20
23.07139666692287
 10
104.9570072348591
 20
23.00577317214987
 10
104.7928050374189
 20
22.94014967737687
 10
104.858485916395
 20
22.84171432471369
 42
0.0399201745609191
 10
104.6614429388618
 20
22.71046711416032
 42
0.2401396729675821
 10
104.9898480149521
 20
22.3495373403904
 42
0.1987591342136785
 10
105.5152953873658
 20
22.36594315883182
 42
0.05143957701175
 10
106.1211281908421
 20
22.71799159037672
 42
0.0622964587500381
  0
ARC
  5
14F
330
18
100
AcDbEntity
  8
ADP1DETAIL
100
AcDbCircle
 10
101.3752077688534
 20
11.67974391298282
 30
0.0
 40
4.010693575263042
100
AcDbArc
 50
47.55263623613946
 51
78.27172239447877
  0
LWPOLYLINE
  5
150
330
18
100
AcDbEntity
  8
ADP1DETAIL
100
AcDbPolyline
 90
        4
 70
     0
 43
0.0
 10
102.3074811815714
 20
20.80319388022717
 42
0.1353304460875959
 10
102.1454252366886
 20
20.20830602006468
 42
0.5579329918318226
 10
103.8118451478962
 20
19.28582584664073
 42
0.2159845382510671
 10
104.0376058345347
 20
20.15439593034975
 42
-1.501462125137668
  0
LWPOLYLINE
  5
156
330
18
100
AcDbEntity
  8
ADP1DETAIL
100
AcDbPolyline
 90
       39
 70
     0
 43
0.0
 10
104.948296488825
 20
20.6126837558648
 10
104.5099399127027
 20
20.26230487494458
 42
0.2439976997996239
 10
104.3297864025022
 20
19.63231831013841
 42
-0.062311690573614
 10
104.3072672428006
 20
19.02483138138787
 42
0.1313832898668992
 10
104.3748248381993
 20
18.34984584630779
 42
-0.4087673738957748
 10
105.5458225382085
 20
18.40834464349069
 42
-0.5740176868457051
 10
105.523303378507
 20
18.29584699142789
 42
-0.1552679548421658
 10
105.9736871540082
 20
17.77835815414386
 10
105.5458225382085
 20
17.77835815414386
 42
-0.8724323313822132
 10
105.4107074637051
 20
17.5758624860739
 42
0.042764105284092
 10
105.1179580387028
 20
17.68836006267735
 10
104.9603236882039
 20
17.62086145634781
 42
0.4703939903007574
 10
105.4107074637051
 20
17.39586630314089
 42
-0.5493505193327552
 10
105.5007842188054
 20
17.05837357333052
 42
-0.1550757111250478
 10
105.7935336438077
 20
16.54088466058715
 42
-0.5082016176546631
 10
105.5908609739056
 20
16.31588943192089
 42
-0.0772938671027703
 10
105.162996358106
 20
16.42838708398369
 42
-0.6176809566558937
 10
104.8927660928052
 20
16.31588943192089
 42
-0.2655252762771938
 10
104.7576510183018
 20
16.69838128292386
 42
-0.2710075747203642
 10
104.4874207530011
 20
16.5633841457241
 42
-0.0811186450599958
 10
104.6225359437984
 20
17.30586821167439
 42
1.622547501456345
 10
104.442382433598
 20
17.28336872653744
 42
-0.1155259954106252
 10
104.1721521682972
 20
16.72088076806081
 42
-0.1689281796083568
 10
103.9919986580967
 20
16.60838319145736
 42
-0.7241495321704999
 10
103.924441062698
 20
16.72088076806081
 42
-0.0710239465173869
 10
103.6542107973973
 20
16.60838319145736
 42
-0.5709911664603926
 10
103.4965765631923
 20
16.76587981379406
 42
-0.1232100354802408
 10
103.5866533182926
 20
17.35086725740764
 42
0.4144698578177261
 10
103.5416148825955
 20
17.4858643946074
 42
-0.6185178274102258
 10
103.5416148825955
 20
17.66586050208106
 42
-0.3079997681941078
 10
103.8118451478962
 20
17.84585668501406
 42
-0.5494248446581427
 10
103.8343643075978
 20
18.04835235308402
 42
-0.076450479997099
 10
104.1946713279988
 20
18.16084992968748
 42
-0.1213150905043792
 10
104.0145178177983
 20
18.76833693389736
 42
0.1811251811607257
 10
103.9469602223996
 20
18.92583355623406
 42
-0.1637151268374615
 10
102.4832130973881
 20
19.03833113283752
 42
-0.3069827741297687
 10
101.7851182162877
 20
20.11830800405752
 42
-0.12005062725775
 10
102.0553484815884
 20
21.13078626894797
 42
-0.0364536040249536
 10
102.1234300140033
 20
21.23638529702366
 42
-0.5793772017669007
  0
LWPOLYLINE
  5
17F
330
18
100
AcDbEntity
  8
ADP1DETAIL
100
AcDbPolyline
 90
       13
 70
     0
 43
0.0
 10
102.2925194923848
 20
21.4057264647511
 42
-0.4117085191056229
 10
103.4965765631923
 20
21.24328384555143
 42
-0.5793772017669007
 10
102.9110775968937
 20
20.41080168813464
 42
-0.3364602797193243
 10
102.1003869172855
 20
21.15328575408493
 42
0.0238167883840098
 10
102.1229060769871
 20
21.89576989549455
 42
0.2033578632272511
 10
101.9427525667866
 20
22.30076123163447
 42
-0.9456676232581392
 10
102.0553484815884
 20
22.43575829337488
 42
-0.3445026169066496
 10
102.3255787468891
 20
22.07576600296822
 42
-0.0818731633940845
 10
102.3255787468891
 20
21.44577951362139
 42
0.3975189011409337
 10
102.7084049269917
 20
20.65829640193785
 42
0.4470100180014483
 10
103.2713846172947
 20
20.95079016147431
 42
0.6925272265502289
 10
102.8210008417935
 20
21.26578340614773
 42
0.1266789931718134
 10
102.3722232815595
 20
20.90083306129562
 42
0.5579329918318226
  0
LWPOLYLINE
  5
18E
330
18
100
AcDbEntity
  8
ADP1DETAIL
100
AcDbPolyline
 90
       24
 70
     0
 43
0.0
 10
104.1721521682972
 20
15.06671626947881
 42
0.1410041165160813
 10
103.9694794983951
 20
15.85419938116236
 42
0.3698534655570567
 10
103.8343643075978
 20
15.7192022439626
 42
0.208386306164407
 10
103.2713846172947
 20
16.03419548863602
 42
0.5300861991792178
 10
103.1587887024929
 20
15.89919842689561
 42
0.0498322104934499
 10
102.7534433626888
 20
15.92169791203256
 42
0.4534852762574004
 10
102.6633666075885
 20
15.8092003354291
 42
-0.1566527508489621
 10
102.2355019917889
 20
15.69670275882565
 42
0.8470978423038889
 10
102.1904636723857
 20
15.49420709075569
 42
0.2344278869109375
 10
102.5958090121899
 20
15.13421480034902
 42
0.2771088614128732
 10
102.5057322570896
 20
14.97671817801231
 42
0.2708358032631319
 10
102.9335968728893
 20
14.7517230248054
 42
0.5664449463698626
 10
103.0461927876911
 20
14.54922735673544
 42
0.1154043184942745
 10
103.6091724779942
 20
14.6617249333389
 42
-0.5808254303857435
 10
103.6992492330944
 20
14.36923117380244
 42
-0.0553369816458219
 10
103.001154351994
 20
14.34673168866548
 42
0.8456743195080097
 10
102.9786351922924
 20
14.25673359719898
 42
-0.395685186103684
 10
103.0461927876911
 20
14.09923697486227
 42
-0.0997403924984871
 10
102.7309240866933
 20
13.5817480621189
 42
0.2439747543975216
 10
103.4290189677937
 20
13.71674519931865
 42
0.0991042541524587
 10
103.4740572871968
 20
13.33425334831569
 42
0.2053284219606888
 10
103.8568834672994
 20
13.91924086738861
 42
0.1504733060097112
 10
103.924441062698
 20
13.69424563872236
 42
0.1097426331911816
 10
104.3297864025022
 20
14.00923888339577
 42
-0.4703104237197059
  0
LWPOLYLINE
  5
1A8
330
18
100
AcDbEntity
  8
ADP1DETAIL
100
AcDbPolyline
 90
        4
 70
     0
 43
0.0
 10
102.3535533035752
 20
19.10331201253871
 42
0.0250998506452661
 10
102.1069903201267
 20
18.692667439275
 42
0.2950177866366085
 10
102.6310270056178
 20
12.40971947348452
 42
0.0010063256157931
 10
102.6415841462776
 20
12.39608822547396
 42
0.5931834330269527
  0
LWPOLYLINE
  5
1AE
330
18
100
AcDbEntity
  8
ADP1DETAIL
100
AcDbPolyline
 90
        3
 70
     0
 43
0.0
 10
102.9922770806689
 20
12.68934275542802
 42
-0.2843047241240384
 10
102.7358343659748
 20
18.74502535533945
 42
-0.0123634974059206
 10
102.8398608456124
 20
18.92031384905782
 42
-0.1469149557354726
  0
LWPOLYLINE
  5
1B3
330
18
100
AcDbEntity
  8
ADP1DETAIL
100
AcDbPolyline
 90
        4
 70
     0
 43
0.0
 10
121.6554149146603
 20
24.73703519824088
 42
-0.5280278116502347
 10
123.251582159259
 20
24.70056657495762
 42
-0.2428958048886023
 10
123.3378686105111
 20
23.83845288286345
 42
-0.3110184850641642
 10
124.5890264112278
 20
24.3988267716743
 42
0.0912399754352368
  0
LWPOLYLINE
  5
1B9
330
18
100
AcDbEntity
  8
ADP1DETAIL
100
AcDbPolyline
 90
       11
 70
     0
 43
0.0
 10
121.8045180031634
 20
24.48656697033606
 42
0.1537451943575882
 10
121.8278507748284
 20
24.14019268614678
 42
0.6829876907539979
 10
122.302427789437
 20
24.14019268614678
 42
0.7719300785563391
 10
121.8278507748284
 20
24.48503798617856
 42
-0.1939263665332652
 10
121.1807001765058
 20
24.78677778946189
 42
-0.635489923090209
 10
121.2669869683628
 20
25.00230637824096
 42
0.2319454425601858
 10
121.8709941707569
 20
24.74367207170608
 42
-0.4953657643005786
 10
122.5181447690794
 20
24.09708696839097
 42
-0.3944719307363209
 10
122.0435677544708
 20
23.709135729596
 42
-0.4931021681559438
 10
121.5258473439338
 20
24.48503798617856
 42
-0.0206982399025541
 10
121.5547178237126
 20
24.55964683704754
 42
-0.2428958048886023
  0
LWPOLYLINE
  5
1C6
330
18
100
AcDbEntity
  8
ADP1DETAIL
100
AcDbPolyline
 90
        5
 70
     0
 43
0.0
 10
124.5027396193708
 20
24.18329818289523
 42
0.2455581354283063
 10
123.6398723820106
 20
23.79534716510763
 42
-0.2985651953342315
 10
122.21614099758
 20
22.63149366973011
 42
-0.1921849513899223
 10
120.5836733473059
 20
23.10565612302933
 42
0.0005994638301464
 10
120.5032453824963
 20
23.18060734305983
 42
0.1616123655184102
  0
LWPOLYLINE
  5
1CD
330
18
100
AcDbEntity
  8
ADP1DETAIL
100
AcDbPolyline
 90
        8
 70
     0
 43
0.0
 10
113.8967726765278
 20
21.44491703516061
 42
-0.2861453724816454
 10
114.4475894055569
 20
24.18329818289523
 42
-0.2842206609675509
 10
119.4619457343748
 20
24.70056657495762
 42
-0.0151476222086765
 10
120.669960139163
 20
23.53671307958011
 42
0.4674418180758641
 10
122.992721783688
 20
23.36429020855685
 42
0.2054322316744159
 10
122.9495783877595
 20
24.78677778946189
 42
0.3312270196450885
 10
122.0435677544708
 20
24.8298835072177
 42
0.0544842901397488
 10
121.9476159099359
 20
24.74889584131959
 42
0.6268341895160244
  0
LWPOLYLINE
  5
1D7
330
18
100
AcDbEntity
  8
ADP1DETAIL
100
AcDbPolyline
 90
        5
 70
     0
 43
0.0
 10
107.6093759248121
 20
15.81298296124264
 42
-0.1814830370139948
 10
107.4521648842765
 20
16.91249882129928
 42
-0.696775981617998
 10
107.9762015697676
 20
16.75542514856528
 42
-0.8108101583712151
 10
107.6093759248121
 20
16.70306723250084
 42
-0.0158839420460591
 10
107.3877897256139
 20
16.87713333143545
 42
-0.1923959039277361
  0
LWPOLYLINE
  5
1DE
330
18
100
AcDbEntity
  8
ADP1DETAIL
100
AcDbPolyline
 90
       10
 70
     0
 43
0.0
 10
110.3967652538102
 20
18.10753036221094
 42
-0.0230319406183026
 10
110.2295595848554
 20
18.1167305134848
 42
-0.7823356287259012
 10
110.1247522244984
 20
18.849741112009
 42
-0.1283918638469303
 10
110.491577869454
 20
17.12193041009771
 42
-0.4581890683699151
 10
109.2862934579363
 20
16.17948822277507
 42
-0.0989347600672394
 10
108.6050457319097
 20
16.23184613883952
 42
-0.3971292859667623
 10
108.4478346913742
 20
16.4936356437024
 42
0.195975249020751
 10
107.9762015697676
 20
17.33136207435549
 42
0.6105390237455392
 10
107.0853392393209
 20
16.59835147583129
 42
0.0840860360375403
 10
106.9281281987854
 20
15.7606250451782
 42
1.017887957071251
  0
ARC
  5
1EA
330
18
100
AcDbEntity
  8
ADP1DETAIL
100
AcDbCircle
 10
106.4449591134807
 20
17.45033799859704
 30
0.0
 40
1.625525043193891
100
AcDbArc
 50
190.7057637138082
 51
217.9409036907049
  0
ARC
  5
1EB
330
18
100
AcDbEntity
  8
ADP1DETAIL
100
AcDbCircle
 10
108.7416456450239
 20
20.42454480017978
 30
0.0
 40
4.974827492394841
100
AcDbArc
 50
218.4893181777791
 51
233.011184148217
  0
LWPOLYLINE
  5
1EC
330
18
100
AcDbEntity
  8
ADP1DETAIL
100
AcDbPolyline
 90
        3
 70
     0
 43
0.0
 10
105.3982961390948
 20
21.16395068843949
 42
0.1565747560523679
 10
105.6704399907953
 20
18.48323585047657
 42
0.1758526243353044
 10
107.0499193941788
 20
16.49561100325227
 42
0.435674537347423
  0
LWPOLYLINE
  5
1F1
330
18
100
AcDbEntity
  8
ADP1DETAIL
100
AcDbPolyline
 90
        6
 70
     0
 43
0.0
 10
107.4479526670151
 20
16.25154425363434
 42
0.0938613572655262
 10
108.7098530922667
 20
15.86534087730709
 42
0.435674537347423
 10
110.7535962703465
 20
16.75542514856528
 42
0.2641713909274758
 10
110.2819632650339
 20
19.37332012173476
 42
0.2409598378392986
 10
105.9848620718663
 20
21.20584665577494
 42
0.0010432677230842
 10
105.9649923255997
 20
21.20441580184161
 42
0.2950177866366085
  0
LWPOLYLINE
  5
1F9
330
18
100
AcDbEntity
  8
ADP1DETAIL
100
AcDbPolyline
 90
        6
 70
     0
 43
0.0
 10
102.7998866031397
 20
11.88085612322516
 42
-0.1893298803288752
 10
104.6223666198131
 20
12.93329848321028
 42
-0.2193107607601202
 10
106.2468804727588
 20
12.46207731408962
 42
-0.6226686388011036
 10
105.5656326304383
 20
11.36256145403299
 42
-0.1977029307636855
 10
103.3122747316444
 20
12.25264572529118
 42
-0.0055471880399918
 10
103.2319923838156
 20
12.35255857959399
 42
-0.0123634974059206
  0
LWPOLYLINE
  5
201
330
18
100
AcDbEntity
  8
ADP1DETAIL
100
AcDbPolyline
 90
       16
 70
     0
 43
0.0
 10
102.9438082519106
 20
12.04789942838531
 42
0.1660501349878447
 10
105.4084217061967
 20
10.78662452824278
 42
0.5931834330269527
 10
106.6661097978929
 20
12.46207731408962
 42
0.2615294372396794
 10
105.0939996251257
 20
13.61395116567004
 42
-0.3448893462774643
 10
104.6223666198131
 20
14.08517225933136
 42
0.216530794886607
 10
105.3036143458397
 20
14.50403543692823
 42
-1.199149646624826
 10
105.2512106656612
 20
14.81818285785556
 42
0.3823659396855563
 10
105.3036143458397
 20
15.34176186758132
 10
105.1464033053042
 20
15.23704603545243
 42
0.1098450827083573
 10
104.9891922647687
 20
15.65590921304931
 42
0.2711823611454077
 10
104.7795775440547
 20
15.7606250451782
 42
0.492998750131953
 10
104.6747702999916
 20
15.6035513724442
 42
1.764867111053138
 10
104.4651555792776
 20
15.55119345637976
 42
0.3336247677846175
 10
104.4651555792776
 20
15.23704603545243
 42
-0.3867203505237432
 10
104.2555408585636
 20
14.92289861452511
 42
-0.7039680382840469
 10
104.1507334982065
 20
15.07997236271844
 42
-0.5032158797185721
  0
ARC
  5
213
330
18
100
AcDbEntity
  8
ADP1DETAIL
100
AcDbCircle
 10
103.5114884378838
 20
19.58894941262801
 30
0.0
 40
9.567898748449284
100
AcDbArc
 50
272.8786669377133
 51
279.2557239518283
  0
ARC
  5
214
330
18
100
AcDbEntity
  8
ADP1DETAIL
100
AcDbCircle
 10
101.5280349351633
 20
10.21895184470015
 30
0.0
 40
1.653356946547585
100
AcDbArc
 50
306.2522090824552
 51
0.577625351508161
  0
ARC
  5
215
330
18
100
AcDbEntity
  8
ADP1DETAIL
100
AcDbCircle
 10
101.7643998871258
 20
9.74226844147282
 30
0.0
 40
1.505225938261803
100
AcDbArc
 50
328.3819472180959
 51
13.77286111925716
  0
LWPOLYLINE
  5
216
330
18
100
AcDbEntity
  8
ADP1DETAIL
100
AcDbPolyline
 90
       26
 70
     0
 43
0.0
 10
104.8477277734021
 20
8.345660353222886
 10
104.8477277734021
 20
8.683153083033257
 42
0.9999999999999976
 10
104.9603236882039
 20
8.818150220233009
 42
-0.0807273472569502
 10
104.6675742632016
 20
9.155643025502721
 10
104.802689337705
 20
9.313139647839427
 10
104.6900934229032
 20
9.403137663846589
 42
-0.0933863502977765
 10
104.082075413197
 20
9.538134801046341
 42
-0.6057278817468783
 10
104.0595562534954
 20
9.8306285605828
 42
-0.6120243191127497
 10
104.3973439979009
 20
9.628132892512843
 42
0.7093043985418709
 10
104.5549783483998
 20
9.560634286183296
 42
0.0272293698083758
 10
104.8927660928052
 20
9.605633331916546
 42
-0.721356184134489
 10
104.8927660928052
 20
9.808128999986506
 42
0.1168106449418584
 10
105.0954388790013
 20
10.01062466805646
 42
0.196459455515688
 10
105.1179580387028
 20
10.14562180525621
 42
0.3390651107121652
 10
104.9828428479055
 20
10.25811938185967
 42
-1.547666548980146
 10
105.005362123901
 20
10.30311842759292
 42
1.547669487948491
 10
105.0504004433042
 20
10.39311644360008
 42
0.7209580173532332
 10
104.9828428479055
 20
10.57311262653308
 42
-0.0187868228506166
 10
104.6450551035
 20
10.57311262653308
 42
-0.1927389692438472
 10
104.6000166678029
 20
10.8881058712065
 42
-0.0445238638288268
 10
104.2622289233975
 20
10.77560829460304
 10
103.7442875524976
 20
10.41561600419638
 10
103.7442875524976
 20
10.55061306593679
 42
0.8951289353192123
 10
103.5416148825955
 20
10.57311262653308
 42
-0.2111776993792685
 10
103.2488654575932
 20
10.41561600419638
 42
-0.3181663393825769
 10
102.843520117789
 20
12.01308171270041
 42
-0.6865007684866397
  0
ARC
  5
232
330
18
100
AcDbEntity
  8
ADP1DETAIL
100
AcDbCircle
 10
103.5994298306083
 20
12.96694979951482
 30
0.0
 40
2.837822725369398
100
AcDbArc
 50
263.8194346365117
 51
300.7502695522493
  0
ARC
  5
233
330
18
100
AcDbEntity
  8
ADP1DETAIL
100
AcDbCircle
 10
104.1205347095056
 20
9.164408769484767
 30
0.0
 40
0.7978275761930279
100
AcDbArc
 50
39.61572121120369
 51
102.5656955827211
  0
ARC
  5
234
330
18
100
AcDbEntity
  8
ADP1DETAIL
100
AcDbCircle
 10
103.2537262540258
 20
7.65087577226158
 30
0.0
 40
1.793856550114889
100
AcDbArc
 50
31.687181939865
 51
58.3628851580898
  0
ARC
  5
235
330
18
100
AcDbEntity
  8
ADP1DETAIL
100
AcDbCircle
 10
103.7797178639542
 20
7.994754489746248
 30
0.0
 40
0.8918660864879278
100
AcDbArc
 50
14.00971919901866
 51
46.1708774119291
  0
ARC
  5
236
330
18
100
AcDbEntity
  8
ADP1DETAIL
100
AcDbCircle
 10
102.4139053832258
 20
10.21967449039378
 30
0.0
 40
0.8022282687059314
100
AcDbArc
 50
278.1945932714149
 51
317.0561981642396
  0
ARC
  5
237
330
18
100
AcDbEntity
  8
ADP1DETAIL
100
AcDbCircle
 10
103.6892995183708
 20
7.240632575291425
 30
0.0
 40
2.140264881486458
100
AcDbArc
 50
63.47684253390155
 51
78.19621233382808
  0
ARC
  5
238
330
18
100
AcDbEntity
  8
ADP1DETAIL
100
AcDbCircle
 10
105.6645191111814
 20
11.29618972980879
 30
0.0
 40
2.505418768963993
100
AcDbArc
 50
212.078085608111
 51
231.4922652114407
  0
ARC
  5
239
330
18
100
AcDbEntity
  8
ADP1DETAIL
100
AcDbCircle
 10
108.6888953514499
 20
5.145666565464699
 30
0.0
 40
6.989541036944382
100
AcDbArc
 50
126.0308970022601
 51
132.7213113149512
  0
LINE
  5
23A
330
18
100
AcDbEntity
  8
ADP1DETAIL
100
AcDbLine
 10
107.0546080989172
 20
15.51670657589264
 30
0.0
 11
107.2572808851132
 21
15.78670077483281
 31
0.0
  0
CIRCLE
  5
23B
330
18
100
AcDbEntity
  8
ADP1DETAIL
100
AcDbCircle
 10
107.2347616091177
 20
14.90921964714211
 30
0.0
 40
0.2846237679301059
  0
CIRCLE
  5
23C
330
18
100
AcDbEntity
  8
ADP1DETAIL
100
AcDbCircle
 10
107.1446848540175
 20
14.30173264293223
 30
0.0
 40
0.2882327292383051
  0
CIRCLE
  5
23D
330
18
100
AcDbEntity
  8
ADP1DETAIL
100
AcDbCircle
 10
106.9194930244138
 20
13.08675870997182
 30
0.0
 40
0.2566184979379716
  0
CIRCLE
  5
23E
330
18
100
AcDbEntity
  8
ADP1DETAIL
100
AcDbCircle
 10
107.2572808851132
 20
13.69424563872236
 30
0.0
 40
0.3061191281153336
  0
CIRCLE
  5
23F
330
18
100
AcDbEntity
  8
ADP1DETAIL
100
AcDbCircle
 10
106.4691092489126
 20
14.21173455146573
 30
0.0
 40
0.3427489278581985
  0
ARC
  5
240
330
18
100
AcDbEntity
  8
ADP1DETAIL
100
AcDbCircle
 10
104.1868728348291
 20
15.48625260157282
 30
0.0
 40
1.02195602798462
100
AcDbArc
 50
280.5978218207448
 51
347.7382680145643
  0
ARC
  5
241
330
18
100
AcDbEntity
  8
ADP1DETAIL
100
AcDbCircle
 10
100.6911514643582
 20
18.29579198686722
 30
0.0
 40
5.172858831924378
100
AcDbArc
 50
294.313899996705
 51
304.0384317832214
  0
ARC
  5
242
330
18
100
AcDbEntity
  8
ADP1DETAIL
100
AcDbCircle
 10
102.7659289824516
 20
14.78586242822583
 30
0.0
 40
1.294924110401385
100
AcDbArc
 50
309.3311214935806
 51
341.2317037993488
  0
ARC
  5
243
330
18
100
AcDbEntity
  8
ADP1DETAIL
100
AcDbCircle
 10
104.7234018840635
 20
14.96617830284911
 30
0.0
 40
0.9584700239330032
100
AcDbArc
 50
220.2622310234265
 51
236.5203923749156
  0
CIRCLE
  5
244
330
18
100
AcDbEntity
  8
ADP1DETAIL
100
AcDbCircle
 10
106.6717819188147
 20
13.5817480621189
 30
0.0
 40
0.2882327292383045
  0
LINE
  5
245
330
18
100
AcDbEntity
  8
ADP1DETAIL
100
AcDbLine
 10
106.3565133341108
 20
13.87424182165536
 30
0.0
 11
106.4015516535139
 21
13.73924468445561
 31
0.0
  0
ARC
  5
246
330
18
100
AcDbEntity
  8
ADP1DETAIL
100
AcDbCircle
 10
103.8637158227499
 20
15.48752110452026
 30
0.0
 40
1.028037859520683
100
AcDbArc
 50
310.5796580482043
 51
11.74033552126068
  0
ARC
  5
247
330
18
100
AcDbEntity
  8
ADP1DETAIL
100
AcDbCircle
 10
102.5081703177611
 20
15.1454645429175
 30
0.0
 40
1.448651692215352
100
AcDbArc
 50
353.3107081408057
 51
21.40676652625947
  0
ARC
  5
248
330
18
100
AcDbEntity
  8
ADP1DETAIL
100
AcDbCircle
 10
98.70183040741176
 20
11.21395043400624
 30
0.0
 40
6.433453789760276
100
AcDbArc
 50
32.88181944186053
 51
45.87079153467022
  0
ARC
  5
249
330
18
100
AcDbEntity
  8
ADP1DETAIL
100
AcDbCircle
 10
103.1250099629406
 20
12.26125709973012
 30
0.0
 40
2.47537814227293
100
AcDbArc
 50
78.18872967485733
 51
94.43492697235738
  0
ARC
  5
24A
330
18
100
AcDbEntity
  8
ADP1DETAIL
100
AcDbCircle
 10
101.8932270150924
 20
13.30131676018038
 30
0.0
 40
1.983966088307863
100
AcDbArc
 50
55.26432637983629
 51
69.25986382080491
  0
CIRCLE
  5
24B
330
18
100
AcDbEntity
  8
ADP1DETAIL
100
AcDbCircle
 10
106.7843779499104
 20
15.47170753015939
 30
0.0
 40
0.2710625096447433
  0
LINE
  5
24C
330
18
100
AcDbEntity
  8
ADP1DETAIL
100
AcDbLine
 10
106.6042244397099
 20
15.22421289181552
 30
0.0
 11
106.6042244397099
 21
15.15671428548598
 31
0.0
  0
CIRCLE
  5
24D
330
18
100
AcDbEntity
  8
ADP1DETAIL
100
AcDbCircle
 10
106.6042244397099
 20
14.81922155567561
 30
0.0
 40
0.2925315943276216
  0
CIRCLE
  5
24E
330
18
100
AcDbEntity
  8
ADP1DETAIL
100
AcDbCircle
 10
107.7527029800176
 20
14.30173264293223
 30
0.0
 40
0.3245799665704898
  0
CIRCLE
  5
24F
330
18
100
AcDbEntity
  8
ADP1DETAIL
100
AcDbCircle
 10
107.4599535550153
 20
13.13175768024573
 30
0.0
 40
0.3001943171744321
  0
CIRCLE
  5
250
330
18
100
AcDbEntity
  8
ADP1DETAIL
100
AcDbCircle
 10
107.8652988948194
 20
13.6717461535854
 30
0.0
 40
0.3061191281153336
  0
CIRCLE
  5
251
330
18
100
AcDbEntity
  8
ADP1DETAIL
100
AcDbCircle
 10
107.6175877892203
 20
15.40420899928919
 30
0.0
 40
0.3345124574958981
  0
CIRCLE
  5
252
330
18
100
AcDbEntity
  8
ADP1DETAIL
100
AcDbCircle
 10
107.9328564902181
 20
14.79672199507931
 30
0.0
 40
0.2934318009653154
  0
LINE
  5
253
330
18
100
AcDbEntity
  8
ADP1DETAIL
100
AcDbLine
 10
107.2572808851132
 20
15.78670077483281
 30
0.0
 11
107.2798000448148
 21
15.6517037130924
 31
0.0
  0
LWPOLYLINE
  5
254
330
18
100
AcDbEntity
  8
ADP1DETAIL
100
AcDbPolyline
 90
        3
 70
     0
 43
0.0
 10
108.9119151167201
 20
24.84534461608244
 42
-0.0787123042606343
 10
110.4783993643694
 20
25.13162331050104
 42
-0.1234766030586267
 10
114.4938312209458
 20
24.22503667806193
 42
-0.304452906358643
  0
ARC
  5
259
330
18
100
AcDbEntity
  8
ADP1DETAIL
100
AcDbCircle
 10
111.3042381049602
 20
22.97472607409133
 30
0.0
 40
0.723479952901612
100
AcDbArc
 50
291.2243325257911
 51
355.9591120610221
  0
LWPOLYLINE
  5
25A
330
18
100
AcDbEntity
  8
ADP1DETAIL
100
AcDbPolyline
 90
        4
 70
     0
 43
0.0
 10
112.0747039919091
 20
23.27807877304523
 10
112.2041341796946
 20
23.96776981512352
 42
0.1624123487942144
 10
112.1178473878376
 20
24.57124942169019
 42
0.1126753954103848
 10
109.1722668700724
 20
24.4935703245423
 42
0.1950583185523792
  0
ARC
  5
260
330
18
100
AcDbEntity
  8
ADP1DETAIL
100
AcDbCircle
 10
111.7090076924506
 20
17.52528020132436
 30
0.0
 40
1.743852469739909
100
AcDbArc
 50
55.99019528761005
 51
85.3231197287859
  0
ARC
  5
261
330
18
100
AcDbEntity
  8
ADP1DETAIL
100
AcDbCircle
 10
110.151243566428
 20
13.07839129365371
 30
0.0
 40
5.774662735136844
100
AcDbArc
 50
69.81352903883838
 51
76.8155304743827
  0
ARC
  5
262
330
18
100
AcDbEntity
  8
ADP1DETAIL
100
AcDbCircle
 10
112.6580281619826
 20
21.45944848951901
 30
0.0
 40
2.794515267331459
100
AcDbArc
 50
247.3301541194846
 51
260.8054900141076
  0
LWPOLYLINE
  5
263
330
18
100
AcDbEntity
  8
ADP1DETAIL
100
AcDbPolyline
 90
        5
 70
     0
 43
0.0
 10
112.4366940126426
 20
18.76833693389736
 42
-0.7071716774264293
 10
112.211502066745
 20
18.70083832756781
 42
-0.5354432361192672
 10
112.1439444713463
 20
18.5658412658274
 42
-0.5780280448383972
 10
111.9412718014442
 20
18.43084412862764
 42
-0.1230064004538157
 10
111.4458497065399
 20
18.52084222009414
 42
-4.640653471752096
  0
LWPOLYLINE
  5
26A
330
18
100
AcDbEntity
  8
ADP1DETAIL
100
AcDbPolyline
 90
       15
 70
     0
 43
0.0
 10
111.4458497065399
 20
18.49834265949785
 42
-0.5624661467003114
 10
111.4683688662414
 20
18.70083832756781
 42
-0.8322138708072273
 10
111.5584456213417
 20
18.85833494990452
 42
-1.180629806651951
 10
111.6485223764419
 20
18.99333208710427
 42
-0.9999999999999737
 10
111.7611182912437
 20
19.12832914884468
 42
-0.9999999999999932
 10
111.8962334820411
 20
19.26332628604443
 42
-0.8671883314207569
 10
112.1439444713463
 20
19.42082290838114
 42
-0.6272289702443792
 10
112.4366940126426
 20
19.51082099984764
 42
-0.9702479864000766
 10
112.7069241616494
 20
19.5333204849846
 42
-0.4138520704045324
 10
112.9771544269501
 20
19.55582004558089
 42
-0.63897165977889
 10
113.1122696177474
 20
19.10582966370773
 42
-0.7632686764992042
 10
112.9321161075469
 20
19.08333017857077
 42
-0.9253487778040772
 10
112.774481757048
 20
19.01583157224123
 42
-1.998248315790022
 10
112.7069241616494
 20
18.97083252650797
 42
-0.4016791287092885
 10
112.414174736647
 20
18.79083641903431
 42
-0.4144686101556542
  0
ARC
  5
27B
330
18
100
AcDbEntity
  8
ADP1DETAIL
100
AcDbCircle
 10
109.4420313311176
 20
10.58777431725709
 30
0.0
 40
8.696084631392901
100
AcDbArc
 50
70.17247271947043
 51
75.14798149046895
  0
ARC
  5
27C
330
18
100
AcDbEntity
  8
ADP1DETAIL
100
AcDbCircle
 10
111.5327829826335
 20
17.9704447457717
 30
0.0
 40
1.17230289478958
100
AcDbArc
 50
42.89207047938228
 51
81.00453204280192
  0
LWPOLYLINE
  5
27D
330
18
100
AcDbEntity
  8
ADP1DETAIL
100
AcDbPolyline
 90
       37
 70
     0
 43
0.0
 10
112.0587599377607
 20
23.30107923013942
 10
111.5825728839742
 20
23.62919714601915
 42
0.2121761109127038
 10
111.3198493680697
 20
23.67841482235074
 42
0.2171485206948686
 10
111.1720670497686
 20
23.56357365124615
 42
-1.274488232065001
 10
111.1228063905365
 20
23.43232644069279
 42
0.0749942324178075
 10
110.663039556494
 20
23.28467341169801
 42
0.7835016903515233
 10
110.728720776075
 20
22.98936735370846
 42
0.3189043214763334
 10
110.4167362603336
 20
22.464378511495
 42
0.6527409541154811
 10
110.8436623142832
 20
22.31672548250022
 42
0.1287183447734175
 10
110.8436623142832
 20
22.03782524295208
 42
0.2749157552823043
 10
111.3691100273018
 20
22.48078455094377
 42
-0.8023230723993187
 10
111.5168920049981
 20
22.31672548250022
 42
-0.0762160833952538
 10
111.1720670497686
 20
21.8737663955159
 42
0.7437798945211797
 10
111.2377479287447
 20
21.59486615596775
 42
-0.0516281655237317
 10
111.1720670497686
 20
21.23393638219784
 42
0.6693055462853084
 10
111.3362695878138
 20
21.10268939265183
 42
-0.1232097882957846
 10
111.3855302470459
 20
20.65973008466014
 42
0.4100912889049332
 10
111.48405156551
 20
20.52848287410678
 42
0.2161247201314129
 10
111.8781371799716
 20
20.97144218209847
 42
-0.3141657793433641
 10
112.0259194982727
 20
21.08628335320307
 42
1.386279357627293
 10
112.190121695713
 20
21.05347171632024
 42
0.0737296621015933
 10
112.288643354782
 20
21.48002498486316
 42
1.000000000000025
 10
112.3871646732462
 20
21.57846033752634
 42
-0.0200422763120836
 10
112.0587599377607
 20
22.23469616928581
 42
-0.656719588616963
 10
112.2229624758059
 20
22.4151608351634
 42
-0.0990772859515703
 10
112.3543242337581
 20
22.10344895873245
 42
0.1339898434710525
 10
112.5185264311984
 20
21.7589252244113
 42
0.3802274802286893
 10
112.6827289692435
 20
21.97220174817908
 42
0.071058578313115
 10
113.0768145837051
 20
21.62767801385793
 42
0.7623575962135068
 10
113.2245969020062
 20
21.7589252244113
 42
-0.1248952961206607
 10
113.1917564625181
 20
22.25110198772722
 42
0.659622858862396
 10
113.3066980007263
 20
22.39875501672199
 42
0.1373913532374533
 10
112.9782932652409
 20
22.84171432471369
 42
-0.5533315578878243
 10
112.9947134849849
 20
23.00577317214987
 42
0.9467654964041823
 10
113.060394363961
 20
23.20264387747624
 42
-0.013439195488982
 10
112.3707444535021
 20
23.30107923013942
 42
-1.029337949257921
 10
112.3871646732462
 20
23.38310876436119
 42
0.1137240645355611
  0
LWPOLYLINE
  5
2A4
330
18
100
AcDbEntity
  8
ADP1DETAIL
100
AcDbPolyline
 90
        3
 70
     0
 43
0.0
 10
107.2067675464942
 20
17.03747496334656
 42
-0.1234029551528986
 10
106.0372657520448
 20
18.849741112009
 42
-0.1540611694984834
 10
105.9730579544948
 20
21.20636517793636
  0
LWPOLYLINE
  5
2A9
330
18
100
AcDbEntity
  8
ADP1DETAIL
100
AcDbPolyline
 90
        2
 70
     0
 43
0.0
 10
105.3905136302927
 20
21.12654318307037
 42
0.1794513909386345
 10
102.5614326527469
 20
19.38962994440503
 42
0.2950177866366085
  0
CIRCLE
  5
2AD
330
18
100
AcDbEntity
  8
ADP1DETAIL
100
AcDbCircle
 10
109.0784871590783
 20
20.93863032420829
 30
0.0
 40
0.2907334415423618
  0
LWPOLYLINE
  5
2AE
330
18
100
AcDbEntity
  8
ADP1DETAIL
100
AcDbPolyline
 90
        2
 70
     0
 43
0.0
 10
105.8816560581343
 20
20.82887241425173
 42
-0.115603279906309
 10
107.8492578850831
 20
20.60293491854495
 42
-0.3765197944088574
  0
ARC
  5
2B2
330
18
100
AcDbEntity
  8
ADP1DETAIL
100
AcDbCircle
 10
105.1509347532068
 20
17.22758027590281
 30
0.0
 40
1.1819932298817
100
AcDbArc
 50
73.92289091213257
 51
115.3399803960529
  0
LINE
  5
2B3
330
18
100
AcDbEntity
  8
ADP1DETAIL
100
AcDbLine
 10
104.6675742632016
 20
18.07085183822098
 30
0.0
 11
104.8927660928052
 21
17.86835617015102
 31
0.0
  0
ARC
  5
2B4
330
18
100
AcDbEntity
  8
ADP1DETAIL
100
AcDbCircle
 10
104.9203054738951
 20
18.13380433554873
 30
0.0
 40
0.4954068057715327
100
AcDbArc
 50
195.2672117073108
 51
250.8328567252056
  0
ARC
  5
2B5
330
18
100
AcDbEntity
  8
ADP1DETAIL
100
AcDbCircle
 10
100.2812312411134
 20
19.44422484232101
 30
0.0
 40
4.310792023556171
100
AcDbArc
 50
321.968672174975
 51
338.236088435523
  0
ARC
  5
2B6
330
18
100
AcDbEntity
  8
ADP1DETAIL
100
AcDbCircle
 10
100.9240238860382
 20
17.45211512917229
 30
0.0
 40
3.383710912815545
100
AcDbArc
 50
353.317705172029
 51
6.682294827970967
  0
LINE
  5
2B7
330
18
100
AcDbEntity
  8
ADP1DETAIL
100
AcDbLine
 10
103.6091724779942
 20
17.37336681800394
 30
0.0
 11
103.8794027432949
 21
17.53086344034065
 31
0.0
  0
LINE
  5
2B8
330
18
100
AcDbEntity
  8
ADP1DETAIL
100
AcDbLine
 10
103.924441062698
 20
16.78837929893102
 30
0.0
 11
104.1045945728986
 21
17.41836586373719
 31
0.0
  0
LINE
  5
2B9
330
18
100
AcDbEntity
  8
ADP1DETAIL
100
AcDbLine
 10
103.8118451478962
 20
17.86835617015102
 30
0.0
 11
103.9919986580967
 21
17.89085573074731
 31
0.0
  0
ARC
  5
2BA
330
18
100
AcDbEntity
  8
ADP1DETAIL
100
AcDbCircle
 10
105.5795128619156
 20
18.16609212433238
 30
0.0
 40
1.112336057946458
100
AcDbArc
 50
228.8615120648535
 51
264.7775564817849
  0
ARC
  5
2BB
330
18
100
AcDbEntity
  8
ADP1DETAIL
100
AcDbCircle
 10
105.0448101381156
 20
18.5974420739045
 30
0.0
 40
0.504121672041579
100
AcDbArc
 50
270.635377283315
 51
312.9329043700447
  0
LWPOLYLINE
  5
2BC
330
18
100
AcDbEntity
  8
ADP1DETAIL
100
AcDbPolyline
 90
        2
 70
     0
 43
0.0
 10
103.0103954479629
 20
19.17113172960584
 42
-0.0868872072646955
 10
104.0376058345347
 20
20.15439593034975
 42
-0.1469149557354726
  0
LWPOLYLINE
  5
2C0
330
18
100
AcDbEntity
  8
ADP1DETAIL
100
AcDbPolyline
 90
        2
 70
     0
 43
0.0
 10
104.948296488825
 20
20.6126837558648
 42
-0.0240875996676648
 10
105.3282073241996
 20
20.72774762752904
 42
-0.1469149557354726
  0
LWPOLYLINE
  5
2C4
330
18
100
AcDbEntity
  8
ADP1DETAIL
100
AcDbPolyline
 90
       15
 70
     0
 43
0.0
 10
107.5696814619061
 20
18.97305408648388
 42
0.0008958923963365
 10
107.5725494698171
 20
18.97083252650797
 42
0.5175223149418944
 10
108.5633936596259
 20
19.21832724031118
 42
0.4118360355588885
 10
108.3382018300222
 20
19.73581615305456
 42
0.2765633048078382
 10
107.5049918744184
 20
19.60081909131414
 42
0.4528957405338973
 10
107.4824727147169
 20
18.47584317436089
 42
0.0373057752852863
 10
108.4733169045256
 20
18.11585088395423
 42
-0.3952610752837311
 10
108.7660664458219
 20
17.5758624860739
 42
0.6516885779873605
 10
108.968739115724
 20
18.16084992968748
 42
0.0344221245164012
 10
108.4733169045256
 20
18.38584508289439
 42
-0.2590159017744622
 10
107.6626262249174
 20
18.74583737330106
 42
-0.3931503583823468
 10
107.730183820316
 20
19.39832342324418
 42
-0.3755183020185958
 10
108.248125074922
 20
19.39832342324418
 42
-0.6686861424451215
 10
107.9103372142226
 20
19.06083061797447
 42
-0.1395089597298761
 10
107.612642282249
 20
19.29719772747857
 42
-0.3413530502084364
  0
LWPOLYLINE
  5
2D5
330
18
100
AcDbEntity
  8
ADP1DETAIL
100
AcDbPolyline
 90
        4
 70
     0
 43
0.0
 10
108.4700065337001
 20
20.32347671269801
 42
-0.0343821773668227
 10
108.9718713768653
 20
20.00161496358942
 42
-0.3765197944088574
 10
109.6531191028919
 20
18.90209902807344
 42
0.4223901150915089
 10
110.458469405053
 20
17.78950780743817
 42
0.286299025191268
  0
LWPOLYLINE
  5
2DB
330
18
100
AcDbEntity
  8
ADP1DETAIL
100
AcDbPolyline
 90
        2
 70
     0
 43
0.0
 10
110.9026395873419
 20
17.8319128621261
 42
0.2932991100441622
 10
111.9588807981582
 20
18.43087793441212
 42
-0.5836757516462434
  0
LWPOLYLINE
  5
2DF
330
18
100
AcDbEntity
  8
ADP1DETAIL
100
AcDbPolyline
 90
        3
 70
     0
 43
0.0
 10
111.4348439963732
 20
18.53559376654101
 42
-0.5999997458446444
 10
111.1728257117746
 20
18.27380426167813
 42
-0.0461492295487498
 10
110.856867443745
 20
18.16246301550264
 42
-0.7823356287259012
  0
LWPOLYLINE
  5
2E4
330
18
100
AcDbEntity
  8
ADP1DETAIL
100
AcDbPolyline
 90
        3
 70
     0
 43
0.0
 10
107.8492578850831
 20
20.60293491854495
 42
0.1019440424856972
 10
107.2572808851132
 20
20.16330697433143
 42
0.2222812174575707
 10
107.2923162571016
 20
19.30630661141118
 42
0.5175223149418944
  0
LWPOLYLINE
  5
2E9
330
18
100
AcDbEntity
  8
ADP1DETAIL
100
AcDbPolyline
 90
        3
 70
     0
 43
0.0
 10
107.503081889388
 20
19.53381294394154
 42
-0.0653244525328836
 10
107.4824727147169
 20
19.7133166679176
 42
-0.3413530502084364
 10
108.4700065337001
 20
20.32347671269801
 42
0.2601553021652323
  0
LWPOLYLINE
  5
2EE
330
18
100
AcDbEntity
  8
ADP1DETAIL
100
AcDbPolyline
 90
        3
 70
     0
 43
0.0
 10
108.8846427591375
 20
24.41293585834642
 42
0.0018056812805565
 10
108.8389513409011
 20
24.3988267716743
 42
0.1950583185523792
 10
105.9914889126447
 20
21.20900586781773
 42
1.419681071089651
  0
LWPOLYLINE
  5
2F3
330
18
100
AcDbEntity
  8
ADP1DETAIL
100
AcDbPolyline
 90
        6
 70
     0
 43
0.0
 10
106.9274359883765
 20
23.54716761179738
 42
0.0622964587500381
 10
107.2230002843739
 20
24.26902715933721
 42
-0.2721077079266835
 10
108.076852732878
 20
25.10572787798164
 42
-0.3849546648037673
 10
109.2426893565186
 20
24.28543297777862
 42
0.0227687518239699
 10
109.3247907958436
 20
23.43232644069279
 42
0.4376275187592863
 10
109.4889929932838
 20
23.15342620114465
 42
0.1072361773449929
  0
LWPOLYLINE
  5
2FB
330
18
100
AcDbEntity
  8
ADP1DETAIL
100
AcDbPolyline
 90
        3
 70
     0
 43
0.0
 10
106.1211281908421
 20
22.71799159037672
 42
-0.0640513352401694
 10
106.8974995459334
 20
23.53671307958011
 42
-0.0040387773857878
 10
106.954405540857
 20
23.59604898248364
 42
-0.1396229503759142
  0
ARC
  5
300
330
18
100
AcDbEntity
  8
ADP1DETAIL
100
AcDbCircle
 10
100.7781737189063
 20
20.33025243654126
 30
0.0
 40
4.330726658944127
100
AcDbArc
 50
41.83954469522324
 51
61.09244878120459
  0
ARC
  5
301
330
18
100
AcDbEntity
  8
ADP1DETAIL
100
AcDbCircle
 10
110.4549823493141
 20
23.10420852481306
 30
0.0
 40
5.962821862004741
100
AcDbArc
 50
165.6631151275049
 51
182.3652947619383
  0
ARC
  5
302
330
18
100
AcDbEntity
  8
ADP1DETAIL
100
AcDbCircle
 10
105.5716873731809
 20
19.73318921655237
 30
0.0
 40
3.122231847621168
100
AcDbArc
 50
117.7159062315566
 51
133.3120634814514
  0
ARC
  5
303
330
18
100
AcDbEntity
  8
ADP1DETAIL
100
AcDbCircle
 10
105.5826323128162
 20
18.44195819757387
 30
0.0
 40
4.483611469984642
100
AcDbArc
 50
110.3825084676728
 51
126.6782572799465
  0
ARC
  5
304
330
18
100
AcDbEntity
  8
ADP1DETAIL
100
AcDbCircle
 10
103.7713672127622
 20
22.03866834933374
 30
0.0
 40
0.7759605857028209
100
AcDbArc
 50
53.35375354406743
 51
114.7628554546774
  0
LWPOLYLINE
  5
305
330
18
100
AcDbEntity
  8
ADP1DETAIL
100
AcDbPolyline
 90
        2
 70
     0
 43
0.0
 10
105.3874817102506
 20
21.12279465331345
 42
-0.0506204691189492
 10
105.6788672599169
 20
21.9669983803188
 42
-0.2002957259808301
  0
ARC
  5
309
330
18
100
AcDbEntity
  8
ADP1DETAIL
100
AcDbCircle
 10
104.9303781862906
 20
24.9010159845734
 30
0.0
 40
1.746842796370228
100
AcDbArc
 50
202.3691616501751
 51
216.6255450291402
  0
ARC
  5
30A
330
18
100
AcDbEntity
  8
ADP1DETAIL
100
AcDbCircle
 10
103.276380420208
 20
23.12710269493928
 30
0.0
 40
0.4108140932336715
100
AcDbArc
 50
70.50119939626165
 51
120.370041104791
  0
ARC
  5
30B
330
18
100
AcDbEntity
  8
ADP1DETAIL
100
AcDbCircle
 10
105.3570978058677
 20
24.41606271322449
 30
0.0
 40
1.694268221710292
100
AcDbArc
 50
187.2106062126137
 51
205.1946753126591
  0
ARC
  5
30C
330
18
100
AcDbEntity
  8
ADP1DETAIL
100
AcDbCircle
 10
105.8017867320714
 20
23.16239582436617
 30
0.0
 40
1.023452336751911
100
AcDbArc
 50
139.5741038120307
 51
170.3537000683388
  0
LWPOLYLINE
  5
30D
330
18
100
AcDbEntity
  8
ADP1DETAIL
100
AcDbPolyline
 90
        5
 70
     0
 43
0.0
 10
107.5823229003681
 20
24.14271473727382
 42
-0.3264342243499188
 10
107.8962299750888
 20
24.71198624632155
 42
-0.2887943568010813
 10
108.7993430828249
 20
24.59714507521695
 42
-0.1157422006011998
 10
109.0292264998462
 20
23.71122668024092
 42
-0.1768873475602371
 10
108.9471250605212
 20
22.94014967737687
 42
1.604694205104686
  0
CIRCLE
  5
314
330
18
100
AcDbEntity
  8
ADP1DETAIL
100
AcDbCircle
 10
109.7188764103051
 20
22.9237436379281
 30
0.0
 40
0.3156342142773242
  0
CIRCLE
  5
315
330
18
100
AcDbEntity
  8
ADP1DETAIL
100
AcDbCircle
 10
109.636775311585
 20
21.8081429007429
 30
0.0
 40
0.2959405124444696
  0
ARC
  5
316
330
18
100
AcDbEntity
  8
ADP1DETAIL
100
AcDbCircle
 10
109.4561525537958
 20
21.33237173486102
 30
0.0
 40
0.2504852916124614
100
AcDbArc
 50
92.51628195361721
 51
45.90597909793157
  0
CIRCLE
  5
317
330
18
100
AcDbEntity
  8
ADP1DETAIL
100
AcDbCircle
 10
109.7352966300491
 20
22.3495373403904
 30
0.0
 40
0.2823412002280068
  0
CIRCLE
  5
318
330
18
100
AcDbEntity
  8
ADP1DETAIL
100
AcDbCircle
 10
108.6187203250358
 20
22.02141942451067
 30
0.0
 40
0.25942259346111
  0
CIRCLE
  5
319
330
18
100
AcDbEntity
  8
ADP1DETAIL
100
AcDbCircle
 10
109.1605882577984
 20
22.15266663506404
 30
0.0
 40
0.2691639597618624
  0
CIRCLE
  5
31A
330
18
100
AcDbEntity
  8
ADP1DETAIL
100
AcDbCircle
 10
109.1113275985663
 20
21.61127197440916
 30
0.0
 40
0.2349327990166505
  0
CIRCLE
  5
31B
330
18
100
AcDbEntity
  8
ADP1DETAIL
100
AcDbCircle
 10
108.6515607645238
 20
21.46361894541439
 30
0.0
 40
0.2594734722350175
  0
ARC
  5
31C
330
18
100
AcDbEntity
  8
ADP1DETAIL
100
AcDbCircle
 10
109.1934286972865
 20
22.77609060893333
 30
0.0
 40
0.2865569373053545
100
AcDbArc
 50
42.01164844191814
 51
349.3795266230027
  0
ARC
  5
31D
330
18
100
AcDbEntity
  8
ADP1DETAIL
100
AcDbCircle
 10
108.7008217643608
 20
22.57921990360696
 30
0.0
 40
0.316886893686696
100
AcDbArc
 50
48.72546634918864
 51
354.8428425300091
  0
ARC
  5
31E
330
18
100
AcDbEntity
  8
ADP1DETAIL
100
AcDbCircle
 10
108.8698638990809
 20
21.21182725028029
 30
0.0
 40
3.141004544245698
100
AcDbArc
 50
358.3082079211609
 51
11.85983056451268
  0
ARC
  5
31F
330
18
100
AcDbEntity
  8
ADP1DETAIL
100
AcDbCircle
 10
109.9250771833786
 20
22.35493673496625
 30
0.0
 40
1.890040818080512
100
AcDbArc
 50
319.8200667757361
 51
351.851472375921
  0
ARC
  5
320
330
18
100
AcDbEntity
  8
ADP1DETAIL
100
AcDbCircle
 10
111.0458730367782
 20
22.01192025761278
 30
0.0
 40
0.5865331896159051
100
AcDbArc
 50
290.8013681082483
 51
2.531364502297985
  0
ARC
  5
321
330
18
100
AcDbEntity
  8
ADP1DETAIL
100
AcDbCircle
 10
113.49750339731
 20
-13.4665048543381
 30
0.0
 40
36.57598342123666
100
AcDbArc
 50
92.61478880429613
 51
94.31561770945943
  0
ARC
  5
322
330
18
100
AcDbEntity
  8
ADP1DETAIL
100
AcDbCircle
 10
111.3442380706094
 20
21.58024217272447
 30
0.0
 40
1.628373514425218
100
AcDbArc
 50
77.4700071473934
 51
112.209552943852
  0
ARC
  5
323
330
18
100
AcDbEntity
  8
ADP1DETAIL
100
AcDbCircle
 10
112.873664063423
 20
19.77821187968287
 30
0.0
 40
3.439036863379741
100
AcDbArc
 50
108.5496514997943
 51
130.3592438453961
  0
ARC
  5
324
330
18
100
AcDbEntity
  8
ADP1DETAIL
100
AcDbCircle
 10
153.2827878375483
 20
-16.02973518381324
 30
0.0
 40
56.90729587536225
100
AcDbArc
 50
136.7804393292618
 51
137.4118457766168
  0
LWPOLYLINE
  5
325
330
18
100
AcDbEntity
  8
ADP1DETAIL
100
AcDbPolyline
 90
        2
 70
     0
 43
0.0
 10
107.5823229003681
 20
24.14271473727382
 42
-0.0574963241141015
 10
108.5949285686251
 20
24.72192816287166
 42
-0.1396229503759142
  0
LWPOLYLINE
  5
329
330
18
100
AcDbEntity
  8
ADP1DETAIL
100
AcDbPolyline
 90
        3
 70
     0
 43
0.0
 10
114.1863654953425
 20
21.34667153060774
 42
0.1021192953269232
 10
114.5338761974139
 20
20.90726606453439
 42
0.0051755843004951
 10
114.5485312796184
 20
20.89522563959759
 42
0.3972299969644224
  0
LWPOLYLINE
  5
32E
330
18
100
AcDbEntity
  8
ADP1DETAIL
100
AcDbPolyline
 90
        5
 70
     0
 43
0.0
 10
114.8838304809101
 20
24.01503845438283
 42
-0.002783097757025
 10
114.965309816094
 20
23.96776981512352
 42
-0.304452906358643
 10
115.9576072412396
 20
20.90726606453439
 42
-0.5221544193297275
 10
114.5770192527375
 20
20.43310361123517
 42
-0.0996060098302072
 10
113.9664604361136
 20
21.27697964564655
 42
-0.3233519248825736
  0
LWPOLYLINE
  5
335
330
18
100
AcDbEntity
  8
ADP1DETAIL
100
AcDbPolyline
 90
        4
 70
     0
 43
0.0
 10
115.1460329384035
 20
20.69322050990402
 42
0.06968380055446
 10
115.3967434347741
 20
20.7348434145185
 42
0.3972299969644224
 10
115.0947400038794
 20
23.19186755854096
 42
0.0302022922418076
 10
114.5421564898047
 20
23.59635501468007
 42
0.2530423346041251
  0
LWPOLYLINE
  5
33B
330
18
100
AcDbEntity
  8
ADP1DETAIL
100
AcDbPolyline
 90
       12
 70
     0
 43
0.0
 10
115.1460329384035
 20
20.69322050990402
 42
-0.1222576086122741
 10
114.9815621176415
 20
20.93863032420829
 42
0.4398513040562669
 10
114.4232743057397
 20
21.54564847963616
 42
0.1870571537507751
 10
113.4544803190274
 20
21.16831288742484
 42
0.3951729631012056
 10
113.6022622967237
 20
19.93787075812768
 42
0.3618476640337541
 10
114.2426515479505
 20
20.08552378712245
 42
0.552072436239381
 10
114.1933908887184
 20
20.21677099767582
 42
-0.1546054624428179
 10
113.6679431756998
 20
20.23317681611723
 42
-0.3415485259327091
 10
113.7007836151879
 20
21.06987753476166
 42
-0.308097331034144
 10
114.571056283436
 20
21.31596591641961
 42
-0.4902829223457471
 10
114.685998162249
 20
20.98784800053989
 42
-0.2043482204559971
 10
114.5485312796184
 20
20.89522563959759
 42
0.7759385527300476
  0
ARC
  5
349
330
18
100
AcDbEntity
  8
ADP1DETAIL
100
AcDbCircle
 10
110.2900544863822
 20
18.42618302893438
 30
0.0
 40
2.678875100136578
100
AcDbArc
 50
14.19998459461165
 51
24.41132729125438
  0
ARC
  5
34A
330
18
100
AcDbEntity
  8
ADP1DETAIL
100
AcDbCircle
 10
115.9709175842881
 20
19.71707977547084
 30
0.0
 40
2.976920838593962
100
AcDbArc
 50
183.5390022562532
 51
192.7352076920055
  0
ARC
  5
34B
330
18
100
AcDbEntity
  8
ADP1DETAIL
100
AcDbCircle
 10
106.7217664157223
 20
11.63637714145498
 30
0.0
 40
9.512520804770295
100
AcDbArc
 50
50.65992324799243
 51
54.91864524248455
  0
ARC
  5
34C
330
18
100
AcDbEntity
  8
ADP1DETAIL
100
AcDbCircle
 10
112.2166436437752
 20
19.0110910140325
 30
0.0
 40
0.5353399433488045
100
AcDbArc
 50
0.5073739241185127
 51
63.0564081896902
  0
LWPOLYLINE
  5
34D
330
18
100
AcDbEntity
  8
ADP1DETAIL
100
AcDbPolyline
 90
        4
 70
     0
 43
0.0
 10
117.3910640922265
 20
23.92466409736771
 42
0.634015744175203
 10
117.089060320727
 20
24.74367207170608
 42
0.3961694503024629
 10
114.1455856340574
 20
22.50217651646268
 42
0.1848121274746993
 10
114.1163090593981
 20
21.51201211637559
 42
0.0045704031969981
  0
CIRCLE
  5
353
330
18
100
AcDbEntity
  8
ADP1DETAIL
100
AcDbCircle
 10
117.3345264101391
 20
23.51435597491456
 30
0.0
 40
0.3831770092178531
  0
ARC
  5
354
330
18
100
AcDbEntity
  8
ADP1DETAIL
100
AcDbCircle
 10
114.5750051623541
 20
24.5075744895759
 30
0.0
 40
2.776060855872003
100
AcDbArc
 50
216.8756678551694
 51
239.3290172397593
  0
ARC
  5
355
330
18
100
AcDbEntity
  8
ADP1DETAIL
100
AcDbCircle
 10
115.5264699515574
 20
22.96308616263071
 30
0.0
 40
3.210436668976043
100
AcDbArc
 50
183.3391480646884
 51
200.4583361495541
  0
ARC
  5
356
330
18
100
AcDbEntity
  8
ADP1DETAIL
100
AcDbCircle
 10
112.5349469915473
 20
20.54039231290231
 30
0.0
 40
2.597095296477013
100
AcDbArc
 50
83.46525448287527
 51
96.53474551712456
  0
ARC
  5
357
330
18
100
AcDbEntity
  8
ADP1DETAIL
100
AcDbCircle
 10
118.2880701497931
 20
30.20759086768771
 30
0.0
 40
9.348142412742941
100
AcDbArc
 50
230.0755141203894
 51
237.2035892230935
  0
LWPOLYLINE
  5
358
330
18
100
AcDbEntity
  8
ADP1DETAIL
100
AcDbPolyline
 90
        3
 70
     0
 43
0.0
 10
114.1613661917132
 20
23.82076222894759
 42
0.0522602318752678
 10
113.0670014170547
 20
24.26950961840685
 42
0.2530423346041251
 10
112.3767074228037
 20
23.40739592631267
 42
1.197766901517452
  0
LWPOLYLINE
  5
35D
330
18
100
AcDbEntity
  8
ADP1DETAIL
100
AcDbPolyline
 90
        9
 70
     0
 43
0.0
 10
119.8599793032709
 20
23.76734326966001
 42
0.0252607391858493
 10
120.2080679307878
 20
23.03858503004005
 42
-0.3069736702615769
 10
119.8304025360703
 20
22.31672548250022
 42
-0.5000816981996032
 10
119.3706357020277
 20
22.53000222727536
 42
-0.7733301143086232
 10
119.6333595585371
 20
22.66124943782873
 42
0.6281142574770841
 10
119.5676786795609
 20
22.87452596159651
 42
0.6177920987788282
 10
119.1079118455184
 20
22.51359640883396
 42
0.5448986776266175
 10
120.0767061728356
 20
22.13626081662262
 42
0.3892002026439292
 10
120.4707917872971
 20
23.2682675932566
 42
4.84212599856895
  0
ARC
  5
368
330
18
100
AcDbEntity
  8
ADP1DETAIL
100
AcDbCircle
 10
118.3854214955715
 20
23.4487322591342
 30
0.0
 40
0.3232053679432056
100
AcDbArc
 50
288.053111930964
 51
236.1928241928428
  0
ARC
  5
369
330
18
100
AcDbEntity
  8
ADP1DETAIL
100
AcDbCircle
 10
118.2704799573633
 20
22.3495373403904
 30
0.0
 40
0.2671956406709317
100
AcDbArc
 50
173.8358748015111
 51
56.49631095778597
  0
CIRCLE
  5
36A
330
18
100
AcDbEntity
  8
ADP1DETAIL
100
AcDbCircle
 10
117.9749156613659
 20
21.85736057707449
 30
0.0
 40
0.3186342506969007
  0
ARC
  5
36B
330
18
100
AcDbEntity
  8
ADP1DETAIL
100
AcDbCircle
 10
117.5644094865555
 20
22.30031966405881
 30
0.0
 40
0.3053406116092178
100
AcDbArc
 50
91.08078509668146
 51
9.750707782790795
  0
ARC
  5
36C
330
18
100
AcDbEntity
  8
ADP1DETAIL
100
AcDbCircle
 10
118.3033203968513
 20
22.87452596159651
 30
0.0
 40
0.3232053044469585
100
AcDbArc
 50
248.558306277935
 51
108.0531174673197
  0
ARC
  5
36D
330
18
100
AcDbEntity
  8
ADP1DETAIL
100
AcDbCircle
 10
117.8928145626458
 20
23.20264387747624
 30
0.0
 40
0.3135814970358581
100
AcDbArc
 50
303.7437162380019
 51
356.345212709224
  0
ARC
  5
36E
330
18
100
AcDbEntity
  8
ADP1DETAIL
100
AcDbCircle
 10
118.2704799573633
 20
22.3495373403904
 30
0.0
 40
0.2671956406709317
100
AcDbArc
 50
106.602259806698
 51
116.3447909416108
  0
ARC
  5
36F
330
18
100
AcDbEntity
  8
ADP1DETAIL
100
AcDbCircle
 10
117.4330477286033
 20
22.8581201431551
 30
0.0
 40
0.3461650596416315
100
AcDbArc
 50
124.4153694328037
 51
256.7298822993712
  0
ARC
  5
370
330
18
100
AcDbEntity
  8
ADP1DETAIL
100
AcDbCircle
 10
117.8928145626458
 20
23.20264387747624
 30
0.0
 40
0.3135814970358581
100
AcDbArc
 50
176.847480922527
 51
185.7621451942786
  0
CIRCLE
  5
371
330
18
100
AcDbEntity
  8
ADP1DETAIL
100
AcDbCircle
 10
117.8763940022969
 20
22.67765525627014
 30
0.0
 40
0.3258101956068455
  0
ARC
  5
372
330
18
100
AcDbEntity
  8
ADP1DETAIL
100
AcDbCircle
 10
117.4330477286033
 20
22.8581201431551
 30
0.0
 40
0.3461650596416315
100
AcDbArc
 50
8.961212047484343
 51
72.66083871203412
  0
LWPOLYLINE
  5
373
330
18
100
AcDbEntity
  8
ADP1DETAIL
100
AcDbPolyline
 90
        4
 70
     0
 43
0.0
 10
119.8599793032709
 20
23.76734326966001
 42
0.0041447458764288
 10
119.2893721506608
 20
24.26950961840685
 42
0.1681544974527041
 10
117.9950712946205
 20
24.78677778946189
 42
0.90923699762021
 10
117.951927898692
 20
24.48503798617856
 42
0.1190708725506493
  0
LWPOLYLINE
  5
379
330
18
100
AcDbEntity
  8
ADP1DETAIL
100
AcDbPolyline
 90
        4
 70
     0
 43
0.0
 10
117.9584954416219
 20
24.48230368310499
 42
0.2747429894210049
 10
118.2704799573633
 20
24.41668018833199
 42
-1.1175199202888
 10
118.007756100854
 20
23.80966203290412
 42
-0.6642001781903354
 10
117.6957715851126
 20
23.56357365124615
 42
-3.878099334632606
  0
ARC
  5
37F
330
18
100
AcDbEntity
  8
ADP1DETAIL
100
AcDbCircle
 10
117.8928145626458
 20
23.20264387747624
 30
0.0
 40
0.3135814970358581
100
AcDbArc
 50
57.19876305061948
 51
124.800171247594
  0
ARC
  5
380
330
18
100
AcDbEntity
  8
ADP1DETAIL
100
AcDbCircle
 10
123.1233387250685
 20
22.89911455012725
 30
0.0
 40
2.157592906385185
100
AcDbArc
 50
2.397400340627695
 51
20.2417614590226
  0
ARC
  5
381
330
18
100
AcDbEntity
  8
ADP1DETAIL
100
AcDbCircle
 10
123.928130398832
 20
23.51343918950234
 30
0.0
 40
1.091345577346546
100
AcDbArc
 50
326.2637477214049
 51
4.358895633560274
  0
LWPOLYLINE
  5
382
330
18
100
AcDbEntity
  8
ADP1DETAIL
100
AcDbPolyline
 90
       33
 70
     0
 43
0.0
 10
124.6222336821511
 20
24.40027436989058
 42
0.0902403902345398
 10
124.7043347808713
 20
24.77760996210191
 42
-0.5323233860959018
 10
124.8356965388235
 20
24.85963927531632
 42
-0.113865883704748
 10
125.1641012743089
 20
25.13853951486446
 42
-0.3257527002169144
 10
125.3775644715861
 20
25.10572787798164
 42
0.0623050338653294
 10
125.4432453505623
 20
24.84323345687491
 42
0.2516008835949961
 10
125.5581872293753
 20
24.74479810421172
 42
-0.6177923661981778
 10
125.7716500860477
 20
24.67917460943872
 42
-0.0877398310760503
 10
125.5089265701432
 20
24.31824483566881
 42
0.6732188125289406
 10
125.5417670096313
 20
24.23621530144703
 42
-0.217392858341545
 10
126.1493158213701
 20
24.23621530144703
 42
-0.748197263793212
 10
126.1164750412772
 20
24.00653273823048
 42
-0.0622517010459352
 10
126.3135180188103
 20
23.8424738907943
 42
-0.2731503450399348
 10
126.3463584582984
 20
23.69482086179953
 42
-0.2401617383693383
 10
126.2806775793223
 20
23.62919714601915
 42
-0.2019822685611529
 10
126.4448801173674
 20
23.43232644069279
 42
-0.2777011027620428
 10
126.4284598976234
 20
23.36670294591978
 42
-0.1058498110357992
 10
125.9030121846048
 20
23.31748526958819
 42
0.2530431072475003
 10
125.7716500860477
 20
23.15342620114465
 42
-0.734537633448
 10
125.6402883280955
 20
23.13702038270324
 42
0.0156264278121514
 10
125.4760857900503
 20
23.35029690647102
 42
0.9566656147111716
 10
125.4104049110742
 20
23.30107923013942
 42
0.1927383858623
 10
125.4432453505623
 20
23.12061434325447
 42
-0.6142201056999576
 10
125.3939846913302
 20
23.03858503004005
 42
0.1782646865955077
 10
125.2626229333779
 20
22.95655549581828
 42
-0.1814827547139238
 10
125.2133622741459
 20
22.69406107471155
 42
-0.4504967647138275
 10
125.0327395163567
 20
22.66124943782873
 42
0.0320272221561133
 10
124.8521167585675
 20
22.90733781948669
 42
-0.3823494320258547
 10
124.5893932426631
 20
22.97296131425969
 42
-0.1895439391224778
 10
124.5565524625702
 20
23.43232644069279
 42
-0.4139575781810669
 10
124.3923502651299
 20
23.49794993546579
 42
-0.1027605015119589
 10
124.490871583594
 20
23.97372110134766
 42
0.2073957398250496
 10
124.490871583594
 20
24.17059180667403
 42
-1.523327340630927
  0
ARC
  5
3A5
330
18
100
AcDbEntity
  8
ADP1DETAIL
100
AcDbCircle
 10
124.89316747823
 20
24.85212525754163
 30
0.0
 40
0.5995860177921709
100
AcDbArc
 50
246.6032241792471
 51
336.5531322402257
  0
ARC
  5
3A6
330
18
100
AcDbEntity
  8
ADP1DETAIL
100
AcDbCircle
 10
124.8528413459059
 20
22.99248082427709
 30
0.0
 40
0.9955973963428455
100
AcDbArc
 50
20.05487672165363
 51
75.71974752557101
  0
ARC
  5
3A7
330
18
100
AcDbEntity
  8
ADP1DETAIL
100
AcDbCircle
 10
125.6649186577115
 20
24.77630535511075
 30
0.0
 40
0.8685572701415573
100
AcDbArc
 50
242.4076976788585
 51
297.5923023211413
  0
ARC
  5
3A8
330
18
100
AcDbEntity
  8
ADP1DETAIL
100
AcDbCircle
 10
125.1498317847263
 20
24.45231235536061
 30
0.0
 40
0.3616391840392024
100
AcDbArc
 50
253.8366342595189
 51
319.9905506201449
  0
ARC
  5
3A9
330
18
100
AcDbEntity
  8
ADP1DETAIL
100
AcDbCircle
 10
124.470257641733
 20
23.99932503532175
 30
0.0
 40
0.5439722872253844
100
AcDbArc
 50
280.8841640088859
 51
346.819152384633
  0
TEXT
  5
3B7
330
18
100
AcDbEntity
  8
ADPDIM
100
AcDbText
 10
88.08651292057767
 20
-0.0389918204942204
 30
0.0
 40
0.5
  1
J U L I U S  B L U M  &  C O . ,  I N C .      ( 8 0 0 )  5 2 6 - 6 2 9 3        W W W . J U L I U S B L U M . C O M        P A R T  N o .  5 1 5
 41
1.25
  7
ARIAL_WIDE
 72
     1
 11
113.8253430706458
 21
0.4610081795057797
 31
0.0
100
AcDbText
 73
     3
  0
ENDSEC
  0
SECTION
  2
OBJECTS
  0
DICTIONARY
  5
C
330
0
100
AcDbDictionary
  3
ACAD_GROUP
350
D
  3
ACAD_LAYOUT
350
3B0
  3
ACAD_MLINESTYLE
350
E
  3
ACAD_PLOTSETTINGS
350
3B1
  3
ACAD_PLOTSTYLENAME
350
3AE
  3
ACDBHEADERROUNDTRIPXREC
350
4FF
  3
ACDBVARIABLEDICTIONARY
350
411
  0
DICTIONARY
  5
40B
330
18
100
AcDbDictionary
280
     1
  3
ACAD_LAYOUTSELFREF
360
520
  0
DICTIONARY
  5
409
330
15
100
AcDbDictionary
280
     1
  3
ACAD_LAYOUTSELFREF
360
51F
  0
DICTIONARY
  5
D
102
{ACAD_REACTORS
330
C
102
}
330
C
100
AcDbDictionary
  0
DICTIONARY
  5
3B0
102
{ACAD_REACTORS
330
C
102
}
330
C
100
AcDbDictionary
  0
DICTIONARY
  5
E
102
{ACAD_REACTORS
330
C
102
}
330
C
100
AcDbDictionary
  3
STANDARD
350
1B
  0
DICTIONARY
  5
3B1
102
{ACAD_REACTORS
330
C
102
}
330
C
100
AcDbDictionary
  0
ACDBDICTIONARYWDFLT
  5
3AE
102
{ACAD_REACTORS
330
C
102
}
330
C
100
AcDbDictionary
281
     1
  3
Normal
350
3AF
100
AcDbDictionaryWithDefault
340
3AF
  0
DICTIONARY
  5
4FF
102
{ACAD_REACTORS
330
C
102
}
330
C
100
AcDbDictionary
  3
CEPSNTYPE
350
509
  3
FINGERPRINTGUID
350
50A
  3
HYPERLINKBASE
350
502
  3
INSUNITS
350
508
  3
LAYOUTDICT
350
504
  3
LWETCUNION
350
507
  3
PLOTSETDICT
350
505
  3
PLOTSTYLNAMDICT
350
506
  3
PSVPSCALE
350
50C
  3
PUCSBASE
350
50F
  3
PUCSORGBACK
350
515
  3
PUCSORGBOTTOM
350
511
  3
PUCSORGFRONT
350
514
  3
PUCSORGLEFT
350
512
  3
PUCSORGRIGHT
350
513
  3
PUCSORGTOP
350
510
  3
PUCSORTHOREF
350
50D
  3
PUCSORTHOVIEW
350
50E
  3
STYLESHEET
350
503
  3
TSTACKALIGN
350
500
  3
TSTACKSIZE
350
501
  3
UCSBASE
350
518
  3
UCSORGBACK
350
51E
  3
UCSORGBOTTOM
350
51A
  3
UCSORGFRONT
350
51D
  3
UCSORGLEFT
350
51B
  3
UCSORGRIGHT
350
51C
  3
UCSORGTOP
350
519
  3
UCSORTHOREF
350
516
  3
UCSORTHOVIEW
350
517
  3
VERSIONGUID
350
50B
  0
DICTIONARY
  5
411
102
{ACAD_REACTORS
330
C
102
}
330
C
100
AcDbDictionary
  3
DIMASSOC
350
412
  0
XRECORD
  5
520
102
{ACAD_REACTORS
330
40B
102
}
330
40B
100
AcDbXrecord
340
18
  0
XRECORD
  5
51F
102
{ACAD_REACTORS
330
409
102
}
330
409
100
AcDbXrecord
340
15
  0
MLINESTYLE
  5
1B
102
{ACAD_REACTORS
330
E
102
}
330
E
100
AcDbMlineStyle
  2
STANDARD
 70
     0
  3

 62
     0
 51
90.0
 52
90.0
 71
     2
 49
0.5
 62
   256
  6
BYLAYER
 49
-0.5
 62
   256
  6
BYLAYER
  0
ACDBPLACEHOLDER
  5
3AF
102
{ACAD_REACTORS
330
3AE
102
}
330
3AE
100
AcDbPlaceHolder
280
     0
  0
XRECORD
  5
509
102
{ACAD_REACTORS
330
4FF
102
}
330
4FF
100
AcDbXrecord
 90
        0
  0
XRECORD
  5
50A
102
{ACAD_REACTORS
330
4FF
102
}
330
4FF
100
AcDbXrecord
  1
{C6F123B7-377D-42FF-A281-639290B861E6}
  0
XRECORD
  5
502
102
{ACAD_REACTORS
330
4FF
102
}
330
4FF
100
AcDbXrecord
  1

  0
XRECORD
  5
508
102
{ACAD_REACTORS
330
4FF
102
}
330
4FF
100
AcDbXrecord
 90
        0
  0
XRECORD
  5
504
102
{ACAD_REACTORS
330
4FF
102
}
330
4FF
100
AcDbXrecord
340
3B0
  0
XRECORD
  5
507
102
{ACAD_REACTORS
330
4FF
102
}
330
4FF
100
AcDbXrecord
 90
    14877
  0
XRECORD
  5
505
102
{ACAD_REACTORS
330
4FF
102
}
330
4FF
100
AcDbXrecord
340
3B1
  0
XRECORD
  5
506
102
{ACAD_REACTORS
330
4FF
102
}
330
4FF
100
AcDbXrecord
340
3AE
  0
XRECORD
  5
50C
102
{ACAD_REACTORS
330
4FF
102
}
330
4FF
100
AcDbXrecord
 40
0.0
  0
XRECORD
  5
50F
102
{ACAD_REACTORS
330
4FF
102
}
330
4FF
100
AcDbXrecord
340
0
  0
XRECORD
  5
515
102
{ACAD_REACTORS
330
4FF
102
}
330
4FF
100
AcDbXrecord
 10
0.0
 20
0.0
 30
0.0
  0
XRECORD
  5
511
102
{ACAD_REACTORS
330
4FF
102
}
330
4FF
100
AcDbXrecord
 10
0.0
 20
0.0
 30
0.0
  0
XRECORD
  5
514
102
{ACAD_REACTORS
330
4FF
102
}
330
4FF
100
AcDbXrecord
 10
0.0
 20
0.0
 30
0.0
  0
XRECORD
  5
512
102
{ACAD_REACTORS
330
4FF
102
}
330
4FF
100
AcDbXrecord
 10
0.0
 20
0.0
 30
0.0
  0
XRECORD
  5
513
102
{ACAD_REACTORS
330
4FF
102
}
330
4FF
100
AcDbXrecord
 10
0.0
 20
0.0
 30
0.0
  0
XRECORD
  5
510
102
{ACAD_REACTORS
330
4FF
102
}
330
4FF
100
AcDbXrecord
 10
0.0
 20
0.0
 30
0.0
  0
XRECORD
  5
50D
102
{ACAD_REACTORS
330
4FF
102
}
330
4FF
100
AcDbXrecord
340
0
  0
XRECORD
  5
50E
102
{ACAD_REACTORS
330
4FF
102
}
330
4FF
100
AcDbXrecord
 70
     0
  0
XRECORD
  5
503
102
{ACAD_REACTORS
330
4FF
102
}
330
4FF
100
AcDbXrecord
  1

  0
XRECORD
  5
500
102
{ACAD_REACTORS
330
4FF
102
}
330
4FF
100
AcDbXrecord
 90
        1
  0
XRECORD
  5
501
102
{ACAD_REACTORS
330
4FF
102
}
330
4FF
100
AcDbXrecord
 90
       70
  0
XRECORD
  5
518
102
{ACAD_REACTORS
330
4FF
102
}
330
4FF
100
AcDbXrecord
340
0
  0
XRECORD
  5
51E
102
{ACAD_REACTORS
330
4FF
102
}
330
4FF
100
AcDbXrecord
 10
0.0
 20
0.0
 30
0.0
  0
XRECORD
  5
51A
102
{ACAD_REACTORS
330
4FF
102
}
330
4FF
100
AcDbXrecord
 10
0.0
 20
0.0
 30
0.0
  0
XRECORD
  5
51D
102
{ACAD_REACTORS
330
4FF
102
}
330
4FF
100
AcDbXrecord
 10
0.0
 20
0.0
 30
0.0
  0
XRECORD
  5
51B
102
{ACAD_REACTORS
330
4FF
102
}
330
4FF
100
AcDbXrecord
 10
0.0
 20
0.0
 30
0.0
  0
XRECORD
  5
51C
102
{ACAD_REACTORS
330
4FF
102
}
330
4FF
100
AcDbXrecord
 10
0.0
 20
0.0
 30
0.0
  0
XRECORD
  5
519
102
{ACAD_REACTORS
330
4FF
102
}
330
4FF
100
AcDbXrecord
 10
0.0
 20
0.0
 30
0.0
  0
XRECORD
  5
516
102
{ACAD_REACTORS
330
4FF
102
}
330
4FF
100
AcDbXrecord
340
0
  0
XRECORD
  5
517
102
{ACAD_REACTORS
330
4FF
102
}
330
4FF
100
AcDbXrecord
 70
     0
  0
XRECORD
  5
50B
102
{ACAD_REACTORS
330
4FF
102
}
330
4FF
100
AcDbXrecord
  1
{1F31337F-1A16-4C98-BFCA-D431B8A5F19C}
  0
DICTIONARYVAR
  5
412
102
{ACAD_REACTORS
330
411
102
}
330
411
100
DictionaryVariables
280
     0
  1
1
  0
ENDSEC
  0
EOF
