  0
SECTION
  2
HEADER
  9
$ACADVER
  1
AC1014
  9
$ACADMAINTVER
 70
     9
  9
$DWGCODEPAGE
  3
ANSI_1252
  9
$INSBASE
 10
93.01737072180719
 20
7.071163613023384
 30
0.0
  9
$EXTMIN
 10
66.6697097150755
 20
3.670869052899111
 30
0.0
  9
$EXTMAX
 10
105.2779549401778
 20
12.37790222319444
 30
0.0
  9
$LIMMIN
 10
0.0
 20
0.0
  9
$LIMMAX
 10
36.0
 20
36.0
  9
$ORTHOMODE
 70
     1
  9
$REGENMODE
 70
     1
  9
$FILLMODE
 70
     1
  9
$QTEXTMODE
 70
     0
  9
$MIRRTEXT
 70
     1
  9
$DRAGMODE
 70
     0
  9
$LTSCALE
 40
1.0
  9
$OSMODE
 70
    37
  9
$ATTMODE
 70
     1
  9
$TEXTSIZE
 40
0.2
  9
$TRACEWID
 40
0.05
  9
$TEXTSTYLE
  7
STANDARD
  9
$CLAYER
  8
ADPDIM
  9
$CELTYPE
  6
BYLAYER
  9
$CECOLOR
 62
   256
  9
$CELTSCALE
 40
1.0
  9
$DELOBJ
 70
     1
  9
$DISPSILH
 70
     0
  9
$DIMSCALE
 40
1.0
  9
$DIMASZ
 40
0.125
  9
$DIMEXO
 40
0.0625
  9
$DIMDLI
 40
0.38
  9
$DIMRND
 40
0.0
  9
$DIMDLE
 40
0.0
  9
$DIMEXE
 40
0.18
  9
$DIMTP
 40
0.0
  9
$DIMTM
 40
0.0
  9
$DIMTXT
 40
0.125
  9
$DIMCEN
 40
0.1875
  9
$DIMTSZ
 40
0.125
  9
$DIMTOL
 70
     0
  9
$DIMLIM
 70
     0
  9
$DIMTIH
 70
     0
  9
$DIMTOH
 70
     0
  9
$DIMSE1
 70
     0
  9
$DIMSE2
 70
     0
  9
$DIMTAD
 70
     0
  9
$DIMZIN
 70
     3
  9
$DIMBLK
  1

  9
$DIMASO
 70
     1
  9
$DIMSHO
 70
     1
  9
$DIMPOST
  1

  9
$DIMAPOST
  1

  9
$DIMALT
 70
     0
  9
$DIMALTD
 70
     1
  9
$DIMALTF
 40
25.4
  9
$DIMLFAC
 40
1.0
  9
$DIMTOFL
 70
     0
  9
$DIMTVP
 40
0.0
  9
$DIMTIX
 70
     0
  9
$DIMSOXD
 70
     0
  9
$DIMSAH
 70
     0
  9
$DIMBLK1
  1

  9
$DIMBLK2
  1

  9
$DIMSTYLE
  2
STANDARD
  9
$DIMCLRD
 70
     0
  9
$DIMCLRE
 70
     0
  9
$DIMCLRT
 70
     0
  9
$DIMTFAC
 40
1.0
  9
$DIMGAP
 40
0.125
  9
$DIMJUST
 70
     0
  9
$DIMSD1
 70
     0
  9
$DIMSD2
 70
     0
  9
$DIMTOLJ
 70
     1
  9
$DIMTZIN
 70
     0
  9
$DIMALTZ
 70
     0
  9
$DIMALTTZ
 70
     0
  9
$DIMFIT
 70
     3
  9
$DIMUPT
 70
     0
  9
$DIMUNIT
 70
     2
  9
$DIMDEC
 70
     4
  9
$DIMTDEC
 70
     4
  9
$DIMALTU
 70
     2
  9
$DIMALTTD
 70
     2
  9
$DIMTXSTY
  7
STANDARD
  9
$DIMAUNIT
 70
     0
  9
$LUNITS
 70
     5
  9
$LUPREC
 70
     4
  9
$SKETCHINC
 40
0.1
  9
$FILLETRAD
 40
0.01
  9
$AUNITS
 70
     0
  9
$AUPREC
 70
     0
  9
$MENU
  1
acad
  9
$ELEVATION
 40
0.0
  9
$PELEVATION
 40
0.0
  9
$THICKNESS
 40
0.0
  9
$LIMCHECK
 70
     0
  9
$BLIPMODE
 70
     0
  9
$CHAMFERA
 40
0.0
  9
$CHAMFERB
 40
0.0
  9
$CHAMFERC
 40
0.0
  9
$CHAMFERD
 40
0.0
  9
$SKPOLY
 70
     0
  9
$TDCREATE
 40
2450386.581627117
  9
$TDUPDATE
 40
2452297.071770648
  9
$TDINDWG
 40
0.0329293171
  9
$TDUSRTIMER
 40
0.0329293171
  9
$USRTIMER
 70
     1
  9
$ANGBASE
 50
0.0
  9
$ANGDIR
 70
     0
  9
$PDMODE
 70
     0
  9
$PDSIZE
 40
0.0
  9
$PLINEWID
 40
0.0
  9
$COORDS
 70
     2
  9
$SPLFRAME
 70
     0
  9
$SPLINETYPE
 70
     6
  9
$SPLINESEGS
 70
     8
  9
$ATTDIA
 70
     0
  9
$ATTREQ
 70
     1
  9
$HANDLING
 70
 22529
  9
$HANDSEED
  5
385
  9
$SURFTAB1
 70
     6
  9
$SURFTAB2
 70
     6
  9
$SURFTYPE
 70
     6
  9
$SURFU
 70
     6
  9
$SURFV
 70
     6
  9
$UCSNAME
  2

  9
$UCSORG
 10
0.0
 20
0.0
 30
0.0
  9
$UCSXDIR
 10
1.0
 20
0.0
 30
0.0
  9
$UCSYDIR
 10
0.0
 20
1.0
 30
0.0
  9
$PUCSNAME
  2

  9
$PUCSORG
 10
0.0
 20
0.0
 30
0.0
  9
$PUCSXDIR
 10
1.0
 20
0.0
 30
0.0
  9
$PUCSYDIR
 10
0.0
 20
1.0
 30
0.0
  9
$USERI1
 70
     0
  9
$USERI2
 70
     0
  9
$USERI3
 70
     0
  9
$USERI4
 70
     0
  9
$USERI5
 70
     0
  9
$USERR1
 40
0.0
  9
$USERR2
 40
0.0
  9
$USERR3
 40
0.0
  9
$USERR4
 40
0.0
  9
$USERR5
 40
0.0
  9
$WORLDVIEW
 70
     1
  9
$SHADEDGE
 70
     3
  9
$SHADEDIF
 70
    70
  9
$TILEMODE
 70
     1
  9
$MAXACTVP
 70
    15
  9
$PINSBASE
 10
4.403525741743744E+99
 20
7.061986388769092E+99
 30
0.0
  9
$PLIMCHECK
 70
     0
  9
$PEXTMIN
 10
1.000000000000000E+20
 20
1.000000000000000E+20
 30
1.000000000000000E+20
  9
$PEXTMAX
 10
-1.000000000000000E+20
 20
-1.000000000000000E+20
 30
-1.000000000000000E+20
  9
$PLIMMIN
 10
0.0
 20
0.0
  9
$PLIMMAX
 10
12.0
 20
9.0
  9
$UNITMODE
 70
     0
  9
$VISRETAIN
 70
     0
  9
$PLINEGEN
 70
     0
  9
$PSLTSCALE
 70
     1
  9
$TREEDEPTH
 70
  3020
  9
$PICKSTYLE
 70
     1
  9
$CMLSTYLE
  2
STANDARD
  9
$CMLJUST
 70
     0
  9
$CMLSCALE
 40
1.0
  9
$PROXYGRAPHICS
 70
     1
  9
$MEASUREMENT
 70
     0
  0
ENDSEC
  0
SECTION
  2
CLASSES
  0
CLASS
  1
ACDBDICTIONARYWDFLT
  2
AcDbDictionaryWithDefault
  3
AutoCAD 2000
 90
        0
280
     0
281
     0
  0
CLASS
  1
ACDBPLACEHOLDER
  2
AcDbPlaceHolder
  3
AutoCAD 2000
 90
        0
280
     0
281
     0
  0
CLASS
  1
LAYOUT
  2
AcDbLayout
  3
AutoCAD 2000
 90
        0
280
     0
281
     0
  0
CLASS
  1
DICTIONARYVAR
  2
AcDbDictionaryVar
  3
AutoCAD 2000
 90
        0
280
     0
281
     0
  0
CLASS
  1
LONG_TRANSACTION
  2
AcDbLongTransaction
  3
AutoCAD 2000
 90
        0
280
     0
281
     0
  0
CLASS
  1
LWPOLYLINE
  2
AcDbPolyline
  3
AutoCAD 2000
 90
        0
280
     0
281
     1
  0
CLASS
  1
HATCH
  2
AcDbHatch
  3
AutoCAD 2000
 90
        0
280
     0
281
     1
  0
CLASS
  1
XRECORD
  2
AcDbXrecord
  3
AutoCAD 2000
 90
        0
280
     0
281
     0
  0
CLASS
  1
LONG_TRANSACTION
  2
AcDbLongTransaction
  3
AutoCAD 2000
 90
        0
280
     0
281
     0
  0
CLASS
  1
LWPOLYLINE
  2
AcDbPolyline
  3
AutoCAD 2000
 90
        0
280
     0
281
     1
  0
CLASS
  1
HATCH
  2
AcDbHatch
  3
AutoCAD 2000
 90
        0
280
     0
281
     1
  0
CLASS
  1
XRECORD
  2
AcDbXrecord
  3
AutoCAD 2000
 90
        0
280
     0
281
     0
  0
CLASS
  1
LONG_TRANSACTION
  2
AcDbLongTransaction
  3
AutoCAD 2000
 90
        0
280
     0
281
     0
  0
CLASS
  1
LWPOLYLINE
  2
AcDbPolyline
  3
AutoCAD 2000
 90
        0
280
     0
281
     1
  0
CLASS
  1
HATCH
  2
AcDbHatch
  3
AutoCAD 2000
 90
        0
280
     0
281
     1
  0
CLASS
  1
XRECORD
  2
AcDbXrecord
  3
AutoCAD 2000
 90
        0
280
     0
281
     0
  0
CLASS
  1
LONG_TRANSACTION
  2
AcDbLongTransaction
  3
AutoCAD 2000
 90
        0
280
     0
281
     0
  0
CLASS
  1
LWPOLYLINE
  2
AcDbPolyline
  3
AutoCAD 2000
 90
        0
280
     0
281
     1
  0
CLASS
  1
HATCH
  2
AcDbHatch
  3
AutoCAD 2000
 90
        0
280
     0
281
     1
  0
CLASS
  1
XRECORD
  2
AcDbXrecord
  3
AutoCAD 2000
 90
        0
280
     0
281
     0
  0
CLASS
  1
LONG_TRANSACTION
  2
AcDbLongTransaction
  3
AutoCAD 2000
 90
        0
280
     0
281
     0
  0
CLASS
  1
LWPOLYLINE
  2
AcDbPolyline
  3
AutoCAD 2000
 90
        0
280
     0
281
     1
  0
CLASS
  1
HATCH
  2
AcDbHatch
  3
AutoCAD 2000
 90
        0
280
     0
281
     1
  0
CLASS
  1
XRECORD
  2
AcDbXrecord
  3
AutoCAD 2000
 90
        0
280
     0
281
     0
  0
CLASS
  1
LONG_TRANSACTION
  2
AcDbLongTransaction
  3
AutoCAD 2000
 90
        0
280
     0
281
     0
  0
CLASS
  1
LWPOLYLINE
  2
AcDbPolyline
  3
AutoCAD 2000
 90
        0
280
     0
281
     1
  0
CLASS
  1
HATCH
  2
AcDbHatch
  3
AutoCAD 2000
 90
        0
280
     0
281
     1
  0
CLASS
  1
XRECORD
  2
AcDbXrecord
  3
AutoCAD 2000
 90
        0
280
     0
281
     0
  0
ENDSEC
  0
SECTION
  2
TABLES
  0
TABLE
  2
VPORT
  5
8
330
0
100
AcDbSymbolTable
 70
     2
  0
VPORT
  5
362
330
8
100
AcDbSymbolTableRecord
100
AcDbViewportTableRecord
  2
*ACTIVE
 70
     0
 10
0.0
 20
0.0
 11
1.0
 21
1.0
 12
86.00359010113137
 22
8.024245917337852
 13
0.0
 23
0.0
 14
0.5740882589684922
 24
0.5740882589684922
 15
0.5
 25
0.5
 16
0.0
 26
0.0
 36
1.0
 17
0.0
 27
0.0
 37
0.0
 40
24.74743755062503
 41
1.570528967254408
 42
50.0
 43
0.0
 44
0.0
 50
0.0
 51
0.0
 71
     0
 72
   100
 73
     1
 74
     1
 75
     0
 76
     0
 77
     0
 78
     0
  0
ENDTAB
  0
TABLE
  2
LTYPE
  5
5
330
0
100
AcDbSymbolTable
 70
     1
  0
LTYPE
  5
12
330
5
100
AcDbSymbolTableRecord
100
AcDbLinetypeTableRecord
  2
BYBLOCK
 70
     0
  3

 72
    65
 73
     0
 40
0.0
  0
LTYPE
  5
13
330
5
100
AcDbSymbolTableRecord
100
AcDbLinetypeTableRecord
  2
BYLAYER
 70
     0
  3

 72
    65
 73
     0
 40
0.0
  0
LTYPE
  5
14
330
5
100
AcDbSymbolTableRecord
100
AcDbLinetypeTableRecord
  2
CONTINUOUS
 70
     0
  3
Solid line
 72
    65
 73
     0
 40
0.0
  0
ENDTAB
  0
TABLE
  2
LAYER
  5
2
330
0
100
AcDbSymbolTable
 70
     4
  0
LAYER
  5
F
330
2
100
AcDbSymbolTableRecord
100
AcDbLayerTableRecord
  2
0
 70
     0
 62
     7
  6
CONTINUOUS
  0
LAYER
  5
90
330
2
100
AcDbSymbolTableRecord
100
AcDbLayerTableRecord
  2
ADP1DETAIL
 70
     0
 62
     7
  6
CONTINUOUS
  0
LAYER
  5
92
330
2
100
AcDbSymbolTableRecord
100
AcDbLayerTableRecord
  2
DEFPOINTS
 70
     0
 62
     7
  6
CONTINUOUS
  0
LAYER
  5
93
330
2
100
AcDbSymbolTableRecord
100
AcDbLayerTableRecord
  2
ADPDIM
 70
     0
 62
     3
  6
CONTINUOUS
  0
ENDTAB
  0
TABLE
  2
STYLE
  5
3
330
0
100
AcDbSymbolTable
 70
     2
  0
STYLE
  5
10
330
3
100
AcDbSymbolTableRecord
100
AcDbTextStyleTableRecord
  2
STANDARD
 70
     0
 40
0.0
 41
1.0
 50
0.0
 71
     0
 42
0.2
  3
txt
  4

  0
STYLE
  5
21A
330
3
100
AcDbSymbolTableRecord
100
AcDbTextStyleTableRecord
  2
ARIAL_WIDE
 70
     0
 40
0.0
 41
1.25
 50
0.0
 71
     0
 42
0.2
  3
ARIAL.TTF
  4

1001
ACAD
1000
Arial
1071
       34
  0
ENDTAB
  0
TABLE
  2
VIEW
  5
6
330
0
100
AcDbSymbolTable
 70
     0
  0
ENDTAB
  0
TABLE
  2
UCS
  5
7
330
0
100
AcDbSymbolTable
 70
     0
  0
ENDTAB
  0
TABLE
  2
APPID
  5
9
330
0
100
AcDbSymbolTable
 70
     1
  0
APPID
  5
11
330
9
100
AcDbSymbolTableRecord
100
AcDbRegAppTableRecord
  2
ACAD
 70
     0
  0
ENDTAB
  0
TABLE
  2
DIMSTYLE
  5
A
330
0
100
AcDbSymbolTable
 70
     1
  0
DIMSTYLE
105
20E
330
A
100
AcDbSymbolTableRecord
100
AcDbDimStyleTableRecord
  2
STANDARD
 70
     0
  3

  4

  5

  6

  7

 40
1.0
 41
0.18
 42
0.0625
 43
0.38
 44
0.18
 45
0.0
 46
0.0
 47
0.0
 48
0.0
140
0.18
141
0.09
142
0.0
143
25.4
144
1.0
145
0.0
146
1.0
147
0.09
 71
     0
 72
     0
 73
     1
 74
     1
 75
     0
 76
     0
 77
     0
 78
     0
170
     0
171
     2
172
     0
173
     0
174
     0
175
     0
176
     0
177
     0
178
     0
270
     2
271
     4
272
     4
273
     2
274
     2
340
10
275
     0
280
     0
281
     0
282
     0
283
     1
284
     0
285
     0
286
     0
287
     3
288
     0
  0
ENDTAB
  0
TABLE
  2
BLOCK_RECORD
  5
1
330
0
100
AcDbSymbolTable
 70
     2
  0
BLOCK_RECORD
  5
18
102
{ACAD_XDICTIONARY
360
26F
102
}
330
1
100
AcDbSymbolTableRecord
100
AcDbBlockTableRecord
  2
*MODEL_SPACE
  0
BLOCK_RECORD
  5
15
102
{ACAD_XDICTIONARY
360
26D
102
}
330
1
100
AcDbSymbolTableRecord
100
AcDbBlockTableRecord
  2
*PAPER_SPACE
  0
BLOCK_RECORD
  5
86
330
1
100
AcDbSymbolTableRecord
100
AcDbBlockTableRecord
  2
*D0
  0
BLOCK_RECORD
  5
8C
330
1
100
AcDbSymbolTableRecord
100
AcDbBlockTableRecord
  2
*D1
  0
ENDTAB
  0
ENDSEC
  0
SECTION
  2
BLOCKS
  0
BLOCK
  5
96
330
18
100
AcDbEntity
  8
0
100
AcDbBlockBegin
  2
*MODEL_SPACE
 70
     0
 10
0.0
 20
0.0
 30
0.0
  3
*MODEL_SPACE
  1

  0
ENDBLK
  5
97
330
18
100
AcDbEntity
  8
0
100
AcDbBlockEnd
  0
BLOCK
  5
94
330
15
100
AcDbEntity
 67
     1
  8
0
100
AcDbBlockBegin
  2
*PAPER_SPACE
 70
     0
 10
0.0
 20
0.0
 30
0.0
  3
*PAPER_SPACE
  1

  0
ENDBLK
  5
95
330
15
100
AcDbEntity
 67
     1
  8
0
100
AcDbBlockEnd
  0
BLOCK
  5
99
330
86
100
AcDbEntity
  8
0
100
AcDbBlockBegin
  2
*D0
 70
     1
 10
0.0
 20
0.0
 30
0.0
  3
*D0
  1

  0
LINE
  5
9A
330
86
100
AcDbEntity
  8
0
  6
BYBLOCK
 62
     0
100
AcDbLine
 10
79.30132115868184
 20
13.02034922831208
 30
0.0
 11
79.30132115868184
 21
13.7769203119574
 31
0.0
  0
LINE
  5
9B
330
86
100
AcDbEntity
  8
0
  6
BYBLOCK
 62
     0
100
AcDbLine
 10
93.30132115868185
 20
13.02034922831208
 30
0.0
 11
93.30132115868185
 21
13.7769203119574
 31
0.0
  0
LINE
  5
9C
330
86
100
AcDbEntity
  8
0
  6
BYBLOCK
 62
     0
100
AcDbLine
 10
79.30132115868184
 20
13.5969203119574
 30
0.0
 11
86.09298782534851
 21
13.5969203119574
 31
0.0
  0
LINE
  5
9D
330
86
100
AcDbEntity
  8
0
  6
BYBLOCK
 62
     0
100
AcDbLine
 10
93.30132115868185
 20
13.5969203119574
 30
0.0
 11
86.50965449201517
 21
13.5969203119574
 31
0.0
  0
LINE
  5
9E
330
86
100
AcDbEntity
  8
0
  6
BYBLOCK
 62
     0
100
AcDbLine
 10
79.17632115868184
 20
13.4719203119574
 30
0.0
 11
79.42632115868184
 21
13.7219203119574
 31
0.0
  0
LINE
  5
9F
330
86
100
AcDbEntity
  8
0
  6
BYBLOCK
 62
     0
100
AcDbLine
 10
93.17632115868184
 20
13.4719203119574
 30
0.0
 11
93.42632115868184
 21
13.7219203119574
 31
0.0
  0
TEXT
  5
A0
330
86
100
AcDbEntity
  8
0
  6
BYBLOCK
 62
     0
100
AcDbText
 10
86.21798782534851
 20
13.5344203119574
 30
0.0
 40
0.125
  1
14
 72
     1
 11
86.30132115868184
 21
13.5969203119574
 31
0.0
100
AcDbText
 73
     2
  0
POINT
  5
A1
330
86
100
AcDbEntity
  8
DEFPOINTS
  6
BYBLOCK
 62
     0
100
AcDbPoint
 10
79.30132115868184
 20
12.95784922831208
 30
0.0
  0
POINT
  5
A2
330
86
100
AcDbEntity
  8
DEFPOINTS
  6
BYBLOCK
 62
     0
100
AcDbPoint
 10
93.30132115868185
 20
12.95784922831208
 30
0.0
  0
POINT
  5
A3
330
86
100
AcDbEntity
  8
DEFPOINTS
  6
BYBLOCK
 62
     0
100
AcDbPoint
 10
93.30132115868185
 20
13.5969203119574
 30
0.0
  0
ENDBLK
  5
A4
330
86
100
AcDbEntity
  8
0
100
AcDbBlockEnd
  0
BLOCK
  5
A5
330
8C
100
AcDbEntity
  8
0
100
AcDbBlockBegin
  2
*D1
 70
     1
 10
0.0
 20
0.0
 30
0.0
  3
*D1
  1

  0
LINE
  5
A6
330
8C
100
AcDbEntity
  8
0
  6
BYBLOCK
 62
     0
100
AcDbLine
 10
86.68815256002153
 20
5.288996673187551
 30
0.0
 11
93.70384109877205
 21
5.288996673187551
 31
0.0
  0
LINE
  5
A7
330
8C
100
AcDbEntity
  8
0
  6
BYBLOCK
 62
     0
100
AcDbLine
 10
85.75596496662873
 20
11.78899667318755
 30
0.0
 11
93.70384109877205
 21
11.78899667318755
 31
0.0
  0
LINE
  5
A8
330
8C
100
AcDbEntity
  8
0
  6
BYBLOCK
 62
     0
100
AcDbLine
 10
93.52384109877204
 20
5.288996673187551
 30
0.0
 11
93.52384109877204
 21
8.143163339854217
 31
0.0
  0
LINE
  5
A9
330
8C
100
AcDbEntity
  8
0
  6
BYBLOCK
 62
     0
100
AcDbLine
 10
93.52384109877204
 20
11.78899667318755
 30
0.0
 11
93.52384109877204
 21
8.934830006520884
 31
0.0
  0
LINE
  5
AA
330
8C
100
AcDbEntity
  8
0
  6
BYBLOCK
 62
     0
100
AcDbLine
 10
93.64884109877205
 20
5.163996673187551
 30
0.0
 11
93.39884109877205
 21
5.413996673187551
 31
0.0
  0
LINE
  5
AB
330
8C
100
AcDbEntity
  8
0
  6
BYBLOCK
 62
     0
100
AcDbLine
 10
93.64884109877205
 20
11.66399667318755
 30
0.0
 11
93.39884109877205
 21
11.91399667318755
 31
0.0
  0
TEXT
  5
AC
330
8C
100
AcDbEntity
  8
0
  6
BYBLOCK
 62
     0
100
AcDbText
 10
93.58634109877206
 20
8.268163339854217
 30
0.0
 40
0.125
  1
6 1/2
 50
90.0
 72
     1
 11
93.52384109877204
 21
8.538996673187551
 31
0.0
100
AcDbText
 73
     2
  0
POINT
  5
AD
330
8C
100
AcDbEntity
  8
DEFPOINTS
  6
BYBLOCK
 62
     0
100
AcDbPoint
 10
86.62565256002151
 20
5.288996673187551
 30
0.0
  0
POINT
  5
AE
330
8C
100
AcDbEntity
  8
DEFPOINTS
  6
BYBLOCK
 62
     0
100
AcDbPoint
 10
85.69346496662872
 20
11.78899667318755
 30
0.0
  0
POINT
  5
AF
330
8C
100
AcDbEntity
  8
DEFPOINTS
  6
BYBLOCK
 62
     0
100
AcDbPoint
 10
93.52384109877204
 20
11.78899667318755
 30
0.0
  0
ENDBLK
  5
B0
330
8C
100
AcDbEntity
  8
0
100
AcDbBlockEnd
  0
ENDSEC
  0
SECTION
  2
ENTITIES
  0
DIMENSION
  5
B1
330
18
100
AcDbEntity
  8
ADPDIM
100
AcDbDimension
  2
*D1
 10
93.52384109877204
 20
11.78899667318755
 30
0.0
 11
93.52384109877204
 21
8.538996673187551
 31
0.0
100
AcDbAlignedDimension
 13
86.62565256002151
 23
5.288996673187551
 33
0.0
 14
85.69346496662872
 24
11.78899667318755
 34
0.0
 50
90.0
100
AcDbRotatedDimension
  0
LWPOLYLINE
  5
B2
330
18
100
AcDbEntity
  8
ADP1DETAIL
100
AcDbPolyline
 90
       28
 70
     0
 43
0.0
 10
89.90896944568437
 20
11.43564025446429
 42
-0.1706609527531025
 10
89.06349355909211
 20
11.40044284894995
 42
0.0365813415609524
 10
88.04187680347087
 20
11.40044284894995
 42
0.0784706020637117
 10
87.31969946719493
 20
11.1012650389395
 42
-0.507388362173133
 10
87.07310236656232
 20
11.04846893066799
 42
-0.566241081885809
 10
86.77366294721705
 20
11.29485070083765
 42
-0.650823555809586
 10
87.0554882427478
 20
11.43564025446429
 42
0.4054745908042862
 10
86.77366294721705
 20
11.5940285108481
 42
0.4950506824052474
 10
86.49183765168629
 20
11.18925851850999
 42
0.4543703341197169
 10
87.47822621240937
 20
10.74929112065753
 42
0.1732772877656366
 10
87.5486825494748
 20
10.02774454712108
 42
-0.0533226289167224
 10
88.04187680347087
 20
9.552579777969649
 42
-0.0851333918891557
 10
88.25324581466711
 20
9.183007156930518
 42
-0.4399723699942041
 10
88.11233314053628
 20
9.007020197789536
 42
-0.1936426767863523
 10
87.83050784500554
 20
8.848631907190368
 42
0.7669498362734505
 10
87.9361923242382
 20
8.655046245292217
 42
0.1414061510908521
 10
87.67198109979108
 20
8.215078847439762
 42
0.8828778415042593
 10
87.81289377392191
 20
8.127085367869273
 42
0.0817377864307736
 10
87.83050784500554
 20
7.475933605361499
 42
0.3522567224537018
 10
88.41177255988156
 20
7.98629581424263
 42
-0.0227280344168107
 10
88.53507111019785
 20
7.722315341315802
 42
-0.1552676893197815
 10
88.69359785541233
 20
7.898302334672139
 42
0.1450456667408801
 10
88.8697386717104
 20
7.704716672773988
 42
0.2361599663664416
 10
88.95780907985944
 20
7.863104929157801
 42
0.0521636588265282
 10
89.36293292570649
 20
7.123959687079535
 42
0.810809990319348
 10
89.64475822123723
 20
7.211953166650026
 42
0.0237950087088938
 10
90.04988211981517
 20
6.824781842853725
 42
0.9423730344314847
 10
90.19079474121511
 20
6.877577951125233
 42
-0.1507079043357649
  0
CIRCLE
  5
D0
330
18
100
AcDbEntity
  8
ADP1DETAIL
100
AcDbCircle
 10
87.20761538980132
 20
6.826057644135212
 30
0.0
 40
0.310414329161528
  0
CIRCLE
  5
D1
330
18
100
AcDbEntity
  8
ADP1DETAIL
100
AcDbCircle
 10
86.61356321655267
 20
6.978245667900512
 30
0.0
 40
0.2887817115284644
  0
CIRCLE
  5
D2
330
18
100
AcDbEntity
  8
ADP1DETAIL
100
AcDbCircle
 10
85.77579741525125
 20
6.53690042379539
 30
0.0
 40
0.3058967925133627
  0
LWPOLYLINE
  5
D3
330
18
100
AcDbEntity
  8
ADP1DETAIL
100
AcDbPolyline
 90
       40
 70
     0
 43
0.0
 10
81.35848673220667
 20
7.297840507172964
 10
80.61211351410902
 20
6.780401268909656
 42
-0.1544731030892192
 10
79.66772295956052
 20
6.749963649977026
 42
-0.2388283534875189
 10
79.25645611661547
 20
7.678310513412824
 42
-0.3263231273904934
 10
79.82004400440951
 20
8.500125799206733
 42
-0.1338495630433764
 10
79.36308081523055
 20
8.72840781713022
 42
-0.8271754614858547
 10
79.40877716146444
 20
8.804501811288407
 42
1.432914834566492
 10
79.40877716146444
 20
8.880595805446592
 42
-0.083083226478365
 10
79.31738452362866
 20
9.428472662642532
 42
-0.3204198713073565
 10
79.39354504605315
 20
9.535004275733349
 42
0.0277336260318782
 10
79.65249084414923
 20
9.489347865058867
 42
-0.2565658792586418
 10
80.048525626315
 20
9.67197347230787
 42
-0.449247707084094
 10
80.20084667116398
 20
9.474129073317016
 42
0.1164355283300813
 10
80.21607878657528
 20
9.124096650560858
 42
0.5060782030427964
 10
80.33793560060166
 20
9.078440239886376
 42
0.333183454898647
 10
80.39886406224686
 20
9.245847055393529
 42
-0.2304392098439112
 10
80.45979246926005
 20
9.626317061633388
 42
-0.1878822610341315
 10
80.73397038276743
 20
9.808942668882391
 42
-0.7185662585057235
 10
80.7796666743693
 20
9.732848674724206
 42
-0.1129419021327123
 10
81.13000511030119
 20
9.930693109163987
 42
-0.0991044491831974
 10
81.16046934112379
 20
9.702411091240501
 42
-0.3103439681164521
 10
81.55650406865754
 20
9.808942668882391
 42
-0.0296266389764262
 10
81.23662986354828
 20
9.093659031628227
 42
-0.0711120581395051
 10
81.29755827056147
 20
8.941471007862928
 42
0.1338463130635797
 10
80.93198777385032
 20
8.774064192355774
 42
0.5461181764326428
 10
80.94721983462958
 20
8.652313787523105
 42
0.0764071456700034
 10
81.29755827056147
 20
8.621876204039402
 42
0.197947031153779
 10
81.25186197895958
 20
8.500125799206733
 42
0.0694159330144898
 10
81.52603989246696
 20
8.287062573025098
 42
-0.3469882289527887
 10
81.58696829948015
 20
8.134874549259798
 42
-0.4348258685174435
 10
81.43464725463116
 20
8.058780555101611
 42
0.4234472249004642
 10
81.11477299488987
 20
7.906592531336311
 42
0.1642572013612783
 10
81.11477299488987
 20
7.754404543019938
 42
-0.1336742428391788
 10
80.59688139869773
 20
7.906592531336311
 42
0.3375993019859398
 10
80.44456035384873
 20
7.89137373959446
 42
-0.0538871684340137
 10
80.38363194683556
 20
7.845717328919976
 42
-0.1604631378486908
 10
79.9266687576566
 20
8.195749751676132
 42
0.4548958068285028
 10
79.54586609090212
 20
7.267402888240333
 42
0.3191986532687105
 10
80.35316771601296
 20
6.978245667900512
 42
0.3775920099550599
 10
80.52072087627324
 20
7.23696530475663
 42
-1.15941478157082
  0
CIRCLE
  5
FD
330
18
100
AcDbEntity
  8
ADP1DETAIL
100
AcDbCircle
 10
86.94866959170523
 20
6.2781808223882
 30
0.0
 40
0.2927955288346403
  0
CIRCLE
  5
FE
330
18
100
AcDbEntity
  8
ADP1DETAIL
100
AcDbCircle
 10
86.62879533196397
 20
5.821616786541227
 30
0.0
 40
0.2406985267641305
  0
CIRCLE
  5
FF
330
18
100
AcDbEntity
  8
ADP1DETAIL
100
AcDbCircle
 10
86.01951109793603
 20
5.958585983115748
 30
0.0
 40
0.2458969173409936
  0
CIRCLE
  5
100
330
18
100
AcDbEntity
  8
ADP1DETAIL
100
AcDbCircle
 10
86.2632247806208
 20
5.517240739010626
 30
0.0
 40
0.2262661342907903
  0
LINE
  5
101
330
18
100
AcDbEntity
  8
ADP1DETAIL
100
AcDbLine
 10
85.66917266200416
 20
6.232524411713717
 30
0.0
 11
85.77579741525125
 21
6.049898804464714
 31
0.0
  0
CIRCLE
  5
102
330
18
100
AcDbEntity
  8
ADP1DETAIL
100
AcDbCircle
 10
86.35461741845659
 20
6.384712435479017
 30
0.0
 40
0.2600870211261217
  0
LINE
  5
103
330
18
100
AcDbEntity
  8
ADP1DETAIL
100
AcDbLine
 10
87.22284745058061
 20
6.415150018962721
 30
0.0
 11
87.22284745058061
 21
6.53690042379539
 31
0.0
  0
DIMENSION
  5
104
330
18
100
AcDbEntity
  8
ADPDIM
100
AcDbDimension
  2
*D0
 10
92.97685528494916
 20
12.19790222319444
 30
0.0
 11
85.97685528494917
 21
12.19790222319444
 31
0.0
 12
-0.3244658737326773
 22
-1.399018088762955
 32
0.0
100
AcDbAlignedDimension
 13
78.97685528494917
 23
11.55883113954912
 33
0.0
 14
92.97685528494916
 24
11.55883113954912
 34
0.0
100
AcDbRotatedDimension
  0
ARC
  5
105
330
18
100
AcDbEntity
  8
ADP1DETAIL
100
AcDbCircle
 10
84.9834979711815
 20
13.39498222517624
 30
0.0
 40
3.935920616137296
100
AcDbArc
 50
295.3950468284286
 51
308.7723941939469
  0
ARC
  5
106
330
18
100
AcDbEntity
  8
ADP1DETAIL
100
AcDbCircle
 10
90.64972405082832
 20
5.744486811719314
 30
0.0
 40
5.267361198635868
100
AcDbArc
 50
125.9830531452266
 51
135.3891387400964
  0
ARC
  5
107
330
18
100
AcDbEntity
  8
ADP1DETAIL
100
AcDbCircle
 10
41.06853058877418
 20
-60.12089394512048
 30
0.0
 40
82.85270120624472
100
AcDbArc
 50
55.72990088797048
 51
56.50389645362579
  0
ARC
  5
108
330
18
100
AcDbEntity
  8
ADP1DETAIL
100
AcDbCircle
 10
-582.5020051941294
 20
-982.3901219383955
 30
0.0
 40
1196.586938729218
100
AcDbArc
 50
55.93107181109874
 51
55.99356249315493
  0
CIRCLE
  5
109
330
18
100
AcDbEntity
  8
ADP1DETAIL
100
AcDbCircle
 10
86.94866959170523
 20
8.119655757517946
 30
0.0
 40
0.2743874020484172
  0
CIRCLE
  5
10A
330
18
100
AcDbEntity
  8
ADP1DETAIL
100
AcDbCircle
 10
87.14668692815612
 20
7.465247287231189
 30
0.0
 40
0.2927955345788788
  0
LWPOLYLINE
  5
10B
330
18
100
AcDbEntity
  8
ADP1DETAIL
100
AcDbPolyline
 90
        7
 70
     0
 43
0.0
 10
80.19425918921319
 20
10.81248448186147
 42
0.0909090909090875
 10
79.53160432195655
 20
10.52257297743669
 42
-0.0560984651269257
 10
79.30381671133709
 20
10.28456173717074
 42
-0.2133864560472269
 10
79.01390520691231
 20
10.28456173717074
 42
0.3959443231191868
 10
79.17956892372647
 20
10.07748209115304
 42
0.275622671901195
 10
79.69726803877072
 20
10.315493331419
 42
-0.1663033651475701
 10
80.07001140160257
 20
10.48115704823316
 42
-2.651127985163376
  0
LWPOLYLINE
  5
114
330
18
100
AcDbEntity
  8
ADP1DETAIL
100
AcDbPolyline
 90
        6
 70
     0
 43
0.0
 10
78.95728656545775
 20
11.18437378856705
 10
80.52516193862865
 20
11.2284194591527
 42
0.1834577626977575
 10
80.08446712424072
 20
10.43559728540748
 42
0.2616375024111621
 10
80.23136541284776
 20
10.05386806006242
 42
0.3867660254650667
 10
80.86302798699488
 20
10.08323185191992
 42
0.3647918043008053
 10
80.53985176234604
 20
10.81732647635134
 42
-64.97099286080725
  0
LWPOLYLINE
  5
11C
330
18
100
AcDbEntity
  8
ADP1DETAIL
100
AcDbPolyline
 90
        8
 70
     0
 43
0.0
 10
83.0418232991022
 20
11.24310137228204
 42
0.1027378755469214
 10
84.64301454719587
 20
11.5953544125169
 42
0.2404933600475873
 10
84.81929248323766
 20
11.78621900798884
 10
85.58316352227445
 20
11.78621900798884
 10
85.67130251601192
 20
11.6247182043744
 42
-0.2531482157490283
 10
86.14137702926781
 20
10.78796268449384
 42
-0.2181976230927993
 10
86.74365995598014
 20
8.585678845600785
 42
0.4338373614975433
 10
86.89055824458717
 20
8.394814215727663
 42
0.0481247982859746
  0
LWPOLYLINE
  5
126
330
18
100
AcDbEntity
  8
ADP1DETAIL
100
AcDbPolyline
 90
        8
 70
     0
 43
0.0
 10
85.44069109473069
 20
10.43291352023651
 42
-0.0779610900372353
 10
84.61815735420856
 20
9.550223067475201
 42
-0.1959439757285023
 10
84.29828314909929
 20
9.458910246126235
 42
-0.3515136293202747
 10
84.11549787342769
 20
9.641535888824167
 42
0.0586274053638349
 10
83.65853468424875
 20
10.15897512708747
 42
0.7743935341417494
 10
83.47574940857716
 20
10.03722468680587
 42
-0.0857389727376592
 10
83.1254109726453
 20
10.21985032950381
 42
0.6913512061661994
 10
83.00355415861892
 20
10.14375629989669
 42
0.8199622567803261
  0
LWPOLYLINE
  5
130
330
18
100
AcDbEntity
  8
ADP1DETAIL
100
AcDbPolyline
 90
        3
 70
     0
 43
0.0
 10
81.06399370248752
 20
11.18522784469333
 42
-0.0680707977089634
 10
82.09939193257602
 20
11.01956412787917
 42
-0.0115246040577127
 10
85.12275476443443
 20
10.02558182699422
 42
-0.1109800649677968
  0
LWPOLYLINE
  5
135
330
18
100
AcDbEntity
  8
ADP1DETAIL
100
AcDbPolyline
 90
        3
 70
     0
 43
0.0
 10
80.44275476443443
 20
10.1084136854013
 42
-0.2994514323481
 10
80.31850697682381
 20
10.60540483584377
 42
-0.1583482874328929
 10
80.53985176234604
 20
10.81732647635134
 42
3.837339628649124
  0
LWPOLYLINE
  5
13A
330
18
100
AcDbEntity
  8
ADP1DETAIL
100
AcDbPolyline
 90
        4
 70
     0
 43
0.0
 10
80.27709104762028
 20
10.48115704823316
 42
-0.1683708296296427
 10
80.60841848124859
 20
10.39832518982608
 42
-0.3483759052471447
 10
80.64983441045212
 20
10.27407740221546
 42
-0.2807194640224163
 10
80.44275476443443
 20
10.1084136854013
 42
-0.1297250776493791
  0
LWPOLYLINE
  5
140
330
18
100
AcDbEntity
  8
ADP1DETAIL
100
AcDbPolyline
 90
        5
 70
     0
 43
0.0
 10
85.78882115718418
 20
10.7145532220507
 42
-0.2031667550979661
 10
85.65661269229453
 20
10.21536889807805
 42
-0.0931841824797485
 10
86.33234478902698
 20
9.833639672733005
 42
0.1482576164160472
 10
86.11199733039986
 20
10.34750590983499
 42
0.0213821939014415
 10
85.78882115718418
 20
10.69987134332255
 42
2.208099654848512
  0
LWPOLYLINE
  5
147
330
18
100
AcDbEntity
  8
ADP1DETAIL
100
AcDbPolyline
 90
       16
 70
     0
 43
0.0
 10
83.00355415861892
 20
10.14375629989669
 10
82.95785781238501
 20
9.976349484389544
 10
82.54659096943994
 20
9.976349484389544
 42
1.272957255576012
 10
82.47043044701547
 20
9.885036698489505
 42
0.162244596384126
 10
82.91216152078311
 20
9.550223067475201
 42
-0.0336897304390644
 10
82.57705520026254
 20
9.352378633035417
 42
0.5495982499680904
 10
82.56182308485126
 20
9.200190644719045
 42
0.095154957315114
 10
83.2015715497018
 20
9.200190644719045
 42
-0.3372591076648408
 10
83.53667787022237
 20
9.26106584713538
 42
-0.7690861184440104
 10
83.49098152398847
 20
9.048002620953745
 42
-0.270835586420753
 10
83.04925045022079
 20
8.86537701370474
 42
0.0830985775595366
 10
82.62275149186445
 20
8.774064192355774
 42
0.6797897433069656
 10
82.62275149186445
 20
8.667532614713884
 42
0.2209917977990243
 10
82.91216152078311
 20
8.500125799206733
 42
0.0220976954227005
 10
82.60751937645315
 20
7.997905352685277
 42
0.6668293592806563
 10
82.72937624511154
 20
7.845717328919976
 42
-0.1412285937010939
  0
ARC
  5
159
330
18
100
AcDbEntity
  8
ADP1DETAIL
100
AcDbCircle
 10
80.43855974095681
 20
16.62220403144781
 30
0.0
 40
9.380710913602815
100
AcDbArc
 50
264.6327685839529
 51
283.3686053946573
  0
ARC
  5
15A
330
18
100
AcDbEntity
  8
ADP1DETAIL
100
AcDbCircle
 10
80.36078377371861
 20
22.07610584956314
 30
0.0
 40
14.43868528169319
100
AcDbArc
 50
266.5828749956972
 51
279.3804854842444
  0
ARC
  5
15B
330
18
100
AcDbEntity
  8
ADP1DETAIL
100
AcDbCircle
 10
76.84424942636991
 20
13.35543594116573
 30
0.0
 40
5.882597623113435
100
AcDbArc
 50
305.1540291804249
 51
322.737627306948
  0
LWPOLYLINE
  5
15C
330
18
100
AcDbEntity
  8
ADP1DETAIL
100
AcDbPolyline
 90
        4
 70
     0
 43
0.0
 10
79.30215240821735
 20
7.297840507172964
 10
78.94746396009558
 20
7.297840507172964
 10
78.96269602087489
 20
7.708748132345455
 10
79.25645611661547
 20
7.678310513412824
  0
ARC
  5
162
330
18
100
AcDbEntity
  8
ADP1DETAIL
100
AcDbCircle
 10
79.72518599099482
 20
0.1088760979155845
 30
0.0
 40
8.253932887702299
100
AcDbArc
 50
76.96401004557921
 51
85.10615403312529
  0
ARC
  5
163
330
18
100
AcDbEntity
  8
ADP1DETAIL
100
AcDbCircle
 10
80.12275044932101
 20
8.112046361647021
 30
0.0
 40
0.3738328296865518
100
AcDbArc
 50
329.4109242787001
 51
10.55596081277022
  0
ARC
  5
164
330
18
100
AcDbEntity
  8
ADP1DETAIL
100
AcDbCircle
 10
79.36058419086201
 20
-1.091353998813676
 30
0.0
 40
9.612426832215506
100
AcDbArc
 50
81.23489915047828
 51
84.07304709160424
  0
ARC
  5
165
330
18
100
AcDbEntity
  8
ADP1DETAIL
100
AcDbCircle
 10
79.28765638080661
 20
9.96080667449743
 30
0.0
 40
1.507100755334851
100
AcDbArc
 50
305.1419751823114
 51
351.8851443742791
  0
ARC
  5
166
330
18
100
AcDbEntity
  8
ADP1DETAIL
100
AcDbCircle
 10
77.97695072367926
 20
8.119111634326294
 30
0.0
 40
2.176294576025752
100
AcDbArc
 50
15.01017456042924
 51
39.02201240503764
  0
ARC
  5
167
330
18
100
AcDbEntity
  8
ADP1DETAIL
100
AcDbCircle
 10
79.50016979930023
 20
8.469368764734774
 30
0.0
 40
0.2801250946825962
100
AcDbArc
 50
22.42293302568844
 51
112.3728750997872
  0
LINE
  5
168
330
18
100
AcDbEntity
  8
ADP1DETAIL
100
AcDbLine
 10
80.7796666743693
 20
8.57621979336492
 30
0.0
 11
81.069076703288
 21
8.57621979336492
 31
0.0
  0
ARC
  5
169
330
18
100
AcDbEntity
  8
ADP1DETAIL
100
AcDbCircle
 10
80.77705698898853
 20
8.695464687660171
 30
0.0
 40
0.119273447477938
100
AcDbArc
 50
178.7963311010904
 51
271.253723222766
  0
ARC
  5
16A
330
18
100
AcDbEntity
  8
ADP1DETAIL
100
AcDbCircle
 10
80.92769758931368
 20
8.466752260881708
 30
0.0
 40
0.3553886897266083
100
AcDbArc
 50
96.69069887016798
 51
139.4127089801312
  0
CIRCLE
  5
16B
330
18
100
AcDbEntity
  8
ADP1DETAIL
100
AcDbCircle
 10
86.23276060443021
 20
8.271843781283246
 30
0.0
 40
0.3134388998592304
  0
ARC
  5
16C
330
18
100
AcDbEntity
  8
ADP1DETAIL
100
AcDbCircle
 10
83.77928448957984
 20
12.7902727020565
 30
0.0
 40
4.519121896320761
100
AcDbArc
 50
289.5076891880091
 51
305.449586642804
  0
LWPOLYLINE
  5
16D
330
18
100
AcDbEntity
  8
ADP1DETAIL
100
AcDbPolyline
 90
        4
 70
     0
 43
0.0
 10
83.01878627403022
 20
7.89137373959446
 42
0.0082878262134215
 10
83.50621363939977
 20
8.454469388532249
 42
-0.1896762698301474
 10
83.84131995992033
 20
8.637094995781254
 42
0.2360000313446032
 10
84.25258680286537
 20
8.911033424379223
 42
-0.5799670507799996
  0
ARC
  5
173
330
18
100
AcDbEntity
  8
ADP1DETAIL
100
AcDbCircle
 10
82.78534059397303
 20
10.30965767425833
 30
0.0
 40
1.725402979582086
100
AcDbArc
 50
275.2302567570745
 51
313.7467666910853
  0
ARC
  5
174
330
18
100
AcDbEntity
  8
ADP1DETAIL
100
AcDbCircle
 10
93.80588535527932
 20
5.333314403353464
 30
0.0
 40
10.41610758450663
100
AcDbArc
 50
161.4192391818269
 51
167.3328193413682
  0
ARC
  5
175
330
18
100
AcDbEntity
  8
ADP1DETAIL
100
AcDbCircle
 10
-173.2189517102945
 20
-132.2578775033416
 30
0.0
 40
293.8622251282952
100
AcDbArc
 50
28.45753681736145
 51
28.68729367710288
  0
ARC
  5
176
330
18
100
AcDbEntity
  8
ADP1DETAIL
100
AcDbCircle
 10
83.81823325552103
 20
7.291441166461629
 30
0.0
 40
1.76705729428396
100
AcDbArc
 50
33.69846920533872
 51
69.03076040285696
  0
ARC
  5
177
330
18
100
AcDbEntity
  8
ADP1DETAIL
100
AcDbCircle
 10
88.24027337922464
 20
8.31956690904343
 30
0.0
 40
3.840358999099138
100
AcDbArc
 50
170.6805362657592
 51
177.0778515086163
  0
LWPOLYLINE
  5
178
330
18
100
AcDbEntity
  8
ADP1DETAIL
100
AcDbPolyline
 90
       11
 70
     0
 43
0.0
 10
85.05988842797622
 20
7.465247287231189
 42
0.6768132791740676
 10
85.33406634148359
 20
7.617435310996489
 42
0.0101094058570936
 10
85.2579058190591
 20
8.134874549259798
 42
0.1212676483633426
 10
85.51685161715516
 20
8.134874549259798
 42
0.257275929630168
 10
85.2731379344704
 20
8.530563382690436
 42
-0.1925829284749315
 10
85.09035265879882
 20
8.758845400613923
 42
0.0106284439487529
 10
85.37976268771748
 20
8.819720603030258
 42
-0.0904102304106925
 10
84.80094262988014
 20
9.169753025786414
 42
-0.6882780567143023
 10
84.84663897611403
 20
9.291503430619084
 42
-0.0155567790099411
 10
85.45592321014199
 20
9.854599079556875
 42
0.078633219666047
 10
85.65394054659284
 20
10.23506912124566
 42
-0.719860888223688
  0
LWPOLYLINE
  5
185
330
18
100
AcDbEntity
  8
ADP1DETAIL
100
AcDbPolyline
 90
       10
 70
     0
 43
0.0
 10
83.47574940857716
 20
7.602216519254637
 42
0.1624030261143844
 10
83.53667787022237
 20
7.313059298914817
 42
0.1745695256462607
 10
83.84131995992033
 20
7.754404543019938
 42
0.2320691654724148
 10
83.79562366831844
 20
7.982686560943425
 42
0.1124327080748947
 10
84.00887312018062
 20
7.754404543019938
 42
0.3128112758813723
 10
84.03933735100322
 20
8.210968578866911
 42
-0.2766023706726907
 10
84.03933735100322
 20
8.561001001623068
 42
-0.455022846163946
 10
84.25258680286537
 20
8.424031769599618
 42
0.047801069487744
 10
84.35921155611248
 20
7.921811323078163
 42
0.1802844839995385
 10
84.46583630935958
 20
7.784842126503642
 42
0.2835486063536447
  0
LINE
  5
191
330
18
100
AcDbEntity
  8
ADP1DETAIL
100
AcDbLine
 10
84.63338946961986
 20
7.921811323078163
 30
0.0
 11
85.05988842797622
 21
7.465247287231189
 31
0.0
  0
ARC
  5
192
330
18
100
AcDbEntity
  8
ADP1DETAIL
100
AcDbCircle
 10
82.27315728003578
 20
8.257104594422312
 30
0.0
 40
0.992391549582112
100
AcDbArc
 50
311.2428695890793
 51
327.5050601517923
  0
LINE
  5
193
330
18
100
AcDbEntity
  8
ADP1DETAIL
100
AcDbLine
 10
82.71414412970022
 20
7.830498537178124
 30
0.0
 11
82.60751937645315
 21
7.526122525096451
 31
0.0
  0
LINE
  5
194
330
18
100
AcDbEntity
  8
ADP1DETAIL
100
AcDbLine
 10
82.92739363619443
 20
7.008683286833143
 30
0.0
 11
83.47574940857716
 21
7.602216519254637
 31
0.0
  0
LINE
  5
195
330
18
100
AcDbEntity
  8
ADP1DETAIL
100
AcDbLine
 10
82.8816972899605
 20
7.008683286833143
 30
0.0
 11
82.92739363619443
 21
7.008683286833143
 31
0.0
  0
LINE
  5
196
330
18
100
AcDbEntity
  8
ADP1DETAIL
100
AcDbLine
 10
82.86646517454922
 20
7.206527685823999
 30
0.0
 11
82.8816972899605
 21
7.008683286833143
 31
0.0
  0
LINE
  5
197
330
18
100
AcDbEntity
  8
ADP1DETAIL
100
AcDbLine
 10
82.92739363619443
 20
7.49568490616382
 30
0.0
 11
82.86646517454922
 21
7.206527685823999
 31
0.0
  0
LINE
  5
198
330
18
100
AcDbEntity
  8
ADP1DETAIL
100
AcDbLine
 10
82.80553676753603
 20
7.450028495489338
 30
0.0
 11
82.92739363619443
 21
7.49568490616382
 31
0.0
  0
LINE
  5
199
330
18
100
AcDbEntity
  8
ADP1DETAIL
100
AcDbLine
 10
82.62275149186445
 20
7.450028495489338
 30
0.0
 11
82.80553676753603
 21
7.450028495489338
 31
0.0
  0
LINE
  5
19A
330
18
100
AcDbEntity
  8
ADP1DETAIL
100
AcDbLine
 10
82.60751937645315
 20
7.526122525096451
 30
0.0
 11
82.62275149186445
 21
7.450028495489338
 31
0.0
  0
ARC
  5
19B
330
18
100
AcDbEntity
  8
ADP1DETAIL
100
AcDbCircle
 10
84.47733537825294
 20
7.448209531073342
 30
0.0
 40
0.5694241736576067
100
AcDbArc
 50
105.1261015532482
 51
133.5466263944991
  0
ARC
  5
19C
330
18
100
AcDbEntity
  8
ADP1DETAIL
100
AcDbCircle
 10
227600.1700833869
 20
-569278.8424397243
 30
0.0
 40
613067.2473925203
100
AcDbArc
 50
111.784143625883
 51
111.7841666213582
  0
ARC
  5
19D
330
18
100
AcDbEntity
  8
ADP1DETAIL
100
AcDbCircle
 10
82.03299631899467
 20
8.058780555101611
 30
0.0
 40
2.463351233125764
100
AcDbArc
 50
353.6151827619412
 51
6.384817238058677
  0
CIRCLE
  5
19E
330
18
100
AcDbEntity
  8
ADP1DETAIL
100
AcDbCircle
 10
86.55263480953946
 20
7.64787292992912
 30
0.0
 40
0.2798297163585361
  0
CIRCLE
  5
19F
330
18
100
AcDbEntity
  8
ADP1DETAIL
100
AcDbCircle
 10
85.92811846010024
 20
7.739185715829158
 30
0.0
 40
0.3077871494661781
  0
CIRCLE
  5
1A0
330
18
100
AcDbEntity
  8
ADP1DETAIL
100
AcDbCircle
 10
86.00427898252473
 20
7.130433691665812
 30
0.0
 40
0.2696966023669315
  0
LINE
  5
1A1
330
18
100
AcDbEntity
  8
ADP1DETAIL
100
AcDbLine
 10
85.73010112364936
 20
7.054339662058699
 30
0.0
 11
85.62347637040227
 21
6.841276471325991
 31
0.0
  0
LINE
  5
1A2
330
18
100
AcDbEntity
  8
ADP1DETAIL
100
AcDbLine
 10
85.79102953066255
 20
7.434809703747486
 30
0.0
 11
85.79102953066255
 21
7.34349688239852
 31
0.0
  0
LINE
  5
1A3
330
18
100
AcDbEntity
  8
ADP1DETAIL
100
AcDbLine
 10
85.92811846010024
 20
8.226187370608762
 30
0.0
 11
85.86719005308705
 21
8.058780555101611
 31
0.0
  0
LWPOLYLINE
  5
1A4
330
18
100
AcDbEntity
  8
ADP1DETAIL
100
AcDbPolyline
 90
        3
 70
     0
 43
0.0
 10
82.57705520026254
 20
9.306722257809862
 42
-0.124156327555999
 10
83.65853468424875
 20
9.352378633035417
 42
0.1859206287154643
 10
84.77047845368955
 20
9.535004275733349
 42
-0.2716135280346397
  0
ARC
  5
1A9
330
18
100
AcDbEntity
  8
ADP1DETAIL
100
AcDbCircle
 10
100.2033794122821
 20
24.09510550459218
 30
0.0
 40
21.86014039663409
100
AcDbArc
 50
220.0741916749232
 51
222.1389145496397
  0
ARC
  5
1AA
330
18
100
AcDbEntity
  8
ADP1DETAIL
100
AcDbCircle
 10
95.66865145316098
 20
41.60602699121173
 30
0.0
 40
34.21049058986977
100
AcDbArc
 50
247.8037544701598
 51
249.55645216469
  0
ARC
  5
1AB
330
18
100
AcDbEntity
  8
ADP1DETAIL
100
AcDbCircle
 10
84.02598122860554
 20
9.179627798011892
 30
0.0
 40
2.420293340172928
100
AcDbArc
 50
345.5632004851165
 51
15.81856158114777
  0
ARC
  5
1AC
330
18
100
AcDbEntity
  8
ADP1DETAIL
100
AcDbCircle
 10
83.46268262892779
 20
5.594324632386443
 30
0.0
 40
4.703503628127908
100
AcDbArc
 50
50.63356717374841
 51
64.92667119871931
  0
ARC
  5
1AD
330
18
100
AcDbEntity
  8
ADP1DETAIL
100
AcDbCircle
 10
83.80466155281503
 20
12.02421975066157
 30
0.0
 40
3.523314575164603
100
AcDbArc
 50
295.7268466761941
 51
312.5460245520213
  0
LWPOLYLINE
  5
1AE
330
18
100
AcDbEntity
  8
ADP1DETAIL
100
AcDbPolyline
 90
        3
 70
     0
 43
0.0
 10
78.94729752647645
 20
11.5954667713684
 10
80.28013561730285
 20
11.5954667713684
 42
-0.0635377573394987
 10
83.0418232991022
 20
11.24310137228204
 42
0.1404395865884605
  0
LWPOLYLINE
  5
1B3
330
18
100
AcDbEntity
  8
ADP1DETAIL
100
AcDbPolyline
 90
        4
 70
     0
 43
0.0
 10
80.28013561730285
 20
11.5954667713684
 10
78.95287341551273
 20
11.59938713672873
 10
78.95728656545775
 20
11.18437378856705
 10
80.52558662284152
 20
11.22664377389687
  0
LWPOLYLINE
  5
1B9
330
18
100
AcDbEntity
  8
ADP1DETAIL
100
AcDbPolyline
 90
        2
 70
     0
 43
0.0
 10
80.53985176234604
 20
10.81732647635134
 10
81.06399370248752
 20
11.18522784469333
  0
LWPOLYLINE
  5
1BD
330
18
100
AcDbEntity
  8
ADP1DETAIL
100
AcDbPolyline
 90
        7
 70
     0
 43
0.0
 10
85.39219576251523
 20
10.42091537227814
 42
0.3531121883384125
 10
85.02495006671423
 20
10.61178000215126
 42
-0.266653165731992
 10
84.49611625858883
 20
10.78796268449384
 42
-0.4893296461810145
 10
84.54018578117414
 20
10.94946352250947
 42
-0.2645629772528766
 10
85.08370941301695
 20
11.1696919098389
 42
-0.3847663653129578
 10
85.49502457997013
 20
10.6851894645944
 42
-0.1005774696157355
 10
85.43626528510056
 20
10.43559728540748
 42
2.143597438000059
  0
LWPOLYLINE
  5
1C6
330
18
100
AcDbEntity
  8
ADP1DETAIL
100
AcDbPolyline
 90
        2
 70
     0
 43
0.0
 10
83.37968934746843
 20
10.97882731436697
 42
0.1345156250518106
 10
84.48142643487143
 20
10.89073593879448
 42
0.0138038733216939
  0
LWPOLYLINE
  5
1CA
330
18
100
AcDbEntity
  8
ADP1DETAIL
100
AcDbPolyline
 90
        6
 70
     0
 43
0.0
 10
87.76005150794011
 20
10.52050805324505
 42
-0.0822739338589326
 10
90.38454968132773
 20
11.55883113954912
 10
92.96452845582541
 20
11.55883113954912
 10
92.96452845582541
 20
11.13646241023848
 10
90.43739189457861
 20
11.13646241023848
 42
0.0771910361668672
 10
87.83050784500554
 20
10.16853413496308
 42
3.839368636680223
  0
LWPOLYLINE
  5
1D2
330
18
100
AcDbEntity
  8
ADP1DETAIL
100
AcDbPolyline
 90
       13
 70
     0
 43
0.0
 10
90.29647927317867
 20
9.376592784613311
 42
-0.1324144478970419
 10
90.70160311902574
 20
9.746165405652444
 42
0.6799674661402908
 10
90.68398904794211
 20
9.922152399008782
 42
0.1702219180904057
 10
90.10272433306608
 20
9.886954993494443
 42
0.2780437010913613
 10
89.97942578274978
 20
10.22133020901923
 42
-0.0853460015884105
 10
89.66237234505177
 20
10.08054065539259
 42
-0.001423776975271
 10
89.59191600798636
 20
10.06294195263542
 42
-0.3095603103586473
 10
89.45100333385552
 20
10.11573802669157
 42
0.2320794335698194
 10
88.9401949560449
 20
9.570178446511462
 42
-0.1699778910929502
 10
88.7464400686632
 20
9.30619800779999
 42
-0.2948330346260909
 10
88.20040354868533
 20
9.587777149268632
 42
-0.1623752457697056
 10
87.7424374368565
 20
10.52050805324505
 42
-0.5400815998014546
 10
88.69359785541233
 20
11.03087022791082
 42
0.2542347541059204
  0
LWPOLYLINE
  5
1E1
330
18
100
AcDbEntity
  8
ADP1DETAIL
100
AcDbPolyline
 90
        4
 70
     0
 43
0.0
 10
90.43739189457861
 20
7.352742754492025
 42
0.0742742398652724
 10
93.01737072180719
 20
7.071163613023384
 10
93.01737072180719
 20
7.423137531305346
 42
-0.0623015657976194
 10
90.52546230272765
 20
7.792710152344479
 42
-7.960054703513199
  0
ARC
  5
1E7
330
18
100
AcDbEntity
  8
ADP1DETAIL
100
AcDbCircle
 10
87.19967856930171
 20
4.586472290196463
 30
0.0
 40
4.62014378217823
100
AcDbArc
 50
43.64278804144455
 51
67.8691288950186
  0
ARC
  5
1E8
330
18
100
AcDbEntity
  8
ADP1DETAIL
100
AcDbCircle
 10
83.06188515070573
 20
4.133642709360557
 30
0.0
 40
7.536372336463298
100
AcDbArc
 50
24.69584424950477
 51
37.87604949209403
  0
ARC
  5
1E9
330
18
100
AcDbEntity
  8
ADP1DETAIL
100
AcDbCircle
 10
86.13233114792008
 20
7.975765370584308
 30
0.0
 40
2.562437837068614
100
AcDbArc
 50
358.2676725880386
 51
20.33491136945738
  0
ARC
  5
1EA
330
18
100
AcDbEntity
  8
ADP1DETAIL
100
AcDbCircle
 10
89.30540985047457
 20
8.015626404537576
 30
0.0
 40
1.034616483291329
100
AcDbArc
 50
136.680541358173
 51
180.6497132212248
  0
ARC
  5
1EB
330
18
100
AcDbEntity
  8
ADP1DETAIL
100
AcDbCircle
 10
86.82460348592163
 20
9.650872513434491
 30
0.0
 40
1.739625030362604
100
AcDbArc
 50
301.1633168757551
 51
331.8830010892888
  0
LWPOLYLINE
  5
1EC
330
18
100
AcDbEntity
  8
ADP1DETAIL
100
AcDbPolyline
 90
       10
 70
     0
 43
0.0
 10
90.19079474121511
 20
6.877577951125233
 10
90.19079474121511
 20
7.317545348977686
 42
0.2767764024551523
 10
90.43739189457861
 20
7.370341423033838
 42
0.0686096437130884
 10
90.17318067013148
 20
7.88070363191497
 42
0.012593776882191
 10
90.54307637381127
 20
7.77511144958731
 42
0.399948299503578
 10
90.10272433306608
 20
8.443861914852252
 42
0.1317368430707875
 10
90.52546230272765
 20
8.619848873993234
 42
0.1884746471745189
 10
89.66237234505177
 20
8.831033204433198
 42
-0.3336022684669897
 10
89.60953007906999
 20
9.095013677360027
 42
-0.0881522859302611
 10
90.54307637381127
 20
9.042217569088519
 42
-62.06667270654697
  0
ARC
  5
1F8
330
18
100
AcDbEntity
  8
ADP1DETAIL
100
AcDbCircle
 10
90.97246182224754
 20
8.259278526074083
 30
0.0
 40
1.680218390443953
100
AcDbArc
 50
191.792318538492
 51
217.7960708702606
  0
LINE
  5
1F9
330
18
100
AcDbEntity
  8
ADP1DETAIL
100
AcDbLine
 10
87.2837759122258
 20
7.115214864475033
 30
0.0
 11
87.2837759122258
 21
7.191308894082147
 31
0.0
  0
LINE
  5
1FA
330
18
100
AcDbEntity
  8
ADP1DETAIL
100
AcDbLine
 10
87.19238327439002
 20
7.739185715829158
 30
0.0
 11
87.16191904356742
 21
7.937030150268942
 31
0.0
  0
ARC
  5
1FB
330
18
100
AcDbEntity
  8
ADP1DETAIL
100
AcDbCircle
 10
89.24790290390111
 20
8.012693851270705
 30
0.0
 40
0.3263912872091243
100
AcDbArc
 50
152.7217865213734
 51
207.2782134786264
  0
ARC
  5
1FC
330
18
100
AcDbEntity
  8
ADP1DETAIL
100
AcDbCircle
 10
89.16030930236095
 20
8.057152078054414
 30
0.0
 40
0.3824899073908678
100
AcDbArc
 50
231.5721527869183
 51
255.3378009742446
  0
ARC
  5
1FD
330
18
100
AcDbEntity
  8
ADP1DETAIL
100
AcDbCircle
 10
91.48870369654177
 20
9.895990343918651
 30
0.0
 40
2.504933660967417
100
AcDbArc
 50
216.9260816960876
 51
234.9427195505794
  0
ARC
  5
1FE
330
18
100
AcDbEntity
  8
ADP1DETAIL
100
AcDbCircle
 10
89.69760048721902
 20
8.722375481677792
 30
0.0
 40
0.5494046546258536
100
AcDbArc
 50
75.13855255103708
 51
123.0263838431971
  0
ARC
  5
1FF
330
18
100
AcDbEntity
  8
ADP1DETAIL
100
AcDbCircle
 10
88.59162034332186
 20
11.08472391677949
 30
0.0
 40
1.668133666074551
100
AcDbArc
 50
296.1844463900706
 51
327.4061400649647
  0
LWPOLYLINE
  5
200
330
18
100
AcDbEntity
  8
ADP1DETAIL
100
AcDbPolyline
 90
        4
 70
     0
 43
0.0
 10
88.78166826356135
 20
9.30619800779999
 42
-0.1466459988747911
 10
89.08110763017573
 20
9.253401933743839
 42
-0.2276366642437973
 10
89.67998641613538
 20
9.46458629839916
 42
0.3149965675617512
 10
90.08511026198243
 20
9.587777149268632
 42
-0.4864592474286659
  0
ARC
  5
206
330
18
100
AcDbEntity
  8
ADP1DETAIL
100
AcDbCircle
 10
89.12942943123017
 20
9.628767586812772
 30
0.0
 40
0.505508867131142
100
AcDbArc
 50
234.3092532923203
 51
302.1140492068985
  0
LWPOLYLINE
  5
207
330
18
100
AcDbEntity
  8
ADP1DETAIL
100
AcDbPolyline
 90
        4
 70
     0
 43
0.0
 10
90.52546230272765
 20
9.042217569088519
 42
2.046050115142154
 10
90.5606904976258
 20
9.165408454173348
 42
-0.2256354045742913
 10
90.29647927317867
 20
9.3589941160715
 42
-0.7449019305878087
 10
90.36693555751318
 20
9.429388892884819
 42
-0.0553797965863879
  0
ARC
  5
20D
330
18
100
AcDbEntity
  8
ADP1DETAIL
100
AcDbCircle
 10
85.55848744720558
 20
-17.55994631909848
 30
0.0
 40
27.236297519257
100
AcDbArc
 50
79.680768989408
 51
80.7711772413311
  0
TEXT
  5
21B
330
18
100
AcDbEntity
  8
ADPDIM
100
AcDbText
 10
66.6697097150755
 20
3.781885423976873
 30
0.0
 40
0.375
  1
J U L I U S  B L U M  &  C O . ,  I N C .      ( 8 0 0 )  5 2 6 - 6 2 9 3        W W W . J U L I U S B L U M . C O M        P A R T  N o .  5 1 4
 41
1.25
  7
ARIAL_WIDE
 72
     1
 11
85.97383232762666
 21
4.156885423976873
 31
0.0
100
AcDbText
 73
     3
  0
ENDSEC
  0
SECTION
  2
OBJECTS
  0
DICTIONARY
  5
C
330
0
100
AcDbDictionary
  3
ACAD_GROUP
350
D
  3
ACAD_LAYOUT
350
214
  3
ACAD_MLINESTYLE
350
E
  3
ACAD_PLOTSETTINGS
350
215
  3
ACAD_PLOTSTYLENAME
350
212
  3
ACDBHEADERROUNDTRIPXREC
350
363
  3
ACDBVARIABLEDICTIONARY
350
275
  0
DICTIONARY
  5
26F
330
18
100
AcDbDictionary
280
     1
  3
ACAD_LAYOUTSELFREF
360
384
  0
DICTIONARY
  5
26D
330
15
100
AcDbDictionary
280
     1
  3
ACAD_LAYOUTSELFREF
360
383
  0
DICTIONARY
  5
D
102
{ACAD_REACTORS
330
C
102
}
330
C
100
AcDbDictionary
  0
DICTIONARY
  5
214
102
{ACAD_REACTORS
330
C
102
}
330
C
100
AcDbDictionary
  0
DICTIONARY
  5
E
102
{ACAD_REACTORS
330
C
102
}
330
C
100
AcDbDictionary
  3
STANDARD
350
1B
  0
DICTIONARY
  5
215
102
{ACAD_REACTORS
330
C
102
}
330
C
100
AcDbDictionary
  0
ACDBDICTIONARYWDFLT
  5
212
102
{ACAD_REACTORS
330
C
102
}
330
C
100
AcDbDictionary
281
     1
  3
Normal
350
213
100
AcDbDictionaryWithDefault
340
213
  0
DICTIONARY
  5
363
102
{ACAD_REACTORS
330
C
102
}
330
C
100
AcDbDictionary
  3
CEPSNTYPE
350
36D
  3
FINGERPRINTGUID
350
36E
  3
HYPERLINKBASE
350
366
  3
INSUNITS
350
36C
  3
LAYOUTDICT
350
368
  3
LWETCUNION
350
36B
  3
PLOTSETDICT
350
369
  3
PLOTSTYLNAMDICT
350
36A
  3
PSVPSCALE
350
370
  3
PUCSBASE
350
373
  3
PUCSORGBACK
350
379
  3
PUCSORGBOTTOM
350
375
  3
PUCSORGFRONT
350
378
  3
PUCSORGLEFT
350
376
  3
PUCSORGRIGHT
350
377
  3
PUCSORGTOP
350
374
  3
PUCSORTHOREF
350
371
  3
PUCSORTHOVIEW
350
372
  3
STYLESHEET
350
367
  3
TSTACKALIGN
350
364
  3
TSTACKSIZE
350
365
  3
UCSBASE
350
37C
  3
UCSORGBACK
350
382
  3
UCSORGBOTTOM
350
37E
  3
UCSORGFRONT
350
381
  3
UCSORGLEFT
350
37F
  3
UCSORGRIGHT
350
380
  3
UCSORGTOP
350
37D
  3
UCSORTHOREF
350
37A
  3
UCSORTHOVIEW
350
37B
  3
VERSIONGUID
350
36F
  0
DICTIONARY
  5
275
102
{ACAD_REACTORS
330
C
102
}
330
C
100
AcDbDictionary
  3
DIMASSOC
350
276
  0
XRECORD
  5
384
102
{ACAD_REACTORS
330
26F
102
}
330
26F
100
AcDbXrecord
340
18
  0
XRECORD
  5
383
102
{ACAD_REACTORS
330
26D
102
}
330
26D
100
AcDbXrecord
340
15
  0
MLINESTYLE
  5
1B
102
{ACAD_REACTORS
330
E
102
}
330
E
100
AcDbMlineStyle
  2
STANDARD
 70
     0
  3

 62
     0
 51
90.0
 52
90.0
 71
     2
 49
0.5
 62
   256
  6
BYLAYER
 49
-0.5
 62
   256
  6
BYLAYER
  0
ACDBPLACEHOLDER
  5
213
102
{ACAD_REACTORS
330
212
102
}
330
212
100
AcDbPlaceHolder
280
     0
  0
XRECORD
  5
36D
102
{ACAD_REACTORS
330
363
102
}
330
363
100
AcDbXrecord
 90
        0
  0
XRECORD
  5
36E
102
{ACAD_REACTORS
330
363
102
}
330
363
100
AcDbXrecord
  1
{B7675D67-AB68-47AC-AB16-8D93923D389D}
  0
XRECORD
  5
366
102
{ACAD_REACTORS
330
363
102
}
330
363
100
AcDbXrecord
  1

  0
XRECORD
  5
36C
102
{ACAD_REACTORS
330
363
102
}
330
363
100
AcDbXrecord
 90
        0
  0
XRECORD
  5
368
102
{ACAD_REACTORS
330
363
102
}
330
363
100
AcDbXrecord
340
214
  0
XRECORD
  5
36B
102
{ACAD_REACTORS
330
363
102
}
330
363
100
AcDbXrecord
 90
    14877
  0
XRECORD
  5
369
102
{ACAD_REACTORS
330
363
102
}
330
363
100
AcDbXrecord
340
215
  0
XRECORD
  5
36A
102
{ACAD_REACTORS
330
363
102
}
330
363
100
AcDbXrecord
340
212
  0
XRECORD
  5
370
102
{ACAD_REACTORS
330
363
102
}
330
363
100
AcDbXrecord
 40
0.0
  0
XRECORD
  5
373
102
{ACAD_REACTORS
330
363
102
}
330
363
100
AcDbXrecord
340
0
  0
XRECORD
  5
379
102
{ACAD_REACTORS
330
363
102
}
330
363
100
AcDbXrecord
 10
0.0
 20
0.0
 30
0.0
  0
XRECORD
  5
375
102
{ACAD_REACTORS
330
363
102
}
330
363
100
AcDbXrecord
 10
0.0
 20
0.0
 30
0.0
  0
XRECORD
  5
378
102
{ACAD_REACTORS
330
363
102
}
330
363
100
AcDbXrecord
 10
0.0
 20
0.0
 30
0.0
  0
XRECORD
  5
376
102
{ACAD_REACTORS
330
363
102
}
330
363
100
AcDbXrecord
 10
0.0
 20
0.0
 30
0.0
  0
XRECORD
  5
377
102
{ACAD_REACTORS
330
363
102
}
330
363
100
AcDbXrecord
 10
0.0
 20
0.0
 30
0.0
  0
XRECORD
  5
374
102
{ACAD_REACTORS
330
363
102
}
330
363
100
AcDbXrecord
 10
0.0
 20
0.0
 30
0.0
  0
XRECORD
  5
371
102
{ACAD_REACTORS
330
363
102
}
330
363
100
AcDbXrecord
340
0
  0
XRECORD
  5
372
102
{ACAD_REACTORS
330
363
102
}
330
363
100
AcDbXrecord
 70
     0
  0
XRECORD
  5
367
102
{ACAD_REACTORS
330
363
102
}
330
363
100
AcDbXrecord
  1

  0
XRECORD
  5
364
102
{ACAD_REACTORS
330
363
102
}
330
363
100
AcDbXrecord
 90
        1
  0
XRECORD
  5
365
102
{ACAD_REACTORS
330
363
102
}
330
363
100
AcDbXrecord
 90
       70
  0
XRECORD
  5
37C
102
{ACAD_REACTORS
330
363
102
}
330
363
100
AcDbXrecord
340
0
  0
XRECORD
  5
382
102
{ACAD_REACTORS
330
363
102
}
330
363
100
AcDbXrecord
 10
0.0
 20
0.0
 30
0.0
  0
XRECORD
  5
37E
102
{ACAD_REACTORS
330
363
102
}
330
363
100
AcDbXrecord
 10
0.0
 20
0.0
 30
0.0
  0
XRECORD
  5
381
102
{ACAD_REACTORS
330
363
102
}
330
363
100
AcDbXrecord
 10
0.0
 20
0.0
 30
0.0
  0
XRECORD
  5
37F
102
{ACAD_REACTORS
330
363
102
}
330
363
100
AcDbXrecord
 10
0.0
 20
0.0
 30
0.0
  0
XRECORD
  5
380
102
{ACAD_REACTORS
330
363
102
}
330
363
100
AcDbXrecord
 10
0.0
 20
0.0
 30
0.0
  0
XRECORD
  5
37D
102
{ACAD_REACTORS
330
363
102
}
330
363
100
AcDbXrecord
 10
0.0
 20
0.0
 30
0.0
  0
XRECORD
  5
37A
102
{ACAD_REACTORS
330
363
102
}
330
363
100
AcDbXrecord
340
0
  0
XRECORD
  5
37B
102
{ACAD_REACTORS
330
363
102
}
330
363
100
AcDbXrecord
 70
     0
  0
XRECORD
  5
36F
102
{ACAD_REACTORS
330
363
102
}
330
363
100
AcDbXrecord
  1
{FAC0D211-E1AC-4058-BB6D-4BAC12829E53}
  0
DICTIONARYVAR
  5
276
102
{ACAD_REACTORS
330
275
102
}
330
275
100
DictionaryVariables
280
     0
  1
1
  0
ENDSEC
  0
EOF
