  0
SECTION
  2
HEADER
  9
$ACADVER
  1
AC1014
  9
$ACADMAINTVER
 70
     9
  9
$DWGCODEPAGE
  3
ANSI_1252
  9
$INSBASE
 10
2.031927973620401
 20
7.521008039828954
 30
0.0
  9
$EXTMIN
 10
-0.5024828497718952
 20
6.202514738305119
 30
0.0
  9
$EXTMAX
 10
9.286110687063029
 20
8.175303300836212
 30
0.0
  9
$LIMMIN
 10
0.0
 20
0.0
  9
$LIMMAX
 10
36.0
 20
36.0
  9
$ORTHOMODE
 70
     1
  9
$REGENMODE
 70
     1
  9
$FILLMODE
 70
     1
  9
$QTEXTMODE
 70
     0
  9
$MIRRTEXT
 70
     1
  9
$DRAGMODE
 70
     0
  9
$LTSCALE
 40
1.0
  9
$OSMODE
 70
    37
  9
$ATTMODE
 70
     1
  9
$TEXTSIZE
 40
0.2
  9
$TRACEWID
 40
0.05
  9
$TEXTSTYLE
  7
STANDARD
  9
$CLAYER
  8
ADP1DETAIL
  9
$CELTYPE
  6
BYLAYER
  9
$CECOLOR
 62
   256
  9
$CELTSCALE
 40
1.0
  9
$DELOBJ
 70
     1
  9
$DISPSILH
 70
     0
  9
$DIMSCALE
 40
1.0
  9
$DIMASZ
 40
0.125
  9
$DIMEXO
 40
0.0625
  9
$DIMDLI
 40
0.38
  9
$DIMRND
 40
0.0
  9
$DIMDLE
 40
0.0
  9
$DIMEXE
 40
0.18
  9
$DIMTP
 40
0.0
  9
$DIMTM
 40
0.0
  9
$DIMTXT
 40
0.125
  9
$DIMCEN
 40
0.1875
  9
$DIMTSZ
 40
0.125
  9
$DIMTOL
 70
     0
  9
$DIMLIM
 70
     0
  9
$DIMTIH
 70
     0
  9
$DIMTOH
 70
     0
  9
$DIMSE1
 70
     0
  9
$DIMSE2
 70
     0
  9
$DIMTAD
 70
     0
  9
$DIMZIN
 70
     3
  9
$DIMBLK
  1

  9
$DIMASO
 70
     1
  9
$DIMSHO
 70
     1
  9
$DIMPOST
  1

  9
$DIMAPOST
  1

  9
$DIMALT
 70
     0
  9
$DIMALTD
 70
     1
  9
$DIMALTF
 40
25.4
  9
$DIMLFAC
 40
1.0
  9
$DIMTOFL
 70
     0
  9
$DIMTVP
 40
0.0
  9
$DIMTIX
 70
     0
  9
$DIMSOXD
 70
     0
  9
$DIMSAH
 70
     0
  9
$DIMBLK1
  1

  9
$DIMBLK2
  1

  9
$DIMSTYLE
  2
STANDARD
  9
$DIMCLRD
 70
     0
  9
$DIMCLRE
 70
     0
  9
$DIMCLRT
 70
     0
  9
$DIMTFAC
 40
1.0
  9
$DIMGAP
 40
0.125
  9
$DIMJUST
 70
     0
  9
$DIMSD1
 70
     0
  9
$DIMSD2
 70
     0
  9
$DIMTOLJ
 70
     1
  9
$DIMTZIN
 70
     0
  9
$DIMALTZ
 70
     0
  9
$DIMALTTZ
 70
     0
  9
$DIMFIT
 70
     3
  9
$DIMUPT
 70
     0
  9
$DIMUNIT
 70
     2
  9
$DIMDEC
 70
     4
  9
$DIMTDEC
 70
     4
  9
$DIMALTU
 70
     2
  9
$DIMALTTD
 70
     2
  9
$DIMTXSTY
  7
STANDARD
  9
$DIMAUNIT
 70
     0
  9
$LUNITS
 70
     5
  9
$LUPREC
 70
     4
  9
$SKETCHINC
 40
0.1
  9
$FILLETRAD
 40
0.01
  9
$AUNITS
 70
     0
  9
$AUPREC
 70
     0
  9
$MENU
  1
acad
  9
$ELEVATION
 40
0.0
  9
$PELEVATION
 40
0.0
  9
$THICKNESS
 40
0.0
  9
$LIMCHECK
 70
     0
  9
$BLIPMODE
 70
     0
  9
$CHAMFERA
 40
0.0
  9
$CHAMFERB
 40
0.0
  9
$CHAMFERC
 40
0.0
  9
$CHAMFERD
 40
0.0
  9
$SKPOLY
 70
     0
  9
$TDCREATE
 40
2450218.477747870
  9
$TDUPDATE
 40
2452297.089473194
  9
$TDINDWG
 40
0.0765767245
  9
$TDUSRTIMER
 40
0.0765767245
  9
$USRTIMER
 70
     1
  9
$ANGBASE
 50
0.0
  9
$ANGDIR
 70
     0
  9
$PDMODE
 70
     0
  9
$PDSIZE
 40
0.0
  9
$PLINEWID
 40
0.0
  9
$COORDS
 70
     2
  9
$SPLFRAME
 70
     0
  9
$SPLINETYPE
 70
     6
  9
$SPLINESEGS
 70
     8
  9
$ATTDIA
 70
     0
  9
$ATTREQ
 70
     1
  9
$HANDLING
 70
 22529
  9
$HANDSEED
  5
227
  9
$SURFTAB1
 70
     6
  9
$SURFTAB2
 70
     6
  9
$SURFTYPE
 70
     6
  9
$SURFU
 70
     6
  9
$SURFV
 70
     6
  9
$UCSNAME
  2

  9
$UCSORG
 10
0.0
 20
0.0
 30
0.0
  9
$UCSXDIR
 10
1.0
 20
0.0
 30
0.0
  9
$UCSYDIR
 10
0.0
 20
1.0
 30
0.0
  9
$PUCSNAME
  2

  9
$PUCSORG
 10
0.0
 20
0.0
 30
0.0
  9
$PUCSXDIR
 10
1.0
 20
0.0
 30
0.0
  9
$PUCSYDIR
 10
0.0
 20
1.0
 30
0.0
  9
$USERI1
 70
     0
  9
$USERI2
 70
     0
  9
$USERI3
 70
     0
  9
$USERI4
 70
     0
  9
$USERI5
 70
     0
  9
$USERR1
 40
0.0
  9
$USERR2
 40
0.0
  9
$USERR3
 40
0.0
  9
$USERR4
 40
0.0
  9
$USERR5
 40
0.0
  9
$WORLDVIEW
 70
     1
  9
$SHADEDGE
 70
     3
  9
$SHADEDIF
 70
    70
  9
$TILEMODE
 70
     1
  9
$MAXACTVP
 70
    15
  9
$PINSBASE
 10
0.0008545056916773
 20
1.250276130627782
 30
0.0
  9
$PLIMCHECK
 70
     0
  9
$PEXTMIN
 10
1.000000000000000E+20
 20
1.000000000000000E+20
 30
1.000000000000000E+20
  9
$PEXTMAX
 10
-1.000000000000000E+20
 20
-1.000000000000000E+20
 30
-1.000000000000000E+20
  9
$PLIMMIN
 10
0.0
 20
0.0
  9
$PLIMMAX
 10
12.0
 20
9.0
  9
$UNITMODE
 70
     0
  9
$VISRETAIN
 70
     0
  9
$PLINEGEN
 70
     0
  9
$PSLTSCALE
 70
     1
  9
$TREEDEPTH
 70
  3020
  9
$PICKSTYLE
 70
     1
  9
$CMLSTYLE
  2
STANDARD
  9
$CMLJUST
 70
     0
  9
$CMLSCALE
 40
1.0
  9
$PROXYGRAPHICS
 70
     1
  9
$MEASUREMENT
 70
     0
  0
ENDSEC
  0
SECTION
  2
CLASSES
  0
CLASS
  1
ACDBDICTIONARYWDFLT
  2
AcDbDictionaryWithDefault
  3
AutoCAD 2000
 90
        0
280
     0
281
     0
  0
CLASS
  1
ACDBPLACEHOLDER
  2
AcDbPlaceHolder
  3
AutoCAD 2000
 90
        0
280
     0
281
     0
  0
CLASS
  1
LAYOUT
  2
AcDbLayout
  3
AutoCAD 2000
 90
        0
280
     0
281
     0
  0
CLASS
  1
DICTIONARYVAR
  2
AcDbDictionaryVar
  3
AutoCAD 2000
 90
        0
280
     0
281
     0
  0
CLASS
  1
LONG_TRANSACTION
  2
AcDbLongTransaction
  3
AutoCAD 2000
 90
        0
280
     0
281
     0
  0
CLASS
  1
LWPOLYLINE
  2
AcDbPolyline
  3
AutoCAD 2000
 90
        0
280
     0
281
     1
  0
CLASS
  1
HATCH
  2
AcDbHatch
  3
AutoCAD 2000
 90
        0
280
     0
281
     1
  0
CLASS
  1
XRECORD
  2
AcDbXrecord
  3
AutoCAD 2000
 90
        0
280
     0
281
     0
  0
CLASS
  1
LONG_TRANSACTION
  2
AcDbLongTransaction
  3
AutoCAD 2000
 90
        0
280
     0
281
     0
  0
CLASS
  1
LWPOLYLINE
  2
AcDbPolyline
  3
AutoCAD 2000
 90
        0
280
     0
281
     1
  0
CLASS
  1
HATCH
  2
AcDbHatch
  3
AutoCAD 2000
 90
        0
280
     0
281
     1
  0
CLASS
  1
XRECORD
  2
AcDbXrecord
  3
AutoCAD 2000
 90
        0
280
     0
281
     0
  0
CLASS
  1
LONG_TRANSACTION
  2
AcDbLongTransaction
  3
AutoCAD 2000
 90
        0
280
     0
281
     0
  0
CLASS
  1
LWPOLYLINE
  2
AcDbPolyline
  3
AutoCAD 2000
 90
        0
280
     0
281
     1
  0
CLASS
  1
HATCH
  2
AcDbHatch
  3
AutoCAD 2000
 90
        0
280
     0
281
     1
  0
CLASS
  1
XRECORD
  2
AcDbXrecord
  3
AutoCAD 2000
 90
        0
280
     0
281
     0
  0
CLASS
  1
LONG_TRANSACTION
  2
AcDbLongTransaction
  3
AutoCAD 2000
 90
        0
280
     0
281
     0
  0
CLASS
  1
LWPOLYLINE
  2
AcDbPolyline
  3
AutoCAD 2000
 90
        0
280
     0
281
     1
  0
CLASS
  1
HATCH
  2
AcDbHatch
  3
AutoCAD 2000
 90
        0
280
     0
281
     1
  0
CLASS
  1
XRECORD
  2
AcDbXrecord
  3
AutoCAD 2000
 90
        0
280
     0
281
     0
  0
CLASS
  1
LONG_TRANSACTION
  2
AcDbLongTransaction
  3
AutoCAD 2000
 90
        0
280
     0
281
     0
  0
CLASS
  1
LWPOLYLINE
  2
AcDbPolyline
  3
AutoCAD 2000
 90
        0
280
     0
281
     1
  0
CLASS
  1
HATCH
  2
AcDbHatch
  3
AutoCAD 2000
 90
        0
280
     0
281
     1
  0
CLASS
  1
XRECORD
  2
AcDbXrecord
  3
AutoCAD 2000
 90
        0
280
     0
281
     0
  0
ENDSEC
  0
SECTION
  2
TABLES
  0
TABLE
  2
VPORT
  5
8
330
0
100
AcDbSymbolTable
 70
     2
  0
VPORT
  5
204
330
8
100
AcDbSymbolTableRecord
100
AcDbViewportTableRecord
  2
*ACTIVE
 70
     0
 10
0.0
 20
0.0
 11
1.0
 21
1.0
 12
4.399938864819965
 22
7.188079905216677
 13
0.0
 23
0.0
 14
0.5740882589684922
 24
0.5740882589684922
 15
0.5
 25
0.5
 16
0.0
 26
0.0
 36
1.0
 17
0.0
 27
0.0
 37
0.0
 40
6.27482069949008
 41
1.570528967254408
 42
50.0
 43
0.0
 44
0.0
 50
0.0
 51
0.0
 71
     0
 72
   100
 73
     1
 74
     0
 75
     0
 76
     0
 77
     0
 78
     0
  0
ENDTAB
  0
TABLE
  2
LTYPE
  5
5
330
0
100
AcDbSymbolTable
 70
     1
  0
LTYPE
  5
12
330
5
100
AcDbSymbolTableRecord
100
AcDbLinetypeTableRecord
  2
BYBLOCK
 70
     0
  3

 72
    65
 73
     0
 40
0.0
  0
LTYPE
  5
13
330
5
100
AcDbSymbolTableRecord
100
AcDbLinetypeTableRecord
  2
BYLAYER
 70
     0
  3

 72
    65
 73
     0
 40
0.0
  0
LTYPE
  5
14
330
5
100
AcDbSymbolTableRecord
100
AcDbLinetypeTableRecord
  2
CONTINUOUS
 70
     0
  3
Solid line
 72
    65
 73
     0
 40
0.0
  0
ENDTAB
  0
TABLE
  2
LAYER
  5
2
330
0
100
AcDbSymbolTable
 70
     4
  0
LAYER
  5
F
330
2
100
AcDbSymbolTableRecord
100
AcDbLayerTableRecord
  2
0
 70
     0
 62
     7
  6
CONTINUOUS
  0
LAYER
  5
24
330
2
100
AcDbSymbolTableRecord
100
AcDbLayerTableRecord
  2
ADPDIM
 70
     0
 62
     3
  6
CONTINUOUS
  0
LAYER
  5
25
330
2
100
AcDbSymbolTableRecord
100
AcDbLayerTableRecord
  2
ADP1DETAIL
 70
     0
 62
     7
  6
CONTINUOUS
  0
LAYER
  5
26
330
2
100
AcDbSymbolTableRecord
100
AcDbLayerTableRecord
  2
DEFPOINTS
 70
     0
 62
     7
  6
CONTINUOUS
  0
ENDTAB
  0
TABLE
  2
STYLE
  5
3
330
0
100
AcDbSymbolTable
 70
     2
  0
STYLE
  5
10
330
3
100
AcDbSymbolTableRecord
100
AcDbTextStyleTableRecord
  2
STANDARD
 70
     0
 40
0.0
 41
1.0
 50
0.0
 71
     0
 42
0.2
  3
txt
  4

  0
STYLE
  5
C0
330
3
100
AcDbSymbolTableRecord
100
AcDbTextStyleTableRecord
  2
ARIAL_WIDE
 70
     0
 40
0.0
 41
1.25
 50
0.0
 71
     0
 42
0.2
  3
ARIAL.TTF
  4

1001
ACAD
1000
Arial
1071
       34
  0
ENDTAB
  0
TABLE
  2
VIEW
  5
6
330
0
100
AcDbSymbolTable
 70
     0
  0
ENDTAB
  0
TABLE
  2
UCS
  5
7
330
0
100
AcDbSymbolTable
 70
     0
  0
ENDTAB
  0
TABLE
  2
APPID
  5
9
330
0
100
AcDbSymbolTable
 70
     1
  0
APPID
  5
11
330
9
100
AcDbSymbolTableRecord
100
AcDbRegAppTableRecord
  2
ACAD
 70
     0
  0
ENDTAB
  0
TABLE
  2
DIMSTYLE
  5
A
330
0
100
AcDbSymbolTable
 70
     1
  0
DIMSTYLE
105
B4
330
A
100
AcDbSymbolTableRecord
100
AcDbDimStyleTableRecord
  2
STANDARD
 70
     0
  3

  4

  5

  6

  7

 40
1.0
 41
0.18
 42
0.0625
 43
0.38
 44
0.18
 45
0.0
 46
0.0
 47
0.0
 48
0.0
140
0.18
141
0.09
142
0.0
143
25.4
144
1.0
145
0.0
146
1.0
147
0.09
 71
     0
 72
     0
 73
     1
 74
     1
 75
     0
 76
     0
 77
     0
 78
     0
170
     0
171
     2
172
     0
173
     0
174
     0
175
     0
176
     0
177
     0
178
     0
270
     2
271
     4
272
     4
273
     2
274
     2
340
10
275
     0
280
     0
281
     0
282
     0
283
     1
284
     0
285
     0
286
     0
287
     3
288
     0
  0
ENDTAB
  0
TABLE
  2
BLOCK_RECORD
  5
1
330
0
100
AcDbSymbolTable
 70
     3
  0
BLOCK_RECORD
  5
18
102
{ACAD_XDICTIONARY
360
115
102
}
330
1
100
AcDbSymbolTableRecord
100
AcDbBlockTableRecord
  2
*MODEL_SPACE
  0
BLOCK_RECORD
  5
15
102
{ACAD_XDICTIONARY
360
113
102
}
330
1
100
AcDbSymbolTableRecord
100
AcDbBlockTableRecord
  2
*PAPER_SPACE
  0
BLOCK_RECORD
  5
1C
330
1
100
AcDbSymbolTableRecord
100
AcDbBlockTableRecord
  2
*D0
  0
BLOCK_RECORD
  5
1D
330
1
100
AcDbSymbolTableRecord
100
AcDbBlockTableRecord
  2
*D1
  0
BLOCK_RECORD
  5
22
330
1
100
AcDbSymbolTableRecord
100
AcDbBlockTableRecord
  2
*D2
  0
ENDTAB
  0
ENDSEC
  0
SECTION
  2
BLOCKS
  0
BLOCK
  5
29
330
18
100
AcDbEntity
  8
0
100
AcDbBlockBegin
  2
*MODEL_SPACE
 70
     0
 10
0.0
 20
0.0
 30
0.0
  3
*MODEL_SPACE
  1

  0
ENDBLK
  5
2A
330
18
100
AcDbEntity
  8
0
100
AcDbBlockEnd
  0
BLOCK
  5
27
330
15
100
AcDbEntity
 67
     1
  8
0
100
AcDbBlockBegin
  2
*PAPER_SPACE
 70
     0
 10
0.0
 20
0.0
 30
0.0
  3
*PAPER_SPACE
  1

  0
ENDBLK
  5
28
330
15
100
AcDbEntity
 67
     1
  8
0
100
AcDbBlockEnd
  0
BLOCK
  5
2B
330
1C
100
AcDbEntity
  8
0
100
AcDbBlockBegin
  2
*D0
 70
     1
 10
0.0
 20
0.0
 30
0.0
  3
*D0
  1

  0
LINE
  5
2C
330
1C
100
AcDbEntity
  8
0
  6
BYBLOCK
 62
     0
100
AcDbLine
 10
3.954829253294902
 20
7.649420425538868
 30
0.0
 11
3.954829253294902
 21
8.123447851431595
 31
0.0
  0
LINE
  5
2D
330
1C
100
AcDbEntity
  8
0
  6
BYBLOCK
 62
     0
100
AcDbLine
 10
1.965026693945901
 20
7.649420425538868
 30
0.0
 11
1.965026693945901
 21
8.123447851431595
 31
0.0
  0
LINE
  5
2E
330
1C
100
AcDbEntity
  8
0
  6
BYBLOCK
 62
     0
100
AcDbLine
 10
3.954829253294902
 20
7.943447851431596
 30
0.0
 11
3.126594640287069
 21
7.943447851431596
 31
0.0
  0
LINE
  5
2F
330
1C
100
AcDbEntity
  8
0
  6
BYBLOCK
 62
     0
100
AcDbLine
 10
1.965026693945901
 20
7.943447851431596
 30
0.0
 11
2.793261306953735
 21
7.943447851431596
 31
0.0
  0
LINE
  5
30
330
1C
100
AcDbEntity
  8
0
  6
BYBLOCK
 62
     0
100
AcDbLine
 10
3.829829253294902
 20
7.818447851431596
 30
0.0
 11
4.079829253294902
 21
8.068447851431596
 31
0.0
  0
LINE
  5
31
330
1C
100
AcDbEntity
  8
0
  6
BYBLOCK
 62
     0
100
AcDbLine
 10
1.840026693945901
 20
7.818447851431596
 30
0.0
 11
2.090026693945902
 21
8.068447851431596
 31
0.0
  0
TEXT
  5
32
330
1C
100
AcDbEntity
  8
0
  6
BYBLOCK
 62
     0
100
AcDbText
 10
2.918261306953736
 20
7.880947851431596
 30
0.0
 40
0.125
  1
2
 72
     1
 11
2.959927973620402
 21
7.943447851431596
 31
0.0
100
AcDbText
 73
     2
  0
POINT
  5
33
330
1C
100
AcDbEntity
  8
DEFPOINTS
  6
BYBLOCK
 62
     0
100
AcDbPoint
 10
3.954829253294902
 20
7.586920425538868
 30
0.0
  0
POINT
  5
34
330
1C
100
AcDbEntity
  8
DEFPOINTS
  6
BYBLOCK
 62
     0
100
AcDbPoint
 10
1.965026693945901
 20
7.586920425538868
 30
0.0
  0
POINT
  5
35
330
1C
100
AcDbEntity
  8
DEFPOINTS
  6
BYBLOCK
 62
     0
100
AcDbPoint
 10
1.965026693945901
 20
7.943447851431596
 30
0.0
  0
ENDBLK
  5
36
330
1C
100
AcDbEntity
  8
0
100
AcDbBlockEnd
  0
BLOCK
  5
37
330
1D
100
AcDbEntity
  8
0
100
AcDbBlockBegin
  2
*D1
 70
     1
 10
0.0
 20
0.0
 30
0.0
  3
*D1
  1

  0
LINE
  5
38
330
1D
100
AcDbEntity
  8
0
  6
BYBLOCK
 62
     0
100
AcDbLine
 10
3.022427973620402
 20
7.833008039828954
 30
0.0
 11
4.342030707892321
 21
7.833008039828954
 31
0.0
  0
LINE
  5
39
330
1D
100
AcDbEntity
  8
0
  6
BYBLOCK
 62
     0
100
AcDbLine
 10
3.950427973620402
 20
7.521008039828954
 30
0.0
 11
4.342030707892321
 21
7.521008039828954
 31
0.0
  0
LINE
  5
3A
330
1D
100
AcDbEntity
  8
0
  6
BYBLOCK
 62
     0
100
AcDbLine
 10
4.162030707892321
 20
7.833008039828954
 30
0.0
 11
4.162030707892321
 21
8.083008039828953
 31
0.0
  0
LINE
  5
3B
330
1D
100
AcDbEntity
  8
0
  6
BYBLOCK
 62
     0
100
AcDbLine
 10
4.162030707892321
 20
7.521008039828954
 30
0.0
 11
4.162030707892321
 21
7.271008039828954
 31
0.0
  0
LINE
  5
3C
330
1D
100
AcDbEntity
  8
0
  6
BYBLOCK
 62
     0
100
AcDbLine
 10
4.287030707892321
 20
7.708008039828954
 30
0.0
 11
4.037030707892321
 21
7.958008039828954
 31
0.0
  0
LINE
  5
3D
330
1D
100
AcDbEntity
  8
0
  6
BYBLOCK
 62
     0
100
AcDbLine
 10
4.287030707892321
 20
7.396008039828954
 30
0.0
 11
4.037030707892321
 21
7.646008039828954
 31
0.0
  0
TEXT
  5
3E
330
1D
100
AcDbEntity
  8
0
  6
BYBLOCK
 62
     0
100
AcDbText
 10
4.22453070789232
 20
6.729341373162288
 30
0.0
 40
0.125
  1
5/16
 50
90.0
 72
     1
 11
4.16203070789232
 21
6.937674706495621
 31
0.0
100
AcDbText
 73
     2
  0
POINT
  5
3F
330
1D
100
AcDbEntity
  8
DEFPOINTS
  6
BYBLOCK
 62
     0
100
AcDbPoint
 10
2.959927973620402
 20
7.833008039828954
 30
0.0
  0
POINT
  5
40
330
1D
100
AcDbEntity
  8
DEFPOINTS
  6
BYBLOCK
 62
     0
100
AcDbPoint
 10
3.887927973620402
 20
7.521008039828954
 30
0.0
  0
POINT
  5
41
330
1D
100
AcDbEntity
  8
DEFPOINTS
  6
BYBLOCK
 62
     0
100
AcDbPoint
 10
4.162030707892321
 20
7.521008039828954
 30
0.0
  0
ENDBLK
  5
42
330
1D
100
AcDbEntity
  8
0
100
AcDbBlockEnd
  0
BLOCK
  5
67
330
22
100
AcDbEntity
  8
0
100
AcDbBlockBegin
  2
*D2
 70
     1
 10
0.0
 20
0.0
 30
0.0
  3
*D2
  1

  0
LINE
  5
68
330
22
100
AcDbEntity
  8
0
  6
BYBLOCK
 62
     0
100
AcDbLine
 10
6.657034768782415
 20
7.895774346496408
 30
0.0
 11
6.657034768782415
 21
8.175303300836212
 31
0.0
  0
LINE
  5
69
330
22
100
AcDbEntity
  8
0
  6
BYBLOCK
 62
     0
100
AcDbLine
 10
4.657034768782415
 20
7.895774346496408
 30
0.0
 11
4.657034768782415
 21
8.175303300836212
 31
0.0
  0
LINE
  5
6A
330
22
100
AcDbEntity
  8
0
  6
BYBLOCK
 62
     0
100
AcDbLine
 10
6.657034768782415
 20
7.995303300836212
 30
0.0
 11
5.823701435449082
 21
7.995303300836212
 31
0.0
  0
LINE
  5
6B
330
22
100
AcDbEntity
  8
0
  6
BYBLOCK
 62
     0
100
AcDbLine
 10
4.657034768782415
 20
7.995303300836212
 30
0.0
 11
5.490368102115748
 21
7.995303300836212
 31
0.0
  0
LINE
  5
6C
330
22
100
AcDbEntity
  8
0
  6
BYBLOCK
 62
     0
100
AcDbLine
 10
6.532034768782415
 20
7.870303300836212
 30
0.0
 11
6.782034768782415
 21
8.120303300836212
 31
0.0
  0
LINE
  5
6D
330
22
100
AcDbEntity
  8
0
  6
BYBLOCK
 62
     0
100
AcDbLine
 10
4.532034768782415
 20
7.870303300836212
 30
0.0
 11
4.782034768782415
 21
8.120303300836212
 31
0.0
  0
TEXT
  5
6E
330
22
100
AcDbEntity
  8
0
  6
BYBLOCK
 62
     0
100
AcDbText
 10
5.615368102115748
 20
7.932803300836212
 30
0.0
 40
0.125
  1
2
 72
     1
 11
5.657034768782415
 21
7.995303300836212
 31
0.0
100
AcDbText
 73
     2
  0
POINT
  5
6F
330
22
100
AcDbEntity
  8
DEFPOINTS
  6
BYBLOCK
 62
     0
100
AcDbPoint
 10
6.657034768782415
 20
7.833274346496408
 30
0.0
  0
POINT
  5
70
330
22
100
AcDbEntity
  8
DEFPOINTS
  6
BYBLOCK
 62
     0
100
AcDbPoint
 10
4.657034768782415
 20
7.833274346496408
 30
0.0
  0
POINT
  5
71
330
22
100
AcDbEntity
  8
DEFPOINTS
  6
BYBLOCK
 62
     0
100
AcDbPoint
 10
4.657034768782415
 20
7.995303300836212
 30
0.0
  0
ENDBLK
  5
72
330
22
100
AcDbEntity
  8
0
100
AcDbBlockEnd
  0
ENDSEC
  0
SECTION
  2
ENTITIES
  0
DIMENSION
  5
73
330
18
100
AcDbEntity
  8
ADPDIM
100
AcDbDimension
  2
*D0
 10
1.965026693945901
 20
7.995303300836212
 30
0.0
 11
2.959927973620402
 21
7.995303300836212
 31
0.0
 12
0.0
 22
0.0518554494046164
 32
0.0
100
AcDbAlignedDimension
 13
3.954829253294902
 23
7.638775874943484
 33
0.0
 14
1.965026693945901
 24
7.638775874943484
 34
0.0
100
AcDbRotatedDimension
  0
LINE
  5
74
330
18
100
AcDbEntity
  8
ADP1DETAIL
100
AcDbLine
 10
2.031927973620401
 20
7.521008039828954
 30
0.0
 11
3.887927973620402
 21
7.521008039828954
 31
0.0
  0
LINE
  5
75
330
18
100
AcDbEntity
  8
ADP1DETAIL
100
AcDbLine
 10
1.972960227348814
 20
7.583008039828955
 30
0.0
 11
3.94689571989199
 21
7.583008039828955
 31
0.0
  0
ARC
  5
76
330
18
100
AcDbEntity
  8
ADP1DETAIL
100
AcDbCircle
 10
2.959927973620401
 20
-0.1669919601710454
 30
0.0
 40
8.0
100
AcDbArc
 50
90.0
 51
96.75787133449572
  0
LINE
  5
77
330
18
100
AcDbEntity
  8
ADP1DETAIL
100
AcDbLine
 10
2.240927973620401
 20
7.184008039828953
 30
0.0
 11
2.240927973620402
 21
6.945008039828954
 31
0.0
  0
ARC
  5
78
330
18
100
AcDbEntity
  8
ADP1DETAIL
100
AcDbCircle
 10
2.240927973620402
 20
7.021008039828954
 30
0.0
 40
0.125
100
AcDbArc
 50
270.0
 51
0.0
  0
ARC
  5
79
330
18
100
AcDbEntity
  8
ADP1DETAIL
100
AcDbCircle
 10
2.130927973620402
 20
6.959008039828954
 30
0.0
 40
0.031
100
AcDbArc
 50
90.0
 51
180.0
  0
LINE
  5
7A
330
18
100
AcDbEntity
  8
ADP1DETAIL
100
AcDbLine
 10
2.130927973620402
 20
6.990008039828953
 30
0.0
 11
2.195927973620402
 21
6.990008039828954
 31
0.0
  0
LINE
  5
7B
330
18
100
AcDbEntity
  8
ADP1DETAIL
100
AcDbLine
 10
2.099927973620402
 20
6.927008039828954
 30
0.0
 11
2.099927973620402
 21
6.959008039828954
 31
0.0
  0
LINE
  5
7C
330
18
100
AcDbEntity
  8
ADP1DETAIL
100
AcDbLine
 10
2.240927973620402
 20
6.945008039828954
 30
0.0
 11
2.195927973620402
 21
6.990008039828954
 31
0.0
  0
LINE
  5
7D
330
18
100
AcDbEntity
  8
ADP1DETAIL
100
AcDbLine
 10
2.240927973620402
 20
6.896008039828954
 30
0.0
 11
2.130927973620402
 21
6.896008039828954
 31
0.0
  0
ARC
  5
7E
330
18
100
AcDbEntity
  8
ADP1DETAIL
100
AcDbCircle
 10
2.130927973620402
 20
6.927008039828954
 30
0.0
 40
0.031
100
AcDbArc
 50
180.0
 51
270.0
  0
LWPOLYLINE
  5
7F
330
18
100
AcDbEntity
  8
ADP1DETAIL
100
AcDbPolyline
 90
        2
 70
     0
 43
0.0
 10
2.240927973620401
 20
7.184008039828953
 10
2.265927973620402
 20
7.209008039828954
  0
LWPOLYLINE
  5
83
330
18
100
AcDbEntity
  8
ADP1DETAIL
100
AcDbPolyline
 90
        2
 70
     0
 43
0.0
 10
2.265927973620402
 20
7.209008039828954
 10
2.240927973620401
 20
7.234008039828954
  0
ARC
  5
87
330
18
100
AcDbEntity
  8
ADP1DETAIL
100
AcDbCircle
 10
2.031927973620401
 20
7.531008039828954
 30
0.0
 40
0.01
100
AcDbArc
 50
180.0
 51
270.0
  0
LINE
  5
88
330
18
100
AcDbEntity
  8
ADP1DETAIL
100
AcDbLine
 10
2.021927973620401
 20
7.583008039828954
 30
0.0
 11
2.021927973620401
 21
7.531008039828954
 31
0.0
  0
ARC
  5
89
330
18
100
AcDbEntity
  8
ADP1DETAIL
100
AcDbCircle
 10
1.972960227348814
 20
7.593008039828955
 30
0.0
 40
0.01
100
AcDbArc
 50
165.0
 51
270.0
  0
LINE
  5
8A
330
18
100
AcDbEntity
  8
ADP1DETAIL
100
AcDbLine
 10
1.963300969085923
 20
7.59559623027998
 30
0.0
 11
2.010054855273776
 21
7.770084108984341
 31
0.0
  0
ARC
  5
8B
330
18
100
AcDbEntity
  8
ADP1DETAIL
100
AcDbCircle
 10
2.019714113536667
 20
7.767495918533316
 30
0.0
 40
0.01
100
AcDbArc
 50
96.75787133450516
 51
165.0000000000012
  0
LINE
  5
8C
330
18
100
AcDbEntity
  8
ADP1DETAIL
100
AcDbLine
 10
2.240927973620402
 20
7.521008039828954
 30
0.0
 11
2.240927973620401
 21
7.234008039828954
 31
0.0
  0
LINE
  5
8D
330
18
100
AcDbEntity
  8
ADP1DETAIL
100
AcDbLine
 10
2.365927973620402
 20
7.021008039828954
 30
0.0
 11
2.365927973620402
 21
7.521008039828954
 31
0.0
  0
LINE
  5
8E
330
18
100
AcDbEntity
  8
ADP1DETAIL
100
AcDbLine
 10
3.678927973620402
 20
7.184008039828953
 30
0.0
 11
3.678927973620401
 21
6.945008039828954
 31
0.0
  0
ARC
  5
8F
330
18
100
AcDbEntity
  8
ADP1DETAIL
100
AcDbCircle
 10
3.678927973620401
 20
7.021008039828954
 30
0.0
 40
0.125
100
AcDbArc
 50
180.0
 51
270.0
  0
DIMENSION
  5
90
330
18
100
AcDbEntity
  8
ADPDIM
100
AcDbDimension
  2
*D1
 10
4.162030707892321
 20
7.521008039828954
 30
0.0
 11
4.16203070789232
 21
6.937674706495621
 31
0.0
100
AcDbAlignedDimension
 13
2.959927973620402
 23
7.833008039828954
 33
0.0
 14
3.887927973620402
 24
7.521008039828954
 34
0.0
 50
90.0
100
AcDbRotatedDimension
  0
LINE
  5
91
330
18
100
AcDbEntity
  8
ADP1DETAIL
100
AcDbLine
 10
3.678927973620401
 20
6.945008039828954
 30
0.0
 11
3.723927973620401
 21
6.990008039828954
 31
0.0
  0
LINE
  5
92
330
18
100
AcDbEntity
  8
ADP1DETAIL
100
AcDbLine
 10
3.819927973620401
 20
6.927008039828954
 30
0.0
 11
3.819927973620401
 21
6.959008039828954
 31
0.0
  0
LINE
  5
93
330
18
100
AcDbEntity
  8
ADP1DETAIL
100
AcDbLine
 10
3.788927973620401
 20
6.990008039828953
 30
0.0
 11
3.723927973620401
 21
6.990008039828954
 31
0.0
  0
ARC
  5
94
330
18
100
AcDbEntity
  8
ADP1DETAIL
100
AcDbCircle
 10
3.788927973620401
 20
6.959008039828954
 30
0.0
 40
0.031
100
AcDbArc
 50
0.000000000000007
 51
90.0
  0
LINE
  5
95
330
18
100
AcDbEntity
  8
ADP1DETAIL
100
AcDbLine
 10
3.678927973620401
 20
6.896008039828954
 30
0.0
 11
3.788927973620401
 21
6.896008039828954
 31
0.0
  0
ARC
  5
96
330
18
100
AcDbEntity
  8
ADP1DETAIL
100
AcDbCircle
 10
3.788927973620401
 20
6.927008039828954
 30
0.0
 40
0.031
100
AcDbArc
 50
270.0
 51
0.000000000000007
  0
ARC
  5
97
330
18
100
AcDbEntity
  8
ADP1DETAIL
100
AcDbCircle
 10
2.959927973620402
 20
-0.1669919601710454
 30
0.0
 40
8.0
100
AcDbArc
 50
83.2421286655043
 51
90.0
  0
LINE
  5
98
330
18
100
AcDbEntity
  8
ADP1DETAIL
100
AcDbLine
 10
3.553927973620401
 20
7.021008039828954
 30
0.0
 11
3.553927973620401
 21
7.521008039828954
 31
0.0
  0
LINE
  5
99
330
18
100
AcDbEntity
  8
ADP1DETAIL
100
AcDbLine
 10
3.678927973620401
 20
7.521008039828954
 30
0.0
 11
3.678927973620402
 21
7.234008039828954
 31
0.0
  0
LWPOLYLINE
  5
9A
330
18
100
AcDbEntity
  8
ADP1DETAIL
100
AcDbPolyline
 90
        2
 70
     0
 43
0.0
 10
3.653927973620402
 20
7.209008039828954
 10
3.678927973620402
 20
7.234008039828954
  0
LWPOLYLINE
  5
9E
330
18
100
AcDbEntity
  8
ADP1DETAIL
100
AcDbPolyline
 90
        2
 70
     0
 43
0.0
 10
3.678927973620402
 20
7.184008039828953
 10
3.653927973620402
 20
7.209008039828954
  0
ARC
  5
A2
330
18
100
AcDbEntity
  8
ADP1DETAIL
100
AcDbCircle
 10
3.900141833704136
 20
7.767495918533316
 30
0.0
 40
0.01
100
AcDbArc
 50
14.99999999999874
 51
83.24212866549485
  0
LINE
  5
A3
330
18
100
AcDbEntity
  8
ADP1DETAIL
100
AcDbLine
 10
3.95655497815488
 20
7.59559623027998
 30
0.0
 11
3.909801091967027
 21
7.770084108984341
 31
0.0
  0
ARC
  5
A4
330
18
100
AcDbEntity
  8
ADP1DETAIL
100
AcDbCircle
 10
3.94689571989199
 20
7.593008039828955
 30
0.0
 40
0.01
100
AcDbArc
 50
270.0
 51
14.99999999999994
  0
LINE
  5
A5
330
18
100
AcDbEntity
  8
ADP1DETAIL
100
AcDbLine
 10
3.897927973620402
 20
7.583008039828954
 30
0.0
 11
3.897927973620402
 21
7.531008039828954
 31
0.0
  0
ARC
  5
A6
330
18
100
AcDbEntity
  8
ADP1DETAIL
100
AcDbCircle
 10
3.887927973620402
 20
7.531008039828954
 30
0.0
 40
0.01
100
AcDbArc
 50
270.0
 51
0.000000000000007
  0
LINE
  5
A7
330
18
100
AcDbEntity
  8
ADP1DETAIL
100
AcDbLine
 10
4.657034768782415
 20
7.833274346496408
 30
0.0
 11
4.657034768782415
 21
7.581764629692462
 31
0.0
  0
LINE
  5
A8
330
18
100
AcDbEntity
  8
ADP1DETAIL
100
AcDbLine
 10
4.657034768782415
 20
7.833274346496408
 30
0.0
 11
6.657034768782415
 21
7.833274346496408
 31
0.0
  0
LINE
  5
A9
330
18
100
AcDbEntity
  8
ADP1DETAIL
100
AcDbLine
 10
4.657034768782415
 20
7.581764629692462
 30
0.0
 11
6.657034768782415
 21
7.581764629692462
 31
0.0
  0
LINE
  5
AA
330
18
100
AcDbEntity
  8
ADP1DETAIL
100
AcDbLine
 10
4.719534768782415
 20
7.517439894021367
 30
0.0
 11
6.594534768782415
 21
7.517439894021366
 31
0.0
  0
LINE
  5
AB
330
18
100
AcDbEntity
  8
ADP1DETAIL
100
AcDbLine
 10
4.719534768782415
 20
7.238699376446271
 30
0.0
 11
6.594534768782415
 21
7.238699376446271
 31
0.0
  0
LINE
  5
AC
330
18
100
AcDbEntity
  8
ADP1DETAIL
100
AcDbLine
 10
4.719534768782415
 20
6.899279182792289
 30
0.0
 11
6.594534768782415
 21
6.899279182792289
 31
0.0
  0
LINE
  5
AD
330
18
100
AcDbEntity
  8
ADP1DETAIL
100
AcDbLine
 10
4.719534768782415
 20
6.992121221207254
 30
0.0
 11
6.594534768782415
 21
6.992121221207254
 31
0.0
  0
LINE
  5
AE
330
18
100
AcDbEntity
  8
ADP1DETAIL
100
AcDbLine
 10
4.719534768782415
 20
7.176424194184707
 30
0.0
 11
6.594534768782415
 21
7.176424194184707
 31
0.0
  0
LINE
  5
AF
330
18
100
AcDbEntity
  8
ADP1DETAIL
100
AcDbLine
 10
4.719534768782415
 20
7.209847826925996
 30
0.0
 11
6.594534768782415
 21
7.209847826925996
 31
0.0
  0
LINE
  5
B0
330
18
100
AcDbEntity
  8
ADP1DETAIL
100
AcDbLine
 10
6.594534768782415
 20
7.581764629692462
 30
0.0
 11
6.594534768782415
 21
6.899279182792289
 31
0.0
  0
LINE
  5
B1
330
18
100
AcDbEntity
  8
ADP1DETAIL
100
AcDbLine
 10
4.719534768782415
 20
7.581764629692462
 30
0.0
 11
4.719534768782415
 21
6.899279182792289
 31
0.0
  0
DIMENSION
  5
B2
330
18
100
AcDbEntity
  8
ADPDIM
100
AcDbDimension
  2
*D2
 10
4.657034768782415
 20
7.995303300836212
 30
0.0
 11
5.657034768782415
 21
7.995303300836212
 31
0.0
100
AcDbAlignedDimension
 13
6.657034768782415
 23
7.833274346496408
 33
0.0
 14
4.657034768782415
 24
7.833274346496408
 34
0.0
100
AcDbRotatedDimension
  0
LINE
  5
B3
330
18
100
AcDbEntity
  8
ADP1DETAIL
100
AcDbLine
 10
6.657034768782415
 20
7.581764629692462
 30
0.0
 11
6.657034768782415
 21
7.833274346496408
 31
0.0
  0
TEXT
  5
C1
330
18
100
AcDbEntity
  8
ADPDIM
100
AcDbText
 10
-0.5024828497718952
 20
6.230268831074559
 30
0.0
 40
0.09375
  1
J U L I U S  B L U M  &  C O . ,  I N C .      ( 8 0 0 )  5 2 6 - 6 2 9 3        W W W . J U L I U S B L U M . C O M        P A R T  N o .  5 1 2 0
 41
1.25
  7
ARIAL_WIDE
 72
     1
 11
4.391813918645567
 21
6.324018831074559
 31
0.0
100
AcDbText
 73
     3
  0
ENDSEC
  0
SECTION
  2
OBJECTS
  0
DICTIONARY
  5
C
330
0
100
AcDbDictionary
  3
ACAD_GROUP
350
D
  3
ACAD_LAYOUT
350
BA
  3
ACAD_MLINESTYLE
350
E
  3
ACAD_PLOTSETTINGS
350
BB
  3
ACAD_PLOTSTYLENAME
350
B8
  3
ACDBHEADERROUNDTRIPXREC
350
205
  3
ACDBVARIABLEDICTIONARY
350
11B
  0
DICTIONARY
  5
115
330
18
100
AcDbDictionary
280
     1
  3
ACAD_LAYOUTSELFREF
360
226
  0
DICTIONARY
  5
113
330
15
100
AcDbDictionary
280
     1
  3
ACAD_LAYOUTSELFREF
360
225
  0
DICTIONARY
  5
D
102
{ACAD_REACTORS
330
C
102
}
330
C
100
AcDbDictionary
  0
DICTIONARY
  5
BA
102
{ACAD_REACTORS
330
C
102
}
330
C
100
AcDbDictionary
  0
DICTIONARY
  5
E
102
{ACAD_REACTORS
330
C
102
}
330
C
100
AcDbDictionary
  3
STANDARD
350
1B
  0
DICTIONARY
  5
BB
102
{ACAD_REACTORS
330
C
102
}
330
C
100
AcDbDictionary
  0
ACDBDICTIONARYWDFLT
  5
B8
102
{ACAD_REACTORS
330
C
102
}
330
C
100
AcDbDictionary
281
     1
  3
Normal
350
B9
100
AcDbDictionaryWithDefault
340
B9
  0
DICTIONARY
  5
205
102
{ACAD_REACTORS
330
C
102
}
330
C
100
AcDbDictionary
  3
CEPSNTYPE
350
20F
  3
FINGERPRINTGUID
350
210
  3
HYPERLINKBASE
350
208
  3
INSUNITS
350
20E
  3
LAYOUTDICT
350
20A
  3
LWETCUNION
350
20D
  3
PLOTSETDICT
350
20B
  3
PLOTSTYLNAMDICT
350
20C
  3
PSVPSCALE
350
212
  3
PUCSBASE
350
215
  3
PUCSORGBACK
350
21B
  3
PUCSORGBOTTOM
350
217
  3
PUCSORGFRONT
350
21A
  3
PUCSORGLEFT
350
218
  3
PUCSORGRIGHT
350
219
  3
PUCSORGTOP
350
216
  3
PUCSORTHOREF
350
213
  3
PUCSORTHOVIEW
350
214
  3
STYLESHEET
350
209
  3
TSTACKALIGN
350
206
  3
TSTACKSIZE
350
207
  3
UCSBASE
350
21E
  3
UCSORGBACK
350
224
  3
UCSORGBOTTOM
350
220
  3
UCSORGFRONT
350
223
  3
UCSORGLEFT
350
221
  3
UCSORGRIGHT
350
222
  3
UCSORGTOP
350
21F
  3
UCSORTHOREF
350
21C
  3
UCSORTHOVIEW
350
21D
  3
VERSIONGUID
350
211
  0
DICTIONARY
  5
11B
102
{ACAD_REACTORS
330
C
102
}
330
C
100
AcDbDictionary
  3
DIMASSOC
350
11C
  0
XRECORD
  5
226
102
{ACAD_REACTORS
330
115
102
}
330
115
100
AcDbXrecord
340
18
  0
XRECORD
  5
225
102
{ACAD_REACTORS
330
113
102
}
330
113
100
AcDbXrecord
340
15
  0
MLINESTYLE
  5
1B
102
{ACAD_REACTORS
330
E
102
}
330
E
100
AcDbMlineStyle
  2
STANDARD
 70
     0
  3

 62
     0
 51
90.0
 52
90.0
 71
     2
 49
0.5
 62
   256
  6
BYLAYER
 49
-0.5
 62
   256
  6
BYLAYER
  0
ACDBPLACEHOLDER
  5
B9
102
{ACAD_REACTORS
330
B8
102
}
330
B8
100
AcDbPlaceHolder
280
     0
  0
XRECORD
  5
20F
102
{ACAD_REACTORS
330
205
102
}
330
205
100
AcDbXrecord
 90
        0
  0
XRECORD
  5
210
102
{ACAD_REACTORS
330
205
102
}
330
205
100
AcDbXrecord
  1
{5CA3C403-24C4-4423-893B-CD796392ECD6}
  0
XRECORD
  5
208
102
{ACAD_REACTORS
330
205
102
}
330
205
100
AcDbXrecord
  1

  0
XRECORD
  5
20E
102
{ACAD_REACTORS
330
205
102
}
330
205
100
AcDbXrecord
 90
        0
  0
XRECORD
  5
20A
102
{ACAD_REACTORS
330
205
102
}
330
205
100
AcDbXrecord
340
BA
  0
XRECORD
  5
20D
102
{ACAD_REACTORS
330
205
102
}
330
205
100
AcDbXrecord
 90
    14877
  0
XRECORD
  5
20B
102
{ACAD_REACTORS
330
205
102
}
330
205
100
AcDbXrecord
340
BB
  0
XRECORD
  5
20C
102
{ACAD_REACTORS
330
205
102
}
330
205
100
AcDbXrecord
340
B8
  0
XRECORD
  5
212
102
{ACAD_REACTORS
330
205
102
}
330
205
100
AcDbXrecord
 40
0.0
  0
XRECORD
  5
215
102
{ACAD_REACTORS
330
205
102
}
330
205
100
AcDbXrecord
340
0
  0
XRECORD
  5
21B
102
{ACAD_REACTORS
330
205
102
}
330
205
100
AcDbXrecord
 10
0.0
 20
0.0
 30
0.0
  0
XRECORD
  5
217
102
{ACAD_REACTORS
330
205
102
}
330
205
100
AcDbXrecord
 10
0.0
 20
0.0
 30
0.0
  0
XRECORD
  5
21A
102
{ACAD_REACTORS
330
205
102
}
330
205
100
AcDbXrecord
 10
0.0
 20
0.0
 30
0.0
  0
XRECORD
  5
218
102
{ACAD_REACTORS
330
205
102
}
330
205
100
AcDbXrecord
 10
0.0
 20
0.0
 30
0.0
  0
XRECORD
  5
219
102
{ACAD_REACTORS
330
205
102
}
330
205
100
AcDbXrecord
 10
0.0
 20
0.0
 30
0.0
  0
XRECORD
  5
216
102
{ACAD_REACTORS
330
205
102
}
330
205
100
AcDbXrecord
 10
0.0
 20
0.0
 30
0.0
  0
XRECORD
  5
213
102
{ACAD_REACTORS
330
205
102
}
330
205
100
AcDbXrecord
340
0
  0
XRECORD
  5
214
102
{ACAD_REACTORS
330
205
102
}
330
205
100
AcDbXrecord
 70
     0
  0
XRECORD
  5
209
102
{ACAD_REACTORS
330
205
102
}
330
205
100
AcDbXrecord
  1

  0
XRECORD
  5
206
102
{ACAD_REACTORS
330
205
102
}
330
205
100
AcDbXrecord
 90
        1
  0
XRECORD
  5
207
102
{ACAD_REACTORS
330
205
102
}
330
205
100
AcDbXrecord
 90
       70
  0
XRECORD
  5
21E
102
{ACAD_REACTORS
330
205
102
}
330
205
100
AcDbXrecord
340
0
  0
XRECORD
  5
224
102
{ACAD_REACTORS
330
205
102
}
330
205
100
AcDbXrecord
 10
0.0
 20
0.0
 30
0.0
  0
XRECORD
  5
220
102
{ACAD_REACTORS
330
205
102
}
330
205
100
AcDbXrecord
 10
0.0
 20
0.0
 30
0.0
  0
XRECORD
  5
223
102
{ACAD_REACTORS
330
205
102
}
330
205
100
AcDbXrecord
 10
0.0
 20
0.0
 30
0.0
  0
XRECORD
  5
221
102
{ACAD_REACTORS
330
205
102
}
330
205
100
AcDbXrecord
 10
0.0
 20
0.0
 30
0.0
  0
XRECORD
  5
222
102
{ACAD_REACTORS
330
205
102
}
330
205
100
AcDbXrecord
 10
0.0
 20
0.0
 30
0.0
  0
XRECORD
  5
21F
102
{ACAD_REACTORS
330
205
102
}
330
205
100
AcDbXrecord
 10
0.0
 20
0.0
 30
0.0
  0
XRECORD
  5
21C
102
{ACAD_REACTORS
330
205
102
}
330
205
100
AcDbXrecord
340
0
  0
XRECORD
  5
21D
102
{ACAD_REACTORS
330
205
102
}
330
205
100
AcDbXrecord
 70
     0
  0
XRECORD
  5
211
102
{ACAD_REACTORS
330
205
102
}
330
205
100
AcDbXrecord
  1
{BAE0BE46-7004-4F65-B103-FF6C417F0E47}
  0
DICTIONARYVAR
  5
11C
102
{ACAD_REACTORS
330
11B
102
}
330
11B
100
DictionaryVariables
280
     0
  1
1
  0
ENDSEC
  0
EOF
