  0
SECTION
  2
HEADER
  9
$ACADVER
  1
AC1014
  9
$ACADMAINTVER
 70
     9
  9
$DWGCODEPAGE
  3
ANSI_1252
  9
$INSBASE
 10
53.7905812765927
 20
-18.26332535422215
 30
0.0
  9
$EXTMIN
 10
44.94892092365447
 20
-19.581263158273
 30
0.0
  9
$EXTMAX
 10
70.68775107372269
 20
-9.172013996069516
 30
0.0
  9
$LIMMIN
 10
0.0
 20
0.0
  9
$LIMMAX
 10
36.0
 20
36.0
  9
$ORTHOMODE
 70
     1
  9
$REGENMODE
 70
     1
  9
$FILLMODE
 70
     1
  9
$QTEXTMODE
 70
     0
  9
$MIRRTEXT
 70
     1
  9
$DRAGMODE
 70
     0
  9
$LTSCALE
 40
1.0
  9
$OSMODE
 70
    37
  9
$ATTMODE
 70
     1
  9
$TEXTSIZE
 40
0.2
  9
$TRACEWID
 40
0.05
  9
$TEXTSTYLE
  7
STANDARD
  9
$CLAYER
  8
ADPDIM
  9
$CELTYPE
  6
BYLAYER
  9
$CECOLOR
 62
   256
  9
$CELTSCALE
 40
1.0
  9
$DELOBJ
 70
     1
  9
$DISPSILH
 70
     0
  9
$DIMSCALE
 40
1.0
  9
$DIMASZ
 40
0.125
  9
$DIMEXO
 40
0.0625
  9
$DIMDLI
 40
0.38
  9
$DIMRND
 40
0.0
  9
$DIMDLE
 40
0.0
  9
$DIMEXE
 40
0.18
  9
$DIMTP
 40
0.0
  9
$DIMTM
 40
0.0
  9
$DIMTXT
 40
0.125
  9
$DIMCEN
 40
0.1875
  9
$DIMTSZ
 40
0.125
  9
$DIMTOL
 70
     0
  9
$DIMLIM
 70
     0
  9
$DIMTIH
 70
     0
  9
$DIMTOH
 70
     0
  9
$DIMSE1
 70
     0
  9
$DIMSE2
 70
     0
  9
$DIMTAD
 70
     0
  9
$DIMZIN
 70
     3
  9
$DIMBLK
  1

  9
$DIMASO
 70
     1
  9
$DIMSHO
 70
     1
  9
$DIMPOST
  1

  9
$DIMAPOST
  1

  9
$DIMALT
 70
     0
  9
$DIMALTD
 70
     1
  9
$DIMALTF
 40
25.4
  9
$DIMLFAC
 40
1.0
  9
$DIMTOFL
 70
     0
  9
$DIMTVP
 40
0.0
  9
$DIMTIX
 70
     0
  9
$DIMSOXD
 70
     0
  9
$DIMSAH
 70
     0
  9
$DIMBLK1
  1

  9
$DIMBLK2
  1

  9
$DIMSTYLE
  2
STANDARD
  9
$DIMCLRD
 70
     0
  9
$DIMCLRE
 70
     0
  9
$DIMCLRT
 70
     0
  9
$DIMTFAC
 40
1.0
  9
$DIMGAP
 40
0.125
  9
$DIMJUST
 70
     0
  9
$DIMSD1
 70
     0
  9
$DIMSD2
 70
     0
  9
$DIMTOLJ
 70
     1
  9
$DIMTZIN
 70
     0
  9
$DIMALTZ
 70
     0
  9
$DIMALTTZ
 70
     0
  9
$DIMFIT
 70
     3
  9
$DIMUPT
 70
     0
  9
$DIMUNIT
 70
     2
  9
$DIMDEC
 70
     4
  9
$DIMTDEC
 70
     4
  9
$DIMALTU
 70
     2
  9
$DIMALTTD
 70
     2
  9
$DIMTXSTY
  7
STANDARD
  9
$DIMAUNIT
 70
     0
  9
$LUNITS
 70
     5
  9
$LUPREC
 70
     4
  9
$SKETCHINC
 40
0.1
  9
$FILLETRAD
 40
0.01
  9
$AUNITS
 70
     0
  9
$AUPREC
 70
     0
  9
$MENU
  1
acad
  9
$ELEVATION
 40
0.0
  9
$PELEVATION
 40
0.0
  9
$THICKNESS
 40
0.0
  9
$LIMCHECK
 70
     0
  9
$BLIPMODE
 70
     0
  9
$CHAMFERA
 40
0.0
  9
$CHAMFERB
 40
0.0
  9
$CHAMFERC
 40
0.0
  9
$CHAMFERD
 40
0.0
  9
$SKPOLY
 70
     0
  9
$TDCREATE
 40
2450386.570861689
  9
$TDUPDATE
 40
2452297.071744248
  9
$TDINDWG
 40
0.0332417940
  9
$TDUSRTIMER
 40
0.0332417940
  9
$USRTIMER
 70
     1
  9
$ANGBASE
 50
0.0
  9
$ANGDIR
 70
     0
  9
$PDMODE
 70
     0
  9
$PDSIZE
 40
0.0
  9
$PLINEWID
 40
0.0
  9
$COORDS
 70
     2
  9
$SPLFRAME
 70
     0
  9
$SPLINETYPE
 70
     6
  9
$SPLINESEGS
 70
     8
  9
$ATTDIA
 70
     0
  9
$ATTREQ
 70
     1
  9
$HANDLING
 70
 22529
  9
$HANDSEED
  5
2FA
  9
$SURFTAB1
 70
     6
  9
$SURFTAB2
 70
     6
  9
$SURFTYPE
 70
     6
  9
$SURFU
 70
     6
  9
$SURFV
 70
     6
  9
$UCSNAME
  2

  9
$UCSORG
 10
0.0
 20
0.0
 30
0.0
  9
$UCSXDIR
 10
1.0
 20
0.0
 30
0.0
  9
$UCSYDIR
 10
0.0
 20
1.0
 30
0.0
  9
$PUCSNAME
  2

  9
$PUCSORG
 10
0.0
 20
0.0
 30
0.0
  9
$PUCSXDIR
 10
1.0
 20
0.0
 30
0.0
  9
$PUCSYDIR
 10
0.0
 20
1.0
 30
0.0
  9
$USERI1
 70
     0
  9
$USERI2
 70
     0
  9
$USERI3
 70
     0
  9
$USERI4
 70
     0
  9
$USERI5
 70
     0
  9
$USERR1
 40
0.0
  9
$USERR2
 40
0.0
  9
$USERR3
 40
0.0
  9
$USERR4
 40
0.0
  9
$USERR5
 40
0.0
  9
$WORLDVIEW
 70
     1
  9
$SHADEDGE
 70
     3
  9
$SHADEDIF
 70
    70
  9
$TILEMODE
 70
     1
  9
$MAXACTVP
 70
    15
  9
$PINSBASE
 10
4.403525741743744E+99
 20
7.061986388769092E+99
 30
0.0
  9
$PLIMCHECK
 70
     0
  9
$PEXTMIN
 10
1.000000000000000E+20
 20
1.000000000000000E+20
 30
1.000000000000000E+20
  9
$PEXTMAX
 10
-1.000000000000000E+20
 20
-1.000000000000000E+20
 30
-1.000000000000000E+20
  9
$PLIMMIN
 10
0.0
 20
0.0
  9
$PLIMMAX
 10
12.0
 20
9.0
  9
$UNITMODE
 70
     0
  9
$VISRETAIN
 70
     0
  9
$PLINEGEN
 70
     0
  9
$PSLTSCALE
 70
     1
  9
$TREEDEPTH
 70
  3020
  9
$PICKSTYLE
 70
     1
  9
$CMLSTYLE
  2
STANDARD
  9
$CMLJUST
 70
     0
  9
$CMLSCALE
 40
1.0
  9
$PROXYGRAPHICS
 70
     1
  9
$MEASUREMENT
 70
     0
  0
ENDSEC
  0
SECTION
  2
CLASSES
  0
CLASS
  1
ACDBDICTIONARYWDFLT
  2
AcDbDictionaryWithDefault
  3
AutoCAD 2000
 90
        0
280
     0
281
     0
  0
CLASS
  1
ACDBPLACEHOLDER
  2
AcDbPlaceHolder
  3
AutoCAD 2000
 90
        0
280
     0
281
     0
  0
CLASS
  1
LAYOUT
  2
AcDbLayout
  3
AutoCAD 2000
 90
        0
280
     0
281
     0
  0
CLASS
  1
DICTIONARYVAR
  2
AcDbDictionaryVar
  3
AutoCAD 2000
 90
        0
280
     0
281
     0
  0
CLASS
  1
LONG_TRANSACTION
  2
AcDbLongTransaction
  3
AutoCAD 2000
 90
        0
280
     0
281
     0
  0
CLASS
  1
LWPOLYLINE
  2
AcDbPolyline
  3
AutoCAD 2000
 90
        0
280
     0
281
     1
  0
CLASS
  1
HATCH
  2
AcDbHatch
  3
AutoCAD 2000
 90
        0
280
     0
281
     1
  0
CLASS
  1
XRECORD
  2
AcDbXrecord
  3
AutoCAD 2000
 90
        0
280
     0
281
     0
  0
CLASS
  1
LONG_TRANSACTION
  2
AcDbLongTransaction
  3
AutoCAD 2000
 90
        0
280
     0
281
     0
  0
CLASS
  1
LWPOLYLINE
  2
AcDbPolyline
  3
AutoCAD 2000
 90
        0
280
     0
281
     1
  0
CLASS
  1
HATCH
  2
AcDbHatch
  3
AutoCAD 2000
 90
        0
280
     0
281
     1
  0
CLASS
  1
XRECORD
  2
AcDbXrecord
  3
AutoCAD 2000
 90
        0
280
     0
281
     0
  0
CLASS
  1
LONG_TRANSACTION
  2
AcDbLongTransaction
  3
AutoCAD 2000
 90
        0
280
     0
281
     0
  0
CLASS
  1
LWPOLYLINE
  2
AcDbPolyline
  3
AutoCAD 2000
 90
        0
280
     0
281
     1
  0
CLASS
  1
HATCH
  2
AcDbHatch
  3
AutoCAD 2000
 90
        0
280
     0
281
     1
  0
CLASS
  1
XRECORD
  2
AcDbXrecord
  3
AutoCAD 2000
 90
        0
280
     0
281
     0
  0
CLASS
  1
LONG_TRANSACTION
  2
AcDbLongTransaction
  3
AutoCAD 2000
 90
        0
280
     0
281
     0
  0
CLASS
  1
LWPOLYLINE
  2
AcDbPolyline
  3
AutoCAD 2000
 90
        0
280
     0
281
     1
  0
CLASS
  1
HATCH
  2
AcDbHatch
  3
AutoCAD 2000
 90
        0
280
     0
281
     1
  0
CLASS
  1
XRECORD
  2
AcDbXrecord
  3
AutoCAD 2000
 90
        0
280
     0
281
     0
  0
CLASS
  1
LONG_TRANSACTION
  2
AcDbLongTransaction
  3
AutoCAD 2000
 90
        0
280
     0
281
     0
  0
CLASS
  1
LWPOLYLINE
  2
AcDbPolyline
  3
AutoCAD 2000
 90
        0
280
     0
281
     1
  0
CLASS
  1
HATCH
  2
AcDbHatch
  3
AutoCAD 2000
 90
        0
280
     0
281
     1
  0
CLASS
  1
XRECORD
  2
AcDbXrecord
  3
AutoCAD 2000
 90
        0
280
     0
281
     0
  0
CLASS
  1
LONG_TRANSACTION
  2
AcDbLongTransaction
  3
AutoCAD 2000
 90
        0
280
     0
281
     0
  0
CLASS
  1
LWPOLYLINE
  2
AcDbPolyline
  3
AutoCAD 2000
 90
        0
280
     0
281
     1
  0
CLASS
  1
HATCH
  2
AcDbHatch
  3
AutoCAD 2000
 90
        0
280
     0
281
     1
  0
CLASS
  1
XRECORD
  2
AcDbXrecord
  3
AutoCAD 2000
 90
        0
280
     0
281
     0
  0
ENDSEC
  0
SECTION
  2
TABLES
  0
TABLE
  2
VPORT
  5
8
330
0
100
AcDbSymbolTable
 70
     2
  0
VPORT
  5
2D7
330
8
100
AcDbSymbolTableRecord
100
AcDbViewportTableRecord
  2
*ACTIVE
 70
     0
 10
0.0
 20
0.0
 11
1.0
 21
1.0
 12
57.83958000798444
 22
-14.37517721710203
 13
0.0
 23
0.0
 14
0.5740882589684922
 24
0.5740882589684922
 15
0.5
 25
0.5
 16
0.0
 26
0.0
 36
1.0
 17
0.0
 27
0.0
 37
0.0
 40
16.49942776585181
 41
1.570528967254408
 42
50.0
 43
0.0
 44
0.0
 50
0.0
 51
0.0
 71
     0
 72
   100
 73
     1
 74
     1
 75
     0
 76
     0
 77
     0
 78
     0
  0
ENDTAB
  0
TABLE
  2
LTYPE
  5
5
330
0
100
AcDbSymbolTable
 70
     1
  0
LTYPE
  5
12
330
5
100
AcDbSymbolTableRecord
100
AcDbLinetypeTableRecord
  2
BYBLOCK
 70
     0
  3

 72
    65
 73
     0
 40
0.0
  0
LTYPE
  5
13
330
5
100
AcDbSymbolTableRecord
100
AcDbLinetypeTableRecord
  2
BYLAYER
 70
     0
  3

 72
    65
 73
     0
 40
0.0
  0
LTYPE
  5
14
330
5
100
AcDbSymbolTableRecord
100
AcDbLinetypeTableRecord
  2
CONTINUOUS
 70
     0
  3
Solid line
 72
    65
 73
     0
 40
0.0
  0
ENDTAB
  0
TABLE
  2
LAYER
  5
2
330
0
100
AcDbSymbolTable
 70
     4
  0
LAYER
  5
F
330
2
100
AcDbSymbolTableRecord
100
AcDbLayerTableRecord
  2
0
 70
     0
 62
     7
  6
CONTINUOUS
  0
LAYER
  5
73
330
2
100
AcDbSymbolTableRecord
100
AcDbLayerTableRecord
  2
ADP1DETAIL
 70
     0
 62
     7
  6
CONTINUOUS
  0
LAYER
  5
75
330
2
100
AcDbSymbolTableRecord
100
AcDbLayerTableRecord
  2
DEFPOINTS
 70
     0
 62
     7
  6
CONTINUOUS
  0
LAYER
  5
76
330
2
100
AcDbSymbolTableRecord
100
AcDbLayerTableRecord
  2
ADPDIM
 70
     0
 62
     3
  6
CONTINUOUS
  0
ENDTAB
  0
TABLE
  2
STYLE
  5
3
330
0
100
AcDbSymbolTable
 70
     2
  0
STYLE
  5
10
330
3
100
AcDbSymbolTableRecord
100
AcDbTextStyleTableRecord
  2
STANDARD
 70
     0
 40
0.0
 41
1.0
 50
0.0
 71
     0
 42
0.2
  3
txt
  4

  0
STYLE
  5
18F
330
3
100
AcDbSymbolTableRecord
100
AcDbTextStyleTableRecord
  2
ARIAL_WIDE
 70
     0
 40
0.0
 41
1.25
 50
0.0
 71
     0
 42
0.2
  3
ARIAL.TTF
  4

1001
ACAD
1000
Arial
1071
       34
  0
ENDTAB
  0
TABLE
  2
VIEW
  5
6
330
0
100
AcDbSymbolTable
 70
     0
  0
ENDTAB
  0
TABLE
  2
UCS
  5
7
330
0
100
AcDbSymbolTable
 70
     0
  0
ENDTAB
  0
TABLE
  2
APPID
  5
9
330
0
100
AcDbSymbolTable
 70
     1
  0
APPID
  5
11
330
9
100
AcDbSymbolTableRecord
100
AcDbRegAppTableRecord
  2
ACAD
 70
     0
  0
ENDTAB
  0
TABLE
  2
DIMSTYLE
  5
A
330
0
100
AcDbSymbolTable
 70
     1
  0
DIMSTYLE
105
183
330
A
100
AcDbSymbolTableRecord
100
AcDbDimStyleTableRecord
  2
STANDARD
 70
     0
  3

  4

  5

  6

  7

 40
1.0
 41
0.18
 42
0.0625
 43
0.38
 44
0.18
 45
0.0
 46
0.0
 47
0.0
 48
0.0
140
0.18
141
0.09
142
0.0
143
25.4
144
1.0
145
0.0
146
1.0
147
0.09
 71
     0
 72
     0
 73
     1
 74
     1
 75
     0
 76
     0
 77
     0
 78
     0
170
     0
171
     2
172
     0
173
     0
174
     0
175
     0
176
     0
177
     0
178
     0
270
     2
271
     4
272
     4
273
     2
274
     2
340
10
275
     0
280
     0
281
     0
282
     0
283
     1
284
     0
285
     0
286
     0
287
     3
288
     0
  0
ENDTAB
  0
TABLE
  2
BLOCK_RECORD
  5
1
330
0
100
AcDbSymbolTable
 70
     2
  0
BLOCK_RECORD
  5
18
102
{ACAD_XDICTIONARY
360
1E4
102
}
330
1
100
AcDbSymbolTableRecord
100
AcDbBlockTableRecord
  2
*MODEL_SPACE
  0
BLOCK_RECORD
  5
15
102
{ACAD_XDICTIONARY
360
1E2
102
}
330
1
100
AcDbSymbolTableRecord
100
AcDbBlockTableRecord
  2
*PAPER_SPACE
  0
BLOCK_RECORD
  5
6C
330
1
100
AcDbSymbolTableRecord
100
AcDbBlockTableRecord
  2
*D0
  0
BLOCK_RECORD
  5
6F
330
1
100
AcDbSymbolTableRecord
100
AcDbBlockTableRecord
  2
*D1
  0
ENDTAB
  0
ENDSEC
  0
SECTION
  2
BLOCKS
  0
BLOCK
  5
79
330
18
100
AcDbEntity
  8
0
100
AcDbBlockBegin
  2
*MODEL_SPACE
 70
     0
 10
0.0
 20
0.0
 30
0.0
  3
*MODEL_SPACE
  1

  0
ENDBLK
  5
7A
330
18
100
AcDbEntity
  8
0
100
AcDbBlockEnd
  0
BLOCK
  5
77
330
15
100
AcDbEntity
 67
     1
  8
0
100
AcDbBlockBegin
  2
*PAPER_SPACE
 70
     0
 10
0.0
 20
0.0
 30
0.0
  3
*PAPER_SPACE
  1

  0
ENDBLK
  5
78
330
15
100
AcDbEntity
 67
     1
  8
0
100
AcDbBlockEnd
  0
BLOCK
  5
7C
330
6C
100
AcDbEntity
  8
0
100
AcDbBlockBegin
  2
*D0
 70
     1
 10
0.0
 20
0.0
 30
0.0
  3
*D0
  1

  0
LINE
  5
7D
330
6C
100
AcDbEntity
  8
0
  6
BYBLOCK
 62
     0
100
AcDbLine
 10
62.340161619409
 20
-10.02458715371993
 30
0.0
 11
62.85477786670656
 21
-10.02458715371993
 31
0.0
  0
LINE
  5
7E
330
6C
100
AcDbEntity
  8
0
  6
BYBLOCK
 62
     0
100
AcDbLine
 10
61.40064282430206
 20
-18.27458715371993
 30
0.0
 11
62.85477786670656
 21
-18.27458715371993
 31
0.0
  0
LINE
  5
7F
330
6C
100
AcDbEntity
  8
0
  6
BYBLOCK
 62
     0
100
AcDbLine
 10
62.67477786670657
 20
-10.02458715371993
 30
0.0
 11
62.67477786670657
 21
-13.7537538203866
 31
0.0
  0
LINE
  5
80
330
6C
100
AcDbEntity
  8
0
  6
BYBLOCK
 62
     0
100
AcDbLine
 10
62.67477786670657
 20
-18.27458715371993
 30
0.0
 11
62.67477786670657
 21
-14.54542048705326
 31
0.0
  0
LINE
  5
81
330
6C
100
AcDbEntity
  8
0
  6
BYBLOCK
 62
     0
100
AcDbLine
 10
62.79977786670656
 20
-10.14958715371993
 30
0.0
 11
62.54977786670656
 21
-9.899587153719934
 31
0.0
  0
LINE
  5
82
330
6C
100
AcDbEntity
  8
0
  6
BYBLOCK
 62
     0
100
AcDbLine
 10
62.79977786670656
 20
-18.39958715371993
 30
0.0
 11
62.54977786670656
 21
-18.14958715371993
 31
0.0
  0
TEXT
  5
83
330
6C
100
AcDbEntity
  8
0
  6
BYBLOCK
 62
     0
100
AcDbText
 10
62.73727786670656
 20
-14.42042048705326
 30
0.0
 40
0.125
  1
8 1/4
 50
90.0
 72
     1
 11
62.67477786670657
 21
-14.14958715371993
 31
0.0
100
AcDbText
 73
     2
  0
POINT
  5
84
330
6C
100
AcDbEntity
  8
DEFPOINTS
  6
BYBLOCK
 62
     0
100
AcDbPoint
 10
62.27766161940899
 20
-10.02458715371993
 30
0.0
  0
POINT
  5
85
330
6C
100
AcDbEntity
  8
DEFPOINTS
  6
BYBLOCK
 62
     0
100
AcDbPoint
 10
61.33814282430207
 20
-18.27458715371993
 30
0.0
  0
POINT
  5
86
330
6C
100
AcDbEntity
  8
DEFPOINTS
  6
BYBLOCK
 62
     0
100
AcDbPoint
 10
62.67477786670657
 20
-18.27458715371993
 30
0.0
  0
ENDBLK
  5
87
330
6C
100
AcDbEntity
  8
0
100
AcDbBlockEnd
  0
BLOCK
  5
88
330
6F
100
AcDbEntity
  8
0
100
AcDbBlockBegin
  2
*D1
 70
     1
 10
0.0
 20
0.0
 30
0.0
  3
*D1
  1

  0
LINE
  5
89
330
6F
100
AcDbEntity
  8
0
  6
BYBLOCK
 62
     0
100
AcDbLine
 10
53.75874977837643
 20
-13.80833252605467
 30
0.0
 11
53.75874977837643
 21
-9.172013996069516
 31
0.0
  0
LINE
  5
8A
330
6F
100
AcDbEntity
  8
0
  6
BYBLOCK
 62
     0
100
AcDbLine
 10
62.00874977837642
 20
-9.999264081780761
 30
0.0
 11
62.00874977837642
 21
-9.172013996069516
 31
0.0
  0
LINE
  5
8B
330
6F
100
AcDbEntity
  8
0
  6
BYBLOCK
 62
     0
100
AcDbLine
 10
53.75874977837643
 20
-9.352013996069516
 30
0.0
 11
57.48791644504309
 21
-9.352013996069516
 31
0.0
  0
LINE
  5
8C
330
6F
100
AcDbEntity
  8
0
  6
BYBLOCK
 62
     0
100
AcDbLine
 10
62.00874977837642
 20
-9.352013996069516
 30
0.0
 11
58.27958311170976
 21
-9.352013996069516
 31
0.0
  0
LINE
  5
8D
330
6F
100
AcDbEntity
  8
0
  6
BYBLOCK
 62
     0
100
AcDbLine
 10
53.63374977837643
 20
-9.477013996069516
 30
0.0
 11
53.88374977837642
 21
-9.227013996069516
 31
0.0
  0
LINE
  5
8E
330
6F
100
AcDbEntity
  8
0
  6
BYBLOCK
 62
     0
100
AcDbLine
 10
61.88374977837643
 20
-9.477013996069516
 30
0.0
 11
62.13374977837642
 21
-9.227013996069516
 31
0.0
  0
TEXT
  5
8F
330
6F
100
AcDbEntity
  8
0
  6
BYBLOCK
 62
     0
100
AcDbText
 10
57.61291644504309
 20
-9.414513996069516
 30
0.0
 40
0.125
  1
8 1/4
 72
     1
 11
57.88374977837642
 21
-9.352013996069516
 31
0.0
100
AcDbText
 73
     2
  0
POINT
  5
90
330
6F
100
AcDbEntity
  8
DEFPOINTS
  6
BYBLOCK
 62
     0
100
AcDbPoint
 10
53.75874977837643
 20
-13.87083252605467
 30
0.0
  0
POINT
  5
91
330
6F
100
AcDbEntity
  8
DEFPOINTS
  6
BYBLOCK
 62
     0
100
AcDbPoint
 10
62.00874977837642
 20
-10.06176408178076
 30
0.0
  0
POINT
  5
92
330
6F
100
AcDbEntity
  8
DEFPOINTS
  6
BYBLOCK
 62
     0
100
AcDbPoint
 10
62.00874977837642
 20
-9.352013996069516
 30
0.0
  0
ENDBLK
  5
93
330
6F
100
AcDbEntity
  8
0
100
AcDbBlockEnd
  0
ENDSEC
  0
SECTION
  2
ENTITIES
  0
DIMENSION
  5
94
330
18
100
AcDbEntity
  8
ADPDIM
100
AcDbDimension
  2
*D1
 10
62.00874977837642
 20
-9.352013996069516
 30
0.0
 11
57.88374977837642
 21
-9.352013996069516
 31
0.0
100
AcDbAlignedDimension
 13
53.75874977837643
 23
-13.87083252605467
 33
0.0
 14
62.00874977837642
 24
-10.06176408178076
 34
0.0
100
AcDbRotatedDimension
  0
LWPOLYLINE
  5
95
330
18
100
AcDbEntity
  8
ADP1DETAIL
100
AcDbPolyline
 90
        2
 70
     0
 43
0.0
 10
59.75910237342316
 20
-11.24306871420265
 42
0.2721303828679123
 10
56.26795966497427
 20
-10.97107678587848
 42
0.1187749121725523
  0
LWPOLYLINE
  5
99
330
18
100
AcDbEntity
  8
ADP1DETAIL
100
AcDbPolyline
 90
       12
 70
     0
 43
0.0
 10
59.78593368109437
 20
-10.6932766993846
 42
0.1581295000747659
 10
56.45885608398053
 20
-10.30439939311456
 42
0.0759853251026626
 10
55.27828014038796
 20
-10.70668625843027
 42
-0.0383896209242971
 10
54.72823910732791
 20
-10.85419143924784
 42
-0.4381426996560571
 10
54.3257700387537
 20
-10.67986714033893
 42
0.0211264088070095
 10
54.29893877662365
 20
-10.45190457393213
 42
-0.4265505425108371
 10
54.50017331091076
 20
-10.47872369202346
 42
0.5072481910354885
 10
54.66116092923221
 20
-10.47872369202346
 42
0.5710548587236492
 10
54.36601695471935
 20
-10.19712288943399
 42
0.4570202038376653
 10
54.01721041040524
 20
-10.66645754997803
 42
0.4646795726215139
 10
54.79531728542361
 20
-11.05533485624808
 42
-0.0771913365095177
 10
55.62708668470207
 20
-10.84078188020217
 42
-0.0492234900671664
  0
LWPOLYLINE
  5
A7
330
18
100
AcDbEntity
  8
ADP1DETAIL
100
AcDbPolyline
 90
        8
 70
     0
 43
0.0
 10
59.18223007823306
 20
-13.75065681941657
 42
-0.2363786538970066
 10
60.20181835796302
 20
-13.18745521423762
 42
-0.3533613040626786
 10
60.08107765560723
 20
-11.65876513856402
 42
-0.1803890014012564
 10
59.75910237342316
 20
-11.24306871420265
 42
-0.1129453163410674
 10
60.01399947751153
 20
-11.24306871420265
 42
0.3049367153333776
 10
60.18840274966859
 20
-11.17602091897431
 42
-0.3926715475293487
 10
59.86642746748451
 20
-10.88101055733917
 42
-0.2163372995213479
 10
59.81276494322442
 20
-10.47872369202346
 42
-0.5278069918250785
  0
LWPOLYLINE
  5
B1
330
18
100
AcDbEntity
  8
ADP1DETAIL
100
AcDbPolyline
 90
       10
 70
     0
 43
0.0
 10
56.08321827753637
 20
-17.46510548926238
 42
-0.0898612754898679
 10
55.25144887825791
 20
-17.29078115903824
 10
55.21120196229226
 20
-17.42487678081015
 42
0.3144228907841308
 10
53.9367166240151
 20
-17.66624890626262
 42
0.0616917841276641
 10
53.76231335185805
 20
-18.18922183430457
 42
0.6312567079833923
 10
53.8696384459194
 20
-18.26967918857856
 42
-0.0828632258284828
 10
54.80873289371805
 20
-18.01489750408043
 42
-0.085077804089667
 10
56.32469972778913
 20
-18.16240268489799
 42
0.0469607298853392
 10
58.55169521324171
 20
-18.2562696295329
 42
0.1828518506413979
 10
60.93967831701573
 20
-16.80803693944853
 42
-0.4872979252672457
  0
LWPOLYLINE
  5
BD
330
18
100
AcDbEntity
  8
ADP1DETAIL
100
AcDbPolyline
 90
       13
 70
     0
 43
0.0
 10
56.08321827753637
 20
-17.45169589890148
 42
0.2159218403651213
 10
59.02124245991161
 20
-17.61261067007995
 42
0.05219955589274
 10
59.70543984916306
 20
-16.7812178213572
 42
-0.2875883732809119
 10
60.59087177270161
 20
-16.37893095604149
 42
-0.3324866439487706
 10
61.62387570626719
 20
-17.15668553726634
 42
-0.3317066854900874
 10
61.44947247965129
 20
-18.17581224394366
 42
-0.3733426467499385
 10
60.67136560463293
 20
-18.09535488966966
 42
-0.7456315693570497
 10
60.85918448508443
 20
-17.77352540994319
 42
0.7207353521251985
 10
61.22140663769298
 20
-18.01489750408043
 42
0.3854963537893096
 10
61.32873173175433
 20
-17.08963774203801
 42
0.438956903774138
 10
59.92009003728577
 20
-16.9153134431291
 42
-0.2397288667910706
 10
59.50420531487596
 20
-17.39805766271881
 42
0.0877606379013148
 10
60.40305289225012
 20
-16.71416999481363
 42
-0.0154613341186568
  0
CIRCLE
  5
CC
330
18
100
AcDbEntity
  8
ADP1DETAIL
100
AcDbCircle
 10
59.59940270413314
 20
-14.79020566271522
 30
0.0
 40
0.2899799531807168
  0
CIRCLE
  5
CD
330
18
100
AcDbEntity
  8
ADP1DETAIL
100
AcDbCircle
 10
59.15539881610301
 20
-15.2122990685466
 30
0.0
 40
0.2715376553495222
  0
CIRCLE
  5
CE
330
18
100
AcDbEntity
  8
ADP1DETAIL
100
AcDbCircle
 10
59.18223007823306
 20
-15.90959629549745
 30
0.0
 40
0.2465479966381603
  0
CIRCLE
  5
CF
330
18
100
AcDbEntity
  8
ADP1DETAIL
100
AcDbCircle
 10
59.06488349064768
 20
-14.52284002713044
 30
0.0
 40
0.3204606994752356
  0
CIRCLE
  5
D0
330
18
100
AcDbEntity
  8
ADP1DETAIL
100
AcDbCircle
 10
59.46389863719361
 20
-14.12614417412385
 30
0.0
 40
0.2417948573917246
  0
LWPOLYLINE
  5
D1
330
18
100
AcDbEntity
  8
ADP1DETAIL
100
AcDbPolyline
 90
        8
 70
     0
 43
0.0
 10
54.85368033901912
 20
-12.24314090805512
 42
0.1098291421931429
 10
54.35260130088375
 20
-13.65678987478166
 42
0.1187749121725523
 10
54.4465107411095
 20
-15.27934686377493
 42
0.183281367963018
 10
55.00996742800515
 20
-15.80231979181688
 42
0.2321962382041295
 10
55.54659285277076
 20
-15.64140505195364
 42
0.3029125443068338
 10
55.53317724447632
 20
-15.33298513127284
 42
0.598431966904208
 10
55.26486453209352
 20
-15.4268520445925
 42
0.1696198785664812
 10
55.43926780425057
 20
-15.69504328813631
 42
0.3415043853097423
  0
LWPOLYLINE
  5
DB
330
18
100
AcDbEntity
  8
ADP1DETAIL
100
AcDbPolyline
 90
        3
 70
     0
 43
0.0
 10
54.54487961732872
 20
-11.87448344065465
 42
0.1867203556377321
 10
53.82939152995374
 20
-14.63568790432199
 42
0.1891999551485983
 10
55.25144887825791
 20
-17.30419071808391
 42
0.3691098974784448
  0
LWPOLYLINE
  5
E0
330
18
100
AcDbEntity
  8
ADP1DETAIL
100
AcDbPolyline
 90
       45
 70
     0
 43
0.0
 10
55.90881500537932
 20
-10.6932766993846
 42
0.1088434285919074
 10
54.74165476116351
 20
-11.36375477692888
 42
0.4615301006765967
 10
54.75507036945796
 20
-11.77945120129026
 42
0.1721347025168454
 10
55.22461761612786
 20
-12.10128068101673
 42
0.2992563853183531
 10
55.46609906638062
 20
-12.02082332674273
 42
0.0929686328294416
 10
55.76124304089347
 20
-11.29670698170055
 42
-0.324436868722588
 10
55.92223065921491
 20
-11.14920180088298
 42
-0.4629866854870372
 10
56.13688084733762
 20
-11.35034521788321
 10
56.20395902543333
 20
-10.96146794292841
 42
0.0286234353272074
 10
57.18330038919763
 20
-11.05533485624808
 42
-0.4195154330892267
 10
57.31745674538903
 20
-11.20284003706565
 42
0.0863371936896195
 10
57.21013165132768
 20
-11.47103128060945
 42
0.3287353931949771
 10
57.27720982942338
 20
-11.61853646142702
 42
-0.8396327581843635
 10
57.16988473536202
 20
-11.92695638210783
 42
-0.0596310948961492
 10
56.70033753423329
 20
-11.98059464960573
 42
0.4172356905194024
 10
56.59301244017193
 20
-12.08787112197106
 42
0.0262856973510676
 10
57.30404109155343
 20
-12.10128068101673
 42
-0.6096552103326722
 10
57.37111926964913
 20
-12.57061537287601
 42
-0.0253262506378526
 10
57.6260163737375
 20
-12.95949264783082
 42
-0.4307635614770635
 10
57.53210693351174
 20
-13.28132215887253
 42
-0.373160946366486
 10
57.70651016012763
 20
-13.67019943382733
 42
-0.4586290684040418
 10
57.58576945777185
 20
-13.72383770132523
 42
0.0784964719480652
 10
57.6260163737375
 20
-14.20658192091494
 42
-0.5947206241845596
 10
57.47844436371049
 20
-14.34067754268685
 42
0.254688869709784
 10
57.10280655726633
 20
-14.27362971614328
 42
-0.3334759521919213
 10
56.98206585491053
 20
-14.23340103900628
 42
0.634250718932807
 10
56.82107823658908
 20
-14.26022015709761
 42
-0.2064680327154057
 10
56.39177790588483
 20
-13.89816200023414
 10
56.28445281182347
 20
-14.01884806296037
 42
-0.2107582270902626
 10
56.04297136157072
 20
-13.30814127696386
 42
0.6180982776177704
 10
55.86856813495483
 20
-13.20086477328329
 42
0.2166985063739622
 10
56.00272449114623
 20
-13.65678987478166
 42
-0.0880605358737309
 10
55.93564631305053
 20
-14.12612453532571
 10
55.74782738705787
 20
-14.12612453532571
 10
55.33194271018921
 20
-14.58204966813932
 42
-0.502266243417046
 10
55.19778635399781
 20
-14.56864007777842
 42
-0.1827178462204804
 10
55.03679873567637
 20
-14.09930541723437
 42
-0.0682790338910458
 10
54.8489798096837
 20
-14.05907674009737
 42
0.0156282272503276
 10
54.83556420138926
 20
-13.42882733969009
 42
-0.1694243459600859
 10
54.7148234534923
 20
-13.29473171791819
 42
-0.2170857674332639
 10
55.29169579422356
 20
-12.51697710537811
 42
0.5897622635260659
 10
55.29169579422356
 20
-12.40970063301277
 42
-0.0290565729378222
 10
54.86239546351932
 20
-12.2487858618343
 42
-0.1945415391342628
 10
54.50017331091076
 20
-11.73922252415326
 42
-0.3281128530316652
 10
54.79531728542361
 20
-11.04192529720241
 42
-0.2747693809104594
  0
LINE
  5
10F
330
18
100
AcDbEntity
  8
ADP1DETAIL
100
AcDbLine
 10
55.53317724447632
 20
-13.02654047437439
 30
0.0
 11
55.27828014038796
 21
-14.59545922718499
 31
0.0
  0
LINE
  5
110
330
18
100
AcDbEntity
  8
ADP1DETAIL
100
AcDbLine
 10
56.82107823658908
 20
-14.23340103900628
 30
0.0
 11
56.59301244017193
 21
-13.5495133711011
 31
0.0
  0
LINE
  5
111
330
18
100
AcDbEntity
  8
ADP1DETAIL
100
AcDbLine
 10
57.21013165132768
 20
-13.603151638599
 30
0.0
 11
57.51869127967614
 21
-14.19317236186928
 31
0.0
  0
CIRCLE
  5
112
330
18
100
AcDbEntity
  8
ADP1DETAIL
100
AcDbCircle
 10
58.94074862798031
 20
-13.92498111832547
 30
0.0
 40
0.2829683183400558
  0
LINE
  5
113
330
18
100
AcDbEntity
  8
ADP1DETAIL
100
AcDbLine
 10
56.96865020107492
 20
-14.20658192091494
 30
0.0
 11
56.78083132062343
 21
-13.84452373273624
 31
0.0
  0
CIRCLE
  5
114
330
18
100
AcDbEntity
  8
ADP1DETAIL
100
AcDbCircle
 10
58.45778577301596
 20
-14.28703930650418
 30
0.0
 40
0.2851472285131782
  0
CIRCLE
  5
115
330
18
100
AcDbEntity
  8
ADP1DETAIL
100
AcDbCircle
 10
57.85408217015465
 20
-17.27737159999258
 30
0.0
 40
0.3660474222830983
  0
ARC
  5
116
330
18
100
AcDbEntity
  8
ADP1DETAIL
100
AcDbCircle
 10
57.1449307325223
 20
-17.47569668919708
 30
0.0
 40
0.4577492633202028
100
AcDbArc
 50
309.8418785164506
 51
352.9153743765686
  0
ARC
  5
117
330
18
100
AcDbEntity
  8
ADP1DETAIL
100
AcDbCircle
 10
53.84327476295229
 20
-17.94756413610674
 30
0.0
 40
0.3059475162586183
100
AcDbArc
 50
285.1631467744438
 51
66.85142166874285
  0
ARC
  5
118
330
18
100
AcDbEntity
  8
ADP1DETAIL
100
AcDbCircle
 10
58.21304080575892
 20
-17.54983672510831
 30
0.0
 40
0.2797820453849891
100
AcDbArc
 50
198.6765016858748
 51
262.404042030844
  0
LWPOLYLINE
  5
119
330
18
100
AcDbEntity
  8
ADP1DETAIL
100
AcDbPolyline
 90
        5
 70
     0
 43
0.0
 10
54.62091401326655
 20
-15.90959629549745
 42
0.1128212991816083
 10
55.42585215041497
 20
-17.00918035644877
 42
0.2373191927450116
 10
56.37836225204922
 20
-17.03599950585534
 42
-0.214426208433508
 10
56.67350622656208
 20
-17.31760027712958
 42
0.038826963488509
 10
56.11004953966642
 20
-17.45169589890148
 42
-1.214256141422664
  0
LWPOLYLINE
  5
120
330
18
100
AcDbEntity
  8
ADP1DETAIL
100
AcDbPolyline
 90
        4
 70
     0
 43
0.0
 10
54.25869186065799
 20
-15.64140505195364
 42
0.2472359226475204
 10
55.14412378419655
 20
-15.99005364977145
 42
0.873162326844273
 10
55.60025542257203
 20
-15.01115565154636
 42
0.806484457291588
 10
55.13070817590211
 20
-15.80231979181688
 42
0.806484457291588
  0
LWPOLYLINE
  5
126
330
18
100
AcDbEntity
  8
ADP1DETAIL
100
AcDbPolyline
 90
        7
 70
     0
 43
0.0
 10
55.45268341254502
 20
-16.00346320881712
 42
0.1766550177180728
 10
55.97589318347502
 20
-15.96323453168011
 42
0.0720365712244156
 10
56.57959678633632
 20
-15.74868155563421
 42
-0.2475257767755691
 10
56.76741571232899
 20
-15.74868155563421
 42
0.2475257767755695
 10
56.96865020107492
 20
-15.74868155563421
 42
0.5033455862949202
 10
56.66009061826763
 20
-15.50730943018174
 42
0.054834667647226
 10
55.77465864918791
 20
-15.74868155563421
 42
5.260678581541965
  0
CIRCLE
  5
12F
330
18
100
AcDbEntity
  8
ADP1DETAIL
100
AcDbCircle
 10
57.78700399205895
 20
-15.90959629549745
 30
0.0
 40
0.2829683183400554
  0
CIRCLE
  5
130
330
18
100
AcDbEntity
  8
ADP1DETAIL
100
AcDbCircle
 10
58.72609848539877
 20
-15.61458593386231
 30
0.0
 40
0.3131160087633532
  0
CIRCLE
  5
131
330
18
100
AcDbEntity
  8
ADP1DETAIL
100
AcDbCircle
 10
58.33704502511899
 20
-16.05710147631502
 30
0.0
 40
0.285164333132045
  0
ARC
  5
132
330
18
100
AcDbEntity
  8
ADP1DETAIL
100
AcDbCircle
 10
57.7601727299289
 20
-16.53984569590473
 30
0.0
 40
0.3384892331819036
100
AcDbArc
 50
10.08892341507873
 51
303.1595318673449
  0
CIRCLE
  5
133
330
18
100
AcDbEntity
  8
ADP1DETAIL
100
AcDbCircle
 10
58.25655123872885
 20
-16.75439870326587
 30
0.0
 40
0.3187508804195303
  0
CIRCLE
  5
134
330
18
100
AcDbEntity
  8
ADP1DETAIL
100
AcDbCircle
 10
58.8065922717889
 20
-16.32529271985883
 30
0.0
 40
0.2461936436488141
  0
CIRCLE
  5
135
330
18
100
AcDbEntity
  8
ADP1DETAIL
100
AcDbCircle
 10
58.06873231273619
 20
-14.75637396704822
 30
0.0
 40
0.269959986957037
  0
CIRCLE
  5
136
330
18
100
AcDbEntity
  8
ADP1DETAIL
100
AcDbCircle
 10
58.60535773750179
 20
-14.95751738404846
 30
0.0
 40
0.303492443465124
  0
CIRCLE
  5
137
330
18
100
AcDbEntity
  8
ADP1DETAIL
100
AcDbCircle
 10
58.1358104908319
 20
-15.41344248554684
 30
0.0
 40
0.3274686443748846
  0
LWPOLYLINE
  5
138
330
18
100
AcDbEntity
  8
ADP1DETAIL
100
AcDbPolyline
 90
        2
 70
     0
 43
0.0
 10
55.64050229299651
 20
-10.84078188020217
 42
0.0815866887852867
 10
54.68351878191296
 20
-11.69273854734503
 42
0.1891999551485983
  0
LINE
  5
13C
330
18
100
AcDbEntity
  8
ADP1DETAIL
100
AcDbLine
 10
55.72099612492781
 20
-12.28901457028654
 30
0.0
 11
57.21013165132768
 21
-13.603151638599
 31
0.0
  0
LINE
  5
13D
330
18
100
AcDbEntity
  8
ADP1DETAIL
100
AcDbLine
 10
55.47951467467505
 20
-12.32924324742354
 30
0.0
 11
55.68074920896216
 21
-12.58402493192168
 31
0.0
  0
LINE
  5
13E
330
18
100
AcDbEntity
  8
ADP1DETAIL
100
AcDbLine
 10
56.80766258275347
 20
-13.06676915151139
 30
0.0
 11
57.46502875541604
 21
-13.603151638599
 31
0.0
  0
LINE
  5
13F
330
18
100
AcDbEntity
  8
ADP1DETAIL
100
AcDbLine
 10
56.35153098991917
 20
-12.57061537287601
 30
0.0
 11
57.19671604303324
 21
-12.93267352973948
 31
0.0
  0
LINE
  5
140
330
18
100
AcDbEntity
  8
ADP1DETAIL
100
AcDbLine
 10
55.68074920896216
 20
-12.58402493192168
 30
0.0
 11
55.76124304089347
 21
-13.21427433232896
 31
0.0
  0
LINE
  5
141
330
18
100
AcDbEntity
  8
ADP1DETAIL
100
AcDbLine
 10
56.59301244017193
 20
-13.5495133711011
 30
0.0
 11
56.33811533608357
 21
-13.12040738769405
 31
0.0
  0
LINE
  5
142
330
18
100
AcDbEntity
  8
ADP1DETAIL
100
AcDbLine
 10
56.28445281182347
 20
-13.69701855191867
 30
0.0
 11
56.28445281182347
 21
-13.99202891355381
 31
0.0
  0
LINE
  5
143
330
18
100
AcDbEntity
  8
ADP1DETAIL
100
AcDbLine
 10
56.19054337159773
 20
-13.22768389137462
 30
0.0
 11
56.28445281182347
 21
-13.69701855191867
 31
0.0
  0
LINE
  5
144
330
18
100
AcDbEntity
  8
ADP1DETAIL
100
AcDbLine
 10
57.25037856729334
 20
-13.21427433232896
 30
0.0
 11
57.53210693351174
 21
-13.28132215887253
 31
0.0
  0
LINE
  5
145
330
18
100
AcDbEntity
  8
ADP1DETAIL
100
AcDbLine
 10
57.10280655726633
 20
-12.63766316810434
 30
0.0
 11
57.33087239922465
 21
-12.57061537287601
 31
0.0
  0
LINE
  5
146
330
18
100
AcDbEntity
  8
ADP1DETAIL
100
AcDbLine
 10
56.94181893894487
 20
-11.60512690238135
 30
0.0
 11
57.12963786493754
 21
-11.49785039870079
 31
0.0
  0
LWPOLYLINE
  5
147
330
18
100
AcDbEntity
  8
ADP1DETAIL
100
AcDbPolyline
 90
        2
 70
     0
 43
0.0
 10
55.76941551596631
 20
-11.26838882523532
 42
0.0772907381506627
 10
55.01161918581708
 20
-12.0122405756204
 42
0.1187749121725523
  0
LINE
  5
14B
330
18
100
AcDbEntity
  8
ADP1DETAIL
100
AcDbLine
 10
55.89539939708487
 20
-12.22196674374297
 30
0.0
 11
56.43202482185048
 21
-12.1683285075603
 31
0.0
  0
LWPOLYLINE
  5
14C
330
18
100
AcDbEntity
  8
ADP1DETAIL
100
AcDbPolyline
 90
        2
 70
     0
 43
0.0
 10
56.19607662811334
 20
-11.00716514695105
 42
0.0205861273511767
 10
55.94900338477471
 20
-11.14800286043737
 42
0.1187749121725523
  0
DIMENSION
  5
150
330
18
100
AcDbEntity
  8
ADPDIM
100
AcDbDimension
  2
*D0
 10
62.67477786670657
 20
-18.27458715371993
 30
0.0
 11
62.67477786670657
 21
-14.14958715371993
 31
0.0
100
AcDbAlignedDimension
 13
62.27766161940899
 23
-10.02458715371993
 33
0.0
 14
61.33814282430207
 24
-18.27458715371993
 34
0.0
 50
90.0
100
AcDbRotatedDimension
  0
LWPOLYLINE
  5
151
330
18
100
AcDbEntity
  8
ADP1DETAIL
100
AcDbPolyline
 90
        5
 70
     0
 43
0.0
 10
60.60428742653723
 20
-16.36552139699582
 42
0.1698345921159024
 10
61.32873173175433
 20
-14.34067754268685
 42
0.4185283910176253
 10
60.44329980821578
 20
-13.45564645778143
 42
0.3070262227088051
 10
59.54445223084161
 20
-13.7372472603709
 10
59.55786788467722
 20
-13.89816200023414
  0
LWPOLYLINE
  5
158
330
18
100
AcDbEntity
  8
ADP1DETAIL
100
AcDbPolyline
 90
        2
 70
     0
 43
0.0
 10
61.18115976726849
 20
-16.52643613685906
 42
0.2867816435449748
 10
61.43605682581569
 20
-12.3426528064692
 42
-1.681429950012322
  0
CIRCLE
  5
15C
330
18
100
AcDbEntity
  8
ADP1DETAIL
100
AcDbCircle
 10
59.58719416547734
 20
-15.40077653306473
 30
0.0
 40
0.2274812409628333
  0
ARC
  5
15D
330
18
100
AcDbEntity
  8
ADP1DETAIL
100
AcDbCircle
 10
69.07221735911432
 20
-18.07032003865863
 30
0.0
 40
10.70422177009672
100
AcDbArc
 50
132.2231140025527
 51
139.9975653099202
  0
LWPOLYLINE
  5
15E
330
18
100
AcDbEntity
  8
ADP1DETAIL
100
AcDbPolyline
 90
       32
 70
     0
 43
0.0
 10
59.93350564558021
 20
-10.37144718834289
 42
0.0073494967457324
 10
60.24206527392867
 20
-10.4250854558408
 42
0.2585620570130735
 10
60.38963728395568
 20
-10.37144718834289
 42
-0.3984928758156029
 10
60.55062490227713
 20
-10.57259063665836
 42
0.0763169954714861
 10
60.57745616440718
 20
-10.96146794292841
 42
0.2308418242073071
 10
60.63111868866727
 20
-11.02851573815674
 42
0.162347371441492
 10
60.72502812889302
 20
-10.45190457393213
 42
-0.0884488030297946
 10
61.03358775724148
 20
-10.14348465325132
 42
-0.5019093620410679
 10
61.07383467320713
 20
-10.15689421229699
 42
-0.1966591116119119
 10
61.22140663769298
 20
-10.33121851120589
 42
0.0446268204535161
 10
61.67753827606844
 20
-10.11666553515999
 42
-0.4607158853638396
 10
61.98609785887573
 20
-10.22394200752532
 42
-0.0918464587852865
 10
61.83852589438989
 20
-10.70668625843027
 42
-0.0433904799729655
 10
61.98609785887573
 20
-10.81396276211084
 42
-0.2512696887377986
 10
61.62387570626719
 20
-11.13579224183731
 42
-0.1917847534958067
 10
61.87877281035555
 20
-11.31011654074621
 42
-0.1925014090340849
 10
61.52996626604143
 20
-11.36375477692888
 42
0.0989756089323053
 10
61.04700341107708
 20
-11.40398348538112
 42
0.7546297078583459
 10
61.03358775724148
 20
-11.57830778429002
 42
0.0595483580391229
 10
61.47630374178135
 20
-11.43080260347245
 42
-0.5648625211102261
 10
61.63729136010279
 20
-11.53807910715302
 42
-0.1818114292822452
 10
61.59704444413713
 20
-11.63194602047269
 42
-0.2192581167390776
 10
61.91901968078003
 20
-11.84649902783383
 42
-0.3436562301311353
 10
61.89218841864999
 20
-12.08787112197106
 42
-0.0363389760456847
 10
61.48971935007578
 20
-12.2621954521952
 42
0.0710906470321668
 10
61.516550657747
 20
-12.32924324742354
 42
-0.1224701228895833
 10
60.93967831701573
 20
-12.2621954521952
 42
-0.8566431745360871
 10
60.80552196082432
 20
-12.3426528064692
 42
-0.1801224486999205
 10
60.28231218989432
 20
-11.91354682306216
 42
0.297558268443164
 10
60.51037798631147
 20
-12.89244485260248
 42
-0.0779039311763057
 10
61.44947247965129
 20
-13.58974207955333
 42
0.0534074193196415
 10
60.91284705488568
 20
-12.3426528064692
 42
-1.71117673815816
  0
ARC
  5
180
330
18
100
AcDbEntity
  8
ADP1DETAIL
100
AcDbCircle
 10
60.82531552274636
 20
-12.36567270559505
 30
0.0
 40
0.7447698840989538
100
AcDbArc
 50
55.39911189225148
 51
108.3479453303259
  0
ARC
  5
181
330
18
100
AcDbEntity
  8
ADP1DETAIL
100
AcDbCircle
 10
61.67084287582828
 20
-10.44576026419071
 30
0.0
 40
1.586678784715064
100
AcDbArc
 50
192.424675495052
 51
205.7783443791643
  0
LINE
  5
182
330
18
100
AcDbEntity
  8
ADP1DETAIL
100
AcDbLine
 10
59.93350564558021
 20
-10.37144718834289
 30
0.0
 11
59.82618055151886
 21
-10.47872369202346
 31
0.0
  0
TEXT
  5
190
330
18
100
AcDbEntity
  8
ADPDIM
100
AcDbText
 10
44.94892092365447
 20
-19.50725224422115
 30
0.0
 40
0.25
  1
J U L I U S  B L U M  &  C O . ,  I N C .      ( 8 0 0 )  5 2 6 - 6 2 9 3        W W W . J U L I U S B L U M . C O M        P A R T  N o .  5 1 2
 41
1.25
  7
ARIAL_WIDE
 72
     1
 11
57.81833599868858
 21
-19.25725224422115
 31
0.0
100
AcDbText
 73
     3
  0
ENDSEC
  0
SECTION
  2
OBJECTS
  0
DICTIONARY
  5
C
330
0
100
AcDbDictionary
  3
ACAD_GROUP
350
D
  3
ACAD_LAYOUT
350
189
  3
ACAD_MLINESTYLE
350
E
  3
ACAD_PLOTSETTINGS
350
18A
  3
ACAD_PLOTSTYLENAME
350
187
  3
ACDBHEADERROUNDTRIPXREC
350
2D8
  3
ACDBVARIABLEDICTIONARY
350
1EA
  0
DICTIONARY
  5
1E4
330
18
100
AcDbDictionary
280
     1
  3
ACAD_LAYOUTSELFREF
360
2F9
  0
DICTIONARY
  5
1E2
330
15
100
AcDbDictionary
280
     1
  3
ACAD_LAYOUTSELFREF
360
2F8
  0
DICTIONARY
  5
D
102
{ACAD_REACTORS
330
C
102
}
330
C
100
AcDbDictionary
  0
DICTIONARY
  5
189
102
{ACAD_REACTORS
330
C
102
}
330
C
100
AcDbDictionary
  0
DICTIONARY
  5
E
102
{ACAD_REACTORS
330
C
102
}
330
C
100
AcDbDictionary
  3
STANDARD
350
1B
  0
DICTIONARY
  5
18A
102
{ACAD_REACTORS
330
C
102
}
330
C
100
AcDbDictionary
  0
ACDBDICTIONARYWDFLT
  5
187
102
{ACAD_REACTORS
330
C
102
}
330
C
100
AcDbDictionary
281
     1
  3
Normal
350
188
100
AcDbDictionaryWithDefault
340
188
  0
DICTIONARY
  5
2D8
102
{ACAD_REACTORS
330
C
102
}
330
C
100
AcDbDictionary
  3
CEPSNTYPE
350
2E2
  3
FINGERPRINTGUID
350
2E3
  3
HYPERLINKBASE
350
2DB
  3
INSUNITS
350
2E1
  3
LAYOUTDICT
350
2DD
  3
LWETCUNION
350
2E0
  3
PLOTSETDICT
350
2DE
  3
PLOTSTYLNAMDICT
350
2DF
  3
PSVPSCALE
350
2E5
  3
PUCSBASE
350
2E8
  3
PUCSORGBACK
350
2EE
  3
PUCSORGBOTTOM
350
2EA
  3
PUCSORGFRONT
350
2ED
  3
PUCSORGLEFT
350
2EB
  3
PUCSORGRIGHT
350
2EC
  3
PUCSORGTOP
350
2E9
  3
PUCSORTHOREF
350
2E6
  3
PUCSORTHOVIEW
350
2E7
  3
STYLESHEET
350
2DC
  3
TSTACKALIGN
350
2D9
  3
TSTACKSIZE
350
2DA
  3
UCSBASE
350
2F1
  3
UCSORGBACK
350
2F7
  3
UCSORGBOTTOM
350
2F3
  3
UCSORGFRONT
350
2F6
  3
UCSORGLEFT
350
2F4
  3
UCSORGRIGHT
350
2F5
  3
UCSORGTOP
350
2F2
  3
UCSORTHOREF
350
2EF
  3
UCSORTHOVIEW
350
2F0
  3
VERSIONGUID
350
2E4
  0
DICTIONARY
  5
1EA
102
{ACAD_REACTORS
330
C
102
}
330
C
100
AcDbDictionary
  3
DIMASSOC
350
1EB
  0
XRECORD
  5
2F9
102
{ACAD_REACTORS
330
1E4
102
}
330
1E4
100
AcDbXrecord
340
18
  0
XRECORD
  5
2F8
102
{ACAD_REACTORS
330
1E2
102
}
330
1E2
100
AcDbXrecord
340
15
  0
MLINESTYLE
  5
1B
102
{ACAD_REACTORS
330
E
102
}
330
E
100
AcDbMlineStyle
  2
STANDARD
 70
     0
  3

 62
     0
 51
90.0
 52
90.0
 71
     2
 49
0.5
 62
   256
  6
BYLAYER
 49
-0.5
 62
   256
  6
BYLAYER
  0
ACDBPLACEHOLDER
  5
188
102
{ACAD_REACTORS
330
187
102
}
330
187
100
AcDbPlaceHolder
280
     0
  0
XRECORD
  5
2E2
102
{ACAD_REACTORS
330
2D8
102
}
330
2D8
100
AcDbXrecord
 90
        0
  0
XRECORD
  5
2E3
102
{ACAD_REACTORS
330
2D8
102
}
330
2D8
100
AcDbXrecord
  1
{06B723D5-92EB-49D6-9747-E68BEBE60B16}
  0
XRECORD
  5
2DB
102
{ACAD_REACTORS
330
2D8
102
}
330
2D8
100
AcDbXrecord
  1

  0
XRECORD
  5
2E1
102
{ACAD_REACTORS
330
2D8
102
}
330
2D8
100
AcDbXrecord
 90
        0
  0
XRECORD
  5
2DD
102
{ACAD_REACTORS
330
2D8
102
}
330
2D8
100
AcDbXrecord
340
189
  0
XRECORD
  5
2E0
102
{ACAD_REACTORS
330
2D8
102
}
330
2D8
100
AcDbXrecord
 90
    14877
  0
XRECORD
  5
2DE
102
{ACAD_REACTORS
330
2D8
102
}
330
2D8
100
AcDbXrecord
340
18A
  0
XRECORD
  5
2DF
102
{ACAD_REACTORS
330
2D8
102
}
330
2D8
100
AcDbXrecord
340
187
  0
XRECORD
  5
2E5
102
{ACAD_REACTORS
330
2D8
102
}
330
2D8
100
AcDbXrecord
 40
0.0
  0
XRECORD
  5
2E8
102
{ACAD_REACTORS
330
2D8
102
}
330
2D8
100
AcDbXrecord
340
0
  0
XRECORD
  5
2EE
102
{ACAD_REACTORS
330
2D8
102
}
330
2D8
100
AcDbXrecord
 10
0.0
 20
0.0
 30
0.0
  0
XRECORD
  5
2EA
102
{ACAD_REACTORS
330
2D8
102
}
330
2D8
100
AcDbXrecord
 10
0.0
 20
0.0
 30
0.0
  0
XRECORD
  5
2ED
102
{ACAD_REACTORS
330
2D8
102
}
330
2D8
100
AcDbXrecord
 10
0.0
 20
0.0
 30
0.0
  0
XRECORD
  5
2EB
102
{ACAD_REACTORS
330
2D8
102
}
330
2D8
100
AcDbXrecord
 10
0.0
 20
0.0
 30
0.0
  0
XRECORD
  5
2EC
102
{ACAD_REACTORS
330
2D8
102
}
330
2D8
100
AcDbXrecord
 10
0.0
 20
0.0
 30
0.0
  0
XRECORD
  5
2E9
102
{ACAD_REACTORS
330
2D8
102
}
330
2D8
100
AcDbXrecord
 10
0.0
 20
0.0
 30
0.0
  0
XRECORD
  5
2E6
102
{ACAD_REACTORS
330
2D8
102
}
330
2D8
100
AcDbXrecord
340
0
  0
XRECORD
  5
2E7
102
{ACAD_REACTORS
330
2D8
102
}
330
2D8
100
AcDbXrecord
 70
     0
  0
XRECORD
  5
2DC
102
{ACAD_REACTORS
330
2D8
102
}
330
2D8
100
AcDbXrecord
  1

  0
XRECORD
  5
2D9
102
{ACAD_REACTORS
330
2D8
102
}
330
2D8
100
AcDbXrecord
 90
        1
  0
XRECORD
  5
2DA
102
{ACAD_REACTORS
330
2D8
102
}
330
2D8
100
AcDbXrecord
 90
       70
  0
XRECORD
  5
2F1
102
{ACAD_REACTORS
330
2D8
102
}
330
2D8
100
AcDbXrecord
340
0
  0
XRECORD
  5
2F7
102
{ACAD_REACTORS
330
2D8
102
}
330
2D8
100
AcDbXrecord
 10
0.0
 20
0.0
 30
0.0
  0
XRECORD
  5
2F3
102
{ACAD_REACTORS
330
2D8
102
}
330
2D8
100
AcDbXrecord
 10
0.0
 20
0.0
 30
0.0
  0
XRECORD
  5
2F6
102
{ACAD_REACTORS
330
2D8
102
}
330
2D8
100
AcDbXrecord
 10
0.0
 20
0.0
 30
0.0
  0
XRECORD
  5
2F4
102
{ACAD_REACTORS
330
2D8
102
}
330
2D8
100
AcDbXrecord
 10
0.0
 20
0.0
 30
0.0
  0
XRECORD
  5
2F5
102
{ACAD_REACTORS
330
2D8
102
}
330
2D8
100
AcDbXrecord
 10
0.0
 20
0.0
 30
0.0
  0
XRECORD
  5
2F2
102
{ACAD_REACTORS
330
2D8
102
}
330
2D8
100
AcDbXrecord
 10
0.0
 20
0.0
 30
0.0
  0
XRECORD
  5
2EF
102
{ACAD_REACTORS
330
2D8
102
}
330
2D8
100
AcDbXrecord
340
0
  0
XRECORD
  5
2F0
102
{ACAD_REACTORS
330
2D8
102
}
330
2D8
100
AcDbXrecord
 70
     0
  0
XRECORD
  5
2E4
102
{ACAD_REACTORS
330
2D8
102
}
330
2D8
100
AcDbXrecord
  1
{418FAD79-3D46-4087-A147-62202EED25DD}
  0
DICTIONARYVAR
  5
1EB
102
{ACAD_REACTORS
330
1EA
102
}
330
1EA
100
DictionaryVariables
280
     0
  1
1
  0
ENDSEC
  0
EOF
