  0
SECTION
  2
HEADER
  9
$ACADVER
  1
AC1014
  9
$ACADMAINTVER
 70
     9
  9
$DWGCODEPAGE
  3
ANSI_1252
  9
$INSBASE
 10
78.24482613629591
 20
-2.645828913139956
 30
0.0
  9
$EXTMIN
 10
48.6572181365574
 20
-4.107682968222762
 30
0.0
  9
$EXTMAX
 10
100.1348784366938
 20
27.02026977356679
 30
0.0
  9
$LIMMIN
 10
0.0
 20
0.0
  9
$LIMMAX
 10
36.0
 20
36.0
  9
$ORTHOMODE
 70
     1
  9
$REGENMODE
 70
     1
  9
$FILLMODE
 70
     1
  9
$QTEXTMODE
 70
     0
  9
$MIRRTEXT
 70
     1
  9
$DRAGMODE
 70
     0
  9
$LTSCALE
 40
1.0
  9
$OSMODE
 70
    37
  9
$ATTMODE
 70
     1
  9
$TEXTSIZE
 40
0.2
  9
$TRACEWID
 40
0.05
  9
$TEXTSTYLE
  7
STANDARD
  9
$CLAYER
  8
ADPDIM
  9
$CELTYPE
  6
BYLAYER
  9
$CECOLOR
 62
   256
  9
$CELTSCALE
 40
1.0
  9
$DELOBJ
 70
     1
  9
$DISPSILH
 70
     0
  9
$DIMSCALE
 40
1.0
  9
$DIMASZ
 40
0.125
  9
$DIMEXO
 40
0.0625
  9
$DIMDLI
 40
0.38
  9
$DIMRND
 40
0.0
  9
$DIMDLE
 40
0.0
  9
$DIMEXE
 40
0.18
  9
$DIMTP
 40
0.0
  9
$DIMTM
 40
0.0
  9
$DIMTXT
 40
0.125
  9
$DIMCEN
 40
0.1875
  9
$DIMTSZ
 40
0.125
  9
$DIMTOL
 70
     0
  9
$DIMLIM
 70
     0
  9
$DIMTIH
 70
     0
  9
$DIMTOH
 70
     0
  9
$DIMSE1
 70
     0
  9
$DIMSE2
 70
     0
  9
$DIMTAD
 70
     0
  9
$DIMZIN
 70
     3
  9
$DIMBLK
  1

  9
$DIMASO
 70
     1
  9
$DIMSHO
 70
     1
  9
$DIMPOST
  1

  9
$DIMAPOST
  1

  9
$DIMALT
 70
     0
  9
$DIMALTD
 70
     1
  9
$DIMALTF
 40
25.4
  9
$DIMLFAC
 40
1.0
  9
$DIMTOFL
 70
     0
  9
$DIMTVP
 40
0.0
  9
$DIMTIX
 70
     0
  9
$DIMSOXD
 70
     0
  9
$DIMSAH
 70
     0
  9
$DIMBLK1
  1

  9
$DIMBLK2
  1

  9
$DIMSTYLE
  2
STANDARD
  9
$DIMCLRD
 70
     0
  9
$DIMCLRE
 70
     0
  9
$DIMCLRT
 70
     0
  9
$DIMTFAC
 40
1.0
  9
$DIMGAP
 40
0.125
  9
$DIMJUST
 70
     0
  9
$DIMSD1
 70
     0
  9
$DIMSD2
 70
     0
  9
$DIMTOLJ
 70
     1
  9
$DIMTZIN
 70
     0
  9
$DIMALTZ
 70
     0
  9
$DIMALTTZ
 70
     0
  9
$DIMFIT
 70
     3
  9
$DIMUPT
 70
     0
  9
$DIMUNIT
 70
     2
  9
$DIMDEC
 70
     4
  9
$DIMTDEC
 70
     4
  9
$DIMALTU
 70
     2
  9
$DIMALTTD
 70
     2
  9
$DIMTXSTY
  7
STANDARD
  9
$DIMAUNIT
 70
     0
  9
$LUNITS
 70
     5
  9
$LUPREC
 70
     4
  9
$SKETCHINC
 40
0.1
  9
$FILLETRAD
 40
0.01
  9
$AUNITS
 70
     0
  9
$AUPREC
 70
     0
  9
$MENU
  1
acad
  9
$ELEVATION
 40
0.0
  9
$PELEVATION
 40
0.0
  9
$THICKNESS
 40
0.0
  9
$LIMCHECK
 70
     0
  9
$BLIPMODE
 70
     0
  9
$CHAMFERA
 40
0.0
  9
$CHAMFERB
 40
0.0
  9
$CHAMFERC
 40
0.0
  9
$CHAMFERD
 40
0.0
  9
$SKPOLY
 70
     0
  9
$TDCREATE
 40
2450386.560146411
  9
$TDUPDATE
 40
2452297.071686007
  9
$TDINDWG
 40
0.0345199074
  9
$TDUSRTIMER
 40
0.0345199074
  9
$USRTIMER
 70
     1
  9
$ANGBASE
 50
0.0
  9
$ANGDIR
 70
     0
  9
$PDMODE
 70
     0
  9
$PDSIZE
 40
0.0
  9
$PLINEWID
 40
0.0
  9
$COORDS
 70
     2
  9
$SPLFRAME
 70
     0
  9
$SPLINETYPE
 70
     6
  9
$SPLINESEGS
 70
     8
  9
$ATTDIA
 70
     0
  9
$ATTREQ
 70
     1
  9
$HANDLING
 70
 22529
  9
$HANDSEED
  5
846
  9
$SURFTAB1
 70
     6
  9
$SURFTAB2
 70
     6
  9
$SURFTYPE
 70
     6
  9
$SURFU
 70
     6
  9
$SURFV
 70
     6
  9
$UCSNAME
  2

  9
$UCSORG
 10
0.0
 20
0.0
 30
0.0
  9
$UCSXDIR
 10
1.0
 20
0.0
 30
0.0
  9
$UCSYDIR
 10
0.0
 20
1.0
 30
0.0
  9
$PUCSNAME
  2

  9
$PUCSORG
 10
0.0
 20
0.0
 30
0.0
  9
$PUCSXDIR
 10
1.0
 20
0.0
 30
0.0
  9
$PUCSYDIR
 10
0.0
 20
1.0
 30
0.0
  9
$USERI1
 70
     0
  9
$USERI2
 70
     0
  9
$USERI3
 70
     0
  9
$USERI4
 70
     0
  9
$USERI5
 70
     0
  9
$USERR1
 40
0.0
  9
$USERR2
 40
0.0
  9
$USERR3
 40
0.0
  9
$USERR4
 40
0.0
  9
$USERR5
 40
0.0
  9
$WORLDVIEW
 70
     1
  9
$SHADEDGE
 70
     3
  9
$SHADEDIF
 70
    70
  9
$TILEMODE
 70
     1
  9
$MAXACTVP
 70
    15
  9
$PINSBASE
 10
4.403525741743744E+99
 20
7.061986388769092E+99
 30
0.0
  9
$PLIMCHECK
 70
     0
  9
$PEXTMIN
 10
1.000000000000000E+20
 20
1.000000000000000E+20
 30
1.000000000000000E+20
  9
$PEXTMAX
 10
-1.000000000000000E+20
 20
-1.000000000000000E+20
 30
-1.000000000000000E+20
  9
$PLIMMIN
 10
0.0
 20
0.0
  9
$PLIMMAX
 10
12.0
 20
9.0
  9
$UNITMODE
 70
     0
  9
$VISRETAIN
 70
     0
  9
$PLINEGEN
 70
     0
  9
$PSLTSCALE
 70
     1
  9
$TREEDEPTH
 70
  3020
  9
$PICKSTYLE
 70
     1
  9
$CMLSTYLE
  2
STANDARD
  9
$CMLJUST
 70
     0
  9
$CMLSCALE
 40
1.0
  9
$PROXYGRAPHICS
 70
     1
  9
$MEASUREMENT
 70
     0
  0
ENDSEC
  0
SECTION
  2
CLASSES
  0
CLASS
  1
ACDBDICTIONARYWDFLT
  2
AcDbDictionaryWithDefault
  3
AutoCAD 2000
 90
        0
280
     0
281
     0
  0
CLASS
  1
ACDBPLACEHOLDER
  2
AcDbPlaceHolder
  3
AutoCAD 2000
 90
        0
280
     0
281
     0
  0
CLASS
  1
LAYOUT
  2
AcDbLayout
  3
AutoCAD 2000
 90
        0
280
     0
281
     0
  0
CLASS
  1
DICTIONARYVAR
  2
AcDbDictionaryVar
  3
AutoCAD 2000
 90
        0
280
     0
281
     0
  0
CLASS
  1
LONG_TRANSACTION
  2
AcDbLongTransaction
  3
AutoCAD 2000
 90
        0
280
     0
281
     0
  0
CLASS
  1
LWPOLYLINE
  2
AcDbPolyline
  3
AutoCAD 2000
 90
        0
280
     0
281
     1
  0
CLASS
  1
HATCH
  2
AcDbHatch
  3
AutoCAD 2000
 90
        0
280
     0
281
     1
  0
CLASS
  1
XRECORD
  2
AcDbXrecord
  3
AutoCAD 2000
 90
        0
280
     0
281
     0
  0
CLASS
  1
LONG_TRANSACTION
  2
AcDbLongTransaction
  3
AutoCAD 2000
 90
        0
280
     0
281
     0
  0
CLASS
  1
LWPOLYLINE
  2
AcDbPolyline
  3
AutoCAD 2000
 90
        0
280
     0
281
     1
  0
CLASS
  1
HATCH
  2
AcDbHatch
  3
AutoCAD 2000
 90
        0
280
     0
281
     1
  0
CLASS
  1
XRECORD
  2
AcDbXrecord
  3
AutoCAD 2000
 90
        0
280
     0
281
     0
  0
CLASS
  1
LONG_TRANSACTION
  2
AcDbLongTransaction
  3
AutoCAD 2000
 90
        0
280
     0
281
     0
  0
CLASS
  1
LWPOLYLINE
  2
AcDbPolyline
  3
AutoCAD 2000
 90
        0
280
     0
281
     1
  0
CLASS
  1
HATCH
  2
AcDbHatch
  3
AutoCAD 2000
 90
        0
280
     0
281
     1
  0
CLASS
  1
XRECORD
  2
AcDbXrecord
  3
AutoCAD 2000
 90
        0
280
     0
281
     0
  0
CLASS
  1
LONG_TRANSACTION
  2
AcDbLongTransaction
  3
AutoCAD 2000
 90
        0
280
     0
281
     0
  0
CLASS
  1
LWPOLYLINE
  2
AcDbPolyline
  3
AutoCAD 2000
 90
        0
280
     0
281
     1
  0
CLASS
  1
HATCH
  2
AcDbHatch
  3
AutoCAD 2000
 90
        0
280
     0
281
     1
  0
CLASS
  1
XRECORD
  2
AcDbXrecord
  3
AutoCAD 2000
 90
        0
280
     0
281
     0
  0
CLASS
  1
LONG_TRANSACTION
  2
AcDbLongTransaction
  3
AutoCAD 2000
 90
        0
280
     0
281
     0
  0
CLASS
  1
LWPOLYLINE
  2
AcDbPolyline
  3
AutoCAD 2000
 90
        0
280
     0
281
     1
  0
CLASS
  1
HATCH
  2
AcDbHatch
  3
AutoCAD 2000
 90
        0
280
     0
281
     1
  0
CLASS
  1
XRECORD
  2
AcDbXrecord
  3
AutoCAD 2000
 90
        0
280
     0
281
     0
  0
CLASS
  1
LONG_TRANSACTION
  2
AcDbLongTransaction
  3
AutoCAD 2000
 90
        0
280
     0
281
     0
  0
CLASS
  1
LWPOLYLINE
  2
AcDbPolyline
  3
AutoCAD 2000
 90
        0
280
     0
281
     1
  0
CLASS
  1
HATCH
  2
AcDbHatch
  3
AutoCAD 2000
 90
        0
280
     0
281
     1
  0
CLASS
  1
XRECORD
  2
AcDbXrecord
  3
AutoCAD 2000
 90
        0
280
     0
281
     0
  0
ENDSEC
  0
SECTION
  2
TABLES
  0
TABLE
  2
VPORT
  5
8
330
0
100
AcDbSymbolTable
 70
     2
  0
VPORT
  5
823
330
8
100
AcDbSymbolTableRecord
100
AcDbViewportTableRecord
  2
*ACTIVE
 70
     0
 10
0.0
 20
0.0
 11
1.0
 21
1.0
 12
74.43855724703678
 22
11.45634819978868
 13
0.0
 23
0.0
 14
0.5740882589684922
 24
0.5740882589684922
 15
0.5
 25
0.5
 16
0.0
 26
0.0
 36
1.0
 17
0.0
 27
0.0
 37
0.0
 40
32.99234363913085
 41
1.570528967254408
 42
50.0
 43
0.0
 44
0.0
 50
0.0
 51
0.0
 71
     0
 72
   100
 73
     1
 74
     1
 75
     0
 76
     0
 77
     0
 78
     0
  0
ENDTAB
  0
TABLE
  2
LTYPE
  5
5
330
0
100
AcDbSymbolTable
 70
     1
  0
LTYPE
  5
12
330
5
100
AcDbSymbolTableRecord
100
AcDbLinetypeTableRecord
  2
BYBLOCK
 70
     0
  3

 72
    65
 73
     0
 40
0.0
  0
LTYPE
  5
13
330
5
100
AcDbSymbolTableRecord
100
AcDbLinetypeTableRecord
  2
BYLAYER
 70
     0
  3

 72
    65
 73
     0
 40
0.0
  0
LTYPE
  5
14
330
5
100
AcDbSymbolTableRecord
100
AcDbLinetypeTableRecord
  2
CONTINUOUS
 70
     0
  3
Solid line
 72
    65
 73
     0
 40
0.0
  0
ENDTAB
  0
TABLE
  2
LAYER
  5
2
330
0
100
AcDbSymbolTable
 70
     4
  0
LAYER
  5
F
330
2
100
AcDbSymbolTableRecord
100
AcDbLayerTableRecord
  2
0
 70
     0
 62
     7
  6
CONTINUOUS
  0
LAYER
  5
5A
330
2
100
AcDbSymbolTableRecord
100
AcDbLayerTableRecord
  2
ADP1DETAIL
 70
     0
 62
     7
  6
CONTINUOUS
  0
LAYER
  5
5C
330
2
100
AcDbSymbolTableRecord
100
AcDbLayerTableRecord
  2
DEFPOINTS
 70
     0
 62
     7
  6
CONTINUOUS
  0
LAYER
  5
5D
330
2
100
AcDbSymbolTableRecord
100
AcDbLayerTableRecord
  2
ADPDIM
 70
     0
 62
     3
  6
CONTINUOUS
  0
ENDTAB
  0
TABLE
  2
STYLE
  5
3
330
0
100
AcDbSymbolTable
 70
     2
  0
STYLE
  5
10
330
3
100
AcDbSymbolTableRecord
100
AcDbTextStyleTableRecord
  2
STANDARD
 70
     0
 40
0.0
 41
1.0
 50
0.0
 71
     0
 42
0.2
  3
txt
  4

  0
STYLE
  5
6DB
330
3
100
AcDbSymbolTableRecord
100
AcDbTextStyleTableRecord
  2
ARIAL_WIDE
 70
     0
 40
0.0
 41
1.25
 50
0.0
 71
     0
 42
0.2
  3
ARIAL.TTF
  4

1001
ACAD
1000
Arial
1071
       34
  0
ENDTAB
  0
TABLE
  2
VIEW
  5
6
330
0
100
AcDbSymbolTable
 70
     0
  0
ENDTAB
  0
TABLE
  2
UCS
  5
7
330
0
100
AcDbSymbolTable
 70
     0
  0
ENDTAB
  0
TABLE
  2
APPID
  5
9
330
0
100
AcDbSymbolTable
 70
     1
  0
APPID
  5
11
330
9
100
AcDbSymbolTableRecord
100
AcDbRegAppTableRecord
  2
ACAD
 70
     0
  0
ENDTAB
  0
TABLE
  2
DIMSTYLE
  5
A
330
0
100
AcDbSymbolTable
 70
     1
  0
DIMSTYLE
105
6CF
330
A
100
AcDbSymbolTableRecord
100
AcDbDimStyleTableRecord
  2
STANDARD
 70
     0
  3

  4

  5

  6

  7

 40
1.0
 41
0.18
 42
0.0625
 43
0.38
 44
0.18
 45
0.0
 46
0.0
 47
0.0
 48
0.0
140
0.18
141
0.09
142
0.0
143
25.4
144
1.0
145
0.0
146
1.0
147
0.09
 71
     0
 72
     0
 73
     1
 74
     1
 75
     0
 76
     0
 77
     0
 78
     0
170
     0
171
     2
172
     0
173
     0
174
     0
175
     0
176
     0
177
     0
178
     0
270
     2
271
     4
272
     4
273
     2
274
     2
340
10
275
     0
280
     0
281
     0
282
     0
283
     1
284
     0
285
     0
286
     0
287
     3
288
     0
  0
ENDTAB
  0
TABLE
  2
BLOCK_RECORD
  5
1
330
0
100
AcDbSymbolTable
 70
     2
  0
BLOCK_RECORD
  5
18
102
{ACAD_XDICTIONARY
360
730
102
}
330
1
100
AcDbSymbolTableRecord
100
AcDbBlockTableRecord
  2
*MODEL_SPACE
  0
BLOCK_RECORD
  5
15
102
{ACAD_XDICTIONARY
360
72E
102
}
330
1
100
AcDbSymbolTableRecord
100
AcDbBlockTableRecord
  2
*PAPER_SPACE
  0
BLOCK_RECORD
  5
54
330
1
100
AcDbSymbolTableRecord
100
AcDbBlockTableRecord
  2
*D0
  0
BLOCK_RECORD
  5
56
330
1
100
AcDbSymbolTableRecord
100
AcDbBlockTableRecord
  2
*D1
  0
ENDTAB
  0
ENDSEC
  0
SECTION
  2
BLOCKS
  0
BLOCK
  5
60
330
18
100
AcDbEntity
  8
0
100
AcDbBlockBegin
  2
*MODEL_SPACE
 70
     0
 10
0.0
 20
0.0
 30
0.0
  3
*MODEL_SPACE
  1

  0
ENDBLK
  5
61
330
18
100
AcDbEntity
  8
0
100
AcDbBlockEnd
  0
BLOCK
  5
5E
330
15
100
AcDbEntity
 67
     1
  8
0
100
AcDbBlockBegin
  2
*PAPER_SPACE
 70
     0
 10
0.0
 20
0.0
 30
0.0
  3
*PAPER_SPACE
  1

  0
ENDBLK
  5
5F
330
15
100
AcDbEntity
 67
     1
  8
0
100
AcDbBlockEnd
  0
BLOCK
  5
63
330
54
100
AcDbEntity
  8
0
100
AcDbBlockBegin
  2
*D0
 70
     1
 10
0.0
 20
0.0
 30
0.0
  3
*D0
  1

  0
LINE
  5
64
330
54
100
AcDbEntity
  8
0
  6
BYBLOCK
 62
     0
100
AcDbLine
 10
79.22365628372412
 20
21.53028441473664
 30
0.0
 11
79.22365628372412
 21
22.09991454703999
 31
0.0
  0
LINE
  5
65
330
54
100
AcDbEntity
  8
0
  6
BYBLOCK
 62
     0
100
AcDbLine
 10
87.47365628372412
 20
21.53028441473664
 30
0.0
 11
87.47365628372412
 21
22.09991454703999
 31
0.0
  0
LINE
  5
66
330
54
100
AcDbEntity
  8
0
  6
BYBLOCK
 62
     0
100
AcDbLine
 10
79.22365628372412
 20
21.91991454703999
 30
0.0
 11
82.95282295039079
 21
21.91991454703999
 31
0.0
  0
LINE
  5
67
330
54
100
AcDbEntity
  8
0
  6
BYBLOCK
 62
     0
100
AcDbLine
 10
87.47365628372412
 20
21.91991454703999
 30
0.0
 11
83.74448961705745
 21
21.91991454703999
 31
0.0
  0
LINE
  5
68
330
54
100
AcDbEntity
  8
0
  6
BYBLOCK
 62
     0
100
AcDbLine
 10
79.09865628372412
 20
21.79491454703999
 30
0.0
 11
79.34865628372413
 21
22.04491454703999
 31
0.0
  0
LINE
  5
69
330
54
100
AcDbEntity
  8
0
  6
BYBLOCK
 62
     0
100
AcDbLine
 10
87.34865628372412
 20
21.79491454703999
 30
0.0
 11
87.59865628372413
 21
22.04491454703999
 31
0.0
  0
TEXT
  5
6A
330
54
100
AcDbEntity
  8
0
  6
BYBLOCK
 62
     0
100
AcDbText
 10
83.0778229503908
 20
21.85741454703999
 30
0.0
 40
0.125
  1
8 1/4
 72
     1
 11
83.34865628372412
 21
21.91991454703999
 31
0.0
100
AcDbText
 73
     2
  0
POINT
  5
6B
330
54
100
AcDbEntity
  8
DEFPOINTS
  6
BYBLOCK
 62
     0
100
AcDbPoint
 10
79.22365628372412
 20
21.46778441473664
 30
0.0
  0
POINT
  5
6C
330
54
100
AcDbEntity
  8
DEFPOINTS
  6
BYBLOCK
 62
     0
100
AcDbPoint
 10
87.47365628372412
 20
21.46778441473664
 30
0.0
  0
POINT
  5
6D
330
54
100
AcDbEntity
  8
DEFPOINTS
  6
BYBLOCK
 62
     0
100
AcDbPoint
 10
87.47365628372412
 20
21.91991454703999
 30
0.0
  0
ENDBLK
  5
6E
330
54
100
AcDbEntity
  8
0
100
AcDbBlockEnd
  0
BLOCK
  5
6F
330
56
100
AcDbEntity
  8
0
100
AcDbBlockBegin
  2
*D1
 70
     1
 10
0.0
 20
0.0
 30
0.0
  3
*D1
  1

  0
LINE
  5
70
330
56
100
AcDbEntity
  8
0
  6
BYBLOCK
 62
     0
100
AcDbLine
 10
78.53243657841646
 20
26.3407435526224
 30
0.0
 11
79.30316003583097
 21
26.3407435526224
 31
0.0
  0
LINE
  5
71
330
56
100
AcDbEntity
  8
0
  6
BYBLOCK
 62
     0
100
AcDbLine
 10
78.30732613629591
 20
-2.645828913139956
 30
0.0
 11
79.30316003583097
 21
-2.645828913139956
 31
0.0
  0
LINE
  5
72
330
56
100
AcDbEntity
  8
0
  6
BYBLOCK
 62
     0
100
AcDbLine
 10
79.12316003583097
 20
26.3407435526224
 30
0.0
 11
79.12316003583097
 21
12.07662398640788
 31
0.0
  0
LINE
  5
73
330
56
100
AcDbEntity
  8
0
  6
BYBLOCK
 62
     0
100
AcDbLine
 10
79.12316003583097
 20
-2.645828913139956
 30
0.0
 11
79.12316003583097
 21
11.61829065307455
 31
0.0
  0
LINE
  5
74
330
56
100
AcDbEntity
  8
0
  6
BYBLOCK
 62
     0
100
AcDbLine
 10
79.24816003583096
 20
26.2157435526224
 30
0.0
 11
78.99816003583096
 21
26.4657435526224
 31
0.0
  0
LINE
  5
75
330
56
100
AcDbEntity
  8
0
  6
BYBLOCK
 62
     0
100
AcDbLine
 10
79.24816003583096
 20
-2.770828913139956
 30
0.0
 11
78.99816003583096
 21
-2.520828913139956
 31
0.0
  0
TEXT
  5
76
330
56
100
AcDbEntity
  8
0
  6
BYBLOCK
 62
     0
100
AcDbText
 10
79.18566003583096
 20
11.74329065307455
 30
0.0
 40
0.125
  1
29
 50
90.0
 72
     1
 11
79.12316003583097
 21
11.84745731974122
 31
0.0
100
AcDbText
 73
     2
  0
POINT
  5
77
330
56
100
AcDbEntity
  8
DEFPOINTS
  6
BYBLOCK
 62
     0
100
AcDbPoint
 10
78.46993657841647
 20
26.3407435526224
 30
0.0
  0
POINT
  5
78
330
56
100
AcDbEntity
  8
DEFPOINTS
  6
BYBLOCK
 62
     0
100
AcDbPoint
 10
78.24482613629591
 20
-2.645828913139956
 30
0.0
  0
POINT
  5
79
330
56
100
AcDbEntity
  8
DEFPOINTS
  6
BYBLOCK
 62
     0
100
AcDbPoint
 10
79.12316003583097
 20
-2.645828913139956
 30
0.0
  0
ENDBLK
  5
7A
330
56
100
AcDbEntity
  8
0
100
AcDbBlockEnd
  0
ENDSEC
  0
SECTION
  2
ENTITIES
  0
DIMENSION
  5
7B
330
18
100
AcDbEntity
  8
ADPDIM
100
AcDbDimension
  2
*D1
 10
79.12316003583097
 20
-2.645828913139956
 30
0.0
 11
79.12316003583097
 21
11.84745731974122
 31
0.0
100
AcDbAlignedDimension
 13
78.46993657841647
 23
26.3407435526224
 33
0.0
 14
78.24482613629591
 24
-2.645828913139956
 34
0.0
 50
90.0
100
AcDbRotatedDimension
  0
ARC
  5
7C
330
18
100
AcDbEntity
  8
ADP1DETAIL
100
AcDbCircle
 10
77.94817272099892
 20
10.79939529982239
 30
0.0
 40
6.668089907414825
100
AcDbArc
 50
123.2919969615804
 51
140.8365200935291
  0
LWPOLYLINE
  5
7D
330
18
100
AcDbEntity
  8
ADP1DETAIL
100
AcDbPolyline
 90
       23
 70
     0
 43
0.0
 10
72.3044981190894
 20
13.94809522540724
 42
-0.0128811083574186
 10
72.31536757635196
 20
14.01289919404147
 42
-0.569980000973183
 10
72.65631944423006
 20
14.13456136209425
 42
-0.1564129810278422
 10
72.82679535114631
 20
13.86690462043288
 42
0.122051092159207
 10
72.97291760339932
 20
13.59924784370309
 42
0.1450788993581384
 10
73.09468614694352
 20
13.52625055689879
 42
0.2362524526223582
 10
73.16774721902442
 20
13.76957489300435
 42
0.3251001463519483
 10
73.72788246528205
 20
13.45325323502607
 42
0.1232100324401748
 10
73.67917504786437
 20
13.76957489300435
 42
0.1560875746338663
 10
74.28801771153968
 20
13.8182397391844
 42
0.2874644073518524
 10
73.6304676304467
 20
14.32922085201975
 42
0.2537879226017339
 10
73.8983584262439
 20
14.47521542562834
 42
0.5717210331341179
 10
73.82529730011739
 20
14.62121003430536
 42
0.0203829177494921
 10
72.99727131210817
 20
14.76720464298238
 42
-0.570839491638545
 10
73.26516205385977
 20
14.86453437041092
 42
0.1763441145281765
 10
73.82529730011739
 20
14.81586948916244
 42
1.061424648699561
 10
73.75223617399088
 20
15.03486138464375
 42
0.2592848482837245
 10
74.53155474458242
 20
15.32685060199779
 42
-0.0000001369449512
 10
74.19060287670433
 20
15.42418032942633
 42
0.1324240374861672
 10
74.70203065149869
 20
15.98382628844173
 42
-0.0710063713358449
 10
74.38543249232941
 20
16.00815872906597
 42
-0.0223952233894603
 10
74.48284732716476
 20
16.56780468808138
 42
0.171168212750914
 10
73.84965100882624
 20
16.39747763878012
 42
-0.3103369820403365
  0
ARC
  5
96
330
18
100
AcDbEntity
  8
ADP1DETAIL
100
AcDbCircle
 10
75.3177886062175
 20
17.00318552127518
 30
0.0
 40
4.758844451399827
100
AcDbArc
 50
182.0197910054377
 51
210.122642236908
  0
ARC
  5
97
330
18
100
AcDbEntity
  8
ADP1DETAIL
100
AcDbCircle
 10
74.56499820011734
 20
16.75221116810724
 30
0.0
 40
4.442244231807838
100
AcDbArc
 50
178.9261801816804
 51
209.6910165191924
  0
LINE
  5
98
330
18
100
AcDbEntity
  8
ADP1DETAIL
100
AcDbLine
 10
72.99727131210817
 20
16.47047496065284
 30
0.0
 11
72.60761202681239
 21
16.00815872906597
 31
0.0
  0
ARC
  5
99
330
18
100
AcDbEntity
  8
ADP1DETAIL
100
AcDbCircle
 10
77.22901615925701
 20
14.71821882527151
 30
0.0
 40
4.078845967503406
100
AcDbArc
 50
154.1789668158262
 51
163.7124539499956
  0
ARC
  5
9A
330
18
100
AcDbEntity
  8
ADP1DETAIL
100
AcDbCircle
 10
69.68466077445976
 20
15.8864965610132
 30
0.0
 40
3.224389886463614
100
AcDbArc
 50
349.1254525885767
 51
4.327864884313377
  0
LINE
  5
9B
330
18
100
AcDbEntity
  8
ADP1DETAIL
100
AcDbLine
 10
72.38842870247847
 20
15.93516144226168
 30
0.0
 11
72.21795274151661
 21
16.12982089711875
 31
0.0
  0
LINE
  5
9C
330
18
100
AcDbEntity
  8
ADP1DETAIL
100
AcDbLine
 10
72.00362211849969
 20
15.91673045732567
 30
0.0
 11
72.20535800650217
 21
16.11829015182818
 31
0.0
  0
LINE
  5
9D
330
18
100
AcDbEntity
  8
ADP1DETAIL
100
AcDbLine
 10
73.18041491561297
 20
16.35344315797148
 30
0.0
 11
73.01230166660331
 21
15.68157745118237
 31
0.0
  0
ARC
  5
9E
330
18
100
AcDbEntity
  8
ADP1DETAIL
100
AcDbCircle
 10
74.28204855896367
 20
15.74549732592992
 30
0.0
 40
0.7908248133039502
100
AcDbArc
 50
127.4709035298877
 51
167.9325921205217
  0
LWPOLYLINE
  5
9F
330
18
100
AcDbEntity
  8
ADP1DETAIL
100
AcDbPolyline
 90
        6
 70
     0
 43
0.0
 10
71.97441570847385
 20
15.91082900163744
 42
0.1679554018628169
 10
71.36557304479854
 20
16.30014791135158
 42
0.3370194142386615
 10
71.56040271446923
 20
15.5458424974791
 42
-0.0099904351143442
 10
71.0733285943381
 20
15.49717761623062
 42
-0.1161030649565437
 10
71.31686562738088
 20
15.10785870651647
 42
-0.0000000587652713
 10
71.75523233009432
 20
14.88886681103516
 42
-0.0000000587652713
  0
ARC
  5
A7
330
18
100
AcDbEntity
  8
ADP1DETAIL
100
AcDbCircle
 10
75.76413986573746
 20
15.37242641425451
 30
0.0
 40
1.788641015280352
100
AcDbArc
 50
321.3874463064946
 51
30.33600568532786
  0
LWPOLYLINE
  5
A8
330
18
100
AcDbEntity
  8
ADP1DETAIL
100
AcDbPolyline
 90
       11
 70
     0
 43
0.0
 10
75.71549590107702
 20
12.97549365220874
 42
0.6042578018358897
 10
76.16325301189206
 20
13.45325323502607
 42
0.3450857517303534
 10
76.43114375364365
 20
13.91556946661294
 42
0.6309766763586726
 10
76.62597336926873
 20
14.3778856981998
 42
0.6084612247416345
 10
76.84515674764828
 20
14.91319925165941
 42
0.6213542355570809
 10
76.6746807866864
 20
15.49717761623062
 42
0.757440560363092
 10
76.13889930318322
 20
15.95949384781749
 42
-0.3029957898802037
 10
76.09019188576555
 20
16.20281818392305
 42
-0.4296126807713711
 10
77.30787715907055
 20
16.27581550579577
 42
-0.3102621779276988
 10
77.16175490681753
 20
14.25622353014703
 42
-0.0688778464055727
 10
76.13283626521205
 20
13.25325731660309
 42
0.4419682359534519
  0
ARC
  5
B5
330
18
100
AcDbEntity
  8
ADP1DETAIL
100
AcDbCircle
 10
76.59115537488998
 20
15.37246502162568
 30
0.0
 40
1.393745684879923
100
AcDbArc
 50
26.0175360754815
 51
78.47957383142278
  0
ARC
  5
B6
330
18
100
AcDbEntity
  8
ADP1DETAIL
100
AcDbCircle
 10
76.34174272334694
 20
15.65295194041753
 30
0.0
 40
0.3675777388473362
100
AcDbArc
 50
334.9261504381002
 51
123.4932094983551
  0
ARC
  5
B7
330
18
100
AcDbEntity
  8
ADP1DETAIL
100
AcDbCircle
 10
75.93163767074566
 20
15.99599250875385
 30
0.0
 40
0.2236044464097301
100
AcDbArc
 50
112.337334466861
 51
202.3873837892398
  0
ARC
  5
B8
330
18
100
AcDbEntity
  8
ADP1DETAIL
100
AcDbCircle
 10
76.29687947526561
 20
16.11765467680663
 30
0.0
 40
0.2235454821679775
100
AcDbArc
 50
157.6063909100851
 51
225.0327413310352
  0
ARC
  5
B9
330
18
100
AcDbEntity
  8
ADP1DETAIL
100
AcDbCircle
 10
73.94175734281592
 20
16.6286357721078
 30
0.0
 40
3.954821490696828
100
AcDbArc
 50
350.6163810775021
 51
2.644824156345062
  0
ARC
  5
BA
330
18
100
AcDbEntity
  8
ADP1DETAIL
100
AcDbCircle
 10
74.29230750306778
 20
16.41493885466794
 30
0.0
 40
4.082050905618091
100
AcDbArc
 50
330.4576958567799
 51
5.569704067937785
  0
LWPOLYLINE
  5
BB
330
18
100
AcDbEntity
  8
ADP1DETAIL
100
AcDbPolyline
 90
        8
 70
     0
 43
0.0
 10
72.68044963452014
 20
3.36041464830449
 42
0.0398246510889113
 10
73.42346641785997
 20
2.982923188768099
 42
-0.4419682359534519
 10
73.78877199444692
 20
3.81022588944487
 42
-0.4641231057187031
 10
74.34890724070456
 20
3.469571825910778
 42
0.4219175290628979
 10
73.78877199444692
 20
3.542569147783505
 42
0.4606784052649346
 10
73.7644183397837
 20
2.909925866895376
 42
0.094846353990411
 10
74.76292023470917
 20
2.301615061699914
 42
-0.0638517419726404
 10
76.37572070635123
 20
1.42864866844708
 42
-0.000747377604762
  0
ARC
  5
C5
330
18
100
AcDbEntity
  8
ADP1DETAIL
100
AcDbCircle
 10
69.96194276122131
 20
3.787192050506652
 30
0.0
 40
1.882552801742163
100
AcDbArc
 50
328.8219614487524
 51
356.2550054002675
  0
LWPOLYLINE
  5
C6
330
18
100
AcDbEntity
  8
ADP1DETAIL
100
AcDbPolyline
 90
       12
 70
     0
 43
0.0
 10
71.49952375413554
 20
3.469571825910778
 42
-0.2520131575828373
 10
71.84047562201364
 20
3.639898875212042
 42
-0.3571608114231578
 10
72.03530523763873
 20
3.226247489805226
 42
0.2254388487872945
 10
72.05965894634755
 20
3.104585356820875
 42
-0.5225448361724259
 10
71.98659782022104
 20
2.88559342627113
 42
0.2705532294858498
 10
71.81612191330481
 20
2.496274516556985
 42
0.5795522766185386
 10
71.98659782022104
 20
2.42327722975269
 42
-0.4279619446291612
 10
72.37625710551682
 20
2.88559342627113
 42
-0.1837431360846336
 10
73.0338071325642
 20
2.861261020715323
 42
-0.3734867471849261
 10
72.57108677518752
 20
2.544939362737042
 42
-0.2803521650063774
 10
72.88768493435679
 20
2.350279907879967
 42
-0.413957605851509
 10
72.32754968809915
 20
2.228617739827191
 42
-3.406423411715299
  0
ARC
  5
D4
330
18
100
AcDbEntity
  8
ADP1DETAIL
100
AcDbCircle
 10
73.61425337284521
 20
3.390962830327671
 30
0.0
 40
2.313821830895338
100
AcDbArc
 50
167.7165739856484
 51
205.3873517322362
  0
LWPOLYLINE
  5
D5
330
18
100
AcDbEntity
  8
ADP1DETAIL
100
AcDbPolyline
 90
       26
 70
     0
 43
0.0
 10
71.59693853492527
 20
1.060660975616324
 42
0.1413182920768595
 10
71.62129224363411
 20
1.595974494007491
 42
0.8648136973572176
 10
71.35340150188253
 20
1.571642053383245
 42
0.0622847063431418
 10
71.15857183221184
 20
1.230987989849153
 42
-0.5614376939529464
 10
70.84197367304255
 20
1.182323108600672
 42
-0.3651135990813243
 10
70.84197367304255
 20
1.425647444706227
 42
-0.188546234030582
 10
70.37925326162028
 20
1.547309612759003
 42
-0.5832164673600247
 10
70.42796067903795
 20
1.790633948864562
 42
0.3683045428032368
 10
70.23313106341285
 20
2.009625844345875
 42
-0.4143725419229852
 10
70.42796067903795
 20
2.277282621075672
 42
-0.0781157398504126
 10
70.62279034870863
 20
2.277282621075672
 42
-0.4042812553644403
 10
70.57408293129097
 20
2.56927180336128
 42
-0.6933342641717212
 10
70.8663273817514
 20
2.496274516556985
 42
0.6707906719713849
 10
71.13421812350299
 20
2.301615061699914
 42
1.280505151694012
 10
71.23163295833833
 20
2.398944789128452
 42
0.0111465905492205
 10
70.89068109046023
 20
2.593604243985526
 42
-0.2022684708774372
 10
70.69585147483515
 20
2.836928580091078
 42
0.3124626264619293
 10
70.57408293129097
 20
2.982923188768099
 42
-0.0161115024573218
 10
70.84197367304255
 20
3.031588034948152
 42
-0.2730729797898306
 10
70.72020518354398
 20
3.323577252302192
 42
0.265408168019303
 10
70.62279034870863
 20
3.566901553339312
 42
-0.1478906066195722
 10
71.03680334271325
 20
3.445239420354968
 42
-0.2137746827240428
 10
71.37775521059136
 20
4.077882666174668
 42
-0.4279970900379487
 10
71.49952375413554
 20
3.664231315836281
 42
-0.0277792666204919
 10
71.45081633671788
 20
3.372242098482244
 42
0.1706506420060796
 10
71.49952375413554
 20
2.958590748143857
 42
0.6238481679096245
  0
ARC
  5
F1
330
18
100
AcDbEntity
  8
ADP1DETAIL
100
AcDbCircle
 10
72.62821214125385
 20
3.6889567765688
 30
0.0
 40
0.3698182042592124
100
AcDbArc
 50
160.8576978257254
 51
15.19588622418228
  0
CIRCLE
  5
F2
330
18
100
AcDbEntity
  8
ADP1DETAIL
100
AcDbCircle
 10
72.57108677518752
 20
3.6155664345878
 30
0.0
 40
0.2409841426101372
  0
ARC
  5
F3
330
18
100
AcDbEntity
  8
ADP1DETAIL
100
AcDbCircle
 10
75.41790943258266
 20
7.828573224862063
 30
0.0
 40
5.240050306177761
100
AcDbArc
 50
217.8514019754743
 51
233.1786105590057
  0
LWPOLYLINE
  5
F4
330
18
100
AcDbEntity
  8
ADP1DETAIL
100
AcDbPolyline
 90
        2
 70
     0
 43
0.0
 10
71.61772042614017
 20
3.580574920110886
 42
-0.0048476022974004
 10
71.50836321033236
 20
3.680760984817956
 42
0.2007151920918734
  0
LWPOLYLINE
  5
F8
330
18
100
AcDbEntity
  8
ADP1DETAIL
100
AcDbPolyline
 90
        3
 70
     0
 43
0.0
 10
75.50329724644672
 20
3.238628801779681
 10
76.05366658009507
 20
3.639898875212042
 42
0.078323687769172
 10
76.14619408664191
 20
4.026145894172747
 42
0.569980000973183
  0
LWPOLYLINE
  5
FD
330
18
100
AcDbEntity
  8
ADP1DETAIL
100
AcDbPolyline
 90
       25
 70
     0
 43
0.0
 10
75.27405337617307
 20
3.114549898986789
 42
-0.1430867640284614
 10
75.54223880530073
 20
3.907555616873408
 42
-0.3618631585867593
 10
76.07802028880391
 20
4.053550225550425
 42
0.0110533361272971
 10
76.78427778731457
 20
3.78589348388906
 42
-0.5539841027708407
 10
76.83298515068663
 20
3.566901553339312
 42
0.5089628720048591
 10
76.34591108460111
 20
3.29924481167795
 42
0.3839853186097435
 10
76.12672770622157
 20
2.666601530789817
 42
0.4810447275841178
 10
76.12672770622157
 20
2.058290725594359
 42
0.3603931400069098
 10
76.3946185020188
 20
1.547309612759003
 42
0.4447603056534769
 10
76.61380182635269
 20
1.133658262420619
 42
1.323382221216065
 10
77.3444129795266
 20
1.036328534992082
 42
0.7209583421973066
 10
77.63665742998703
 20
1.547309612759003
 42
0.6814093508629812
 10
77.85584080836655
 20
2.082623166218598
 42
0.8118820841883936
 10
77.88019451707538
 20
2.836928580091078
 42
0.6469719481336598
 10
77.70971855611353
 20
3.274912371053707
 42
0.4597693095539997
 10
77.19829072727357
 20
3.591233993963558
 10
77.17393701856472
 20
3.761561043264818
 42
0.416612709909682
 10
78.12373155011815
 20
4.41853672970876
 42
0.2956951272083674
 10
77.92890188044745
 20
4.880852961295628
 42
0.0124253287897252
 10
76.95475369423082
 20
5.002515129348408
 42
0.3846846751831783
 10
77.12522965519267
 20
4.710525911994368
 42
0.0453215750076833
 10
77.70971855611353
 20
4.73485835261861
 42
-0.5964431603043884
 10
77.44182781436194
 20
4.053550225550425
 42
-0.1521738947260281
 10
76.37026479330995
 20
4.223877274851689
 42
0.2034498219069604
 10
75.63036195578542
 20
4.271706142514608
 42
0.1644114206700729
  0
LWPOLYLINE
  5
118
330
18
100
AcDbEntity
  8
ADP1DETAIL
100
AcDbPolyline
 90
        2
 70
     0
 43
0.0
 10
75.28415393187637
 20
3.989812299383553
 42
0.1278035345230643
 10
74.96071833965366
 20
2.969919831876721
 42
1.001760781938276
  0
LWPOLYLINE
  5
11C
330
18
100
AcDbEntity
  8
ADP1DETAIL
100
AcDbPolyline
 90
        2
 70
     0
 43
0.0
 10
76.83339602335262
 20
3.755017567185193
 42
-0.0080848760388593
 10
76.67396987121806
 20
3.599267150117123
 42
-0.016469998018334
  0
CIRCLE
  5
120
330
18
100
AcDbEntity
  8
ADP1DETAIL
100
AcDbCircle
 10
76.29720366718345
 20
2.374612348504209
 30
0.0
 40
0.2296081043041036
  0
CIRCLE
  5
121
330
18
100
AcDbEntity
  8
ADP1DETAIL
100
AcDbCircle
 10
76.63815553506154
 20
3.323577252302192
 30
0.0
 40
0.2308579182903912
  0
CIRCLE
  5
122
330
18
100
AcDbEntity
  8
ADP1DETAIL
100
AcDbCircle
 10
76.75992407860572
 20
2.398944789128452
 30
0.0
 40
0.2774492016706006
  0
CIRCLE
  5
123
330
18
100
AcDbEntity
  8
ADP1DETAIL
100
AcDbCircle
 10
76.49203328280852
 20
2.934258307519611
 30
0.0
 40
0.2587853992177529
  0
CIRCLE
  5
124
330
18
100
AcDbEntity
  8
ADP1DETAIL
100
AcDbCircle
 10
76.80863144197778
 20
1.474312325954708
 30
0.0
 40
0.285023727709699
  0
CIRCLE
  5
125
330
18
100
AcDbEntity
  8
ADP1DETAIL
100
AcDbCircle
 10
76.46767957409969
 20
1.863631235668853
 30
0.0
 40
0.2620999276183074
  0
ARC
  5
126
330
18
100
AcDbEntity
  8
ADP1DETAIL
100
AcDbCircle
 10
76.89521403247145
 20
-0.4515280514127454
 30
0.0
 40
0.5335318840168092
100
AcDbArc
 50
124.3306909029187
 51
192.8940771061539
  0
ARC
  5
127
330
18
100
AcDbEntity
  8
ADP1DETAIL
100
AcDbCircle
 10
77.54409710133256
 20
-1.856219200160916
 30
0.0
 40
1.047575867993224
100
AcDbArc
 50
158.417914769157
 51
204.9543982075936
  0
ARC
  5
128
330
18
100
AcDbEntity
  8
ADP1DETAIL
100
AcDbCircle
 10
76.89822997986812
 20
-1.726844252820556
 30
0.0
 40
0.8441189095046484
100
AcDbArc
 50
114.6917093721985
 51
155.2582204403264
  0
ARC
  5
129
330
18
100
AcDbEntity
  8
ADP1DETAIL
100
AcDbCircle
 10
75.68515895517602
 20
-0.8350805839815343
 30
0.0
 40
0.8694592906068738
100
AcDbArc
 50
317.5230778661374
 51
351.7458241619881
  0
LWPOLYLINE
  5
12A
330
18
100
AcDbEntity
  8
ADP1DETAIL
100
AcDbPolyline
 90
        4
 70
     0
 43
0.0
 10
77.18208929208589
 20
0.0101178702116713
 42
0.1329328113880487
 10
75.71271471221698
 20
1.279652871097641
 42
0.0045642012626733
 10
72.91203864306563
 20
2.642269125234007
 42
-0.0003793452642853
 10
72.90198580383933
 20
2.648069607453705
 42
0.2007151920918734
  0
LWPOLYLINE
  5
130
330
18
100
AcDbEntity
  8
ADP1DETAIL
100
AcDbPolyline
 90
       30
 70
     0
 43
0.0
 10
78.20465483648241
 20
-0.8946318455293194
 42
-0.1094028809840495
 10
78.32343191829412
 20
-0.570585344458388
 42
0.3257719203320951
 10
78.27472455492205
 20
0.2323849506625764
 42
0.3924228444623145
 10
77.54411334770257
 20
0.32971467809111
 42
0.084945278257885
 10
77.00833186419938
 20
-0.2055988403000533
 42
0.0630990775004865
 10
76.81350219452868
 20
-0.570585344458388
 42
-1.144650529036783
 10
76.54561145277708
 20
-0.4245907357813663
 42
-0.005125502556153
 10
76.76479483115662
 20
-0.1326015534957619
 42
0.3392720103226919
 10
76.76479483115662
 20
0.1350552232340356
 42
-0.4886717246552463
 10
76.54561145277708
 20
0.1350552232340356
 42
0.3367979577709305
 10
76.64302628761243
 20
0.5973714548209075
 42
0.173601463272597
 10
76.44819661794173
 20
0.7920309096779819
 42
-0.0000000853249262
 10
76.1559521674813
 20
0.5973714548209075
 42
-0.1818884541550099
 10
75.93676884314738
 20
1.13268497321207
 42
0.2461488004120535
 10
75.54710955785163
 20
0.4757092867681317
 42
0.0710589635858745
 10
75.2548651073912
 20
0.7190335878052552
 42
-0.0623117558661872
 10
75.23051139868235
 20
0.2810497968426255
 42
0.0404428410605967
 10
74.9382668941763
 20
0.2080525100383341
 42
-0.3133847314536654
 10
75.20615768997351
 20
-0.0839366722472739
 42
0.425821109651977
 10
75.83935400831204
 20
-0.5462529038341493
 42
-0.3749848825895568
 10
75.32792617947208
 20
-0.4975880576540966
 42
0.48753582988912
 10
74.81649840467773
 20
-0.5462529038341493
 42
0.2478577592992149
 10
75.52275584914278
 20
-1.008569135421017
 42
-0.2676628973065248
 10
74.3294242845466
 20
-0.9355718486167226
 42
0.0277643822560925
 10
74.57296131758937
 20
-1.276225912150815
 42
0.4881671601924002
 10
74.06153354279502
 20
-1.884536717346273
 42
0.4681128375999141
 10
74.35377799325545
 20
-1.738542143737683
 42
-0.0242877757878944
 10
75.64452439268695
 20
-1.324890758330867
 42
0.0263970994403895
 10
74.76779098726007
 20
-1.957534039218996
 42
-0.2318699606749456
 10
74.23200944971125
 20
-1.933201598594757
 42
-3.907586823938982
  0
LWPOLYLINE
  5
150
330
18
100
AcDbEntity
  8
ADP1DETAIL
100
AcDbPolyline
 90
       10
 70
     0
 43
0.0
 10
74.7921446959689
 20
-1.957534039218996
 10
74.71908356984238
 20
-2.273855662128846
 42
0.4226810440578121
 10
75.42534101430743
 20
-1.933201598594757
 42
0.259235873755722
 10
75.57146326656044
 20
-2.200858375324555
 42
0.3260544756865487
 10
76.03418362393712
 20
-1.641212416309146
 42
-0.4488053239536328
 10
76.350781837152
 20
-1.422220520827833
 42
0.2081685298223203
 10
76.39948925456967
 20
-2.103528612827586
 42
0.9782039558864365
 10
76.71608741373893
 20
-2.249523221504607
 42
0.1230795077457015
 10
76.91091702936403
 20
-2.103528612827586
 42
0.1717913541754599
 10
77.88506526962628
 20
-2.273855662128846
 42
-0.0837771768971293
  0
LWPOLYLINE
  5
15C
330
18
100
AcDbEntity
  8
ADP1DETAIL
100
AcDbPolyline
 90
        2
 70
     0
 43
0.0
 10
70.58094586050295
 20
-1.758002613277644
 42
0.0300912486175032
 10
70.47599419313481
 20
-2.645828913139956
 42
0.8252929115024986
  0
LWPOLYLINE
  5
160
330
18
100
AcDbEntity
  8
ADP1DETAIL
100
AcDbPolyline
 90
        3
 70
     0
 43
0.0
 10
70.03762749042137
 20
-2.645828913139956
 10
70.08700881115984
 20
-1.421247231619287
 42
-0.1836012866073109
 10
71.61375232928136
 20
1.115701833132226
 42
-0.0326911455239333
  0
LINE
  5
165
330
18
100
AcDbEntity
  8
ADP1DETAIL
100
AcDbLine
 10
70.03415799080482
 20
-2.644331890728272
 30
0.0
 11
70.48013852300528
 21
-2.644331890728272
 31
0.0
  0
ARC
  5
166
330
18
100
AcDbEntity
  8
ADP1DETAIL
100
AcDbCircle
 10
76.98820481613288
 20
0.1055919293006
 30
0.0
 40
0.7647695079321532
100
AcDbArc
 50
132.3968128456502
 51
216.7130725035751
  0
ARC
  5
167
330
18
100
AcDbEntity
  8
ADP1DETAIL
100
AcDbCircle
 10
74.48824250847363
 20
-0.1874343770969467
 30
0.0
 40
0.673398075473846
100
AcDbArc
 50
84.20716633188076
 51
132.6327033706601
  0
ARC
  5
168
330
18
100
AcDbEntity
  8
ADP1DETAIL
100
AcDbCircle
 10
74.53428014897591
 20
-0.3258852809559953
 30
0.0
 40
0.9282168964863352
100
AcDbArc
 50
94.94243538519008
 51
131.7915442046746
  0
LWPOLYLINE
  5
169
330
18
100
AcDbEntity
  8
ADP1DETAIL
100
AcDbPolyline
 90
       25
 70
     0
 43
0.0
 10
73.79923839806574
 20
0.700691268050433
 42
0.9706436041550404
 10
73.88658124402048
 20
0.5116137092823317
 42
0.3254551104199841
 10
73.88658124402048
 20
0.3952583108475154
 42
0.5251488343688216
 10
74.0175955502602
 20
0.2934473251132155
 42
0.2771087292922474
 10
74.07582413910176
 20
0.1916363393789085
 42
0.6182750304639005
 10
74.13405265332812
 20
0.1043697663451177
 42
0.685282553542298
 10
74.20683837072627
 20
-0.0265300447902077
 42
0.7075489001259587
 10
74.29418121668101
 20
-0.1428854916403863
 42
0.6902300741343137
 10
74.38152406263575
 20
-0.2446964773746969
 42
0.7209583611941735
 10
74.46886698320568
 20
-0.3319630504084876
 42
0.6723381583789832
 10
74.5853240862736
 20
-0.4046851623264068
 42
0.3662892094260234
 10
74.71633839251333
 20
-0.5064961480607067
 42
0.6894196445545862
 10
74.74545264962651
 20
-0.4192295750269124
 42
0.4144700441701581
 10
74.78912410991148
 20
-0.3319630504084876
 42
0.236253635671159
 10
74.77456690673969
 20
-0.2301520646741841
 42
0.3336260991057391
 10
74.77456690673969
 20
-0.1428854916403863
 42
0.6306327290108657
 10
74.73089552106992
 20
-0.0265300447902077
 42
0.6090161251508119
 10
74.67266693222835
 20
0.1043697663451177
 42
0.8680462346586976
 10
74.65810980367177
 20
0.2207252131952964
 42
0.9765100277142094
 10
74.5853240862736
 20
0.3370806116301126
 42
0.2362526792948493
 10
74.54165262598865
 20
0.4825248838813132
 42
0.6182754198035438
 10
74.4543097800339
 20
0.5843358696156167
 42
0.3699942770320888
 10
74.36696693407916
 20
0.6716024426494145
 42
0.5545043203756617
 10
74.25050983101124
 20
0.7879578410842237
 42
0.0530630354194507
 10
73.72645268066759
 20
0.6570579815335358
 42
5.642670964996777
  0
LWPOLYLINE
  5
184
330
18
100
AcDbEntity
  8
ADP1DETAIL
100
AcDbPolyline
 90
       10
 70
     0
 43
0.0
 10
72.77078714336349
 20
0.9623579239108103
 42
-0.3335664558618398
 10
72.91690939561653
 20
0.5973714548209075
 42
-0.6813850854458467
 10
73.52575200524622
 20
0.1350552232340356
 42
-0.4921054965698989
 10
73.59881313137272
 20
-0.4975880576540966
 42
-0.8672151304059598
 10
73.47704458782854
 20
-1.130231303473796
 42
-0.4602400582290243
 10
73.30656868091229
 20
-1.641212416309146
 42
-0.474141400244305
 10
73.03867788511509
 20
-2.127861053451832
 42
-1.034173571845061
 10
72.35677414935889
 20
-2.15219349407607
 42
-0.3634604647438155
 10
72.01582228148078
 20
-1.665544821864956
 42
-0.7696835913649673
 10
71.79663895714686
 20
-1.008569135421017
 42
-1.852558981295544
  0
LWPOLYLINE
  5
190
330
18
100
AcDbEntity
  8
ADP1DETAIL
100
AcDbPolyline
 90
        3
 70
     0
 43
0.0
 10
72.1442140290292
 20
0.9479282057860153
 42
0.0685190924597063
 10
71.15857183221184
 20
-0.0586309774829217
 42
0.068626992761406
 10
70.66106999824199
 20
-1.342760068606045
 42
1.002508115539253
  0
LWPOLYLINE
  5
195
330
18
100
AcDbEntity
  8
ADP1DETAIL
100
AcDbPolyline
 90
        5
 70
     0
 43
0.0
 10
72.1442140290292
 20
0.9479282057860153
 42
-0.3322670187564499
 10
72.69772601723698
 20
0.5973714548209075
 42
0.7032415939490933
 10
72.08888340760728
 20
0.32971467809111
 42
0.6390709624912336
 10
71.89405373793658
 20
-0.2785961621727799
 42
0.5888530135548233
 10
71.626162996185
 20
-0.9842366947967754
 42
0.4642396807600547
  0
CIRCLE
  5
19C
330
18
100
AcDbEntity
  8
ADP1DETAIL
100
AcDbCircle
 10
72.50289640161191
 20
0.3540471187153522
 30
0.0
 40
0.3117732987741603
  0
CIRCLE
  5
19D
330
18
100
AcDbEntity
  8
ADP1DETAIL
100
AcDbCircle
 10
73.20915384607696
 20
0.32971467809111
 30
0.0
 40
0.2774492355013044
  0
ARC
  5
19E
330
18
100
AcDbEntity
  8
ADP1DETAIL
100
AcDbCircle
 10
77.33535554576559
 20
0.5488642075030677
 30
0.0
 40
1.474852449434782
100
AcDbArc
 50
176.2222751010382
 51
229.3782996757607
  0
CIRCLE
  5
19F
330
18
100
AcDbEntity
  8
ADP1DETAIL
100
AcDbCircle
 10
71.86970008327337
 20
-0.6922475125111638
 30
0.0
 40
0.3009910475789801
  0
LWPOLYLINE
  5
1A0
330
18
100
AcDbEntity
  8
ADP1DETAIL
100
AcDbPolyline
 90
        8
 70
     0
 43
0.0
 10
70.58094586050295
 20
-1.758002613277644
 42
-0.2199849343523009
 10
70.94425926042879
 20
-1.470885367007882
 42
0.3207321305021145
 10
71.06602780397299
 20
-2.322520543377331
 42
0.585636030453001
 10
71.72357783102035
 20
-1.689877262489198
 42
0.231074270093072
 10
71.43133338055992
 20
-1.349223198955106
 42
0.0493203847433852
 10
71.06602780397299
 20
-1.641212416309146
 42
0.4980154529165476
 10
71.38262596314226
 20
-2.006198885399049
 42
0.6345889534767803
 10
71.28521112830688
 20
-1.495217807632128
 42
-7.910833556990888
  0
LWPOLYLINE
  5
1AA
330
18
100
AcDbEntity
  8
ADP1DETAIL
100
AcDbPolyline
 90
        3
 70
     0
 43
0.0
 10
70.65201480996837
 20
-1.349223198955106
 42
-0.199838740567585
 10
71.16344258476272
 20
-1.22756103090233
 42
0.3226626395239929
 10
71.65051670489384
 20
-0.9842366947967754
 42
-0.6045596826334523
  0
ARC
  5
1AF
330
18
100
AcDbEntity
  8
ADP1DETAIL
100
AcDbCircle
 10
71.55607613079464
 20
-1.557737754465273
 30
0.0
 40
0.2528258658249966
100
AcDbArc
 50
69.46037862792858
 51
124.7773252037224
  0
ARC
  5
1B0
330
18
100
AcDbEntity
  8
ADP1DETAIL
100
AcDbCircle
 10
71.5122255319294
 20
-1.925160263073662
 30
0.0
 40
0.7400666455820036
100
AcDbArc
 50
96.65768407308981
 51
141.6946608157006
  0
ARC
  5
1B1
330
18
100
AcDbEntity
  8
ADP1DETAIL
100
AcDbCircle
 10
72.67337230852814
 20
-1.300558352775057
 30
0.0
 40
0.2838281687045445
100
AcDbArc
 50
33.39056668667438
 51
338.0207125659496
  0
CIRCLE
  5
1B2
330
18
100
AcDbEntity
  8
ADP1DETAIL
100
AcDbCircle
 10
72.0401759901896
 20
-1.300558352775057
 30
0.0
 40
0.2620999477054649
  0
CIRCLE
  5
1B3
330
18
100
AcDbEntity
  8
ADP1DETAIL
100
AcDbCircle
 10
73.16044642865927
 20
-1.251893471526572
 30
0.0
 40
0.2722351365980717
  0
CIRCLE
  5
1B4
330
18
100
AcDbEntity
  8
ADP1DETAIL
100
AcDbCircle
 10
72.35677414935889
 20
-1.738542143737683
 30
0.0
 40
0.2720524997879716
  0
CIRCLE
  5
1B5
330
18
100
AcDbEntity
  8
ADP1DETAIL
100
AcDbCircle
 10
72.98997052174303
 20
-1.787206989917736
 30
0.0
 40
0.2587854168253358
  0
CIRCLE
  5
1B6
330
18
100
AcDbEntity
  8
ADP1DETAIL
100
AcDbCircle
 10
72.67337230852814
 20
-2.176525934700312
 30
0.0
 40
0.2505693822502328
  0
ARC
  5
1B7
330
18
100
AcDbEntity
  8
ADP1DETAIL
100
AcDbCircle
 10
76.75926150042248
 20
-3.512101981500415
 30
0.0
 40
2.337445966767195
100
AcDbArc
 50
122.6439972645012
 51
147.3059361825362
  0
ARC
  5
1B8
330
18
100
AcDbEntity
  8
ADP1DETAIL
100
AcDbCircle
 10
76.10654307125372
 20
-2.030680308192395
 30
0.0
 40
0.7093372365200752
100
AcDbArc
 50
120.9310662168346
 51
174.0811851589885
  0
ARC
  5
1B9
330
18
100
AcDbEntity
  8
ADP1DETAIL
100
AcDbCircle
 10
76.6814964899105
 20
-2.201187060406846
 30
0.0
 40
1.134386979676622
100
AcDbArc
 50
129.422482481721
 51
179.9833987267087
  0
ARC
  5
1BA
330
18
100
AcDbEntity
  8
ADP1DETAIL
100
AcDbCircle
 10
75.03693848081451
 20
0.4955587704974414
 30
0.0
 40
1.796117562950086
100
AcDbArc
 50
256.6320274541938
 51
288.9485078603623
  0
ARC
  5
1BB
330
18
100
AcDbEntity
  8
ADP1DETAIL
100
AcDbCircle
 10
74.87458007756799
 20
-1.351663866333028
 30
0.0
 40
1.744492381737625
100
AcDbArc
 50
100.0295230814453
 51
117.7890521065944
  0
ARC
  5
1BC
330
18
100
AcDbEntity
  8
ADP1DETAIL
100
AcDbCircle
 10
74.63534285912984
 20
-0.7701777251345284
 30
0.0
 40
1.020674426304209
100
AcDbArc
 50
87.90433785188504
 51
119.4152910984905
  0
CIRCLE
  5
1BD
330
18
100
AcDbEntity
  8
ADP1DETAIL
100
AcDbCircle
 10
72.74643343465466
 20
-0.1569339941200005
 30
0.0
 40
0.2931444126776521
  0
ARC
  5
1BE
330
18
100
AcDbEntity
  8
ADP1DETAIL
100
AcDbCircle
 10
72.1619445337338
 20
-0.0352718260672247
 30
0.0
 40
0.2838281965286478
100
AcDbArc
 50
80.02901299544541
 51
17.549512206903
  0
CIRCLE
  5
1BF
330
18
100
AcDbEntity
  8
ADP1DETAIL
100
AcDbCircle
 10
73.25786126349462
 20
-0.229931280924299
 30
0.0
 40
0.3049456717726613
  0
CIRCLE
  5
1C0
330
18
100
AcDbEntity
  8
ADP1DETAIL
100
AcDbCircle
 10
72.96561681303419
 20
-0.7165799531354061
 30
0.0
 40
0.2505694085146286
  0
CIRCLE
  5
1C1
330
18
100
AcDbEntity
  8
ADP1DETAIL
100
AcDbCircle
 10
72.40548156677656
 20
-0.7409123937596483
 30
0.0
 40
0.3009910815986054
  0
CIRCLE
  5
1C2
330
18
100
AcDbEntity
  8
ADP1DETAIL
100
AcDbCircle
 10
73.42833717041087
 20
-0.7652447993154588
 30
0.0
 40
0.2434009042181603
  0
LWPOLYLINE
  5
1C3
330
18
100
AcDbEntity
  8
ADP1DETAIL
100
AcDbPolyline
 90
        2
 70
     0
 43
0.0
 10
73.98847241666851
 20
0.32971467809111
 42
-0.1335636272170571
 10
73.48980250459632
 20
0.4454357721945237
 42
0.0362013526995069
  0
ARC
  5
1C7
330
18
100
AcDbEntity
  8
ADP1DETAIL
100
AcDbCircle
 10
74.68722406078494
 20
-0.5592909242926232
 30
0.0
 40
0.2946374391942109
100
AcDbArc
 50
75.69788064852345
 51
133.7646229927069
  0
ARC
  5
1C8
330
18
100
AcDbEntity
  8
ADP1DETAIL
100
AcDbCircle
 10
76.55838982592669
 20
0.4901099473677549
 30
0.0
 40
1.075963856363916
100
AcDbArc
 50
189.8858492108043
 51
246.6304821601837
  0
ARC
  5
1C9
330
18
100
AcDbEntity
  8
ADP1DETAIL
100
AcDbCircle
 10
77.37304302837841
 20
3.937727070630553
 30
0.0
 40
5.123769672392119
100
AcDbArc
 50
241.6281255648465
 51
251.1498793157448
  0
ARC
  5
1CA
330
18
100
AcDbEntity
  8
ADP1DETAIL
100
AcDbCircle
 10
74.69127055391685
 20
-0.4670274930319116
 30
0.0
 40
0.1031341469364388
100
AcDbArc
 50
48.20226056430313
 51
152.3897959698363
  0
ARC
  5
1CB
330
18
100
AcDbEntity
  8
ADP1DETAIL
100
AcDbCircle
 10
76.2168364392534
 20
0.628043126453497
 30
0.0
 40
1.349081748635942
100
AcDbArc
 50
250.4905015328038
 51
274.6595159066032
  0
ARC
  5
1CC
330
18
100
AcDbEntity
  8
ADP1DETAIL
100
AcDbCircle
 10
74.7113624393634
 20
-0.444911902700857
 30
0.0
 40
0.8987567172468637
100
AcDbArc
 50
28.87227651418365
 51
56.59641188212795
  0
ARC
  5
1CD
330
18
100
AcDbEntity
  8
ADP1DETAIL
100
AcDbCircle
 10
74.5977339858209
 20
-0.4569341969727794
 30
0.0
 40
0.5827605217240666
100
AcDbArc
 50
81.16657324009301
 51
130.2246102055008
  0
ARC
  5
1CE
330
18
100
AcDbEntity
  8
ADP1DETAIL
100
AcDbCircle
 10
74.88699824437251
 20
-1.386507767322802
 30
0.0
 40
1.248694186042124
100
AcDbArc
 50
95.16585819056388
 51
113.8787339806602
  0
ARC
  5
1CF
330
18
100
AcDbEntity
  8
ADP1DETAIL
100
AcDbCircle
 10
74.70196157534224
 20
-0.8330489130885126
 30
0.0
 40
0.8215729332322903
100
AcDbArc
 50
87.98175452264841
 51
120.9346207833037
  0
ARC
  5
1D0
330
18
100
AcDbEntity
  8
ADP1DETAIL
100
AcDbCircle
 10
69.50461112356332
 20
4.254972690211252
 30
0.0
 40
2.683417450926589
100
AcDbArc
 50
320.4122286820244
 51
336.3280637596081
  0
ARC
  5
1D1
330
18
100
AcDbEntity
  8
ADP1DETAIL
100
AcDbCircle
 10
71.32736832459548
 20
2.20442800732827
 30
0.0
 40
0.1481839541010355
100
AcDbArc
 50
199.6296786027904
 51
329.9904866005411
  0
ARC
  5
1D2
330
18
100
AcDbEntity
  8
ADP1DETAIL
100
AcDbCircle
 10
73.05042847948758
 20
9.405162494012449
 30
0.0
 40
7.790812594974264
100
AcDbArc
 50
249.0307551434999
 51
254.1293770167807
  0
ARC
  5
1D3
330
18
100
AcDbEntity
  8
ADP1DETAIL
100
AcDbCircle
 10
71.56869973416553
 20
2.797131250142515
 30
0.0
 40
0.8976354345366001
100
AcDbArc
 50
194.7693406352467
 51
244.8910474541946
  0
ARC
  5
1D4
330
18
100
AcDbEntity
  8
ADP1DETAIL
100
AcDbCircle
 10
71.72605239640915
 20
-0.7444734829121394
 30
0.0
 40
2.661421786953869
100
AcDbArc
 50
93.7259494172811
 51
118.4741965869584
  0
ARC
  5
1D5
330
18
100
AcDbEntity
  8
ADP1DETAIL
100
AcDbCircle
 10
72.53823367711466
 20
0.2434045528579163
 30
0.0
 40
1.910937161251679
100
AcDbArc
 50
127.2096670310337
 51
142.7402666931926
  0
ARC
  5
1D6
330
18
100
AcDbEntity
  8
ADP1DETAIL
100
AcDbCircle
 10
74.20519222157648
 20
2.578692976812695
 30
0.0
 40
2.689492333648358
100
AcDbArc
 50
158.9988974164008
 51
175.5308656771429
  0
ARC
  5
1D7
330
18
100
AcDbEntity
  8
ADP1DETAIL
100
AcDbCircle
 10
73.87809317767302
 20
5.203347071713801
 30
0.0
 40
3.56643263115409
100
AcDbArc
 50
210.892411886626
 51
222.0939282268767
  0
ARC
  5
1D8
330
18
100
AcDbEntity
  8
ADP1DETAIL
100
AcDbCircle
 10
71.29760060567803
 20
2.215478230306521
 30
0.0
 40
0.1795665871994303
100
AcDbArc
 50
331.68800218775
 51
61.73806042504423
  0
LWPOLYLINE
  5
1D9
330
18
100
AcDbEntity
  8
ADP1DETAIL
100
AcDbPolyline
 90
        6
 70
     0
 43
0.0
 10
72.57108677518752
 20
2.155620453022893
 10
72.66850155597726
 20
2.058290725594359
 10
72.52237935776985
 20
2.009625844345875
 10
72.03530523763873
 20
2.009625844345875
 42
0.8472487202238328
 10
71.8891829853857
 20
1.839298830113042
 42
0.0780181139947425
 10
71.98659782022104
 20
1.352650157901932
 42
0.2945553110074838
  0
LWPOLYLINE
  5
1E1
330
18
100
AcDbEntity
  8
ADP1DETAIL
100
AcDbPolyline
 90
        3
 70
     0
 43
0.0
 10
71.9794234558978
 20
1.372508465789833
 42
-0.000507190582236
 10
71.98659782022104
 20
1.376982598526174
 42
-0.0190114424622678
 10
73.60665243175596
 20
2.310201479449775
 42
0.0015538407450916
  0
ARC
  5
1E6
330
18
100
AcDbEntity
  8
ADP1DETAIL
100
AcDbCircle
 10
74.30213411394607
 20
0.0139258772218463
 30
0.0
 40
0.659595413777336
100
AcDbArc
 50
85.62856037945513
 51
129.050990441816
  0
LWPOLYLINE
  5
1E7
330
18
100
AcDbEntity
  8
ADP1DETAIL
100
AcDbPolyline
 90
        5
 70
     0
 43
0.0
 10
73.81799645570665
 20
0.6703687416252025
 42
-0.4080174040864294
 10
73.74493538362575
 20
1.400341714873436
 42
-0.2806719772418243
 10
74.28071686712894
 20
1.595001204798942
 42
-0.2000841793436217
 10
74.64355267511519
 20
1.25337948323885
 42
-0.1966881601389031
 10
74.5242539542173
 20
0.621703860376718
 42
0.8741299758260565
  0
LWPOLYLINE
  5
1EE
330
18
100
AcDbEntity
  8
ADP1DETAIL
100
AcDbPolyline
 90
        4
 70
     0
 43
0.0
 10
74.31975487949134
 20
0.7781275790942588
 42
0.0585028759771766
 10
74.42683911938195
 20
0.8893606371065153
 42
0.4143513101496137
 10
74.13459466892152
 20
1.400341714873436
 42
0.5268003687175535
 10
74.28071686712894
 20
0.7920309096779819
 42
0.1847284479246342
  0
LWPOLYLINE
  5
1F4
330
18
100
AcDbEntity
  8
ADP1DETAIL
100
AcDbPolyline
 90
        3
 70
     0
 43
0.0
 10
74.18944898551448
 20
2.028609504174964
 42
-0.0079266884056244
 10
73.35040534577908
 20
1.644639340187544
 42
0.0433013015757963
 10
72.55647562130807
 20
1.2362767134346
 42
0.068626992761406
  0
LWPOLYLINE
  5
1F9
330
18
100
AcDbEntity
  8
ADP1DETAIL
100
AcDbPolyline
 90
        3
 70
     0
 43
0.0
 10
72.50365276268602
 20
1.25337948323885
 42
-0.0788264984016559
 10
73.52575200524622
 20
0.7433660284294939
 42
0.0927508910343584
 10
73.74860726931763
 20
0.6451652068915111
 42
0.4143513101496137
  0
LWPOLYLINE
  5
1FE
330
18
100
AcDbEntity
  8
ADP1DETAIL
100
AcDbPolyline
 90
        2
 70
     0
 43
0.0
 10
73.30656868091229
 20
0.5730390141966653
 42
0.0362013526995069
 10
72.79514085207233
 20
0.9623579239108103
 42
0.0131659093750952
  0
ARC
  5
202
330
18
100
AcDbEntity
  8
ADP1DETAIL
100
AcDbCircle
 10
72.7755472876538
 20
2.07609818123011
 30
0.0
 40
0.6625444473410879
100
AcDbArc
 50
90.41165317324029
 51
148.4972410725517
  0
ARC
  5
203
330
18
100
AcDbEntity
  8
ADP1DETAIL
100
AcDbCircle
 10
72.6641689051042
 20
1.195625431994097
 30
0.0
 40
1.158597311071758
100
AcDbArc
 50
84.71996879930662
 51
117.032523806362
  0
LWPOLYLINE
  5
204
330
18
100
AcDbEntity
  8
ADP1DETAIL
100
AcDbPolyline
 90
        2
 70
     0
 43
0.0
 10
72.47606272450626
 20
2.913265026298754
 42
-0.0177286922125915
 10
72.03636923559722
 20
3.230601196585228
 42
0.2007151920918734
  0
LWPOLYLINE
  5
208
330
18
100
AcDbEntity
  8
ADP1DETAIL
100
AcDbPolyline
 90
        3
 70
     0
 43
0.0
 10
74.17124216519335
 20
2.598211452001815
 42
-0.0085702991825861
 10
74.93339614162542
 20
2.958590748143857
 42
0.0015538407450916
 10
74.96071833965366
 20
2.969919831876721
  0
LWPOLYLINE
  5
20D
330
18
100
AcDbEntity
  8
ADP1DETAIL
100
AcDbPolyline
 90
        3
 70
     0
 43
0.0
 10
76.34735777998475
 20
3.309389886573063
 42
-0.0552826520245583
 10
75.07951839387844
 20
2.471942075932743
 42
-0.0031455893535228
 10
74.75351847556794
 20
2.305150283397806
 42
0.0433013015757963
  0
LWPOLYLINE
  5
212
330
18
100
AcDbEntity
  8
ADP1DETAIL
100
AcDbPolyline
 90
        2
 70
     0
 43
0.0
 10
75.27405337617307
 20
3.114549898986789
 42
0.0136964918646574
 10
75.50329724644672
 20
3.238628801779681
  0
LWPOLYLINE
  5
216
330
18
100
AcDbEntity
  8
ADP1DETAIL
100
AcDbPolyline
 90
        2
 70
     0
 43
0.0
 10
77.83081319633691
 20
-2.645828913139956
 42
0.007502111125187
 10
77.88734269143848
 20
-2.283510323607815
 42
0.0010561843823451
  0
LWPOLYLINE
  5
21A
330
18
100
AcDbEntity
  8
ADP1DETAIL
100
AcDbPolyline
 90
        3
 70
     0
 43
0.0
 10
78.20465483648241
 20
-0.8946318455293159
 42
-0.0477317759106719
 10
78.31856116574323
 20
-1.542909399672063
 42
-0.0447817309942987
 10
78.24482613629591
 20
-2.645828913139956
 42
1.040297779585199
  0
LINE
  5
21F
330
18
100
AcDbEntity
  8
ADP1DETAIL
100
AcDbLine
 10
77.8356320980413
 20
-2.644331890728272
 30
0.0
 11
78.24975704928457
 21
-2.644331890728272
 31
0.0
  0
LWPOLYLINE
  5
220
330
18
100
AcDbEntity
  8
ADP1DETAIL
100
AcDbPolyline
 90
        3
 70
     0
 43
0.0
 10
77.23147679332193
 20
0.7057813310680126
 42
-0.0167549436709254
 10
77.5635963038605
 20
0.355020407923901
 42
-0.000747377604762
 10
77.57006860489646
 20
0.3469699275108966
 42
-0.0521458766910201
  0
LWPOLYLINE
  5
225
330
18
100
AcDbEntity
  8
ADP1DETAIL
100
AcDbPolyline
 90
        3
 70
     0
 43
0.0
 10
77.76474158369467
 20
-1.275230726756392
 42
0.070269842968761
 10
77.3444129795266
 20
-0.2532904323399889
 42
0.00185769757814
 10
77.33082653543206
 20
-0.2292474539176985
 42
0.0045642012626733
  0
LWPOLYLINE
  5
22A
330
18
100
AcDbEntity
  8
ADP1DETAIL
100
AcDbPolyline
 90
       12
 70
     0
 43
0.0
 10
78.01910476453986
 20
-0.3833232501616606
 42
0.0612666551179044
 10
78.10424859396019
 20
0.0620579013613125
 42
0.5255807806481889
 10
77.64152818253791
 20
0.0133930551812598
 42
0.2361047806858501
 10
77.20316147982446
 20
-0.4975880576540966
 42
-0.0649350767267326
 10
76.76479483115662
 20
-0.8625745267439995
 42
0.0516035821314338
 10
76.91091702936403
 20
-1.08156645729374
 42
-0.2314178152882659
 10
77.51975969303933
 20
-0.8869069673682382
 42
0.4621643564910137
 10
77.42234485820398
 20
-1.154563744098032
 42
0.2144978953315224
 10
77.71458930866441
 20
-1.276225912150815
 42
-0.0140566179850119
 10
77.88506526962628
 20
-1.276225912150815
 42
-0.3867204460739048
 10
77.54411334770257
 20
-1.665544821864956
 42
-0.0603707898575046
 10
77.86071156091743
 20
-1.908869157970515
 42
0.4086421818852696
  0
ARC
  5
238
330
18
100
AcDbEntity
  8
ADP1DETAIL
100
AcDbCircle
 10
76.94744759242728
 20
-0.8256716000673748
 30
0.0
 40
0.3432422178166885
100
AcDbArc
 50
242.5362224813309
 51
332.4861716731316
  0
ARC
  5
239
330
18
100
AcDbEntity
  8
ADP1DETAIL
100
AcDbCircle
 10
77.81722594343924
 20
-0.8670986058906123
 30
0.0
 40
1.167951186083229
100
AcDbArc
 50
205.6980614085003
 51
264.958486854383
  0
ARC
  5
23A
330
18
100
AcDbEntity
  8
ADP1DETAIL
100
AcDbCircle
 10
82.22502596864982
 20
1.37271162118237
 30
0.0
 40
6.329751698444876
100
AcDbArc
 50
206.6951294884424
 51
213.311503545374
  0
LWPOLYLINE
  5
23B
330
18
100
AcDbEntity
  8
ADP1DETAIL
100
AcDbPolyline
 90
        2
 70
     0
 43
0.0
 10
77.87312527938289
 20
-1.915971545293908
 42
0.0263632595053399
 10
77.81587734233612
 20
-1.503601635048558
 42
0.00185769757814
  0
LWPOLYLINE
  5
23F
330
18
100
AcDbEntity
  8
ADP1DETAIL
100
AcDbPolyline
 90
        4
 70
     0
 43
0.0
 10
77.86068107072961
 20
-1.902761122939944
 10
78.09359535148067
 20
-2.150016380925451
 42
-0.4959667749313891
 10
78.07903814830886
 20
-2.237282953959249
 42
-0.1508712147964396
 10
77.84612394217302
 20
-2.280916240476146
 42
-17.47968495136705
  0
ARC
  5
245
330
18
100
AcDbEntity
  8
ADP1DETAIL
100
AcDbCircle
 10
77.51519492337738
 20
0.3478722188517644
 30
0.0
 40
1.731910680132807
100
AcDbArc
 50
252.1381487063886
 51
281.5077373480577
  0
ARC
  5
246
330
18
100
AcDbEntity
  8
ADP1DETAIL
100
AcDbCircle
 10
76.70393150293188
 20
1.733938112705095
 30
0.0
 40
3.047391495463103
100
AcDbArc
 50
275.2727592801799
 51
283.6356590260884
  0
LWPOLYLINE
  5
247
330
18
100
AcDbEntity
  8
ADP1DETAIL
100
AcDbPolyline
 90
        2
 70
     0
 43
0.0
 10
77.73902782335028
 20
0.1173649090332653
 42
-0.0415806105244129
 10
78.01910476453986
 20
-0.3833232501616606
 42
-0.0521458766910201
  0
CIRCLE
  5
24B
330
18
100
AcDbEntity
  8
ADP1DETAIL
100
AcDbCircle
 10
77.05216852906615
 20
1.936628557541576
 30
0.0
 40
0.2396812473525968
  0
CIRCLE
  5
24C
330
18
100
AcDbEntity
  8
ADP1DETAIL
100
AcDbCircle
 10
77.58795001256934
 20
1.8149663894888
 30
0.0
 40
0.2540563968783701
  0
CIRCLE
  5
24D
330
18
100
AcDbEntity
  8
ADP1DETAIL
100
AcDbCircle
 10
77.3444129795266
 20
1.352650157901932
 30
0.0
 40
0.207918809914174
  0
CIRCLE
  5
24E
330
18
100
AcDbEntity
  8
ADP1DETAIL
100
AcDbCircle
 10
77.00346111164847
 20
0.938998807563545
 30
0.0
 40
0.293144389390827
  0
CIRCLE
  5
24F
330
18
100
AcDbEntity
  8
ADP1DETAIL
100
AcDbCircle
 10
77.02781482035732
 20
2.909925866895376
 30
0.0
 40
0.2587554256125375
  0
LINE
  5
250
330
18
100
AcDbEntity
  8
ADP1DETAIL
100
AcDbLine
 10
77.27370490668573
 20
2.934556118626998
 30
0.0
 11
77.19389099686654
 21
2.735021344079053
 31
0.0
  0
CIRCLE
  5
251
330
18
100
AcDbEntity
  8
ADP1DETAIL
100
AcDbCircle
 10
77.61230372127818
 20
2.934258307519611
 30
0.0
 40
0.2396812253865777
  0
CIRCLE
  5
252
330
18
100
AcDbEntity
  8
ADP1DETAIL
100
AcDbCircle
 10
77.83148709965771
 20
2.447609635308501
 30
0.0
 40
0.2409841426101356
  0
CIRCLE
  5
253
330
18
100
AcDbEntity
  8
ADP1DETAIL
100
AcDbCircle
 10
77.3444129795266
 20
2.374612348504209
 30
0.0
 40
0.2775238792471148
  0
CIRCLE
  5
254
330
18
100
AcDbEntity
  8
ADP1DETAIL
100
AcDbCircle
 10
77.27135185340007
 20
3.323577252302192
 30
0.0
 40
0.2296080756419875
  0
LINE
  5
255
330
18
100
AcDbEntity
  8
ADP1DETAIL
100
AcDbLine
 10
76.63519362813229
 20
3.134090893174948
 30
0.0
 11
76.71500753795147
 21
2.974463073536585
 31
0.0
  0
CIRCLE
  5
256
330
18
100
AcDbEntity
  8
ADP1DETAIL
100
AcDbCircle
 10
76.33372891880831
 20
15.6188397842834
 30
0.0
 40
0.2919892173540395
  0
CIRCLE
  5
257
330
18
100
AcDbEntity
  8
ADP1DETAIL
100
AcDbCircle
 10
76.60161966055989
 20
15.15652355269653
 30
0.0
 40
0.2720924672571475
  0
ARC
  5
258
330
18
100
AcDbEntity
  8
ADP1DETAIL
100
AcDbCircle
 10
76.41831140150031
 20
14.19318801431514
 30
0.0
 40
0.2779149641343706
100
AcDbArc
 50
272.6464970259126
 51
41.65037625349691
  0
CIRCLE
  5
259
330
18
100
AcDbEntity
  8
ADP1DETAIL
100
AcDbCircle
 10
76.34094422398627
 20
14.16987968981085
 30
0.0
 40
0.2558735378733858
  0
ARC
  5
25A
330
18
100
AcDbEntity
  8
ADP1DETAIL
100
AcDbCircle
 10
73.02418584999085
 20
17.4716005704433
 30
0.0
 40
5.240050306177784
100
AcDbArc
 50
306.8213894409939
 51
322.1485980245254
  0
CIRCLE
  5
25B
330
18
100
AcDbEntity
  8
ADP1DETAIL
100
AcDbCircle
 10
76.60161966055989
 20
14.69420732110966
 30
0.0
 40
0.2065578329820765
  0
ARC
  5
25C
330
18
100
AcDbEntity
  8
ADP1DETAIL
100
AcDbCircle
 10
78.93748415901021
 20
13.89800003579245
 30
0.0
 40
2.683417450926589
100
AcDbArc
 50
203.6719362403918
 51
219.5877713179755
  0
CIRCLE
  5
25D
330
18
100
AcDbEntity
  8
ADP1DETAIL
100
AcDbCircle
 10
76.57239519930017
 20
8.950779833070034
 30
0.0
 40
0.3009910475789801
  0
CIRCLE
  5
25E
330
18
100
AcDbEntity
  8
ADP1DETAIL
100
AcDbCircle
 10
76.40191929238392
 20
8.342468992806145
 30
0.0
 40
0.2620999477054649
  0
ARC
  5
25F
330
18
100
AcDbEntity
  8
ADP1DETAIL
100
AcDbCircle
 10
78.23899781723553
 20
2.0531813325137
 30
0.0
 40
3.804849822566538
100
AcDbArc
 50
107.4049957042469
 51
119.4158679178858
  0
LWPOLYLINE
  5
260
330
18
100
AcDbEntity
  8
ADP1DETAIL
100
AcDbPolyline
 90
        6
 70
     0
 43
0.0
 10
76.46767957409969
 20
6.26780165605624
 42
-0.1679554018628169
 10
77.076522237775
 20
6.657120565770386
 42
-0.3370194142386615
 10
76.8816925681043
 20
5.902815151897906
 42
0.0099904351143442
 10
77.36876668823542
 20
5.854150270649425
 42
0.1161030649565437
 10
77.12522965519267
 20
5.464831360935276
 42
0.0000000587652713
 10
76.68686295247922
 20
5.245839465453959
 42
0.0000000587652713
  0
ARC
  5
268
330
18
100
AcDbEntity
  8
ADP1DETAIL
100
AcDbCircle
 10
75.66196843525557
 20
6.894999656165497
 30
0.0
 40
1.360578495738771
100
AcDbArc
 50
305.0494526657473
 51
333.6984768579741
  0
LWPOLYLINE
  5
269
330
18
100
AcDbEntity
  8
ADP1DETAIL
100
AcDbPolyline
 90
        5
 70
     0
 43
0.0
 10
76.95475369423082
 20
5.3431691928825
 10
77.14958336390151
 20
5.294504311634016
 42
-0.1826446068411259
 10
76.49203328280852
 20
4.880852961295628
 42
0.6177924056048454
 10
76.19978883234809
 20
4.73485835261861
 42
0.1073527308352409
 10
76.3946185020188
 20
4.199544834227443
 42
0.5514152202386159
  0
ARC
  5
270
330
18
100
AcDbEntity
  8
ADP1DETAIL
100
AcDbCircle
 10
77.1465259716127
 20
5.094979118057628
 30
0.0
 40
0.9812924095055985
100
AcDbArc
 50
124.5898639964091
 51
188.2689183166253
  0
LWPOLYLINE
  5
271
330
18
100
AcDbEntity
  8
ADP1DETAIL
100
AcDbPolyline
 90
        3
 70
     0
 43
0.0
 10
76.29788125354433
 20
10.59095555136721
 42
-0.0685190924597063
 10
77.28352345036171
 20
9.58439636809828
 42
-0.068626992761406
 10
77.78102528433155
 20
8.300267276975157
 42
-1.002508115539253
  0
CIRCLE
  5
276
330
18
100
AcDbEntity
  8
ADP1DETAIL
100
AcDbCircle
 10
76.28015074883975
 20
9.607755519513977
 30
0.0
 40
0.2838281965286478
  0
LWPOLYLINE
  5
277
330
18
100
AcDbEntity
  8
ADP1DETAIL
100
AcDbPolyline
 90
        5
 70
     0
 43
0.0
 10
76.29788125354433
 20
10.59095555136721
 42
0.3322670187564499
 10
75.74436926533656
 20
10.24039880040211
 42
-0.7032415939490933
 10
76.35321187496625
 20
9.972742023672312
 42
-0.6390709624912336
 10
76.54804154463694
 20
9.364431183408422
 42
-0.5888530135548233
 10
76.81593228638854
 20
8.658790650784427
 42
-0.4642396807600547
  0
LWPOLYLINE
  5
27E
330
18
100
AcDbEntity
  8
ADP1DETAIL
100
AcDbPolyline
 90
       10
 70
     0
 43
0.0
 10
75.67130813921004
 20
10.60538526949201
 42
0.3335664558618398
 10
75.52518588695702
 20
10.24039880040211
 42
0.6813850854458467
 10
74.91634327732731
 20
9.778082568815237
 42
0.4921054965698989
 10
74.84328215120081
 20
9.145439287927105
 42
0.8672151304059598
 10
74.965050694745
 20
8.512796042107405
 42
0.4602400582290243
 10
75.13552660166124
 20
8.001814929272052
 42
0.474141400244305
 10
75.40341739745844
 20
7.51516629212937
 42
1.034173571845061
 10
76.08532113321465
 20
7.490833851505128
 42
0.3634604647438155
 10
76.42627300109277
 20
7.977482523716242
 42
0.7696835913649673
 10
76.64545632542668
 20
8.634458210160184
 42
1.852558981295544
  0
LWPOLYLINE
  5
28A
330
18
100
AcDbEntity
  8
ADP1DETAIL
100
AcDbPolyline
 90
       12
 70
     0
 43
0.0
 10
76.94257152843801
 20
13.11259917149197
 42
0.2520131575828373
 10
76.60161966055989
 20
13.28292622079324
 42
0.3571608114231578
 10
76.40679004493481
 20
12.86927483538642
 42
-0.2254388487872945
 10
76.38243633622598
 20
12.74761270240207
 42
0.5225448361724259
 10
76.4554974623525
 20
12.52862077185233
 42
-0.2705532294858498
 10
76.62597336926873
 20
12.13930186213818
 42
-0.5795522766185386
 10
76.4554974623525
 20
12.06630457533389
 42
0.4279619446291612
 10
76.0658381770567
 20
12.52862077185233
 42
0.1837431360846336
 10
75.40828815000934
 20
12.50428836629652
 42
0.3734867471849261
 10
75.87100850738602
 20
12.18796670831824
 42
0.2803521650063774
 10
75.55441034821675
 20
11.99330725346116
 42
0.413957605851509
 10
76.11454559447437
 20
11.87164508540838
 42
3.406423411715299
  0
LWPOLYLINE
  5
298
330
18
100
AcDbEntity
  8
ADP1DETAIL
100
AcDbPolyline
 90
        6
 70
     0
 43
0.0
 10
75.87100850738602
 20
11.79864779860409
 10
75.77359372659628
 20
11.70131807117555
 10
75.91971592480368
 20
11.65265318992707
 10
76.40679004493481
 20
11.65265318992707
 42
-0.8472487202238328
 10
76.55291229718783
 20
11.48232617569424
 42
-0.0780181139947425
 10
76.4554974623525
 20
10.99567750348313
 42
-0.2945553110074838
  0
ARC
  5
2A0
330
18
100
AcDbEntity
  8
ADP1DETAIL
100
AcDbCircle
 10
73.8067524234437
 20
8.87284962044667
 30
0.0
 40
1.020674426304209
100
AcDbArc
 50
60.58470890150944
 51
92.09566214811495
  0
ARC
  5
2A1
330
18
100
AcDbEntity
  8
ADP1DETAIL
100
AcDbCircle
 10
73.56751520500552
 20
8.29136347924817
 30
0.0
 40
1.744492381737625
100
AcDbArc
 50
62.21094789340559
 51
79.97047691855462
  0
LWPOLYLINE
  5
2A2
330
18
100
AcDbEntity
  8
ADP1DETAIL
100
AcDbPolyline
 90
       30
 70
     0
 43
0.0
 10
70.23744044609111
 20
8.748395500051882
 42
0.1094028809840495
 10
70.11866336427942
 20
9.07244200112281
 42
-0.3257719203320951
 10
70.16737072765147
 20
9.875412296243775
 42
-0.3924228444623145
 10
70.89798193487098
 20
9.972742023672312
 42
-0.084945278257885
 10
71.43376341837416
 20
9.437428505281145
 42
-0.0630990775004865
 10
71.62859308804485
 20
9.07244200112281
 42
1.144650529036783
 10
71.89648382979645
 20
9.218436609799836
 42
0.005125502556153
 10
71.67730045141692
 20
9.51042579208544
 42
-0.3392720103226919
 10
71.67730045141692
 20
9.778082568815237
 42
0.4886717246552463
 10
71.89648382979645
 20
9.778082568815237
 42
-0.3367979577709305
 10
71.7990689949611
 20
10.24039880040211
 42
-0.173601463272597
 10
71.9938986646318
 20
10.43505825525918
 42
0.0000000853249262
 10
72.28614311509223
 20
10.24039880040211
 42
0.1818884541550099
 10
72.50532643942614
 20
10.77571231879327
 42
-0.2461488004120535
 10
72.89498572472194
 20
10.11873663234932
 42
-0.0710589635858745
 10
73.18723017518236
 20
10.36206093338645
 42
0.0623117558661872
 10
73.21158388389119
 20
9.924077142423827
 42
-0.0404428410605967
 10
73.50382838839724
 20
9.851079855619536
 42
0.3133847314536654
 10
73.23593759260003
 20
9.559090673333924
 42
-0.425821109651977
 10
72.60274127426149
 20
9.096774441747053
 42
0.3749848825895568
 10
73.11416910310146
 20
9.145439287927105
 42
-0.48753582988912
 10
73.62559687789581
 20
9.096774441747053
 42
-0.2478577592992149
 10
72.91933943343076
 20
8.634458210160184
 42
0.2676628973065248
 10
74.11267099802694
 20
8.707455496964479
 42
-0.0277643822560925
 10
73.86913396498417
 20
8.366801433430387
 42
-0.4881671601924002
 10
74.38056173977853
 20
7.758490628234929
 42
-0.4681128375999141
 10
74.0883172893181
 20
7.904485201843518
 42
0.0242877757878944
 10
72.79757088988657
 20
8.318136587250334
 42
-0.0263970994403895
 10
73.67430429531349
 20
7.685493306362202
 42
0.2318699606749456
 10
74.21008583286229
 20
7.709825746986444
 42
3.907586823938982
  0
LWPOLYLINE
  5
2C2
330
18
100
AcDbEntity
  8
ADP1DETAIL
100
AcDbPolyline
 90
       25
 70
     0
 43
0.0
 10
74.64285688450781
 20
10.34371861363163
 42
-0.9706436041550404
 10
74.55551403855306
 20
10.15464105486353
 42
-0.3254551104199841
 10
74.55551403855306
 20
10.03828565642871
 42
-0.5251488343688216
 10
74.42449973231335
 20
9.936474670694414
 42
-0.2771087292922474
 10
74.36627114347178
 20
9.83466368496011
 42
-0.6182750304639005
 10
74.30804262924543
 20
9.747397111926316
 42
-0.685282553542298
 10
74.23525691184727
 20
9.616497300790994
 42
-0.7075489001259587
 10
74.14791406589253
 20
9.500141853940808
 42
-0.6902300741343137
 10
74.06057121993779
 20
9.398330868206505
 42
-0.7209583611941735
 10
73.97322829936785
 20
9.311064295172714
 42
-0.6723381583789832
 10
73.85677119629992
 20
9.238342183254795
 42
-0.3662892094260234
 10
73.72575689006021
 20
9.136531197520492
 42
-0.6894196445545862
 10
73.69664263294703
 20
9.223797770554286
 42
-0.4144700441701581
 10
73.65297117266206
 20
9.311064295172714
 42
-0.236253635671159
 10
73.66752837583385
 20
9.412875280907018
 42
-0.3336260991057391
 10
73.66752837583385
 20
9.500141853940808
 42
-0.6306327290108657
 10
73.71119976150362
 20
9.616497300790994
 42
-0.6090161251508119
 10
73.76942835034518
 20
9.747397111926316
 42
-0.8680462346586976
 10
73.78398547890177
 20
9.863752558776498
 42
-0.9765100277142094
 10
73.85677119629992
 20
9.980107957211314
 42
-0.2362526792948493
 10
73.9004426565849
 20
10.12555222946251
 42
-0.6182754198035438
 10
73.98778550253965
 20
10.22736321519681
 42
-0.3699942770320888
 10
74.07512834849439
 20
10.31462978823061
 42
-0.5545043203756617
 10
74.1915854515623
 20
10.43098518666542
 42
-0.0530630354194507
 10
74.71564260190596
 20
10.30008532711473
 42
-5.642670964996777
  0
LWPOLYLINE
  5
2DD
330
18
100
AcDbEntity
  8
ADP1DETAIL
100
AcDbPolyline
 90
        4
 70
     0
 43
0.0
 10
71.26000599048767
 20
9.653145215792873
 42
-0.1329328113880487
 10
72.72938057035656
 20
10.92268021667883
 42
-0.0045642012626733
 10
75.5300566395079
 20
12.2852964708152
 42
0.0003793452642853
 10
75.54010947873419
 20
12.2910969530349
 42
-0.2007151920918734
  0
ARC
  5
2E3
330
18
100
AcDbEntity
  8
ADP1DETAIL
100
AcDbCircle
 10
71.10673973680795
 20
10.19189155308426
 30
0.0
 40
1.474852449434782
100
AcDbArc
 50
310.6217003242392
 51
3.77772489896178
  0
ARC
  5
2E4
330
18
100
AcDbEntity
  8
ADP1DETAIL
100
AcDbCircle
 10
71.88370545664685
 20
10.13313729294895
 30
0.0
 40
1.075963856363916
100
AcDbArc
 50
293.3695178398163
 51
350.1141507891956
  0
ARC
  5
2E5
330
18
100
AcDbEntity
  8
ADP1DETAIL
100
AcDbCircle
 10
71.45389046644067
 20
9.748619274881802
 30
0.0
 40
0.7647695079321532
100
AcDbArc
 50
323.2869274964248
 51
47.60318715434975
  0
ARC
  5
2E6
330
18
100
AcDbEntity
  8
ADP1DETAIL
100
AcDbCircle
 10
73.73073284321015
 20
9.198115442880341
 30
0.0
 40
0.8987567172468637
100
AcDbArc
 50
123.403588117872
 51
151.1277234858163
  0
CIRCLE
  5
2E7
330
18
100
AcDbEntity
  8
ADP1DETAIL
100
AcDbCircle
 10
75.23294143649659
 20
9.972742023672312
 30
0.0
 40
0.2774492355013044
  0
CIRCLE
  5
2E8
330
18
100
AcDbEntity
  8
ADP1DETAIL
100
AcDbCircle
 10
75.93919888096164
 20
9.997074464296554
 30
0.0
 40
0.3117732987741603
  0
ARC
  5
2E9
330
18
100
AcDbEntity
  8
ADP1DETAIL
100
AcDbCircle
 10
72.83951964452512
 20
6.98194854256925
 30
0.0
 40
0.4876389687994541
100
AcDbArc
 50
239.9647626751635
 51
356.1386446399497
  0
ARC
  5
2EA
330
18
100
AcDbEntity
  8
ADP1DETAIL
100
AcDbCircle
 10
72.87377945562742
 20
6.992801327624023
 30
0.0
 40
0.3333790721160983
100
AcDbArc
 50
231.9936207267403
 51
352.4693436446903
  0
ARC
  5
2EB
330
18
100
AcDbEntity
  8
ADP1DETAIL
100
AcDbCircle
 10
74.14978777950577
 20
6.771911509086747
 30
0.0
 40
4.082050905618091
100
AcDbArc
 50
174.4302959320622
 51
209.5423041432201
  0
ARC
  5
2EC
330
18
100
AcDbEntity
  8
ADP1DETAIL
100
AcDbCircle
 10
74.50033793975762
 20
6.985608426526594
 30
0.0
 40
3.954821490696828
100
AcDbArc
 50
177.3551758436548
 51
189.3836189224978
  0
ARC
  5
2ED
330
18
100
AcDbEntity
  8
ADP1DETAIL
100
AcDbCircle
 10
71.85093990768355
 20
5.729437676044478
 30
0.0
 40
1.393745684879924
100
AcDbArc
 50
101.5204261685771
 51
153.9824639245184
  0
ARC
  5
2EE
330
18
100
AcDbEntity
  8
ADP1DETAIL
100
AcDbCircle
 10
71.708422338281
 20
6.018477942291903
 30
0.0
 40
0.8408849648513253
100
AcDbArc
 50
40.07141385272098
 51
133.0673073574327
  0
LINE
  5
2EF
330
18
100
AcDbEntity
  8
ADP1DETAIL
100
AcDbLine
 10
74.83598136083569
 20
7.046439510552959
 30
0.0
 11
75.27434806354913
 21
6.70578544701887
 31
0.0
  0
ARC
  5
2F0
330
18
100
AcDbEntity
  8
ADP1DETAIL
100
AcDbCircle
 10
70.4939225615746
 20
1.156367954241192
 30
0.0
 40
6.668089907414825
100
AcDbArc
 50
39.16347990647085
 51
56.70800303841955
  0
ARC
  5
2F1
330
18
100
AcDbEntity
  8
ADP1DETAIL
100
AcDbCircle
 10
74.16004672360988
 20
6.102469980348724
 30
0.0
 40
0.7908248133039502
100
AcDbArc
 50
12.06740787947826
 51
52.5290964701123
  0
ARC
  5
2F2
330
18
100
AcDbEntity
  8
ADP1DETAIL
100
AcDbCircle
 10
71.21307912331653
 20
5.075191479690312
 30
0.0
 40
4.078845967503406
100
AcDbArc
 50
16.28754605000431
 51
25.82103318417374
  0
LINE
  5
2F3
330
18
100
AcDbEntity
  8
ADP1DETAIL
100
AcDbLine
 10
75.3230554269212
 20
6.511125992161792
 30
0.0
 11
75.44482397046538
 21
6.827447615071642
 31
0.0
  0
LWPOLYLINE
  5
2F4
330
18
100
AcDbEntity
  8
ADP1DETAIL
100
AcDbPolyline
 90
       23
 70
     0
 43
0.0
 10
76.13759716348415
 20
4.305067879826045
 42
0.0128811083574186
 10
76.12672770622157
 20
4.369871848460276
 42
0.569980000973183
 10
75.78577583834348
 20
4.491534016513059
 42
0.1564129810278422
 10
75.61529993142724
 20
4.223877274851689
 42
-0.122051092159207
 10
75.4691776791742
 20
3.956220498121892
 42
-0.1450788993581384
 10
75.34740913563003
 20
3.883223211317594
 42
-0.2362524526223582
 10
75.27434806354913
 20
4.126547547423156
 42
-0.3251001463519483
 10
74.71421281729149
 20
3.81022588944487
 42
-0.1232100324401748
 10
74.76292023470917
 20
4.126547547423156
 42
-0.1560875746338663
 10
74.15407757103387
 20
4.175212393603205
 42
-0.2874644073518524
 10
74.81162765212684
 20
4.686193506438558
 42
-0.2537879226017339
 10
74.54373685632964
 20
4.832188080047144
 42
-0.5717210331341179
 10
74.61679798245615
 20
4.978182688724166
 42
-0.0203829177494921
 10
75.44482397046538
 20
5.124177297401187
 42
0.570839491638545
 10
75.17693322871378
 20
5.221507024829724
 42
-0.1763441145281765
 10
74.61679798245615
 20
5.17284214358124
 42
-1.061424648699561
 10
74.68985910858265
 20
5.391834039062553
 42
-0.2592848482837245
 10
73.91054053799109
 20
5.683823256416593
 42
0.0000001369449512
 10
74.25149240586922
 20
5.781152983845126
 42
-0.1324240374861672
 10
73.74006463107486
 20
6.340798942860535
 42
0.0710063713358449
 10
74.05666279024413
 20
6.365131383484774
 42
0.0223952233894603
 10
73.95924795540878
 20
6.924777342500183
 42
-0.171168212750914
 10
74.59244427374732
 20
6.754450293198923
 42
0.3103369820403365
  0
LINE
  5
30D
330
18
100
AcDbEntity
  8
ADP1DETAIL
100
AcDbLine
 10
75.44482397046538
 20
6.827447615071642
 30
0.0
 11
75.83448325576114
 21
6.365131383484774
 31
0.0
  0
CIRCLE
  5
30E
330
18
100
AcDbEntity
  8
ADP1DETAIL
100
AcDbCircle
 10
71.84047562201364
 20
5.513496207115329
 30
0.0
 40
0.2720924672571475
  0
ARC
  5
30F
330
18
100
AcDbEntity
  8
ADP1DETAIL
100
AcDbCircle
 10
71.82642408902639
 20
5.520052090460486
 30
0.0
 40
0.3392694004593104
100
AcDbArc
 50
100.0164767117773
 51
227.4361815393597
  0
ARC
  5
310
330
18
100
AcDbEntity
  8
ADP1DETAIL
100
AcDbCircle
 10
72.10035255922659
 20
6.009924594836336
 30
0.0
 40
0.367577738847336
100
AcDbArc
 50
56.50679050164486
 51
205.0738495618996
  0
ARC
  5
311
330
18
100
AcDbEntity
  8
ADP1DETAIL
100
AcDbCircle
 10
72.02378388107323
 20
4.550160668733939
 30
0.0
 40
0.2779149641343721
100
AcDbArc
 50
138.3496237465039
 51
267.3535029740882
  0
CIRCLE
  5
312
330
18
100
AcDbEntity
  8
ADP1DETAIL
100
AcDbCircle
 10
71.84047562201364
 20
5.05117997552846
 30
0.0
 40
0.2065578329820765
  0
ARC
  5
313
330
18
100
AcDbEntity
  8
ADP1DETAIL
100
AcDbCircle
 10
71.84504647060066
 20
5.059230410829629
 30
0.0
 40
0.3256591195756879
100
AcDbArc
 50
139.6287942505797
 51
264.9043595953798
  0
ARC
  5
314
330
18
100
AcDbEntity
  8
ADP1DETAIL
100
AcDbCircle
 10
72.67795541683608
 20
5.729399068673314
 30
0.0
 40
1.788641015280352
100
AcDbArc
 50
149.6639943146721
 51
218.6125536935053
  0
ARC
  5
315
330
18
100
AcDbEntity
  8
ADP1DETAIL
100
AcDbCircle
 10
70.57426092750194
 20
4.16048791239652
 30
0.0
 40
0.2682408640699788
100
AcDbArc
 50
105.8449422765034
 51
182.0526824080961
  0
ARC
  5
316
330
18
100
AcDbEntity
  8
ADP1DETAIL
100
AcDbCircle
 10
70.62418407625902
 20
4.456638212321957
 30
0.0
 40
0.4411427809405731
100
AcDbArc
 50
140.8996551113819
 51
223.8764004857509
  0
ARC
  5
317
330
18
100
AcDbEntity
  8
ADP1DETAIL
100
AcDbCircle
 10
70.54568799302495
 20
3.821530256661871
 30
0.0
 40
0.5986750347207336
100
AcDbArc
 50
48.88140844960771
 51
94.27872237186255
  0
ARC
  5
318
330
18
100
AcDbEntity
  8
ADP1DETAIL
100
AcDbCircle
 10
76.72970485408455
 20
9.27029344598411
 30
0.0
 40
7.648874537813454
100
AcDbArc
 50
220.7982099972577
 51
224.1252297322005
  0
ARC
  5
319
330
18
100
AcDbEntity
  8
ADP1DETAIL
100
AcDbCircle
 10
70.35489957993424
 20
5.856086673535665
 30
0.0
 40
1.123606190721963
100
AcDbArc
 50
266.271782632756
 51
282.5179769093171
  0
ARC
  5
31A
330
18
100
AcDbEntity
  8
ADP1DETAIL
100
AcDbCircle
 10
73.47481760368402
 20
5.087678636464824
 30
0.0
 40
0.2555042346615812
100
AcDbArc
 50
269.4071351693206
 51
90.59286483067939
  0
CIRCLE
  5
31B
330
18
100
AcDbEntity
  8
ADP1DETAIL
100
AcDbCircle
 10
72.83897751693911
 20
5.148509738025426
 30
0.0
 40
0.2620999276183063
  0
CIRCLE
  5
31C
330
18
100
AcDbEntity
  8
ADP1DETAIL
100
AcDbCircle
 10
72.30319597939033
 20
5.124177297401187
 30
0.0
 40
0.2620999276183063
  0
CIRCLE
  5
31D
330
18
100
AcDbEntity
  8
ADP1DETAIL
100
AcDbCircle
 10
73.32605163707023
 20
5.075512416152703
 30
0.0
 40
0.2434009647095773
  0
LINE
  5
31E
330
18
100
AcDbEntity
  8
ADP1DETAIL
100
AcDbLine
 10
75.81012954705233
 20
5.586493528988055
 30
0.0
 11
75.95625179930533
 21
5.148509738025426
 31
0.0
  0
CIRCLE
  5
31F
330
18
100
AcDbEntity
  8
ADP1DETAIL
100
AcDbCircle
 10
72.10115105858728
 20
4.526852344229657
 30
0.0
 40
0.2558735378733858
  0
CIRCLE
  5
320
330
18
100
AcDbEntity
  8
ADP1DETAIL
100
AcDbCircle
 10
73.08251454998188
 20
4.613196184565834
 30
0.0
 40
0.2587553900056454
  0
ARC
  5
321
330
18
100
AcDbEntity
  8
ADP1DETAIL
100
AcDbCircle
 10
73.25701422017079
 20
4.650226141043878
 30
0.0
 40
0.2817868116480245
100
AcDbArc
 50
264.2202153035552
 51
40.22142667969566
  0
CIRCLE
  5
322
330
18
100
AcDbEntity
  8
ADP1DETAIL
100
AcDbCircle
 10
72.88768493435679
 20
4.10221510679891
 30
0.0
 40
0.2720924672571475
  0
CIRCLE
  5
323
330
18
100
AcDbEntity
  8
ADP1DETAIL
100
AcDbCircle
 10
72.37625710551682
 20
4.126547547423156
 30
0.0
 40
0.2633547895695504
  0
ARC
  5
324
330
18
100
AcDbEntity
  8
ADP1DETAIL
100
AcDbCircle
 10
72.43994072734199
 20
4.212348173069122
 30
0.0
 40
0.4331916939711305
100
AcDbArc
 50
172.0126461065609
 51
248.1679455368859
  0
ARC
  5
325
330
18
100
AcDbEntity
  8
ADP1DETAIL
100
AcDbCircle
 10
72.88803825038226
 20
4.169141556535004
 30
0.0
 40
0.3953479778884802
100
AcDbArc
 50
284.2119208324153
 51
30.51278838969141
  0
ARC
  5
326
330
18
100
AcDbEntity
  8
ADP1DETAIL
100
AcDbCircle
 10
72.66850155597726
 20
4.661861065814315
 30
0.0
 40
0.2587553636239624
100
AcDbArc
 50
29.63582872239364
 51
316.95610860543
  0
ARC
  5
327
330
18
100
AcDbEntity
  8
ADP1DETAIL
100
AcDbCircle
 10
72.19875189697328
 20
5.278076077534253
 30
0.0
 40
3.405526200491802
100
AcDbArc
 50
337.6040399892449
 51
347.0667636891806
  0
ARC
  5
328
330
18
100
AcDbEntity
  8
ADP1DETAIL
100
AcDbCircle
 10
75.76909404184272
 20
3.558841655368115
 30
0.0
 40
1.04622287012085
100
AcDbArc
 50
119.7466337201488
 51
156.2291479329261
  0
ARC
  5
329
330
18
100
AcDbEntity
  8
ADP1DETAIL
100
AcDbCircle
 10
70.42932212698165
 20
13.5318902268724
 30
0.0
 40
10.08081342227593
100
AcDbArc
 50
292.5807210578046
 51
297.782955044693
  0
ARC
  5
32A
330
18
100
AcDbEntity
  8
ADP1DETAIL
100
AcDbCircle
 10
75.91239852238158
 20
10.27305760463171
 30
0.0
 40
4.304190488308602
100
AcDbArc
 50
244.4596718167017
 51
253.4988439497914
  0
ARC
  5
32B
330
18
100
AcDbEntity
  8
ADP1DETAIL
100
AcDbCircle
 10
76.41478040661818
 20
16.46563943022837
 30
0.0
 40
10.56724389331754
100
AcDbArc
 50
256.9701791460413
 51
261.1403677713057
  0
CIRCLE
  5
32C
330
18
100
AcDbEntity
  8
ADP1DETAIL
100
AcDbCircle
 10
72.52237935776985
 20
6.048809760574924
 30
0.0
 40
0.2587553992308605
  0
ARC
  5
32D
330
18
100
AcDbEntity
  8
ADP1DETAIL
100
AcDbCircle
 10
72.10836636376524
 20
5.975812438702201
 30
0.0
 40
0.2919892173540395
100
AcDbArc
 50
47.39681989140264
 51
332.6020152708122
  0
ARC
  5
32E
330
18
100
AcDbEntity
  8
ADP1DETAIL
100
AcDbCircle
 10
72.94171735768121
 20
6.004956829028825
 30
0.0
 40
0.2558735701019841
100
AcDbArc
 50
209.2423957636852
 51
138.8174123349821
  0
ARC
  5
32F
330
18
100
AcDbEntity
  8
ADP1DETAIL
100
AcDbCircle
 10
73.18290533698036
 20
5.578922695668909
 30
0.0
 40
0.3731701732229359
100
AcDbArc
 50
320.8200043947936
 51
86.71590535058687
  0
CIRCLE
  5
330
330
18
100
AcDbEntity
  8
ADP1DETAIL
100
AcDbCircle
 10
73.13122196739954
 20
5.610825969612298
 30
0.0
 40
0.2754103892191986
  0
CIRCLE
  5
331
330
18
100
AcDbEntity
  8
ADP1DETAIL
100
AcDbCircle
 10
72.52237935776985
 20
5.586493528988055
 30
0.0
 40
0.2587553992308589
  0
ARC
  5
332
330
18
100
AcDbEntity
  8
ADP1DETAIL
100
AcDbCircle
 10
72.91114639536371
 20
6.033266994901842
 30
0.0
 40
0.3043324348844637
100
AcDbArc
 50
344.4105671057918
 51
129.5874486946659
  0
ARC
  5
333
330
18
100
AcDbEntity
  8
ADP1DETAIL
100
AcDbCircle
 10
72.14521580730793
 20
6.474627331225432
 30
0.0
 40
0.2235454821679775
100
AcDbArc
 50
314.9672586689647
 51
22.3936090899149
  0
ARC
  5
334
330
18
100
AcDbEntity
  8
ADP1DETAIL
100
AcDbCircle
 10
72.51045761182786
 20
6.352965163172653
 30
0.0
 40
0.223604446409732
100
AcDbArc
 50
337.6126162107615
 51
67.66266553314038
  0
LINE
  5
335
330
18
100
AcDbEntity
  8
ADP1DETAIL
100
AcDbLine
 10
76.46767957409969
 20
6.292134096680483
 30
0.0
 11
76.34591108460111
 21
5.829817865093607
 31
0.0
  0
LINE
  5
336
330
18
100
AcDbEntity
  8
ADP1DETAIL
100
AcDbLine
 10
76.05366658009507
 20
5.56216108836381
 30
0.0
 11
76.05366658009507
 21
6.292134096680483
 31
0.0
  0
ARC
  5
337
330
18
100
AcDbEntity
  8
ADP1DETAIL
100
AcDbCircle
 10
78.75743450811379
 20
6.243469215431998
 30
0.0
 40
3.224389886463614
100
AcDbArc
 50
175.6721351156866
 51
190.8745474114232
  0
LINE
  5
338
330
18
100
AcDbEntity
  8
ADP1DETAIL
100
AcDbLine
 10
75.83448325576114
 20
6.365131383484774
 30
0.0
 11
75.81012954705233
 21
5.586493528988055
 31
0.0
  0
ARC
  5
339
330
18
100
AcDbEntity
  8
ADP1DETAIL
100
AcDbCircle
 10
74.56809059206128
 20
4.757403340034452
 30
0.0
 40
1.048364992512199
100
AcDbArc
 50
72.42269358270082
 51
107.5773064172991
  0
ARC
  5
33A
330
18
100
AcDbEntity
  8
ADP1DETAIL
100
AcDbCircle
 10
74.88415710976273
 20
4.728635344000229
 30
0.0
 40
0.8876112926526126
100
AcDbArc
 50
62.158064555206
 51
114.265237710227
  0
LINE
  5
33B
330
18
100
AcDbEntity
  8
ADP1DETAIL
100
AcDbLine
 10
75.88319067317883
 20
5.464831360935276
 30
0.0
 11
76.05366658009507
 21
5.56216108836381
 31
0.0
  0
LINE
  5
33C
330
18
100
AcDbEntity
  8
ADP1DETAIL
100
AcDbLine
 10
75.26168036696057
 20
6.710415812390275
 30
0.0
 11
75.42979361597025
 21
6.038550105601173
 31
0.0
  0
LINE
  5
33D
330
18
100
AcDbEntity
  8
ADP1DETAIL
100
AcDbLine
 10
76.43847316407385
 20
6.273703111744465
 30
0.0
 11
76.23673727607138
 21
6.475262806246982
 31
0.0
  0
LINE
  5
33E
330
18
100
AcDbEntity
  8
ADP1DETAIL
100
AcDbLine
 10
76.05366658009507
 20
6.292134096680483
 30
0.0
 11
76.22414254105692
 21
6.486793551537557
 31
0.0
  0
ARC
  5
33F
330
18
100
AcDbEntity
  8
ADP1DETAIL
100
AcDbCircle
 10
66.21706931392373
 20
11.01573896676357
 30
0.0
 40
6.329751698444876
100
AcDbArc
 50
326.6884964546258
 51
333.3048705115575
  0
ARC
  5
340
330
18
100
AcDbEntity
  8
ADP1DETAIL
100
AcDbCircle
 10
71.65267102848702
 20
5.507767453128144
 30
0.0
 40
1.589355921541811
100
AcDbArc
 50
50.27182945744028
 51
92.88830546804383
  0
LWPOLYLINE
  5
341
330
18
100
AcDbEntity
  8
ADP1DETAIL
100
AcDbPolyline
 90
       10
 70
     0
 43
0.0
 10
73.64995058660465
 20
7.685493306362202
 10
73.72301171273116
 20
7.369171683452352
 42
-0.4226810440578121
 10
73.01675426826611
 20
7.709825746986444
 42
-0.259235873755722
 10
72.87063201601309
 20
7.442168970256647
 42
-0.3260544756865487
 10
72.4079116586364
 20
8.001814929272052
 42
0.4488053239536328
 10
72.09131344542154
 20
8.220806824753365
 42
-0.2081685298223203
 10
72.04260602800386
 20
7.539498732753616
 42
-0.9782039558864365
 10
71.72600786883458
 20
7.393504124076594
 42
-0.1230795077457015
 10
71.53117825320951
 20
7.539498732753616
 42
-0.1717913541754599
 10
70.55703001294728
 20
7.369171683452352
 42
0.0837771768971293
  0
ARC
  5
34D
330
18
100
AcDbEntity
  8
ADP1DETAIL
100
AcDbCircle
 10
70.6248693391343
 20
8.77592873969059
 30
0.0
 40
1.167951186083229
100
AcDbArc
 50
275.0415131456169
 51
334.3019385914996
  0
LWPOLYLINE
  5
34E
330
18
100
AcDbEntity
  8
ADP1DETAIL
100
AcDbPolyline
 90
        3
 70
     0
 43
0.0
 10
70.23744044609111
 20
8.748395500051886
 42
0.0477317759106719
 10
70.12353411683031
 20
8.100117945909138
 42
-0.0347565706578289
 10
70.06578309764771
 20
7.155400342186839
  0
ARC
  5
353
330
18
100
AcDbEntity
  8
ADP1DETAIL
100
AcDbCircle
 10
70.92690035919616
 20
9.990899564432966
 30
0.0
 40
1.731910680132807
100
AcDbArc
 50
258.4922626519422
 51
287.8618512936113
  0
LWPOLYLINE
  5
354
330
18
100
AcDbEntity
  8
ADP1DETAIL
100
AcDbPolyline
 90
       12
 70
     0
 43
0.0
 10
70.42299051803368
 20
9.259704095419541
 42
-0.0612666551179044
 10
70.33784668861335
 20
9.705085246942514
 42
-0.5255807806481889
 10
70.80056710003564
 20
9.656420400762462
 42
-0.2361047806858501
 10
71.23893380274907
 20
9.145439287927105
 42
0.0649350767267326
 10
71.67730045141692
 20
8.780452818837202
 42
-0.0516035821314338
 10
71.53117825320951
 20
8.561460888287461
 42
0.2314178152882659
 10
70.92233558953421
 20
8.75612037821296
 42
-0.4621643564910137
 10
71.01975042436956
 20
8.488463601483163
 42
-0.2144978953315224
 10
70.72750597390913
 20
8.366801433430387
 42
0.0140566179850119
 10
70.55703001294728
 20
8.366801433430387
 42
0.3867204460739048
 10
70.89798193487098
 20
7.977482523716242
 42
0.0603707898575046
 10
70.58138372165609
 20
7.734158187610686
 42
-0.4086421818852696
  0
LWPOLYLINE
  5
362
330
18
100
AcDbEntity
  8
ADP1DETAIL
100
AcDbPolyline
 90
        4
 70
     0
 43
0.0
 10
70.58141421184394
 20
7.740266222641258
 10
70.34849993109289
 20
7.49301096465575
 42
0.4959667749313891
 10
70.36305713426468
 20
7.405744391621952
 42
0.1508712147964396
 10
70.59597134040051
 20
7.362111105105055
 42
17.47968495136705
  0
LWPOLYLINE
  5
368
330
18
100
AcDbEntity
  8
ADP1DETAIL
100
AcDbPolyline
 90
        2
 70
     0
 43
0.0
 10
70.56190076549815
 20
7.15115307717958
 42
-0.0131952847449353
 10
70.55475259113504
 20
7.359517021973386
 42
-0.00185769757814
  0
LWPOLYLINE
  5
36C
330
18
100
AcDbEntity
  8
ADP1DETAIL
100
AcDbPolyline
 90
        2
 70
     0
 43
0.0
 10
70.56897000319065
 20
7.72705580028729
 42
-0.0263632595053399
 10
70.62621794023742
 20
8.139425710532643
 42
-0.00185769757814
  0
LWPOLYLINE
  5
370
330
18
100
AcDbEntity
  8
ADP1DETAIL
100
AcDbPolyline
 90
        3
 70
     0
 43
0.0
 10
70.67735369887888
 20
8.367796618824806
 42
-0.070269842968761
 10
71.09768230304695
 20
9.389736913241209
 42
-0.00185769757814
 10
71.11126874714148
 20
9.4137798916635
 42
-0.0045642012626733
  0
ARC
  5
375
330
18
100
AcDbEntity
  8
ADP1DETAIL
100
AcDbCircle
 10
71.49464769014625
 20
8.817355745513824
 30
0.0
 40
0.3432422178166885
100
AcDbArc
 50
207.5138283268683
 51
297.463777518669
  0
ARC
  5
376
330
18
100
AcDbEntity
  8
ADP1DETAIL
100
AcDbCircle
 10
71.73816377964165
 20
11.37696545828629
 30
0.0
 40
3.047391495463103
100
AcDbArc
 50
256.3643409739115
 51
264.72724071982
  0
LWPOLYLINE
  5
377
330
18
100
AcDbEntity
  8
ADP1DETAIL
100
AcDbPolyline
 90
        2
 70
     0
 43
0.0
 10
70.70306745922326
 20
9.760392254614467
 42
0.0415806105244129
 10
70.42299051803368
 20
9.259704095419541
 42
0.0521458766910201
  0
ARC
  5
37B
330
18
100
AcDbEntity
  8
ADP1DETAIL
100
AcDbCircle
 10
71.76059879266304
 20
7.441840285174352
 30
0.0
 40
1.134386979676622
100
AcDbArc
 50
0.0166012732913246
 51
50.57751751827893
  0
ARC
  5
37C
330
18
100
AcDbEntity
  8
ADP1DETAIL
100
AcDbCircle
 10
72.75693632739751
 20
8.807946761599668
 30
0.0
 40
0.8694592906068738
100
AcDbArc
 50
188.2541758380119
 51
222.4769221338625
  0
ARC
  5
37D
330
18
100
AcDbEntity
  8
ADP1DETAIL
100
AcDbCircle
 10
71.54386530270542
 20
7.916183092760642
 30
0.0
 40
0.8441189095046484
100
AcDbArc
 50
24.74177955967359
 51
65.30829062780142
  0
CIRCLE
  5
37E
330
18
100
AcDbEntity
  8
ADP1DETAIL
100
AcDbCircle
 10
75.28164885391428
 20
8.391133874054629
 30
0.0
 40
0.2722351365980717
  0
CIRCLE
  5
37F
330
18
100
AcDbEntity
  8
ADP1DETAIL
100
AcDbCircle
 10
75.76872297404539
 20
8.342468992806145
 30
0.0
 40
0.2838281687045445
  0
ARC
  5
380
330
18
100
AcDbEntity
  8
ADP1DETAIL
100
AcDbCircle
 10
70.89799818124099
 20
7.786808145420286
 30
0.0
 40
1.047575867993224
100
AcDbArc
 50
335.0456017924063
 51
21.58208523084294
  0
ARC
  5
381
330
18
100
AcDbEntity
  8
ADP1DETAIL
100
AcDbCircle
 10
71.68283378215106
 20
6.130925364080786
 30
0.0
 40
2.337445966767195
100
AcDbArc
 50
32.69406381746379
 51
57.35600273549877
  0
ARC
  5
382
330
18
100
AcDbEntity
  8
ADP1DETAIL
100
AcDbCircle
 10
73.26516736529815
 20
6.941061073323924
 30
0.0
 40
0.0614139746203629
100
AcDbArc
 50
7.530656355309226
 51
172.4693436446907
  0
ARC
  5
383
330
18
100
AcDbEntity
  8
ADP1DETAIL
100
AcDbCircle
 10
72.33555221131982
 20
7.612347037388802
 30
0.0
 40
0.7093372365200752
100
AcDbArc
 50
5.918814841011442
 51
59.06893378316535
  0
CIRCLE
  5
384
330
18
100
AcDbEntity
  8
ADP1DETAIL
100
AcDbCircle
 10
75.76872297404539
 20
7.466501410880889
 30
0.0
 40
0.2505693822502328
  0
LINE
  5
385
330
18
100
AcDbEntity
  8
ADP1DETAIL
100
AcDbLine
 10
74.82458589791718
 20
7.012755371678268
 30
0.0
 11
74.65647259486193
 21
6.744009088962625
 31
0.0
  0
CIRCLE
  5
386
330
18
100
AcDbEntity
  8
ADP1DETAIL
100
AcDbCircle
 10
75.45212476083051
 20
7.855820355663462
 30
0.0
 40
0.2587854168253358
  0
CIRCLE
  5
387
330
18
100
AcDbEntity
  8
ADP1DETAIL
100
AcDbCircle
 10
76.08532113321465
 20
7.904485201843518
 30
0.0
 40
0.2720524997879716
  0
ARC
  5
388
330
18
100
AcDbEntity
  8
ADP1DETAIL
100
AcDbCircle
 10
73.84436129675265
 20
9.186093148608422
 30
0.0
 40
0.5827605217240666
100
AcDbArc
 50
49.77538979449921
 51
98.833426759907
  0
ARC
  5
389
330
18
100
AcDbEntity
  8
ADP1DETAIL
100
AcDbCircle
 10
73.74013370723131
 20
8.809978432492689
 30
0.0
 40
0.8215729332322903
100
AcDbArc
 50
59.06537921669626
 51
92.0182454773516
  0
ARC
  5
38A
330
18
100
AcDbEntity
  8
ADP1DETAIL
100
AcDbCircle
 10
71.06905225419513
 20
13.58075441621175
 30
0.0
 40
5.123769672392119
100
AcDbArc
 50
288.8501206842551
 51
298.3718744351535
  0
ARC
  5
38B
330
18
100
AcDbEntity
  8
ADP1DETAIL
100
AcDbCircle
 10
73.40515680175902
 20
10.13858611607864
 30
0.0
 40
1.796117562950086
100
AcDbArc
 50
251.0514921396376
 51
283.3679725458061
  0
ARC
  5
38C
330
18
100
AcDbEntity
  8
ADP1DETAIL
100
AcDbCircle
 10
72.22525884332013
 20
10.2710704720347
 30
0.0
 40
1.349081748635942
100
AcDbArc
 50
265.3404840933967
 51
289.5094984671962
  0
ARC
  5
38D
330
18
100
AcDbEntity
  8
ADP1DETAIL
100
AcDbCircle
 10
71.5468812501021
 20
9.191499294168453
 30
0.0
 40
0.5335318840168092
100
AcDbArc
 50
347.1059228938461
 51
55.66930909708123
  0
ARC
  5
38E
330
18
100
AcDbEntity
  8
ADP1DETAIL
100
AcDbCircle
 10
73.55509703820104
 20
8.2565195782584
 30
0.0
 40
1.248694186042124
100
AcDbArc
 50
66.12126601933972
 51
84.83414180943613
  0
ARC
  5
38F
330
18
100
AcDbEntity
  8
ADP1DETAIL
100
AcDbCircle
 10
73.75082472865668
 20
9.17599985254929
 30
0.0
 40
0.1031341469364388
100
AcDbArc
 50
27.61020403016363
 51
131.7977394356968
  0
ARC
  5
390
330
18
100
AcDbEntity
  8
ADP1DETAIL
100
AcDbCircle
 10
73.75487122178859
 20
9.083736421288579
 30
0.0
 40
0.2946374391942109
100
AcDbArc
 50
46.23537700729301
 51
104.3021193514765
  0
CIRCLE
  5
391
330
18
100
AcDbEntity
  8
ADP1DETAIL
100
AcDbCircle
 10
75.47647846953934
 20
8.926447392445796
 30
0.0
 40
0.2505694085146286
  0
CIRCLE
  5
392
330
18
100
AcDbEntity
  8
ADP1DETAIL
100
AcDbCircle
 10
75.01375811216266
 20
8.877782546265743
 30
0.0
 40
0.2434009042181603
  0
CIRCLE
  5
393
330
18
100
AcDbEntity
  8
ADP1DETAIL
100
AcDbCircle
 10
76.03661371579699
 20
8.902114951821554
 30
0.0
 40
0.3009910815986054
  0
CIRCLE
  5
394
330
18
100
AcDbEntity
  8
ADP1DETAIL
100
AcDbCircle
 10
75.18423401907892
 20
9.413096064656903
 30
0.0
 40
0.3049456717726613
  0
CIRCLE
  5
395
330
18
100
AcDbEntity
  8
ADP1DETAIL
100
AcDbCircle
 10
75.69566184791887
 20
9.486093351461198
 30
0.0
 40
0.2931444126776521
  0
LWPOLYLINE
  5
396
330
18
100
AcDbEntity
  8
ADP1DETAIL
100
AcDbPolyline
 90
        8
 70
     0
 43
0.0
 10
75.76164564805342
 20
13.00344199388568
 42
-0.0398246510889113
 10
75.01862886471355
 20
12.62595053434929
 42
0.4419682359534519
 10
74.65332328812661
 20
13.45325323502607
 42
0.4641231057187031
 10
74.09318804186899
 20
13.11259917149197
 42
-0.4219175290628979
 10
74.65332328812661
 20
13.1855964933647
 42
-0.4606784052649346
 10
74.67767694278984
 20
12.55295321247657
 42
-0.094846353990411
 10
73.67917504786437
 20
11.94464240728111
 42
0.0638517419726404
 10
72.0663745762223
 20
11.07167601402828
 42
0.000747377604762
  0
LWPOLYLINE
  5
3A0
330
18
100
AcDbEntity
  8
ADP1DETAIL
100
AcDbPolyline
 90
       25
 70
     0
 43
0.0
 10
73.16804190640048
 20
12.75757724456799
 42
0.1430867640284614
 10
72.89985647727282
 20
13.5505829624546
 42
0.3618631585867593
 10
72.36407499376963
 20
13.69657757113162
 42
-0.0110533361272971
 10
71.65781749525897
 20
13.42892082947026
 42
0.5539841027708407
 10
71.60911013188691
 20
13.20992889892051
 42
-0.5089628720048591
 10
72.09618419797243
 20
12.94227215725914
 42
-0.3839853186097435
 10
72.31536757635196
 20
12.30962887637101
 42
-0.4810447275841178
 10
72.31536757635196
 20
11.70131807117555
 42
-0.3603931400069098
 10
72.04747678055475
 20
11.1903369583402
 42
-0.4447603056534769
 10
71.82829345622083
 20
10.77668560800181
 42
-1.323382221216065
 10
71.09768230304695
 20
10.67935588057328
 42
-0.7209583421973066
 10
70.80543785258652
 20
11.1903369583402
 42
-0.6814093508629812
 10
70.58625447420698
 20
11.7256505117998
 42
-0.8118820841883936
 10
70.56190076549815
 20
12.47995592567227
 42
-0.6469719481336598
 10
70.73237672646001
 20
12.9179397166349
 42
-0.4597693095539997
 10
71.24380455529998
 20
13.23426133954475
 10
71.2681582640088
 20
13.40458838884601
 42
-0.416612709909682
 10
70.31836373245539
 20
14.06156407528996
 42
-0.2956951272083674
 10
70.51319340212609
 20
14.52388030687683
 42
-0.0124253287897252
 10
71.48734158834272
 20
14.6455424749296
 42
-0.3846846751831783
 10
71.31686562738088
 20
14.35355325757556
 42
-0.0453215750076833
 10
70.73237672646001
 20
14.3778856981998
 42
0.5964431603043884
 10
71.00026746821161
 20
13.69657757113162
 42
0.1521738947260281
 10
72.07183048926359
 20
13.86690462043288
 42
-0.2034498219069604
 10
72.8117333267881
 20
13.9147334880958
 42
-0.1644114206700729
  0
CIRCLE
  5
3BB
330
18
100
AcDbEntity
  8
ADP1DETAIL
100
AcDbCircle
 10
71.17074342917345
 20
12.96660459788338
 30
0.0
 40
0.2296080756419875
  0
LWPOLYLINE
  5
3BC
330
18
100
AcDbEntity
  8
ADP1DETAIL
100
AcDbPolyline
 90
        3
 70
     0
 43
0.0
 10
72.93879803612679
 20
12.88165614736088
 10
72.38842870247847
 20
13.28292622079324
 42
-0.078323687769172
 10
72.29590119593162
 20
13.66917323975394
 42
-0.569980000973183
  0
CIRCLE
  5
3C1
330
18
100
AcDbEntity
  8
ADP1DETAIL
100
AcDbCircle
 10
71.80393974751201
 20
12.96660459788338
 30
0.0
 40
0.2308579182903912
  0
LWPOLYLINE
  5
3C2
330
18
100
AcDbEntity
  8
ADP1DETAIL
100
AcDbPolyline
 90
        2
 70
     0
 43
0.0
 10
73.15794135069717
 20
13.63283964496474
 42
-0.1278035345230643
 10
73.48137694291986
 20
12.61294717745792
 42
-1.001760781938276
  0
CIRCLE
  5
3C6
330
18
100
AcDbEntity
  8
ADP1DETAIL
100
AcDbCircle
 10
71.95006199976501
 20
12.57728565310081
 30
0.0
 40
0.2587853992177529
  0
LINE
  5
3C7
330
18
100
AcDbEntity
  8
ADP1DETAIL
100
AcDbLine
 10
71.80690165444126
 20
12.77711823875614
 30
0.0
 11
71.72708774462208
 21
12.61749041911778
 31
0.0
  0
CIRCLE
  5
3C8
330
18
100
AcDbEntity
  8
ADP1DETAIL
100
AcDbCircle
 10
71.68217120396781
 20
12.04197213470965
 30
0.0
 40
0.2774492016706006
  0
CIRCLE
  5
3C9
330
18
100
AcDbEntity
  8
ADP1DETAIL
100
AcDbCircle
 10
71.97441570847385
 20
11.50665858125005
 30
0.0
 40
0.2620999276183074
  0
CIRCLE
  5
3CA
330
18
100
AcDbEntity
  8
ADP1DETAIL
100
AcDbCircle
 10
71.63346384059574
 20
11.11733967153591
 30
0.0
 40
0.285023727709699
  0
CIRCLE
  5
3CB
330
18
100
AcDbEntity
  8
ADP1DETAIL
100
AcDbCircle
 10
71.38992675350738
 20
11.57965590312277
 30
0.0
 40
0.2396812473525968
  0
CIRCLE
  5
3CC
330
18
100
AcDbEntity
  8
ADP1DETAIL
100
AcDbCircle
 10
70.85414527000418
 20
11.45799373507
 30
0.0
 40
0.2540563968783701
  0
CIRCLE
  5
3CD
330
18
100
AcDbEntity
  8
ADP1DETAIL
100
AcDbCircle
 10
71.43863417092505
 20
10.58202615314474
 30
0.0
 40
0.293144389390827
  0
LWPOLYLINE
  5
3CE
330
18
100
AcDbEntity
  8
ADP1DETAIL
100
AcDbPolyline
 90
        3
 70
     0
 43
0.0
 10
71.2106184892516
 20
10.34880867664921
 42
0.0167549436709254
 10
70.87849897871302
 20
9.998047753505099
 42
0.000747377604762
 10
70.87202667767709
 20
9.989997273092098
 42
0.0521458766910201
  0
CIRCLE
  5
3D3
330
18
100
AcDbEntity
  8
ADP1DETAIL
100
AcDbCircle
 10
71.09768230304695
 20
10.99567750348313
 30
0.0
 40
0.207918809914174
  0
CIRCLE
  5
3D4
330
18
100
AcDbEntity
  8
ADP1DETAIL
100
AcDbCircle
 10
70.61060818291583
 20
12.0906369808897
 30
0.0
 40
0.2409841426101356
  0
CIRCLE
  5
3D5
330
18
100
AcDbEntity
  8
ADP1DETAIL
100
AcDbCircle
 10
71.09768230304695
 20
12.0176396940854
 30
0.0
 40
0.2775238792471148
  0
LINE
  5
3D6
330
18
100
AcDbEntity
  8
ADP1DETAIL
100
AcDbLine
 10
71.16839037588781
 20
12.5775834642082
 30
0.0
 11
71.24820428570699
 21
12.37804868966025
 31
0.0
  0
CIRCLE
  5
3D7
330
18
100
AcDbEntity
  8
ADP1DETAIL
100
AcDbCircle
 10
71.41428046221621
 20
12.55295321247657
 30
0.0
 40
0.2587554256125375
  0
CIRCLE
  5
3D8
330
18
100
AcDbEntity
  8
ADP1DETAIL
100
AcDbCircle
 10
70.82979156129536
 20
12.57728565310081
 30
0.0
 40
0.2396812253865777
  0
LWPOLYLINE
  5
3D9
330
18
100
AcDbEntity
  8
ADP1DETAIL
100
AcDbPolyline
 90
        3
 70
     0
 43
0.0
 10
76.46267182667575
 20
11.01553581137103
 42
0.000507190582236
 10
76.4554974623525
 20
11.02000994410737
 42
0.0190114424622678
 10
74.83544285081759
 20
11.95322882503097
 42
-0.0015538407450916
  0
LWPOLYLINE
  5
3DE
330
18
100
AcDbEntity
  8
ADP1DETAIL
100
AcDbPolyline
 90
        3
 70
     0
 43
0.0
 10
74.2526462970591
 20
11.67163684975615
 42
0.0079266884056243
 10
75.09168993679447
 20
11.28766668576874
 42
-0.0433013015757963
 10
75.88561966126547
 20
10.87930405901579
 42
-0.068626992761406
  0
ARC
  5
3E3
330
18
100
AcDbEntity
  8
ADP1DETAIL
100
AcDbCircle
 10
73.90781513359764
 20
9.317142064625206
 30
0.0
 40
0.9282168964863352
100
AcDbArc
 50
48.20845579532536
 51
85.05756461480993
  0
ARC
  5
3E4
330
18
100
AcDbEntity
  8
ADP1DETAIL
100
AcDbCircle
 10
73.95385277409992
 20
9.455592968484255
 30
0.0
 40
0.673398075473846
100
AcDbArc
 50
47.36729662933981
 51
95.79283366811923
  0
ARC
  5
3E5
330
18
100
AcDbEntity
  8
ADP1DETAIL
100
AcDbCircle
 10
74.13996116862749
 20
9.656953222803048
 30
0.0
 40
0.659595413777336
100
AcDbArc
 50
50.94900955818398
 51
94.37143962054486
  0
LWPOLYLINE
  5
3E6
330
18
100
AcDbEntity
  8
ADP1DETAIL
100
AcDbPolyline
 90
        4
 70
     0
 43
0.0
 10
74.12234040308219
 20
10.42115492467546
 42
-0.0585028759771766
 10
74.01525616319159
 20
10.53238798268771
 42
-0.4143513101496137
 10
74.30750061365202
 20
11.04336906045463
 42
-0.5268003687175535
 10
74.16137841544461
 20
10.43505825525918
 42
-0.1847284479246342
  0
LWPOLYLINE
  5
3EC
330
18
100
AcDbEntity
  8
ADP1DETAIL
100
AcDbPolyline
 90
        5
 70
     0
 43
0.0
 10
74.6240988268669
 20
10.3133960872064
 42
0.4080174040864294
 10
74.6971598989478
 20
11.04336906045463
 42
0.2806719772418243
 10
74.16137841544461
 20
11.23802855038014
 42
0.2000841793436217
 10
73.79854260745836
 20
10.89640682882005
 42
0.1966881601389031
 10
73.91784132835624
 20
10.26473120595791
 42
-0.8741299758260565
  0
LWPOLYLINE
  5
3F3
330
18
100
AcDbEntity
  8
ADP1DETAIL
100
AcDbPolyline
 90
        3
 70
     0
 43
0.0
 10
75.93844251988753
 20
10.89640682882005
 42
0.0788264984016559
 10
74.91634327732731
 20
10.38639337401069
 42
-0.0927508910343584
 10
74.69348801325591
 20
10.28819255247271
 42
-0.4143513101496137
  0
LWPOLYLINE
  5
3F8
330
18
100
AcDbEntity
  8
ADP1DETAIL
100
AcDbPolyline
 90
        2
 70
     0
 43
0.0
 10
75.13552660166124
 20
10.21606635977786
 42
-0.0362013526995069
 10
75.64695443050121
 20
10.60538526949201
 42
-0.0131659093750952
  0
LWPOLYLINE
  5
3FC
330
18
100
AcDbEntity
  8
ADP1DETAIL
100
AcDbPolyline
 90
        2
 70
     0
 43
0.0
 10
74.45362286590503
 20
9.972742023672312
 42
0.1335636272170571
 10
74.9522927779772
 20
10.08846311777572
 42
-0.0362013526995069
  0
LWPOLYLINE
  5
400
330
18
100
AcDbEntity
  8
ADP1DETAIL
100
AcDbPolyline
 90
        3
 70
     0
 43
0.0
 10
74.2708531173802
 20
12.24123879758301
 42
0.0085702991825861
 10
73.50869914094812
 20
12.60161809372505
 42
-0.0015538407450916
 10
73.48137694291986
 20
12.61294717745792
  0
CIRCLE
  5
405
330
18
100
AcDbEntity
  8
ADP1DETAIL
100
AcDbCircle
 10
72.1448916153901
 20
12.0176396940854
 30
0.0
 40
0.2296081043041036
  0
LWPOLYLINE
  5
406
330
18
100
AcDbEntity
  8
ADP1DETAIL
100
AcDbPolyline
 90
        3
 70
     0
 43
0.0
 10
72.09473750258879
 20
12.95241723215426
 42
0.0552826520245583
 10
73.36257688869512
 20
12.11496942151394
 42
0.0031455893535228
 10
73.68857680700561
 20
11.948177628979
 42
-0.0433013015757963
  0
LWPOLYLINE
  5
40B
330
18
100
AcDbEntity
  8
ADP1DETAIL
100
AcDbPolyline
 90
        2
 70
     0
 43
0.0
 10
73.16804190640048
 20
12.75757724456799
 42
-0.0136964918646574
 10
72.93879803612679
 20
12.88165614736088
  0
ARC
  5
40F
330
18
100
AcDbEntity
  8
ADP1DETAIL
100
AcDbCircle
 10
75.66654799491974
 20
11.71912552681131
 30
0.0
 40
0.6625444473410879
100
AcDbArc
 50
31.50275892744822
 51
89.58834682675972
  0
ARC
  5
410
330
18
100
AcDbEntity
  8
ADP1DETAIL
100
AcDbCircle
 10
75.77792637746933
 20
10.83865277757529
 30
0.0
 40
1.158597311071758
100
AcDbArc
 50
62.96747619363801
 51
95.28003120069337
  0
LWPOLYLINE
  5
411
330
18
100
AcDbEntity
  8
ADP1DETAIL
100
AcDbPolyline
 90
        2
 70
     0
 43
0.0
 10
75.96603255806726
 20
12.55629237187995
 42
0.0177286922125915
 10
76.4057260469763
 20
12.87362854216643
 42
-0.2007151920918734
  0
ARC
  5
415
330
18
100
AcDbEntity
  8
ADP1DETAIL
100
AcDbCircle
 10
72.78012684731797
 20
16.5380270017467
 30
0.0
 40
1.360578495738771
100
AcDbArc
 50
206.3015231420258
 51
234.9505473342526
  0
ARC
  5
416
330
18
100
AcDbEntity
  8
ADP1DETAIL
100
AcDbCircle
 10
71.29863324990802
 20
13.23171141550204
 30
0.0
 40
1.595358153938537
100
AcDbArc
 50
68.74425276069486
 51
83.20681401623668
  0
ARC
  5
417
330
18
100
AcDbEntity
  8
ADP1DETAIL
100
AcDbCircle
 10
70.20309746533802
 20
11.6962086780949
 30
0.0
 40
3.804849822566538
100
AcDbArc
 50
60.58413208211414
 51
72.59500429575301
  0
LINE
  5
418
330
18
100
AcDbEntity
  8
ADP1DETAIL
100
AcDbLine
 10
71.68718078971247
 20
15.41097726278908
 30
0.0
 11
71.84680860935085
 21
15.25134944315072
 31
0.0
  0
LWPOLYLINE
  5
419
330
18
100
AcDbEntity
  8
ADP1DETAIL
100
AcDbPolyline
 90
        2
 70
     0
 43
0.0
 10
71.82824512268467
 20
13.7674959828379
 42
-0.0402866280397398
 10
71.35451886417417
 20
14.36896961053008
  0
LWPOLYLINE
  5
41D
330
18
100
AcDbEntity
  8
ADP1DETAIL
100
AcDbPolyline
 90
        2
 70
     0
 43
0.0
 10
71.60869925922092
 20
13.39804491276639
 42
0.0080848760388593
 10
71.76812541135547
 20
13.24229449569832
 42
0.016469998018334
  0
LWPOLYLINE
  5
421
330
18
100
AcDbEntity
  8
ADP1DETAIL
100
AcDbPolyline
 90
        5
 70
     0
 43
0.0
 10
71.48734158834272
 20
14.9861965384637
 10
71.29251191867203
 20
14.93753165721521
 42
0.1826446068411259
 10
71.95006199976501
 20
14.52388030687683
 42
-0.6177924056048454
 10
72.24230645022544
 20
14.3778856981998
 42
-0.1073527308352409
 10
72.04747678055475
 20
13.84257217980864
 42
-0.5514152202386159
  0
LWPOLYLINE
  5
428
330
18
100
AcDbEntity
  8
ADP1DETAIL
100
AcDbPolyline
 90
        3
 70
     0
 43
0.0
 10
70.8169328636846
 20
14.36777411738408
 42
0.0227400553416016
 10
71.04897488562928
 20
14.03723163466571
 42
0.0168485542724702
 10
71.34500507001937
 20
13.67945470007248
 42
0.016469998018334
  0
CIRCLE
  5
42D
330
18
100
AcDbEntity
  8
ADP1DETAIL
100
AcDbCircle
 10
76.13889930318322
 20
14.76720464298238
 30
0.0
 40
0.2620999276183063
  0
ARC
  5
42E
330
18
100
AcDbEntity
  8
ADP1DETAIL
100
AcDbCircle
 10
75.35958073259166
 20
14.25622353014703
 30
0.0
 40
0.2587553900056454
100
AcDbArc
 50
43.04388709719161
 51
330.3641755749854
  0
ARC
  5
42F
330
18
100
AcDbEntity
  8
ADP1DETAIL
100
AcDbCircle
 10
74.96727767888953
 20
14.73070598204602
 30
0.0
 40
0.2555042346615812
100
AcDbArc
 50
89.4071351693206
 51
270.5928648306794
  0
CIRCLE
  5
430
330
18
100
AcDbEntity
  8
ADP1DETAIL
100
AcDbCircle
 10
75.11604364550329
 20
14.7185397617339
 30
0.0
 40
0.2434009647095773
  0
CIRCLE
  5
431
330
18
100
AcDbEntity
  8
ADP1DETAIL
100
AcDbCircle
 10
75.77359372659628
 20
14.30488841139552
 30
0.0
 40
0.2587553636239624
  0
ARC
  5
432
330
18
100
AcDbEntity
  8
ADP1DETAIL
100
AcDbCircle
 10
78.01277315559189
 20
23.1749175724536
 30
0.0
 40
10.08081342227593
100
AcDbArc
 50
242.2170449553069
 51
247.4192789421954
  0
ARC
  5
433
330
18
100
AcDbEntity
  8
ADP1DETAIL
100
AcDbCircle
 10
76.24334338560025
 20
14.92110342311545
 30
0.0
 40
3.405526200491802
100
AcDbArc
 50
192.9332363108194
 51
202.3959600107551
  0
ARC
  5
434
330
18
100
AcDbEntity
  8
ADP1DETAIL
100
AcDbCircle
 10
72.67300124073081
 20
13.20186900094931
 30
0.0
 40
1.04622287012085
100
AcDbArc
 50
23.77085206707384
 51
60.25336627985116
  0
ARC
  5
435
330
18
100
AcDbEntity
  8
ADP1DETAIL
100
AcDbCircle
 10
76.00215455523155
 20
13.85537551865031
 30
0.0
 40
0.4331916939711268
100
AcDbArc
 50
291.8320544631148
 51
7.987353893439872
  0
ARC
  5
436
330
18
100
AcDbEntity
  8
ADP1DETAIL
100
AcDbCircle
 10
75.55405703219128
 20
13.8121689021162
 30
0.0
 40
0.3953479778884826
100
AcDbArc
 50
149.4872116103092
 51
255.7880791675853
  0
CIRCLE
  5
437
330
18
100
AcDbEntity
  8
ADP1DETAIL
100
AcDbCircle
 10
75.55441034821675
 20
13.74524245238011
 30
0.0
 40
0.2720924672571475
  0
CIRCLE
  5
438
330
18
100
AcDbEntity
  8
ADP1DETAIL
100
AcDbCircle
 10
76.0658381770567
 20
13.76957489300435
 30
0.0
 40
0.2633547895695504
  0
ARC
  5
439
330
18
100
AcDbEntity
  8
ADP1DETAIL
100
AcDbCircle
 10
75.81388314131969
 20
13.33198412215
 30
0.0
 40
0.3698182042592125
100
AcDbArc
 50
164.8041137758176
 51
19.14230217427462
  0
CIRCLE
  5
43A
330
18
100
AcDbEntity
  8
ADP1DETAIL
100
AcDbCircle
 10
75.87100850738602
 20
13.25859378016899
 30
0.0
 40
0.2409841426101372
  0
ARC
  5
43B
330
18
100
AcDbEntity
  8
ADP1DETAIL
100
AcDbCircle
 10
75.18508106240273
 20
14.29325348662507
 30
0.0
 40
0.2817868116480247
100
AcDbArc
 50
139.7785733203042
 51
275.7797846964446
  0
ARC
  5
43C
330
18
100
AcDbEntity
  8
ADP1DETAIL
100
AcDbCircle
 10
72.02731487595537
 20
26.10866677580958
 30
0.0
 40
10.56724389331754
100
AcDbArc
 50
278.8596322286942
 51
283.0298208539586
  0
ARC
  5
43D
330
18
100
AcDbEntity
  8
ADP1DETAIL
100
AcDbCircle
 10
73.87400469051226
 20
14.40043068561565
 30
0.0
 40
1.048364992512199
100
AcDbArc
 50
72.42269358270083
 51
107.5773064172991
  0
ARC
  5
43E
330
18
100
AcDbEntity
  8
ADP1DETAIL
100
AcDbCircle
 10
72.52969676019197
 20
19.91608495021291
 30
0.0
 40
4.304190488308602
100
AcDbArc
 50
286.5011560502086
 51
295.5403281832983
  0
ARC
  5
43F
330
18
100
AcDbEntity
  8
ADP1DETAIL
100
AcDbCircle
 10
71.29556931096084
 20
14.73800646363882
 30
0.0
 40
0.9812924095055985
100
AcDbArc
 50
351.7310816833746
 51
55.41013600359087
  0
LINE
  5
440
330
18
100
AcDbEntity
  8
ADP1DETAIL
100
AcDbLine
 10
72.38842870247847
 20
15.20518843394501
 30
0.0
 11
72.38842870247847
 21
15.93516144226168
 31
0.0
  0
LINE
  5
441
330
18
100
AcDbEntity
  8
ADP1DETAIL
100
AcDbLine
 10
72.60761202681239
 20
16.00815872906597
 30
0.0
 11
72.63196573552122
 21
15.22952087456926
 31
0.0
  0
LINE
  5
442
330
18
100
AcDbEntity
  8
ADP1DETAIL
100
AcDbLine
 10
72.55890460939472
 20
15.10785870651647
 30
0.0
 11
72.38842870247847
 21
15.20518843394501
 31
0.0
  0
LINE
  5
443
330
18
100
AcDbEntity
  8
ADP1DETAIL
100
AcDbLine
 10
72.63196573552122
 20
15.22952087456926
 30
0.0
 11
72.48584348326821
 21
14.79153708360662
 31
0.0
  0
ARC
  5
444
330
18
100
AcDbEntity
  8
ADP1DETAIL
100
AcDbCircle
 10
73.55793817281082
 20
14.37166268958143
 30
0.0
 40
0.8876112926526126
100
AcDbArc
 50
65.73476228977295
 51
117.8419354447939
  0
LINE
  5
445
330
18
100
AcDbEntity
  8
ADP1DETAIL
100
AcDbLine
 10
71.97441570847385
 20
15.93516144226168
 30
0.0
 11
72.09618419797243
 21
15.47284521067481
 31
0.0
  0
ARC
  5
446
330
18
100
AcDbEntity
  8
ADP1DETAIL
100
AcDbCircle
 10
75.25918994559318
 20
15.2219500412501
 30
0.0
 40
0.3731701732229364
100
AcDbArc
 50
93.28409464941312
 51
219.1799956052062
  0
CIRCLE
  5
447
330
18
100
AcDbEntity
  8
ADP1DETAIL
100
AcDbCircle
 10
75.31087331517397
 20
15.25385331519349
 30
0.0
 40
0.2754103892191986
  0
CIRCLE
  5
448
330
18
100
AcDbEntity
  8
ADP1DETAIL
100
AcDbCircle
 10
75.91971592480368
 20
15.22952087456926
 30
0.0
 40
0.2587553992308589
  0
CIRCLE
  5
449
330
18
100
AcDbEntity
  8
ADP1DETAIL
100
AcDbCircle
 10
75.60311776563442
 20
14.79153708360662
 30
0.0
 40
0.2620999276183063
  0
ARC
  5
44A
330
18
100
AcDbEntity
  8
ADP1DETAIL
100
AcDbCircle
 10
75.50037792489232
 20
15.64798417461002
 30
0.0
 40
0.2558735701019841
100
AcDbArc
 50
280.4016450358574
 51
208.2403264862496
  0
ARC
  5
44B
330
18
100
AcDbEntity
  8
ADP1DETAIL
100
AcDbCircle
 10
75.53094888720983
 20
15.67629434048304
 30
0.0
 40
0.3043324348844633
100
AcDbArc
 50
50.41255130533397
 51
195.5894328942083
  0
ARC
  5
44C
330
18
100
AcDbEntity
  8
ADP1DETAIL
100
AcDbCircle
 10
75.91971592480368
 20
15.69183710615612
 30
0.0
 40
0.2587553992308605
100
AcDbArc
 50
220.7334737367547
 51
306.7378490556165
  0
ARC
  5
44D
330
18
100
AcDbEntity
  8
ADP1DETAIL
100
AcDbCircle
 10
75.91971592480368
 20
15.69183710615612
 30
0.0
 40
0.2587553992308605
100
AcDbArc
 50
33.26331578216838
 51
151.2067181645778
  0
ARC
  5
44E
330
18
100
AcDbEntity
  8
ADP1DETAIL
100
AcDbCircle
 10
74.25373435701519
 20
7.481448107043577
 30
0.0
 40
4.167634898446461
100
AcDbArc
 50
10.23223356402761
 51
51.84707541684822
  0
ARC
  5
44F
330
18
100
AcDbEntity
  8
ADP1DETAIL
100
AcDbCircle
 10
73.26203736910549
 20
7.350458126038814
 30
0.0
 40
5.096947288428966
100
AcDbArc
 50
331.3775850144241
 51
357.7590016964586
  0
ARC
  5
450
330
18
100
AcDbEntity
  8
ADP1DETAIL
100
AcDbCircle
 10
73.12430667635602
 20
7.360158175694001
 30
0.0
 40
4.758844451399832
100
AcDbArc
 50
329.8773577630917
 51
357.980208994562
  0
ARC
  5
451
330
18
100
AcDbEntity
  8
ADP1DETAIL
100
AcDbCircle
 10
77.14346203266551
 20
3.588684069920854
 30
0.0
 40
1.595358153938537
100
AcDbArc
 50
96.79318598376333
 51
111.2557472393051
  0
LWPOLYLINE
  5
452
330
18
100
AcDbEntity
  8
ADP1DETAIL
100
AcDbPolyline
 90
        3
 70
     0
 43
0.0
 10
77.62516241888893
 20
4.724746771802889
 42
-0.0227400553416016
 10
77.39312039694425
 20
4.394204289084518
 42
-0.0168485542724702
 10
77.09709021255417
 20
4.036427354491285
 42
-0.016469998018334
  0
LWPOLYLINE
  5
457
330
18
100
AcDbEntity
  8
ADP1DETAIL
100
AcDbPolyline
 90
        2
 70
     0
 43
0.0
 10
76.61385015988887
 20
4.124468637256699
 42
0.0402866280397398
 10
77.08757641839937
 20
4.725942264948882
  0
LINE
  5
45B
330
18
100
AcDbEntity
  8
ADP1DETAIL
100
AcDbLine
 10
76.75491449286106
 20
5.76794991720788
 30
0.0
 11
76.5952866732227
 21
5.608322097569528
 31
0.0
  0
ARC
  5
45C
330
18
100
AcDbEntity
  8
ADP1DETAIL
100
AcDbCircle
 10
76.92986975064413
 20
7.71786708250754
 30
0.0
 40
0.7400666455820036
100
AcDbArc
 50
38.30533918429936
 51
83.3423159269102
  0
LWPOLYLINE
  5
45D
330
18
100
AcDbEntity
  8
ADP1DETAIL
100
AcDbPolyline
 90
        8
 70
     0
 43
0.0
 10
77.86114942207058
 20
7.885024732303557
 42
0.2199849343523009
 10
77.49783602214475
 20
8.172141978573312
 42
-0.3207321305021145
 10
77.37606747860056
 20
7.320506802203871
 42
-0.585636030453001
 10
76.71851745155319
 20
7.953150083092003
 42
-0.231074270093072
 10
77.01076190201362
 20
8.293804146626092
 42
-0.0493203847433852
 10
77.37606747860056
 20
8.001814929272052
 42
-0.4980154529165476
 10
77.05946931943128
 20
7.636828460182153
 42
-0.6345889534767803
 10
77.15688415426665
 20
8.14780953794907
 42
7.910833556990888
  0
LINE
  5
467
330
18
100
AcDbEntity
  8
ADP1DETAIL
100
AcDbLine
 10
78.3550864714137
 20
7.15115307717958
 30
0.0
 11
78.3550864714137
 21
8.221780113961914
 31
0.0
  0
ARC
  5
468
330
18
100
AcDbEntity
  8
ADP1DETAIL
100
AcDbCircle
 10
72.8763757807627
 20
7.138527125941026
 30
0.0
 40
5.040359801778324
100
AcDbArc
 50
0.143524371932624
 51
8.517068355372709
  0
LWPOLYLINE
  5
469
330
18
100
AcDbEntity
  8
ADP1DETAIL
100
AcDbPolyline
 90
        3
 70
     0
 43
0.0
 10
77.79008047260518
 20
8.293804146626092
 42
0.199838740567585
 10
77.27865269781083
 20
8.415466314678871
 42
-0.3226626395239929
 10
76.7915785776797
 20
8.658790650784427
 42
0.6045596826334523
  0
ARC
  5
46E
330
18
100
AcDbEntity
  8
ADP1DETAIL
100
AcDbCircle
 10
76.8860191517789
 20
8.085289591115929
 30
0.0
 40
0.2528258658249966
100
AcDbArc
 50
55.22267479627756
 51
110.5396213720714
  0
ARC
  5
46F
330
18
100
AcDbEntity
  8
ADP1DETAIL
100
AcDbCircle
 10
74.82784190972832
 20
13.03399017590887
 30
0.0
 40
2.313821830895338
100
AcDbArc
 50
334.6126482677638
 51
12.28342601435154
  0
LWPOLYLINE
  5
470
330
18
100
AcDbEntity
  8
ADP1DETAIL
100
AcDbPolyline
 90
       26
 70
     0
 43
0.0
 10
76.84515674764828
 20
10.70368832119752
 42
-0.1413182920768595
 10
76.82080303893943
 20
11.23900183958869
 42
-0.8648136973572176
 10
77.08869378069102
 20
11.21466939896444
 42
-0.0622847063431418
 10
77.28352345036171
 20
10.87401533543035
 42
0.5614376939529464
 10
77.60012160953099
 20
10.82535045418187
 42
0.3651135990813243
 10
77.60012160953099
 20
11.06867479028742
 42
0.188546234030582
 10
78.06284202095326
 20
11.1903369583402
 42
0.5832164673600247
 10
78.01413460353559
 20
11.43366129444576
 42
-0.3683045428032368
 10
78.20896421916069
 20
11.65265318992707
 42
0.4143725419229852
 10
78.01413460353559
 20
11.92030996665687
 42
0.0781157398504126
 10
77.81930493386491
 20
11.92030996665687
 42
0.4042812553644403
 10
77.86801235128257
 20
12.21229914894248
 42
0.6933342641717212
 10
77.57576790082215
 20
12.13930186213818
 42
-0.6707906719713849
 10
77.30787715907055
 20
11.94464240728111
 42
-1.280505151694012
 10
77.21046232423521
 20
12.04197213470965
 42
-0.0111465905492205
 10
77.55141419211331
 20
12.23663158956672
 42
0.2022684708774372
 10
77.7462438077384
 20
12.47995592567227
 42
-0.3124626264619293
 10
77.86801235128257
 20
12.62595053434929
 42
0.0161115024573218
 10
77.60012160953099
 20
12.67461538052935
 42
0.2730729797898306
 10
77.72189009902956
 20
12.96660459788338
 42
-0.265408168019303
 10
77.81930493386491
 20
13.20992889892051
 42
0.1478906066195722
 10
77.40529193986029
 20
13.08826676593616
 42
0.2137746827240428
 10
77.06434007198218
 20
13.72091001175586
 42
0.4279970900379487
 10
76.94257152843801
 20
13.30725866141748
 42
0.0277792666204919
 10
76.99127894585567
 20
13.01526944406344
 42
-0.1706506420060796
 10
76.94257152843801
 20
12.60161809372505
 42
-0.6238481679096245
  0
ARC
  5
48C
330
18
100
AcDbEntity
  8
ADP1DETAIL
100
AcDbCircle
 10
78.48015252135223
 20
13.43021939608785
 30
0.0
 40
1.882552801742163
100
AcDbArc
 50
183.7449945997325
 51
211.1780385512475
  0
ARC
  5
48D
330
18
100
AcDbEntity
  8
ADP1DETAIL
100
AcDbCircle
 10
74.23690306099707
 20
12.22172032239389
 30
0.0
 40
2.689492333648358
100
AcDbArc
 50
4.469134322857057
 51
21.00110258359914
  0
ARC
  5
48E
330
18
100
AcDbEntity
  8
ADP1DETAIL
100
AcDbCircle
 10
74.56400210490054
 20
14.846374417295
 30
0.0
 40
3.56643263115409
100
AcDbArc
 50
317.9060717731232
 51
329.1075881133739
  0
ARC
  5
48F
330
18
100
AcDbEntity
  8
ADP1DETAIL
100
AcDbCircle
 10
75.90386160545887
 20
9.886431898439118
 30
0.0
 40
1.910937161251679
100
AcDbArc
 50
37.25973330680736
 51
52.79033296896623
  0
ARC
  5
490
330
18
100
AcDbEntity
  8
ADP1DETAIL
100
AcDbCircle
 10
76.71604288616439
 20
8.898553862669059
 30
0.0
 40
2.661421786953869
100
AcDbArc
 50
61.52580341304155
 51
86.27405058271891
  0
ARC
  5
491
330
18
100
AcDbEntity
  8
ADP1DETAIL
100
AcDbCircle
 10
76.87339554840801
 20
12.44015859572371
 30
0.0
 40
0.8976354345366001
100
AcDbArc
 50
295.1089525458053
 51
345.2306593647532
  0
ARC
  5
492
330
18
100
AcDbEntity
  8
ADP1DETAIL
100
AcDbCircle
 10
75.39166680308596
 20
19.04818983959365
 30
0.0
 40
7.790812594974264
100
AcDbArc
 50
285.8706229832193
 51
290.9692448565
  0
ARC
  5
493
330
18
100
AcDbEntity
  8
ADP1DETAIL
100
AcDbCircle
 10
77.11472695797805
 20
11.84745535290946
 30
0.0
 40
0.1481839541010355
100
AcDbArc
 50
210.0095133994588
 51
340.3703213972095
  0
ARC
  5
494
330
18
100
AcDbEntity
  8
ADP1DETAIL
100
AcDbCircle
 10
77.14449467689552
 20
11.85850557588772
 30
0.0
 40
0.1795665871994303
100
AcDbArc
 50
118.2619395749557
 51
208.31199781225
  0
ARC
  5
495
330
18
100
AcDbEntity
  8
ADP1DETAIL
100
AcDbCircle
 10
76.59704881197287
 20
14.70225775641083
 30
0.0
 40
0.3256591195756894
100
AcDbArc
 50
275.0956404046194
 51
40.37120574941946
  0
ARC
  5
496
330
18
100
AcDbEntity
  8
ADP1DETAIL
100
AcDbCircle
 10
71.71239042848899
 20
18.91332079156531
 30
0.0
 40
7.648874537813454
100
AcDbArc
 50
315.8747702677993
 51
319.2017900027423
  0
LWPOLYLINE
  5
497
330
18
100
AcDbEntity
  8
ADP1DETAIL
100
AcDbPolyline
 90
        2
 70
     0
 43
0.0
 10
76.82437485643337
 20
13.22360226569208
 42
0.0048476022974004
 10
76.93373207224117
 20
13.32378833039915
 42
-0.2007151920918734
  0
ARC
  5
49B
330
18
100
AcDbEntity
  8
ADP1DETAIL
100
AcDbCircle
 10
77.89640728954859
 20
13.46455760224307
 30
0.0
 40
0.5986750347207339
100
AcDbArc
 50
85.72127762813744
 51
131.1185915503922
  0
ARC
  5
49C
330
18
100
AcDbEntity
  8
ADP1DETAIL
100
AcDbCircle
 10
77.8678343550716
 20
13.80351525797772
 30
0.0
 40
0.2682408640699787
100
AcDbArc
 50
357.9473175919038
 51
74.15505772349658
  0
ARC
  5
49D
330
18
100
AcDbEntity
  8
ADP1DETAIL
100
AcDbCircle
 10
78.08719570263931
 20
15.49911401911686
 30
0.0
 40
1.123606190721963
100
AcDbArc
 50
257.4820230906828
 51
273.7282173672439
  0
ARC
  5
49E
330
18
100
AcDbEntity
  8
ADP1DETAIL
100
AcDbCircle
 10
77.8179112063145
 20
14.09966555790315
 30
0.0
 40
0.4411427809405727
100
AcDbArc
 50
316.1235995142491
 51
39.10034488861807
  0
ARC
  5
49F
330
18
100
AcDbEntity
  8
ADP1DETAIL
100
AcDbCircle
 10
76.61567119354714
 20
15.16307943604168
 30
0.0
 40
0.3392694004593102
100
AcDbArc
 50
312.5638184606403
 51
79.98352328822267
  0
DIMENSION
  5
4A0
330
18
100
AcDbEntity
  8
ADPDIM
100
AcDbDimension
  2
*D0
 10
78.3738097031221
 20
26.84026977356679
 30
0.0
 11
74.2488097031221
 21
26.84026977356679
 31
0.0
 12
-9.099846580602019
 22
4.920355226526801
 32
0.0
100
AcDbAlignedDimension
 13
70.12380970312211
 23
26.38813964126344
 33
0.0
 14
78.3738097031221
 24
26.38813964126344
 34
0.0
100
AcDbRotatedDimension
  0
ARC
  5
4A1
330
18
100
AcDbEntity
  8
ADP1DETAIL
100
AcDbCircle
 10
78.27579870919779
 20
21.27321929517141
 30
0.0
 40
3.804849822566538
100
AcDbArc
 50
107.4049957042469
 51
119.4158679178858
  0
ARC
  5
4A2
330
18
100
AcDbEntity
  8
ADP1DETAIL
100
AcDbCircle
 10
77.18332686357496
 20
24.31501708071533
 30
0.0
 40
0.9812924095055985
100
AcDbArc
 50
124.5898639964091
 51
188.2689183166253
  0
CIRCLE
  5
4A3
330
18
100
AcDbEntity
  8
ADP1DETAIL
100
AcDbCircle
 10
76.6749564270238
 20
22.5436152149599
 30
0.0
 40
0.2308579182903912
  0
LWPOLYLINE
  5
4A4
330
18
100
AcDbEntity
  8
ADP1DETAIL
100
AcDbPolyline
 90
        5
 70
     0
 43
0.0
 10
76.99155458619306
 20
24.56320715554021
 10
77.18638425586376
 20
24.51454227429172
 42
-0.1826446068411259
 10
76.52883417477077
 20
24.10089092395334
 42
0.6177924056048454
 10
76.23658972431034
 20
23.95489631527631
 42
0.1073527308352409
 10
76.43141939398103
 20
23.41958279688515
 42
0.5514152202386159
  0
LWPOLYLINE
  5
4AB
330
18
100
AcDbEntity
  8
ADP1DETAIL
100
AcDbPolyline
 90
        6
 70
     0
 43
0.0
 10
76.50448046606193
 20
25.48783961871395
 42
-0.1679554018628169
 10
77.11332312973725
 20
25.87715852842809
 42
-0.3370194142386615
 10
76.91849346006655
 20
25.12285311455562
 42
0.0099904351143442
 10
77.40556758019768
 20
25.07418823330713
 42
0.1161030649565437
 10
77.16203054715492
 20
24.68486932359299
 42
0.0000000587652713
 10
76.72366384444146
 20
24.46587742811167
 42
0.0000000587652713
  0
ARC
  5
4B3
330
18
100
AcDbEntity
  8
ADP1DETAIL
100
AcDbCircle
 10
75.69876932721782
 20
26.11503761882321
 30
0.0
 40
1.360578495738771
100
AcDbArc
 50
305.0494526657473
 51
333.6984768579741
  0
CIRCLE
  5
4B4
330
18
100
AcDbEntity
  8
ADP1DETAIL
100
AcDbCircle
 10
76.50448046606193
 20
21.08366919832656
 30
0.0
 40
0.2620999276183074
  0
CIRCLE
  5
4B5
330
18
100
AcDbEntity
  8
ADP1DETAIL
100
AcDbCircle
 10
76.33400455914571
 20
21.59465031116191
 30
0.0
 40
0.2296081043041036
  0
CIRCLE
  5
4B6
330
18
100
AcDbEntity
  8
ADP1DETAIL
100
AcDbCircle
 10
76.79672497056799
 20
21.61898275178616
 30
0.0
 40
0.2774492016706006
  0
ARC
  5
4B7
330
18
100
AcDbEntity
  8
ADP1DETAIL
100
AcDbCircle
 10
76.93503087183038
 20
17.49319370983715
 30
0.0
 40
0.8441189095046484
100
AcDbArc
 50
114.6917093721985
 51
155.2582204403264
  0
ARC
  5
4B8
330
18
100
AcDbEntity
  8
ADP1DETAIL
100
AcDbCircle
 10
75.72195984713828
 20
18.38495737867617
 30
0.0
 40
0.8694592906068738
100
AcDbArc
 50
317.5230778661374
 51
351.7458241619881
  0
ARC
  5
4B9
330
18
100
AcDbEntity
  8
ADP1DETAIL
100
AcDbCircle
 10
76.73367294429255
 20
15.6615052878731
 30
0.0
 40
0.840884964851325
100
AcDbArc
 50
46.93269264256722
 51
139.928586147279
  0
ARC
  5
4BA
330
18
100
AcDbEntity
  8
ADP1DETAIL
100
AcDbCircle
 10
77.58089799329481
 20
17.36381876249679
 30
0.0
 40
1.047575867993224
100
AcDbArc
 50
158.417914769157
 51
204.9543982075936
  0
ARC
  5
4BB
330
18
100
AcDbEntity
  8
ADP1DETAIL
100
AcDbCircle
 10
76.9320149244337
 20
18.76850991124496
 30
0.0
 40
0.5335318840168092
100
AcDbArc
 50
124.3306909029187
 51
192.8940771061539
  0
CIRCLE
  5
4BC
330
18
100
AcDbEntity
  8
ADP1DETAIL
100
AcDbCircle
 10
76.52883417477077
 20
22.15429627017732
 30
0.0
 40
0.2587853992177529
  0
LWPOLYLINE
  5
4BD
330
18
100
AcDbEntity
  8
ADP1DETAIL
100
AcDbPolyline
 90
       25
 70
     0
 43
0.0
 10
75.31085426813532
 20
22.33458786164449
 42
-0.1430867640284614
 10
75.57903969726298
 20
23.12759357953111
 42
-0.3618631585867593
 10
76.11482118076617
 20
23.27358818820813
 42
0.0110533361272971
 10
76.82107867927682
 20
23.00593144654677
 42
-0.5539841027708407
 10
76.86978604264888
 20
22.78693951599702
 42
0.5089628720048591
 10
76.38271197656337
 20
22.51928277433565
 42
0.3839853186097435
 10
76.16352859818383
 20
21.88663949344752
 42
0.4810447275841178
 10
76.16352859818383
 20
21.27832868825206
 42
0.3603931400069098
 10
76.43141939398103
 20
20.76734757541671
 42
0.4447603056534769
 10
76.65060271831496
 20
20.35369622507832
 42
1.323382221216065
 10
77.38121387148885
 20
20.25636649764979
 42
0.7209583421973066
 10
77.67345832194928
 20
20.76734757541671
 42
0.6814093508629812
 10
77.89264170032881
 20
21.30266112887631
 42
0.8118820841883936
 10
77.91699540903763
 20
22.05696654274878
 42
0.6469719481336598
 10
77.74651944807579
 20
22.49495033371141
 42
0.4597693095539997
 10
77.23509161923582
 20
22.81127195662126
 10
77.21073791052699
 20
22.98159900592252
 42
0.416612709909682
 10
78.16053244208041
 20
23.63857469236646
 42
0.2956951272083674
 10
77.96570277240971
 20
24.10089092395334
 42
0.0124253287897252
 10
76.99155458619306
 20
24.22255309200611
 42
0.3846846751831783
 10
77.16203054715492
 20
23.93056387465207
 42
0.0453215750076833
 10
77.74651944807579
 20
23.95489631527631
 42
-0.5964431603043884
 10
77.47862870632419
 20
23.27358818820813
 42
-0.1521738947260281
 10
76.40706568527221
 20
23.44391523750939
 42
0.2034498219069604
 10
75.66716284774767
 20
23.49174410517231
 42
0.1644114206700729
  0
LWPOLYLINE
  5
4D8
330
18
100
AcDbEntity
  8
ADP1DETAIL
100
AcDbPolyline
 90
        4
 70
     0
 43
0.0
 10
77.21889018404813
 20
19.23015583286938
 42
0.1329328113880487
 10
75.74951560417921
 20
20.49969083375534
 42
0.0045642012626733
 10
72.94883953502789
 20
21.86230708789171
 42
-0.0003793452642853
 10
72.93878669580159
 20
21.86810757011141
 42
0.2007151920918734
  0
LWPOLYLINE
  5
4DE
330
18
100
AcDbEntity
  8
ADP1DETAIL
100
AcDbPolyline
 90
       30
 70
     0
 43
0.0
 10
78.24145572844466
 20
18.32540611712839
 42
-0.1094028809840495
 10
78.36023281025638
 20
18.64945261819931
 42
0.3257719203320951
 10
78.3115254468843
 20
19.45242291332028
 42
0.3924228444623145
 10
77.58091423966482
 20
19.54975264074881
 42
0.084945278257885
 10
77.04513275616164
 20
19.01443912235765
 42
0.0630990775004865
 10
76.85030308649094
 20
18.64945261819931
 42
-1.144650529036783
 10
76.58241234473933
 20
18.79544722687634
 42
-0.005125502556153
 10
76.80159572311888
 20
19.08743640916195
 42
0.3392720103226919
 10
76.80159572311888
 20
19.35509318589174
 42
-0.4886717246552463
 10
76.58241234473933
 20
19.35509318589174
 42
0.3367979577709305
 10
76.67982717957468
 20
19.81740941747861
 42
0.173601463272597
 10
76.48499750990399
 20
20.01206887233569
 42
-0.0000000853249262
 10
76.19275305944356
 20
19.81740941747861
 42
-0.1818884541550099
 10
75.97356973510963
 20
20.35272293586978
 42
0.2461488004120535
 10
75.58391044981386
 20
19.69574724942583
 42
0.0710589635858745
 10
75.29166599935344
 20
19.93907155046296
 42
-0.0623117558661872
 10
75.26731229064461
 20
19.50108775950033
 42
0.0404428410605967
 10
74.97506778613857
 20
19.42809047269604
 42
-0.3133847314536654
 10
75.24295858193577
 20
19.13610129041043
 42
0.425821109651977
 10
75.87615490027428
 20
18.67378505882356
 42
-0.3749848825895568
 10
75.36472707143435
 20
18.72244990500361
 42
0.48753582988912
 10
74.85329929663999
 20
18.67378505882356
 42
0.2478577592992149
 10
75.55955674110504
 20
18.21146882723669
 42
-0.2676628973065248
 10
74.36622517650886
 20
18.28446611404098
 42
0.0277643822560925
 10
74.60976220955162
 20
17.94381205050689
 42
0.4881671601924002
 10
74.09833443475726
 20
17.33550124531143
 42
0.4681128375999141
 10
74.39057888521769
 20
17.48149581892002
 42
-0.0242877757878944
 10
75.68132528464921
 20
17.89514720432684
 42
0.0263970994403895
 10
74.80459187922232
 20
17.26250392343871
 42
-0.2318699606749456
 10
74.26881034167351
 20
17.28683636406295
 42
-3.907586823938982
  0
LWPOLYLINE
  5
4FE
330
18
100
AcDbEntity
  8
ADP1DETAIL
100
AcDbPolyline
 90
       10
 70
     0
 43
0.0
 10
74.82894558793114
 20
17.26250392343871
 10
74.75588446180464
 20
16.94618230052886
 42
0.4226810440578121
 10
75.46214190626969
 20
17.28683636406295
 42
0.259235873755722
 10
75.6082641585227
 20
17.01917958733315
 42
0.3260544756865487
 10
76.07098451589938
 20
17.57882554634856
 42
-0.4488053239536328
 10
76.38758272911426
 20
17.79781744182987
 42
0.2081685298223203
 10
76.43629014653192
 20
17.11650934983012
 42
0.9782039558864365
 10
76.75288830570119
 20
16.9705147411531
 42
0.1230795077457015
 10
76.94771792132627
 20
17.11650934983012
 42
0.1717913541754599
 10
77.92186616158852
 20
16.94618230052886
 42
-0.0837771768971293
  0
ARC
  5
50A
330
18
100
AcDbEntity
  8
ADP1DETAIL
100
AcDbCircle
 10
76.78942425408653
 20
15.15079479870933
 30
0.0
 40
1.589355921541822
100
AcDbArc
 50
87.11169453195605
 51
129.7281705425595
  0
LWPOLYLINE
  5
50B
330
18
100
AcDbEntity
  8
ADP1DETAIL
100
AcDbPolyline
 90
       26
 70
     0
 43
0.0
 10
71.63373942688753
 20
20.28069893827403
 42
0.1413182920768595
 10
71.65809313559638
 20
20.81601245666519
 42
0.8648136973572176
 10
71.39020239384478
 20
20.79168001604095
 42
0.0622847063431418
 10
71.19537272417409
 20
20.45102595250686
 42
-0.5614376939529464
 10
70.87877456500482
 20
20.40236107125838
 42
-0.3651135990813243
 10
70.87877456500482
 20
20.64568540736393
 42
-0.188546234030582
 10
70.41605415358254
 20
20.76734757541671
 42
-0.5832164673600247
 10
70.4647615710002
 20
21.01067191152226
 42
0.3683045428032368
 10
70.26993195537511
 20
21.22966380700358
 42
-0.4143725419229852
 10
70.4647615710002
 20
21.49732058373337
 42
-0.0781157398504126
 10
70.65959124067089
 20
21.49732058373337
 42
-0.4042812553644403
 10
70.61088382325323
 20
21.78930976601899
 42
-0.6933342641717212
 10
70.90312827371366
 20
21.71631247921469
 42
0.6707906719713849
 10
71.17101901546525
 20
21.52165302435762
 42
1.280505151694012
 10
71.2684338503006
 20
21.61898275178616
 42
0.0111465905492205
 10
70.92748198242249
 20
21.81364220664323
 42
-0.2022684708774372
 10
70.73265236679739
 20
22.05696654274878
 42
0.3124626264619293
 10
70.61088382325323
 20
22.2029611514258
 42
-0.0161115024573218
 10
70.87877456500482
 20
22.25162599760586
 42
-0.2730729797898306
 10
70.75700607550624
 20
22.5436152149599
 42
0.265408168019303
 10
70.65959124067089
 20
22.78693951599702
 42
-0.1478906066195722
 10
71.07360423467551
 20
22.66527738301268
 42
-0.2137746827240428
 10
71.41455610255362
 20
23.29792062883237
 42
-0.4279970900379487
 10
71.53632464609779
 20
22.88426927849398
 42
-0.0277792666204919
 10
71.48761722868012
 20
22.59228006113995
 42
0.1706506420060796
 10
71.53632464609779
 20
22.17862871080156
 42
0.6238481679096245
  0
ARC
  5
527
330
18
100
AcDbEntity
  8
ADP1DETAIL
100
AcDbCircle
 10
73.65105426480747
 20
22.61100079298538
 30
0.0
 40
2.313821830895338
100
AcDbArc
 50
167.7165739856484
 51
205.3873517322362
  0
LWPOLYLINE
  5
528
330
18
100
AcDbEntity
  8
ADP1DETAIL
100
AcDbPolyline
 90
       12
 70
     0
 43
0.0
 10
71.53632464609779
 20
22.68960978856849
 42
-0.2520131575828373
 10
71.8772765139759
 20
22.85993683786974
 42
-0.3571608114231578
 10
72.07210612960096
 20
22.44628545246293
 42
0.2254388487872945
 10
72.09645983830981
 20
22.32462331947858
 42
-0.5225448361724259
 10
72.02339871218331
 20
22.10563138892883
 42
0.2705532294858498
 10
71.85292280526707
 20
21.71631247921469
 42
0.5795522766185386
 10
72.02339871218331
 20
21.6433151924104
 42
-0.4279619446291612
 10
72.41305799747909
 20
22.10563138892883
 42
-0.1837431360846336
 10
73.07060802452645
 20
22.08129898337302
 42
-0.3734867471849261
 10
72.60788766714978
 20
21.76497732539475
 42
-0.2803521650063774
 10
72.92448582631904
 20
21.57031787053767
 42
-0.413957605851509
 10
72.3643505800614
 20
21.4486557024849
 42
-3.406423411715299
  0
ARC
  5
536
330
18
100
AcDbEntity
  8
ADP1DETAIL
100
AcDbCircle
 10
73.91489406963526
 20
24.4233850343715
 30
0.0
 40
3.56643263115409
100
AcDbArc
 50
210.892411886626
 51
222.0939282268767
  0
ARC
  5
537
330
18
100
AcDbEntity
  8
ADP1DETAIL
100
AcDbCircle
 10
69.99874365318357
 20
23.00723001316435
 30
0.0
 40
1.882552801742163
100
AcDbArc
 50
328.8219614487524
 51
356.2550054002675
  0
ARC
  5
538
330
18
100
AcDbEntity
  8
ADP1DETAIL
100
AcDbCircle
 10
74.24199311353873
 20
21.7987309394704
 30
0.0
 40
2.689492333648358
100
AcDbArc
 50
158.9988974164008
 51
175.5308656771429
  0
ARC
  5
539
330
18
100
AcDbEntity
  8
ADP1DETAIL
100
AcDbCircle
 10
69.54141201552558
 20
23.47501065286896
 30
0.0
 40
2.683417450926589
100
AcDbArc
 50
320.4122286820244
 51
336.3280637596081
  0
LWPOLYLINE
  5
53A
330
18
100
AcDbEntity
  8
ADP1DETAIL
100
AcDbPolyline
 90
        2
 70
     0
 43
0.0
 10
72.51286361646852
 20
22.13330298895646
 42
-0.0177286922125915
 10
72.07317012755948
 20
22.45063915924294
 42
0.2007151920918734
  0
LWPOLYLINE
  5
53E
330
18
100
AcDbEntity
  8
ADP1DETAIL
100
AcDbPolyline
 90
        2
 70
     0
 43
0.0
 10
75.32095482383862
 20
23.20985026204125
 42
0.1278035345230643
 10
74.99751923161591
 20
22.18995779453443
 42
1.001760781938276
  0
LWPOLYLINE
  5
542
330
18
100
AcDbEntity
  8
ADP1DETAIL
100
AcDbPolyline
 90
        8
 70
     0
 43
0.0
 10
72.71725052648239
 20
22.58045261096219
 42
0.0398246510889113
 10
73.46026730982223
 20
22.2029611514258
 42
-0.4419682359534519
 10
73.82557288640917
 20
23.03026385210258
 42
-0.4641231057187031
 10
74.38570813266681
 20
22.68960978856849
 42
0.4219175290628979
 10
73.82557288640917
 20
22.76260711044121
 42
0.4606784052649346
 10
73.80121923174595
 20
22.12996382955308
 42
0.094846353990411
 10
74.79972112667143
 20
21.52165302435762
 42
-0.0638517419726404
 10
76.41252159831347
 20
20.64868663110479
 42
-0.000747377604762
  0
LWPOLYLINE
  5
54C
330
18
100
AcDbEntity
  8
ADP1DETAIL
100
AcDbPolyline
 90
        3
 70
     0
 43
0.0
 10
76.38415867194701
 20
22.52942784923077
 42
-0.0552826520245583
 10
75.11631928584069
 20
21.69198003859045
 42
-0.0031455893535228
 10
74.79031936753019
 20
21.52518824605551
 42
0.0433013015757963
  0
ARC
  5
551
330
18
100
AcDbEntity
  8
ADP1DETAIL
100
AcDbCircle
 10
77.02500570809512
 20
19.32562989195831
 30
0.0
 40
0.7647695079321532
100
AcDbArc
 50
132.3968128456502
 51
216.7130725035751
  0
LWPOLYLINE
  5
552
330
18
100
AcDbEntity
  8
ADP1DETAIL
100
AcDbPolyline
 90
       25
 70
     0
 43
0.0
 10
73.83603929002799
 20
19.92072923070814
 42
0.9706436041550404
 10
73.92338213598273
 20
19.73165167194004
 42
0.3254551104199841
 10
73.92338213598273
 20
19.61529627350522
 42
0.5251488343688216
 10
74.05439644222245
 20
19.51348528777092
 42
0.2771087292922474
 10
74.11262503106399
 20
19.41167430203662
 42
0.6182750304639005
 10
74.17085354529037
 20
19.32440772900282
 42
0.685282553542298
 10
74.24363926268853
 20
19.1935079178675
 42
0.7075489001259587
 10
74.33098210864326
 20
19.07715247101731
 42
0.6902300741343137
 10
74.418324954598
 20
18.97534148528301
 42
0.7209583611941735
 10
74.50566787516795
 20
18.88807491224921
 42
0.6723381583789832
 10
74.62212497823585
 20
18.8153528003313
 42
0.3662892094260234
 10
74.75313928447559
 20
18.713541814597
 42
0.6894196445545862
 10
74.78225354158877
 20
18.80080838763079
 42
0.4144700441701581
 10
74.82592500187374
 20
18.88807491224921
 42
0.236253635671159
 10
74.81136779870195
 20
18.98988589798352
 42
0.3336260991057391
 10
74.81136779870195
 20
19.07715247101731
 42
0.6306327290108657
 10
74.76769641303217
 20
19.1935079178675
 42
0.6090161251508119
 10
74.70946782419061
 20
19.32440772900282
 42
0.8680462346586976
 10
74.694910695634
 20
19.440763175853
 42
0.9765100277142094
 10
74.62212497823585
 20
19.55711857428782
 42
0.2362526792948493
 10
74.5784535179509
 20
19.70256284653902
 42
0.6182754198035438
 10
74.49111067199615
 20
19.80437383227332
 42
0.3699942770320888
 10
74.40376782604142
 20
19.89164040530711
 42
0.5545043203756617
 10
74.2873107229735
 20
20.00799580374193
 42
0.0530630354194507
 10
73.76325357262984
 20
19.87709594419124
 42
5.642670964996777
  0
LWPOLYLINE
  5
56D
330
18
100
AcDbEntity
  8
ADP1DETAIL
100
AcDbPolyline
 90
       10
 70
     0
 43
0.0
 10
72.80758803532575
 20
20.18239588656852
 42
-0.3335664558618398
 10
72.95371028757877
 20
19.81740941747861
 42
-0.6813850854458467
 10
73.56255289720846
 20
19.35509318589174
 42
-0.4921054965698989
 10
73.63561402333498
 20
18.72244990500361
 42
-0.8672151304059598
 10
73.5138454797908
 20
18.08980665918391
 42
-0.4602400582290243
 10
73.34336957287455
 20
17.57882554634856
 42
-0.474141400244305
 10
73.07547877707733
 20
17.09217690920588
 42
-1.034173571845061
 10
72.39357504132114
 20
17.06784446858164
 42
-0.3634604647438155
 10
72.05262317344303
 20
17.55449314079274
 42
-0.7696835913649673
 10
71.83343984910911
 20
18.21146882723669
 42
-1.852558981295544
  0
LWPOLYLINE
  5
579
330
18
100
AcDbEntity
  8
ADP1DETAIL
100
AcDbPolyline
 90
        3
 70
     0
 43
0.0
 10
70.12380970312211
 20
16.72816369425609
 10
70.12380970312211
 20
17.79879073103842
 42
-0.1836012866073109
 10
71.65055322124363
 20
20.33573979578993
 42
-0.0340351667890263
  0
LWPOLYLINE
  5
57E
330
18
100
AcDbEntity
  8
ADP1DETAIL
100
AcDbPolyline
 90
        3
 70
     0
 43
0.0
 10
72.18101492099146
 20
20.16796616844373
 42
0.0685190924597063
 10
71.19537272417409
 20
19.16140698517478
 42
0.068626992761406
 10
70.69787089020426
 20
17.87727789405166
 42
1.002508115539253
  0
LWPOLYLINE
  5
583
330
18
100
AcDbEntity
  8
ADP1DETAIL
100
AcDbPolyline
 90
        5
 70
     0
 43
0.0
 10
72.18101492099146
 20
20.16796616844373
 42
-0.3322670187564499
 10
72.73452690919924
 20
19.81740941747861
 42
0.7032415939490933
 10
72.12568429956954
 20
19.54975264074881
 42
0.6390709624912336
 10
71.93085462989884
 20
18.94144180048493
 42
0.5888530135548233
 10
71.66296388814726
 20
18.23580126786093
 42
0.4642396807600547
  0
CIRCLE
  5
58A
330
18
100
AcDbEntity
  8
ADP1DETAIL
100
AcDbCircle
 10
72.7832343266169
 20
19.0631039685377
 30
0.0
 40
0.2931444126776521
  0
CIRCLE
  5
58B
330
18
100
AcDbEntity
  8
ADP1DETAIL
100
AcDbCircle
 10
72.19874542569605
 20
19.18476613659048
 30
0.0
 40
0.2838281965286478
  0
CIRCLE
  5
58C
330
18
100
AcDbEntity
  8
ADP1DETAIL
100
AcDbCircle
 10
73.29466215545688
 20
18.99010668173341
 30
0.0
 40
0.3049456717726613
  0
ARC
  5
58D
330
18
100
AcDbEntity
  8
ADP1DETAIL
100
AcDbCircle
 10
74.73876246730448
 20
18.3869890495692
 30
0.0
 40
0.8215729332322903
100
AcDbArc
 50
87.98175452264841
 51
120.9346207833037
  0
ARC
  5
58E
330
18
100
AcDbEntity
  8
ADP1DETAIL
100
AcDbCircle
 10
77.37215643772785
 20
19.76890217016077
 30
0.0
 40
1.474852449434782
100
AcDbArc
 50
176.2222751010382
 51
229.3782996757607
  0
ARC
  5
58F
330
18
100
AcDbEntity
  8
ADP1DETAIL
100
AcDbCircle
 10
76.59519071788896
 20
19.71014791002546
 30
0.0
 40
1.075963856363916
100
AcDbArc
 50
189.8858492108043
 51
246.6304821601837
  0
CIRCLE
  5
590
330
18
100
AcDbEntity
  8
ADP1DETAIL
100
AcDbCircle
 10
71.90650097523562
 20
18.52779045014654
 30
0.0
 40
0.3009910475789801
  0
LWPOLYLINE
  5
591
330
18
100
AcDbEntity
  8
ADP1DETAIL
100
AcDbPolyline
 90
        8
 70
     0
 43
0.0
 10
70.61774675246521
 20
17.46203534938006
 42
-0.2199849343523009
 10
70.98106015239105
 20
17.74915259564982
 42
0.3207321305021145
 10
71.10282869593524
 20
16.89751741928037
 42
0.585636030453001
 10
71.76037872298261
 20
17.5301607001685
 42
0.231074270093072
 10
71.46813427252218
 20
17.8708147637026
 42
0.0493203847433852
 10
71.10282869593524
 20
17.57882554634856
 42
0.4980154529165476
 10
71.41942685510449
 20
17.21383907725865
 42
0.6345889534767803
 10
71.32201202026914
 20
17.72482015502558
 42
-7.910833556990888
  0
LWPOLYLINE
  5
59B
330
18
100
AcDbEntity
  8
ADP1DETAIL
100
AcDbPolyline
 90
        2
 70
     0
 43
0.0
 10
70.61774675246521
 20
17.46203534938006
 42
0.0365527445168963
 10
70.56217640583554
 20
16.72816369425609
 42
1.002508115539253
  0
ARC
  5
59F
330
18
100
AcDbEntity
  8
ADP1DETAIL
100
AcDbCircle
 10
71.5928770227569
 20
17.66230020819243
 30
0.0
 40
0.2528258658249966
100
AcDbArc
 50
69.46037862792858
 51
124.7773252037224
  0
ARC
  5
5A0
330
18
100
AcDbEntity
  8
ADP1DETAIL
100
AcDbCircle
 10
71.54902642389166
 20
17.29487769958405
 30
0.0
 40
0.7400666455820036
100
AcDbArc
 50
96.65768407308981
 51
141.6946608157006
  0
LWPOLYLINE
  5
5A1
330
18
100
AcDbEntity
  8
ADP1DETAIL
100
AcDbPolyline
 90
        3
 70
     0
 43
0.0
 10
70.68881570193062
 20
17.8708147637026
 42
-0.199838740567585
 10
71.20024347672497
 20
17.99247693175538
 42
0.3226626395239929
 10
71.68731759685609
 20
18.23580126786093
 42
-0.6045596826334523
  0
CIRCLE
  5
5A6
330
18
100
AcDbEntity
  8
ADP1DETAIL
100
AcDbCircle
 10
72.39357504132114
 20
17.48149581892002
 30
0.0
 40
0.2720524997879716
  0
CIRCLE
  5
5A7
330
18
100
AcDbEntity
  8
ADP1DETAIL
100
AcDbCircle
 10
73.02677141370527
 20
17.43283097273997
 30
0.0
 40
0.2587854168253358
  0
ARC
  5
5A8
330
18
100
AcDbEntity
  8
ADP1DETAIL
100
AcDbCircle
 10
76.14334396321599
 20
17.18935765446531
 30
0.0
 40
0.7093372365200752
100
AcDbArc
 50
120.9310662168346
 51
174.0811851589885
  0
ARC
  5
5A9
330
18
100
AcDbEntity
  8
ADP1DETAIL
100
AcDbCircle
 10
76.79606239238474
 20
15.70793598115729
 30
0.0
 40
2.337445966767195
100
AcDbArc
 50
122.6439972645012
 51
147.3059361825362
  0
ARC
  5
5AA
330
18
100
AcDbEntity
  8
ADP1DETAIL
100
AcDbCircle
 10
76.71829738187274
 20
17.01885090225086
 30
0.0
 40
1.134386979676622
100
AcDbArc
 50
129.422482481721
 51
179.9833987267087
  0
CIRCLE
  5
5AB
330
18
100
AcDbEntity
  8
ADP1DETAIL
100
AcDbCircle
 10
72.7101732004904
 20
17.04351202795739
 30
0.0
 40
0.2505693822502328
  0
LINE
  5
5AC
330
18
100
AcDbEntity
  8
ADP1DETAIL
100
AcDbLine
 10
73.61750938465634
 20
16.65578271725946
 30
0.0
 11
73.78562268771162
 21
16.38703643454382
 31
0.0
  0
LINE
  5
5AD
330
18
100
AcDbEntity
  8
ADP1DETAIL
100
AcDbLine
 10
73.11903985565234
 20
16.15415333774299
 30
0.0
 11
72.99727131210817
 21
16.47047496065284
 31
0.0
  0
LINE
  5
5AE
330
18
100
AcDbEntity
  8
ADP1DETAIL
100
AcDbLine
 10
73.60611392173786
 20
16.68946685613416
 30
0.0
 11
73.16774721902442
 21
16.34881279260007
 31
0.0
  0
ARC
  5
5AF
330
18
100
AcDbEntity
  8
ADP1DETAIL
100
AcDbCircle
 10
75.5683158269461
 20
16.63582867320522
 30
0.0
 40
0.3333790721160939
100
AcDbArc
 50
187.5306563553093
 51
308.0063792732592
  0
ARC
  5
5B0
330
18
100
AcDbEntity
  8
ADP1DETAIL
100
AcDbCircle
 10
75.60257563804841
 20
16.62497588815045
 30
0.0
 40
0.4876389687994495
100
AcDbArc
 50
183.8613553600499
 51
300.0352373248361
  0
ARC
  5
5B1
330
18
100
AcDbEntity
  8
ADP1DETAIL
100
AcDbCircle
 10
75.17692791727539
 20
16.58408841890512
 30
0.0
 40
0.061413974620363
100
AcDbArc
 50
7.530656355309732
 51
172.4693436446902
  0
CIRCLE
  5
5B2
330
18
100
AcDbEntity
  8
ADP1DETAIL
100
AcDbCircle
 10
72.44228245873881
 20
18.47912556889806
 30
0.0
 40
0.3009910815986054
  0
CIRCLE
  5
5B3
330
18
100
AcDbEntity
  8
ADP1DETAIL
100
AcDbCircle
 10
73.00241770499645
 20
18.5034580095223
 30
0.0
 40
0.2505694085146286
  0
CIRCLE
  5
5B4
330
18
100
AcDbEntity
  8
ADP1DETAIL
100
AcDbCircle
 10
73.46513806237313
 20
18.45479316334224
 30
0.0
 40
0.2434009042181603
  0
CIRCLE
  5
5B5
330
18
100
AcDbEntity
  8
ADP1DETAIL
100
AcDbCircle
 10
72.7101732004904
 20
17.91947960988265
 30
0.0
 40
0.2838281687045445
  0
CIRCLE
  5
5B6
330
18
100
AcDbEntity
  8
ADP1DETAIL
100
AcDbCircle
 10
73.19724732062153
 20
17.96814449113113
 30
0.0
 40
0.2722351365980717
  0
CIRCLE
  5
5B7
330
18
100
AcDbEntity
  8
ADP1DETAIL
100
AcDbCircle
 10
72.07697688215187
 20
17.91947960988265
 30
0.0
 40
0.2620999477054649
  0
ARC
  5
5B8
330
18
100
AcDbEntity
  8
ADP1DETAIL
100
AcDbCircle
 10
77.40984392034066
 20
23.15776503328826
 30
0.0
 40
5.123769672392119
100
AcDbArc
 50
241.6281255648465
 51
251.1498793157448
  0
ARC
  5
5B9
330
18
100
AcDbEntity
  8
ADP1DETAIL
100
AcDbCircle
 10
75.07373937277677
 20
19.71559673315514
 30
0.0
 40
1.796117562950086
100
AcDbArc
 50
256.6320274541938
 51
288.9485078603623
  0
ARC
  5
5BA
330
18
100
AcDbEntity
  8
ADP1DETAIL
100
AcDbCircle
 10
74.7280714458791
 20
18.75301046962579
 30
0.0
 40
0.1031341469364388
100
AcDbArc
 50
48.20226056430313
 51
152.3897959698363
  0
ARC
  5
5BB
330
18
100
AcDbEntity
  8
ADP1DETAIL
100
AcDbCircle
 10
74.92379913633476
 20
17.83353019533491
 30
0.0
 40
1.248694186042124
100
AcDbArc
 50
95.16585819056388
 51
113.8787339806602
  0
ARC
  5
5BC
330
18
100
AcDbEntity
  8
ADP1DETAIL
100
AcDbCircle
 10
74.72402495274718
 20
18.66074703836508
 30
0.0
 40
0.2946374391942109
100
AcDbArc
 50
75.69788064852345
 51
133.7646229927069
  0
ARC
  5
5BD
330
18
100
AcDbEntity
  8
ADP1DETAIL
100
AcDbCircle
 10
76.25363733121566
 20
19.8480810891112
 30
0.0
 40
1.349081748635942
100
AcDbArc
 50
250.4905015328038
 51
274.6595159066032
  0
ARC
  5
5BE
330
18
100
AcDbEntity
  8
ADP1DETAIL
100
AcDbCircle
 10
72.57503456907691
 20
19.46344251551562
 30
0.0
 40
1.910937161251679
100
AcDbArc
 50
127.2096670310337
 51
142.7402666931926
  0
ARC
  5
5BF
330
18
100
AcDbEntity
  8
ADP1DETAIL
100
AcDbCircle
 10
71.33440149764028
 20
21.43551619296423
 30
0.0
 40
0.1795665871994303
100
AcDbArc
 50
331.68800218775
 51
61.73806042504423
  0
ARC
  5
5C0
330
18
100
AcDbEntity
  8
ADP1DETAIL
100
AcDbCircle
 10
71.60550062612777
 20
22.01716921280022
 30
0.0
 40
0.8976354345366001
100
AcDbArc
 50
194.7693406352467
 51
244.8910474541946
  0
ARC
  5
5C1
330
18
100
AcDbEntity
  8
ADP1DETAIL
100
AcDbCircle
 10
73.08722937144982
 20
28.62520045667016
 30
0.0
 40
7.790812594974264
100
AcDbArc
 50
249.0307551434999
 51
254.1293770167807
  0
ARC
  5
5C2
330
18
100
AcDbEntity
  8
ADP1DETAIL
100
AcDbCircle
 10
71.76285328837138
 20
18.47556447974556
 30
0.0
 40
2.661421786953869
100
AcDbArc
 50
93.7259494172811
 51
118.4741965869584
  0
ARC
  5
5C3
330
18
100
AcDbEntity
  8
ADP1DETAIL
100
AcDbCircle
 10
71.36416921655774
 20
21.42446596998597
 30
0.0
 40
0.1481839541010355
100
AcDbArc
 50
199.6296786027904
 51
329.9904866005411
  0
LWPOLYLINE
  5
5C4
330
18
100
AcDbEntity
  8
ADP1DETAIL
100
AcDbPolyline
 90
        3
 70
     0
 43
0.0
 10
74.22624987747676
 20
21.24864746683269
 42
-0.0079266884056247
 10
73.38720623774133
 20
20.86467730284525
 42
0.0433013015757963
 10
72.59327651327033
 20
20.45631467609231
 42
0.068626992761406
  0
LWPOLYLINE
  5
5C9
330
18
100
AcDbEntity
  8
ADP1DETAIL
100
AcDbPolyline
 90
        5
 70
     0
 43
0.0
 10
73.85479734766889
 20
19.8904067042829
 42
-0.4080174040864294
 10
73.781736275588
 20
20.62037967753114
 42
-0.2806719772418243
 10
74.31751775909119
 20
20.81503916745665
 42
-0.2000841793436217
 10
74.68035356707743
 20
20.47341744589656
 42
-0.1966881601389031
 10
74.56105484617956
 20
19.84174182303442
 42
0.8741299758260565
  0
LWPOLYLINE
  5
5D0
330
18
100
AcDbEntity
  8
ADP1DETAIL
100
AcDbPolyline
 90
        6
 70
     0
 43
0.0
 10
72.60788766714978
 20
21.3756584156806
 10
72.70530244793952
 20
21.27832868825206
 10
72.55918024973209
 20
21.22966380700358
 10
72.07210612960096
 20
21.22966380700358
 42
0.8472487202238328
 10
71.92598387734796
 20
21.05933679277075
 42
0.0780181139947425
 10
72.02339871218331
 20
20.57268812055964
 42
0.2945553110074838
  0
LWPOLYLINE
  5
5D8
330
18
100
AcDbEntity
  8
ADP1DETAIL
100
AcDbPolyline
 90
        3
 70
     0
 43
0.0
 10
72.01622434786006
 20
20.59254642844754
 42
-0.000507190582236
 10
72.02339871218331
 20
20.59702056118388
 42
-0.019011442462268
 10
73.64345332371823
 20
21.53023944210749
 42
0.0015538407450916
  0
LWPOLYLINE
  5
5DD
330
18
100
AcDbEntity
  8
ADP1DETAIL
100
AcDbPolyline
 90
        4
 70
     0
 43
0.0
 10
74.3565557714536
 20
19.99816554175197
 42
0.0585028759771766
 10
74.46364001134421
 20
20.10939859976422
 42
0.4143513101496137
 10
74.17139556088378
 20
20.62037967753114
 42
0.5268003687175535
 10
74.31751775909119
 20
20.01206887233569
 42
0.1847284479246342
  0
ARC
  5
5E3
330
18
100
AcDbEntity
  8
ADP1DETAIL
100
AcDbCircle
 10
74.3389350059083
 20
19.23396383987955
 30
0.0
 40
0.659595413777336
100
AcDbArc
 50
85.62856037945513
 51
129.050990441816
  0
ARC
  5
5E4
330
18
100
AcDbEntity
  8
ADP1DETAIL
100
AcDbCircle
 10
74.57108104093816
 20
18.89415268170171
 30
0.0
 40
0.9282168964863352
100
AcDbArc
 50
94.94243538519008
 51
131.7915442046746
  0
ARC
  5
5E5
330
18
100
AcDbEntity
  8
ADP1DETAIL
100
AcDbCircle
 10
74.52504340043586
 20
19.03260358556076
 30
0.0
 40
0.673398075473846
100
AcDbArc
 50
84.20716633188076
 51
132.6327033706601
  0
ARC
  5
5E6
330
18
100
AcDbEntity
  8
ADP1DETAIL
100
AcDbCircle
 10
74.91138096953026
 20
17.86837409632467
 30
0.0
 40
1.744492381737625
100
AcDbArc
 50
100.0295230814453
 51
117.7890521065944
  0
LWPOLYLINE
  5
5E7
330
18
100
AcDbEntity
  8
ADP1DETAIL
100
AcDbPolyline
 90
        2
 70
     0
 43
0.0
 10
73.34336957287455
 20
19.79307697685437
 42
0.0362013526995069
 10
72.83194174403458
 20
20.18239588656852
 42
0.0131659093750952
  0
LWPOLYLINE
  5
5EB
330
18
100
AcDbEntity
  8
ADP1DETAIL
100
AcDbPolyline
 90
        3
 70
     0
 43
0.0
 10
72.54045365464827
 20
20.47341744589656
 42
-0.0788264984016559
 10
73.56255289720846
 20
19.9634039910872
 42
0.0927508910343584
 10
73.78540816127989
 20
19.86520316954922
 42
0.4143513101496137
  0
CIRCLE
  5
5F0
330
18
100
AcDbEntity
  8
ADP1DETAIL
100
AcDbCircle
 10
72.53969729357415
 20
19.57408508137305
 30
0.0
 40
0.3117732987741603
  0
LWPOLYLINE
  5
5F1
330
18
100
AcDbEntity
  8
ADP1DETAIL
100
AcDbPolyline
 90
        2
 70
     0
 43
0.0
 10
74.02527330863076
 20
19.54975264074881
 42
-0.1335636272170571
 10
73.52660339655859
 20
19.66547373485223
 42
0.0362013526995069
  0
CIRCLE
  5
5F5
330
18
100
AcDbEntity
  8
ADP1DETAIL
100
AcDbCircle
 10
73.2459547380392
 20
19.54975264074881
 30
0.0
 40
0.2774492355013044
  0
ARC
  5
5F6
330
18
100
AcDbEntity
  8
ADP1DETAIL
100
AcDbCircle
 10
74.74816333132564
 20
18.77512605995685
 30
0.0
 40
0.8987567172468637
100
AcDbArc
 50
28.87227651418365
 51
56.59641188212795
  0
ARC
  5
5F7
330
18
100
AcDbEntity
  8
ADP1DETAIL
100
AcDbCircle
 10
74.63453487778314
 20
18.76310376568492
 30
0.0
 40
0.5827605217240666
100
AcDbArc
 50
81.16657324009301
 51
130.2246102055008
  0
ARC
  5
5F8
330
18
100
AcDbEntity
  8
ADP1DETAIL
100
AcDbCircle
 10
74.67214375109209
 20
18.44986023752317
 30
0.0
 40
1.020674426304209
100
AcDbArc
 50
87.90433785188504
 51
119.4152910984905
  0
ARC
  5
5F9
330
18
100
AcDbEntity
  8
ADP1DETAIL
100
AcDbCircle
 10
72.70096979706647
 20
20.4156633946518
 30
0.0
 40
1.158597311071758
100
AcDbArc
 50
84.71996879930662
 51
117.032523806362
  0
ARC
  5
5FA
330
18
100
AcDbEntity
  8
ADP1DETAIL
100
AcDbCircle
 10
72.81234817961607
 20
21.29613614388782
 30
0.0
 40
0.6625444473410879
100
AcDbArc
 50
90.41165317324029
 51
148.4972410725517
  0
LWPOLYLINE
  5
5FB
330
18
100
AcDbEntity
  8
ADP1DETAIL
100
AcDbPolyline
 90
        3
 70
     0
 43
0.0
 10
74.2080430571556
 20
21.81824941465952
 42
-0.0085702991825861
 10
74.97019703358766
 20
22.17862871080156
 42
0.0015538407450916
 10
74.99751923161591
 20
22.18995779453443
  0
LINE
  5
600
330
18
100
AcDbEntity
  8
ADP1DETAIL
100
AcDbLine
 10
76.50448046606193
 20
25.51217205933819
 30
0.0
 11
76.38271197656337
 21
25.04985582775132
 31
0.0
  0
LINE
  5
601
330
18
100
AcDbEntity
  8
ADP1DETAIL
100
AcDbLine
 10
75.8712841477234
 20
25.58516934614248
 30
0.0
 11
75.84693043901459
 21
24.80653149164576
 31
0.0
  0
LINE
  5
602
330
18
100
AcDbEntity
  8
ADP1DETAIL
100
AcDbLine
 10
76.09046747205733
 20
24.78219905102152
 30
0.0
 11
76.09046747205733
 21
25.51217205933819
 31
0.0
  0
CIRCLE
  5
603
330
18
100
AcDbEntity
  8
ADP1DETAIL
100
AcDbCircle
 10
72.55918024973209
 20
25.26884772323263
 30
0.0
 40
0.2587553992308605
  0
ARC
  5
604
330
18
100
AcDbEntity
  8
ADP1DETAIL
100
AcDbCircle
 10
72.1451672557275
 20
25.19585040135991
 30
0.0
 40
0.2919892173540395
100
AcDbArc
 50
47.39681989140309
 51
332.6020152708112
  0
ARC
  5
605
330
18
100
AcDbEntity
  8
ADP1DETAIL
100
AcDbCircle
 10
72.97851824964347
 20
25.22499479168653
 30
0.0
 40
0.2558735701019841
100
AcDbArc
 50
209.2423957636852
 51
138.8174123349819
  0
LWPOLYLINE
  5
606
330
18
100
AcDbEntity
  8
ADP1DETAIL
100
AcDbPolyline
 90
       11
 70
     0
 43
0.0
 10
72.76340027345878
 20
22.55250426928525
 42
-0.6042578018358897
 10
72.31564316264374
 20
23.03026385210258
 42
-0.3450857517303534
 10
72.04775242089215
 20
23.49258008368944
 42
-0.6309766763586726
 10
71.85292280526707
 20
23.95489631527631
 42
-0.6084612247416345
 10
71.63373942688753
 20
24.49020986873591
 42
-0.6213542355570809
 10
71.80421538784938
 20
25.07418823330713
 42
-0.757440560363092
 10
72.33999687135256
 20
25.536504464894
 42
0.3029957898802037
 10
72.38870428877024
 20
25.77982880099956
 42
0.4296126807713711
 10
71.17101901546525
 20
25.85282612287228
 42
0.3102621779276988
 10
71.31714126771825
 20
23.83323414722354
 42
0.0688778464055727
 10
72.34605990932376
 20
22.83026793367961
 42
-0.4419682359534519
  0
LWPOLYLINE
  5
613
330
18
100
AcDbEntity
  8
ADP1DETAIL
100
AcDbPolyline
 90
       30
 70
     0
 43
0.0
 10
71.275992242363
 20
23.16496351890156
 42
-0.0145178820070917
 10
70.97618939984016
 20
23.49258008368944
 42
0.2007151920918734
 10
70.53782269712669
 20
23.63857469236646
 42
0.345341836012355
 10
70.34299308150163
 20
23.37091791563667
 42
-0.3787500811200978
 10
70.31863937279279
 20
23.95489631527631
 42
0.0710063713358515
 10
70.63523753196206
 20
23.97922875590056
 42
-0.1544150645955719
 10
70.12380970312211
 20
26.38813964126344
 10
70.58653011454438
 20
26.38813964126344
 42
0.0525322273043326
 10
70.63523753196206
 20
25.56083690551824
 42
-0.2329926569444586
 10
71.60938571817869
 20
26.31514231939072
 42
-0.1881227224847516
 10
72.70530244793952
 20
25.95015585030082
 42
0.5801212377154982
 10
73.24108398548831
 20
26.16914774578213
 42
-0.8765032949663037
 10
73.36285252903249
 20
26.16914774578213
 42
-0.5553012901594136
 10
72.63224137585862
 20
25.77982880099956
 42
-0.4144694352073706
 10
72.75400986535719
 20
25.48783961871395
 42
-0.7344177357284628
 10
73.24108398548831
 20
25.1715179958041
 42
-0.6121761741488042
 10
73.50897472723992
 20
24.56320715554021
 42
-1.010401349809251
 10
73.50897472723992
 20
24.05222604270485
 42
-0.6745162072527597
 10
73.26543769419714
 20
23.58990981111798
 42
-0.500221801115645
 10
73.02190066115439
 20
23.00593144654677
 42
-1.355601397176734
 10
72.31564316264374
 20
23.03026385210258
 42
-0.3450857517303534
 10
72.04775242089215
 20
23.49258008368944
 42
-0.6309766763586726
 10
71.85292280526707
 20
23.95489631527631
 42
-0.6084612247416345
 10
71.63373942688753
 20
24.49020986873591
 42
-0.6213542355570809
 10
71.80421538784938
 20
25.07418823330713
 42
-0.757440560363092
 10
72.33999687135256
 20
25.536504464894
 42
0.3029957898802037
 10
72.38870428877024
 20
25.77982880099956
 42
0.4296126807713711
 10
71.17101901546525
 20
25.85282612287228
 42
0.3102621779276988
 10
71.31714126771825
 20
23.83323414722354
 42
0.0669774481526949
 10
72.31423036538387
 20
22.85391062164127
 42
-0.4419682359534519
  0
LINE
  5
633
330
18
100
AcDbEntity
  8
ADP1DETAIL
100
AcDbLine
 10
75.29848125892282
 20
25.93045377504799
 30
0.0
 11
75.46659450793249
 21
25.25858806825888
 31
0.0
  0
ARC
  5
634
330
18
100
AcDbEntity
  8
ADP1DETAIL
100
AcDbCircle
 10
78.79423540007604
 20
25.46350717808971
 30
0.0
 40
3.224389886463614
100
AcDbArc
 50
175.6721351156866
 51
190.8745474114232
  0
ARC
  5
635
330
18
100
AcDbEntity
  8
ADP1DETAIL
100
AcDbCircle
 10
70.53072345353687
 20
20.3764059168989
 30
0.0
 40
6.668089907414825
100
AcDbArc
 50
39.16347990647085
 51
56.70800303841955
  0
ARC
  5
636
330
18
100
AcDbEntity
  8
ADP1DETAIL
100
AcDbCircle
 10
75.94919941434383
 20
29.49309556728942
 30
0.0
 40
4.304190488308602
100
AcDbArc
 50
244.4596718167017
 51
253.4988439497914
  0
LWPOLYLINE
  5
637
330
18
100
AcDbEntity
  8
ADP1DETAIL
100
AcDbPolyline
 90
       23
 70
     0
 43
0.0
 10
76.17439805544639
 20
23.52510584248376
 42
0.0128811083574186
 10
76.16352859818383
 20
23.58990981111798
 42
0.569980000973183
 10
75.82257673030574
 20
23.71157197917076
 42
0.1564129810278422
 10
75.65210082338949
 20
23.44391523750939
 42
-0.122051092159207
 10
75.50597857113647
 20
23.1762584607796
 42
-0.1450788993581384
 10
75.38421002759228
 20
23.1032611739753
 42
-0.2362524526223582
 10
75.31114895551138
 20
23.34658551008085
 42
-0.3251001463519483
 10
74.75101370925376
 20
23.03026385210258
 42
-0.1232100324401748
 10
74.79972112667143
 20
23.34658551008085
 42
-0.1560875746338663
 10
74.19087846299611
 20
23.39525035626091
 42
-0.2874644073518524
 10
74.8484285440891
 20
23.90623146909626
 42
-0.2537879226017339
 10
74.5805377482919
 20
24.05222604270485
 42
-0.5717210331341179
 10
74.65359887441841
 20
24.19822065138188
 42
-0.0203829177494921
 10
75.48162486242762
 20
24.34421526005889
 42
0.570839491638545
 10
75.21373412067603
 20
24.44154498748742
 42
-0.1763441145281765
 10
74.65359887441841
 20
24.39288010623894
 42
-1.061424648699561
 10
74.72666000054491
 20
24.61187200172026
 42
-0.2592848482837245
 10
73.94734142995336
 20
24.9038612190743
 42
0.0000001369449512
 10
74.28829329783147
 20
25.00119094650283
 42
-0.1324240374861672
 10
73.77686552303711
 20
25.56083690551824
 42
0.0710063713358449
 10
74.09346368220638
 20
25.58516934614248
 42
0.0223952233894603
 10
73.99604884737104
 20
26.14481530515789
 42
-0.171168212750914
 10
74.62924516570956
 20
25.97448825585663
 42
0.3103369820403365
  0
CIRCLE
  5
650
330
18
100
AcDbEntity
  8
ADP1DETAIL
100
AcDbCircle
 10
71.8772765139759
 20
24.27121793818617
 30
0.0
 40
0.2065578329820765
  0
CIRCLE
  5
651
330
18
100
AcDbEntity
  8
ADP1DETAIL
100
AcDbCircle
 10
71.8772765139759
 20
24.73353416977304
 30
0.0
 40
0.2720924672571475
  0
LWPOLYLINE
  5
652
330
18
100
AcDbEntity
  8
ADP1DETAIL
100
AcDbPolyline
 90
        2
 70
     0
 43
0.0
 10
71.65452131810242
 20
22.80061288276859
 42
-0.0048476022974004
 10
71.54516410229462
 20
22.90079894747566
 42
0.2007151920918734
  0
ARC
  5
656
330
18
100
AcDbEntity
  8
ADP1DETAIL
100
AcDbCircle
 10
72.70530244793952
 20
23.88189902847202
 30
0.0
 40
0.2587553636239624
100
AcDbArc
 50
29.63582872239454
 51
316.9561086054289
  0
CIRCLE
  5
657
330
18
100
AcDbEntity
  8
ADP1DETAIL
100
AcDbCircle
 10
72.13795195054953
 20
23.74689030688736
 30
0.0
 40
0.2558735378733858
  0
CIRCLE
  5
658
330
18
100
AcDbEntity
  8
ADP1DETAIL
100
AcDbCircle
 10
73.11931544194412
 20
23.83323414722354
 30
0.0
 40
0.2587553900056454
  0
CIRCLE
  5
659
330
18
100
AcDbEntity
  8
ADP1DETAIL
100
AcDbCircle
 10
72.92448582631904
 20
23.32225306945661
 30
0.0
 40
0.2720924672571475
  0
CIRCLE
  5
65A
330
18
100
AcDbEntity
  8
ADP1DETAIL
100
AcDbCircle
 10
72.60788766714978
 20
22.83560439724551
 30
0.0
 40
0.2409841426101372
  0
CIRCLE
  5
65B
330
18
100
AcDbEntity
  8
ADP1DETAIL
100
AcDbCircle
 10
72.41305799747909
 20
23.34658551008085
 30
0.0
 40
0.2633547895695504
  0
LWPOLYLINE
  5
65C
330
18
100
AcDbEntity
  8
ADP1DETAIL
100
AcDbPolyline
 90
        3
 70
     0
 43
0.0
 10
75.54009813840898
 20
22.45866676443739
 10
76.09046747205733
 20
22.85993683786974
 42
0.078323687769172
 10
76.18299497860417
 20
23.24618385683045
 42
0.569980000973183
  0
LWPOLYLINE
  5
661
330
18
100
AcDbEntity
  8
ADP1DETAIL
100
AcDbPolyline
 90
        2
 70
     0
 43
0.0
 10
75.31085426813532
 20
22.33458786164449
 42
0.0136964918646574
 10
75.54009813840898
 20
22.45866676443739
  0
ARC
  5
665
330
18
100
AcDbEntity
  8
ADP1DETAIL
100
AcDbCircle
 10
75.80589493380498
 20
22.77887961802582
 30
0.0
 40
1.04622287012085
100
AcDbArc
 50
119.7466337201488
 51
156.2291479329261
  0
ARC
  5
666
330
18
100
AcDbEntity
  8
ADP1DETAIL
100
AcDbCircle
 10
70.4661230189439
 20
32.75192818953011
 30
0.0
 40
10.08081342227593
100
AcDbArc
 50
292.5807210578046
 51
297.782955044693
  0
ARC
  5
667
330
18
100
AcDbEntity
  8
ADP1DETAIL
100
AcDbCircle
 10
72.23555278893553
 20
24.49811404019196
 30
0.0
 40
3.405526200491802
100
AcDbArc
 50
337.6040399892449
 51
347.0667636891806
  0
ARC
  5
668
330
18
100
AcDbEntity
  8
ADP1DETAIL
100
AcDbCircle
 10
76.45158129858042
 20
35.68567739288608
 30
0.0
 40
10.56724389331754
100
AcDbArc
 50
256.9701791460413
 51
261.1403677713057
  0
CIRCLE
  5
669
330
18
100
AcDbEntity
  8
ADP1DETAIL
100
AcDbCircle
 10
72.55918024973209
 20
24.80653149164576
 30
0.0
 40
0.2587553992308589
  0
CIRCLE
  5
66A
330
18
100
AcDbEntity
  8
ADP1DETAIL
100
AcDbCircle
 10
73.1680228593618
 20
24.83086393227
 30
0.0
 40
0.2754103892191986
  0
CIRCLE
  5
66B
330
18
100
AcDbEntity
  8
ADP1DETAIL
100
AcDbCircle
 10
72.87577840890136
 20
24.36854770068313
 30
0.0
 40
0.2620999276183063
  0
CIRCLE
  5
66C
330
18
100
AcDbEntity
  8
ADP1DETAIL
100
AcDbCircle
 10
72.33999687135256
 20
24.34421526005889
 30
0.0
 40
0.2620999276183063
  0
CIRCLE
  5
66D
330
18
100
AcDbEntity
  8
ADP1DETAIL
100
AcDbCircle
 10
73.36285252903249
 20
24.29555037881041
 30
0.0
 40
0.2434009647095773
  0
LINE
  5
66E
330
18
100
AcDbEntity
  8
ADP1DETAIL
100
AcDbLine
 10
75.84693043901459
 20
24.80653149164576
 30
0.0
 11
75.99305269126759
 21
24.36854770068313
 31
0.0
  0
ARC
  5
66F
330
18
100
AcDbEntity
  8
ADP1DETAIL
100
AcDbCircle
 10
74.92095800172498
 20
23.94867330665794
 30
0.0
 40
0.8876112926526126
100
AcDbArc
 50
62.158064555206
 51
114.265237710227
  0
ARC
  5
670
330
18
100
AcDbEntity
  8
ADP1DETAIL
100
AcDbCircle
 10
74.60489148402354
 20
23.97744130269216
 30
0.0
 40
1.048364992512199
100
AcDbArc
 50
72.42269358270082
 51
107.5773064172991
  0
LINE
  5
671
330
18
100
AcDbEntity
  8
ADP1DETAIL
100
AcDbLine
 10
75.91999156514109
 20
24.68486932359299
 30
0.0
 11
76.09046747205733
 21
24.78219905102152
 31
0.0
  0
LINE
  5
672
330
18
100
AcDbEntity
  8
ADP1DETAIL
100
AcDbLine
 10
74.86138678987945
 20
26.23279333433597
 30
0.0
 11
74.69327348682418
 21
25.96404705162033
 31
0.0
  0
LINE
  5
673
330
18
100
AcDbEntity
  8
ADP1DETAIL
100
AcDbLine
 10
74.87278225279793
 20
26.26647747321067
 30
0.0
 11
75.31114895551138
 21
25.92582340967657
 31
0.0
  0
ARC
  5
674
330
18
100
AcDbEntity
  8
ADP1DETAIL
100
AcDbCircle
 10
74.19684761557213
 20
25.32250794300643
 30
0.0
 40
0.7908248133039502
100
AcDbArc
 50
12.06740787947826
 51
52.5290964701123
  0
ARC
  5
675
330
18
100
AcDbEntity
  8
ADP1DETAIL
100
AcDbCircle
 10
71.24988001527878
 20
24.29522944234802
 30
0.0
 40
4.078845967503406
100
AcDbArc
 50
16.28754605000431
 51
25.82103318417374
  0
LINE
  5
676
330
18
100
AcDbEntity
  8
ADP1DETAIL
100
AcDbLine
 10
76.47527405603611
 20
25.49374107440217
 30
0.0
 11
76.27353816803362
 21
25.69530076890469
 31
0.0
  0
LINE
  5
677
330
18
100
AcDbEntity
  8
ADP1DETAIL
100
AcDbLine
 10
76.09046747205733
 20
25.51217205933819
 30
0.0
 11
76.26094343301918
 21
25.70683151419526
 31
0.0
  0
LINE
  5
678
330
18
100
AcDbEntity
  8
ADP1DETAIL
100
AcDbLine
 10
75.35985631888346
 20
25.7311639548195
 30
0.0
 11
75.48162486242762
 21
26.04748557772935
 31
0.0
  0
LINE
  5
679
330
18
100
AcDbEntity
  8
ADP1DETAIL
100
AcDbLine
 10
75.48162486242762
 20
26.04748557772935
 30
0.0
 11
75.8712841477234
 21
25.58516934614248
 31
0.0
  0
CIRCLE
  5
67A
330
18
100
AcDbEntity
  8
ADP1DETAIL
100
AcDbCircle
 10
77.06461571231958
 20
22.12996382955308
 30
0.0
 40
0.2587554256125375
  0
LINE
  5
67B
330
18
100
AcDbEntity
  8
ADP1DETAIL
100
AcDbLine
 10
76.67199452009453
 20
22.35412885583265
 30
0.0
 11
76.75180842991372
 21
22.19450103619429
 31
0.0
  0
CIRCLE
  5
67C
330
18
100
AcDbEntity
  8
ADP1DETAIL
100
AcDbCircle
 10
77.64910461324044
 20
22.15429627017732
 30
0.0
 40
0.2396812253865777
  0
LWPOLYLINE
  5
67D
330
18
100
AcDbEntity
  8
ADP1DETAIL
100
AcDbPolyline
 90
       12
 70
     0
 43
0.0
 10
78.05590565650212
 20
18.83671471249604
 42
0.0612666551179044
 10
78.14104948592245
 20
19.28209586401902
 42
0.5255807806481889
 10
77.67832907450017
 20
19.23343101783896
 42
0.2361047806858501
 10
77.23996237178671
 20
18.72244990500361
 42
-0.0649350767267326
 10
76.80159572311888
 20
18.35746343591371
 42
0.0516035821314338
 10
76.94771792132627
 20
18.13847150536396
 42
-0.2314178152882659
 10
77.55656058500159
 20
18.33313099528947
 42
0.4621643564910137
 10
77.45914575016624
 20
18.06547421855967
 42
0.2144978953315224
 10
77.75139020062667
 20
17.94381205050689
 42
-0.0140566179850119
 10
77.92186616158852
 20
17.94381205050689
 42
-0.3867204460739048
 10
77.58091423966482
 20
17.55449314079274
 42
-0.0603707898575046
 10
77.8975124528797
 20
17.31116880468719
 42
0.4086421818852696
  0
LWPOLYLINE
  5
68B
330
18
100
AcDbEntity
  8
ADP1DETAIL
100
AcDbPolyline
 90
        2
 70
     0
 43
0.0
 10
77.77582871531253
 20
19.33740287169097
 42
-0.0415806105244129
 10
78.05590565650212
 20
18.83671471249605
 42
-0.0521458766910201
  0
LWPOLYLINE
  5
68F
330
18
100
AcDbEntity
  8
ADP1DETAIL
100
AcDbPolyline
 90
        3
 70
     0
 43
0.0
 10
78.24145572844466
 20
18.32540611712839
 42
-0.0477317759106719
 10
78.35536205770548
 20
17.67712856298564
 42
-0.029648927044142
 10
78.3550864714137
 20
16.81112902418694
  0
ARC
  5
694
330
18
100
AcDbEntity
  8
ADP1DETAIL
100
AcDbCircle
 10
77.85402683540148
 20
18.35293935676709
 30
0.0
 40
1.167951186083229
100
AcDbArc
 50
205.6980614085003
 51
264.958486854383
  0
ARC
  5
695
330
18
100
AcDbEntity
  8
ADP1DETAIL
100
AcDbCircle
 10
82.26182686061207
 20
20.59274958384007
 30
0.0
 40
6.329751698444876
100
AcDbArc
 50
206.6951294884424
 51
213.311503545374
  0
LWPOLYLINE
  5
696
330
18
100
AcDbEntity
  8
ADP1DETAIL
100
AcDbPolyline
 90
        2
 70
     0
 43
0.0
 10
77.90992617134515
 20
17.3040664173638
 42
0.0263632595053399
 10
77.85267823429838
 20
17.71643632760914
 42
0.00185769757814
  0
LWPOLYLINE
  5
69A
330
18
100
AcDbEntity
  8
ADP1DETAIL
100
AcDbPolyline
 90
        2
 70
     0
 43
0.0
 10
77.91699540903763
 20
16.72816369425609
 42
0.0131952847449353
 10
77.92414358340074
 20
16.93652763904989
 42
0.00185769757814
  0
LWPOLYLINE
  5
69E
330
18
100
AcDbEntity
  8
ADP1DETAIL
100
AcDbPolyline
 90
        4
 70
     0
 43
0.0
 10
77.89748196269187
 20
17.31727683971776
 10
78.13039624344291
 20
17.07002158173225
 42
-0.4959667749313891
 10
78.11583904027111
 20
16.98275500869846
 42
-0.1508712147964396
 10
77.88292483413528
 20
16.93912172218156
 42
-17.47968495136705
  0
LWPOLYLINE
  5
6A4
330
18
100
AcDbEntity
  8
ADP1DETAIL
100
AcDbPolyline
 90
        3
 70
     0
 43
0.0
 10
77.80154247565691
 20
17.94480723590131
 42
0.070269842968761
 10
77.38121387148885
 20
18.96674753031772
 42
0.00185769757814
 10
77.36762742739433
 20
18.99079050874
 42
0.0045642012626733
  0
ARC
  5
6A9
330
18
100
AcDbEntity
  8
ADP1DETAIL
100
AcDbCircle
 10
77.55199581533964
 20
19.56791018150948
 30
0.0
 40
1.731910680132807
100
AcDbArc
 50
252.1381487063886
 51
281.5077373480577
  0
ARC
  5
6AA
330
18
100
AcDbEntity
  8
ADP1DETAIL
100
AcDbCircle
 10
76.74073239489414
 20
20.9539760753628
 30
0.0
 40
3.047391495463103
100
AcDbArc
 50
275.2727592801799
 51
283.6356590260884
  0
ARC
  5
6AB
330
18
100
AcDbEntity
  8
ADP1DETAIL
100
AcDbCircle
 10
76.98424848438953
 20
18.39436636259033
 30
0.0
 40
0.3432422178166885
100
AcDbArc
 50
242.5362224813309
 51
332.4861716731316
  0
CIRCLE
  5
6AC
330
18
100
AcDbEntity
  8
ADP1DETAIL
100
AcDbCircle
 10
76.84543233394004
 20
20.69435028861242
 30
0.0
 40
0.285023727709699
  0
CIRCLE
  5
6AD
330
18
100
AcDbEntity
  8
ADP1DETAIL
100
AcDbCircle
 10
77.38121387148885
 20
20.57268812055964
 30
0.0
 40
0.207918809914174
  0
CIRCLE
  5
6AE
330
18
100
AcDbEntity
  8
ADP1DETAIL
100
AcDbCircle
 10
77.04026200361074
 20
20.15903677022125
 30
0.0
 40
0.293144389390827
  0
LWPOLYLINE
  5
6AF
330
18
100
AcDbEntity
  8
ADP1DETAIL
100
AcDbPolyline
 90
        3
 70
     0
 43
0.0
 10
77.26827768528419
 20
19.92581929372572
 42
-0.0167549436709254
 10
77.60039719582275
 20
19.5750583705816
 42
-0.000747377604762
 10
77.60686949685871
 20
19.5670078901686
 42
-0.0521458766910201
  0
CIRCLE
  5
6B4
330
18
100
AcDbEntity
  8
ADP1DETAIL
100
AcDbCircle
 10
77.86828799161996
 20
21.66764759796621
 30
0.0
 40
0.2409841426101356
  0
CIRCLE
  5
6B5
330
18
100
AcDbEntity
  8
ADP1DETAIL
100
AcDbCircle
 10
77.38121387148885
 20
21.59465031116191
 30
0.0
 40
0.2775238792471148
  0
CIRCLE
  5
6B6
330
18
100
AcDbEntity
  8
ADP1DETAIL
100
AcDbCircle
 10
77.62475090453159
 20
21.03500435214651
 30
0.0
 40
0.2540563968783701
  0
CIRCLE
  5
6B7
330
18
100
AcDbEntity
  8
ADP1DETAIL
100
AcDbCircle
 10
77.08896942102841
 20
21.15666652019928
 30
0.0
 40
0.2396812473525968
  0
LINE
  5
6B8
330
18
100
AcDbEntity
  8
ADP1DETAIL
100
AcDbLine
 10
77.31050579864798
 20
22.15459408128471
 30
0.0
 11
77.2306918888288
 21
21.95505930673676
 31
0.0
  0
LWPOLYLINE
  5
6B9
330
18
100
AcDbEntity
  8
ADP1DETAIL
100
AcDbPolyline
 90
        4
 70
     0
 43
0.0
 10
77.27728513931115
 20
24.19195772548873
 42
0.1232401249192243
 10
77.91699540903763
 20
26.41247208188769
 10
78.35536205770548
 20
26.41247208188769
 42
-0.1350490726847721
 10
77.77291635116991
 20
24.12887840677107
 42
-0.0168485542724702
  0
LWPOLYLINE
  5
6BF
330
18
100
AcDbEntity
  8
ADP1DETAIL
100
AcDbPolyline
 90
        2
 70
     0
 43
0.0
 10
76.65065105185111
 20
23.3445065999144
 42
0.0402866280397398
 10
77.12437731036164
 20
23.94598022760659
  0
LWPOLYLINE
  5
6C3
330
18
100
AcDbEntity
  8
ADP1DETAIL
100
AcDbPolyline
 90
        3
 70
     0
 43
0.0
 10
77.66196331085119
 20
23.9447847344606
 42
-0.0227400553416016
 10
77.42992128890652
 20
23.61424225174222
 42
-0.0168485542724702
 10
77.13389110451642
 20
23.25646531714899
 42
-0.016469998018334
  0
CIRCLE
  5
6C8
330
18
100
AcDbEntity
  8
ADP1DETAIL
100
AcDbCircle
 10
77.30815274536232
 20
22.5436152149599
 30
0.0
 40
0.2296080756419875
  0
LWPOLYLINE
  5
6C9
330
18
100
AcDbEntity
  8
ADP1DETAIL
100
AcDbPolyline
 90
        2
 70
     0
 43
0.0
 10
76.87019691531486
 20
22.9750555298429
 42
-0.0080848760388593
 10
76.71077076318032
 20
22.81930511277483
 42
-0.016469998018334
  0
ARC
  5
6CD
330
18
100
AcDbEntity
  8
ADP1DETAIL
100
AcDbCircle
 10
77.18026292462777
 20
22.80872203257855
 30
0.0
 40
1.595358153938537
100
AcDbArc
 50
96.79318598376333
 51
111.2557472393051
  0
LINE
  5
6CE
330
18
100
AcDbEntity
  8
ADP1DETAIL
100
AcDbLine
 10
76.79171538482332
 20
24.98798787986559
 30
0.0
 11
76.63208756518494
 21
24.82836006022723
 31
0.0
  0
TEXT
  5
6DC
330
18
100
AcDbEntity
  8
ADPDIM
100
AcDbText
 10
48.6572181365574
 20
-3.959661140119078
 30
0.0
 40
0.5
  1
J U L I U S  B L U M  &  C O . ,  I N C .      ( 8 0 0 )  5 2 6 - 6 2 9 3        W W W . J U L I U S B L U M . C O M        P A R T  N o .  5 1 0
 41
1.25
  7
ARIAL_WIDE
 72
     1
 11
74.39604828662561
 21
-3.459661140119078
 31
0.0
100
AcDbText
 73
     3
  0
ENDSEC
  0
SECTION
  2
OBJECTS
  0
DICTIONARY
  5
C
330
0
100
AcDbDictionary
  3
ACAD_GROUP
350
D
  3
ACAD_LAYOUT
350
6D5
  3
ACAD_MLINESTYLE
350
E
  3
ACAD_PLOTSETTINGS
350
6D6
  3
ACAD_PLOTSTYLENAME
350
6D3
  3
ACDBHEADERROUNDTRIPXREC
350
824
  3
ACDBVARIABLEDICTIONARY
350
736
  0
DICTIONARY
  5
730
330
18
100
AcDbDictionary
280
     1
  3
ACAD_LAYOUTSELFREF
360
845
  0
DICTIONARY
  5
72E
330
15
100
AcDbDictionary
280
     1
  3
ACAD_LAYOUTSELFREF
360
844
  0
DICTIONARY
  5
D
102
{ACAD_REACTORS
330
C
102
}
330
C
100
AcDbDictionary
  0
DICTIONARY
  5
6D5
102
{ACAD_REACTORS
330
C
102
}
330
C
100
AcDbDictionary
  0
DICTIONARY
  5
E
102
{ACAD_REACTORS
330
C
102
}
330
C
100
AcDbDictionary
  3
STANDARD
350
1B
  0
DICTIONARY
  5
6D6
102
{ACAD_REACTORS
330
C
102
}
330
C
100
AcDbDictionary
  0
ACDBDICTIONARYWDFLT
  5
6D3
102
{ACAD_REACTORS
330
C
102
}
330
C
100
AcDbDictionary
281
     1
  3
Normal
350
6D4
100
AcDbDictionaryWithDefault
340
6D4
  0
DICTIONARY
  5
824
102
{ACAD_REACTORS
330
C
102
}
330
C
100
AcDbDictionary
  3
CEPSNTYPE
350
82E
  3
FINGERPRINTGUID
350
82F
  3
HYPERLINKBASE
350
827
  3
INSUNITS
350
82D
  3
LAYOUTDICT
350
829
  3
LWETCUNION
350
82C
  3
PLOTSETDICT
350
82A
  3
PLOTSTYLNAMDICT
350
82B
  3
PSVPSCALE
350
831
  3
PUCSBASE
350
834
  3
PUCSORGBACK
350
83A
  3
PUCSORGBOTTOM
350
836
  3
PUCSORGFRONT
350
839
  3
PUCSORGLEFT
350
837
  3
PUCSORGRIGHT
350
838
  3
PUCSORGTOP
350
835
  3
PUCSORTHOREF
350
832
  3
PUCSORTHOVIEW
350
833
  3
STYLESHEET
350
828
  3
TSTACKALIGN
350
825
  3
TSTACKSIZE
350
826
  3
UCSBASE
350
83D
  3
UCSORGBACK
350
843
  3
UCSORGBOTTOM
350
83F
  3
UCSORGFRONT
350
842
  3
UCSORGLEFT
350
840
  3
UCSORGRIGHT
350
841
  3
UCSORGTOP
350
83E
  3
UCSORTHOREF
350
83B
  3
UCSORTHOVIEW
350
83C
  3
VERSIONGUID
350
830
  0
DICTIONARY
  5
736
102
{ACAD_REACTORS
330
C
102
}
330
C
100
AcDbDictionary
  3
DIMASSOC
350
737
  0
XRECORD
  5
845
102
{ACAD_REACTORS
330
730
102
}
330
730
100
AcDbXrecord
340
18
  0
XRECORD
  5
844
102
{ACAD_REACTORS
330
72E
102
}
330
72E
100
AcDbXrecord
340
15
  0
MLINESTYLE
  5
1B
102
{ACAD_REACTORS
330
E
102
}
330
E
100
AcDbMlineStyle
  2
STANDARD
 70
     0
  3

 62
     0
 51
90.0
 52
90.0
 71
     2
 49
0.5
 62
   256
  6
BYLAYER
 49
-0.5
 62
   256
  6
BYLAYER
  0
ACDBPLACEHOLDER
  5
6D4
102
{ACAD_REACTORS
330
6D3
102
}
330
6D3
100
AcDbPlaceHolder
280
     0
  0
XRECORD
  5
82E
102
{ACAD_REACTORS
330
824
102
}
330
824
100
AcDbXrecord
 90
        0
  0
XRECORD
  5
82F
102
{ACAD_REACTORS
330
824
102
}
330
824
100
AcDbXrecord
  1
{910678AC-3552-41B1-A9FA-F383E818FF32}
  0
XRECORD
  5
827
102
{ACAD_REACTORS
330
824
102
}
330
824
100
AcDbXrecord
  1

  0
XRECORD
  5
82D
102
{ACAD_REACTORS
330
824
102
}
330
824
100
AcDbXrecord
 90
        0
  0
XRECORD
  5
829
102
{ACAD_REACTORS
330
824
102
}
330
824
100
AcDbXrecord
340
6D5
  0
XRECORD
  5
82C
102
{ACAD_REACTORS
330
824
102
}
330
824
100
AcDbXrecord
 90
    14877
  0
XRECORD
  5
82A
102
{ACAD_REACTORS
330
824
102
}
330
824
100
AcDbXrecord
340
6D6
  0
XRECORD
  5
82B
102
{ACAD_REACTORS
330
824
102
}
330
824
100
AcDbXrecord
340
6D3
  0
XRECORD
  5
831
102
{ACAD_REACTORS
330
824
102
}
330
824
100
AcDbXrecord
 40
0.0
  0
XRECORD
  5
834
102
{ACAD_REACTORS
330
824
102
}
330
824
100
AcDbXrecord
340
0
  0
XRECORD
  5
83A
102
{ACAD_REACTORS
330
824
102
}
330
824
100
AcDbXrecord
 10
0.0
 20
0.0
 30
0.0
  0
XRECORD
  5
836
102
{ACAD_REACTORS
330
824
102
}
330
824
100
AcDbXrecord
 10
0.0
 20
0.0
 30
0.0
  0
XRECORD
  5
839
102
{ACAD_REACTORS
330
824
102
}
330
824
100
AcDbXrecord
 10
0.0
 20
0.0
 30
0.0
  0
XRECORD
  5
837
102
{ACAD_REACTORS
330
824
102
}
330
824
100
AcDbXrecord
 10
0.0
 20
0.0
 30
0.0
  0
XRECORD
  5
838
102
{ACAD_REACTORS
330
824
102
}
330
824
100
AcDbXrecord
 10
0.0
 20
0.0
 30
0.0
  0
XRECORD
  5
835
102
{ACAD_REACTORS
330
824
102
}
330
824
100
AcDbXrecord
 10
0.0
 20
0.0
 30
0.0
  0
XRECORD
  5
832
102
{ACAD_REACTORS
330
824
102
}
330
824
100
AcDbXrecord
340
0
  0
XRECORD
  5
833
102
{ACAD_REACTORS
330
824
102
}
330
824
100
AcDbXrecord
 70
     0
  0
XRECORD
  5
828
102
{ACAD_REACTORS
330
824
102
}
330
824
100
AcDbXrecord
  1

  0
XRECORD
  5
825
102
{ACAD_REACTORS
330
824
102
}
330
824
100
AcDbXrecord
 90
        1
  0
XRECORD
  5
826
102
{ACAD_REACTORS
330
824
102
}
330
824
100
AcDbXrecord
 90
       70
  0
XRECORD
  5
83D
102
{ACAD_REACTORS
330
824
102
}
330
824
100
AcDbXrecord
340
0
  0
XRECORD
  5
843
102
{ACAD_REACTORS
330
824
102
}
330
824
100
AcDbXrecord
 10
0.0
 20
0.0
 30
0.0
  0
XRECORD
  5
83F
102
{ACAD_REACTORS
330
824
102
}
330
824
100
AcDbXrecord
 10
0.0
 20
0.0
 30
0.0
  0
XRECORD
  5
842
102
{ACAD_REACTORS
330
824
102
}
330
824
100
AcDbXrecord
 10
0.0
 20
0.0
 30
0.0
  0
XRECORD
  5
840
102
{ACAD_REACTORS
330
824
102
}
330
824
100
AcDbXrecord
 10
0.0
 20
0.0
 30
0.0
  0
XRECORD
  5
841
102
{ACAD_REACTORS
330
824
102
}
330
824
100
AcDbXrecord
 10
0.0
 20
0.0
 30
0.0
  0
XRECORD
  5
83E
102
{ACAD_REACTORS
330
824
102
}
330
824
100
AcDbXrecord
 10
0.0
 20
0.0
 30
0.0
  0
XRECORD
  5
83B
102
{ACAD_REACTORS
330
824
102
}
330
824
100
AcDbXrecord
340
0
  0
XRECORD
  5
83C
102
{ACAD_REACTORS
330
824
102
}
330
824
100
AcDbXrecord
 70
     0
  0
XRECORD
  5
830
102
{ACAD_REACTORS
330
824
102
}
330
824
100
AcDbXrecord
  1
{9544374E-8FD5-41CC-B1DF-DB0831704FFB}
  0
DICTIONARYVAR
  5
737
102
{ACAD_REACTORS
330
736
102
}
330
736
100
DictionaryVariables
280
     0
  1
1
  0
ENDSEC
  0
EOF
