  0
SECTION
  2
HEADER
  9
$ACADVER
  1
AC1014
  9
$ACADMAINTVER
 70
     9
  9
$DWGCODEPAGE
  3
ANSI_1252
  9
$INSBASE
 10
-11.57658126778574
 20
18.84616732820665
 30
0.0
  9
$EXTMIN
 10
-14.30639636078525
 20
17.59127386988333
 30
0.0
  9
$EXTMAX
 10
-1.43698128575115
 20
23.33701688989489
 30
0.0
  9
$LIMMIN
 10
0.0
 20
0.0
  9
$LIMMAX
 10
36.0
 20
36.0
  9
$ORTHOMODE
 70
     1
  9
$REGENMODE
 70
     1
  9
$FILLMODE
 70
     1
  9
$QTEXTMODE
 70
     0
  9
$MIRRTEXT
 70
     1
  9
$DRAGMODE
 70
     0
  9
$LTSCALE
 40
1.0
  9
$OSMODE
 70
    37
  9
$ATTMODE
 70
     1
  9
$TEXTSIZE
 40
0.2
  9
$TRACEWID
 40
0.05
  9
$TEXTSTYLE
  7
STANDARD
  9
$CLAYER
  8
0
  9
$CELTYPE
  6
BYLAYER
  9
$CECOLOR
 62
   256
  9
$CELTSCALE
 40
1.0
  9
$DELOBJ
 70
     1
  9
$DISPSILH
 70
     0
  9
$DIMSCALE
 40
1.0
  9
$DIMASZ
 40
0.125
  9
$DIMEXO
 40
0.0625
  9
$DIMDLI
 40
0.38
  9
$DIMRND
 40
0.0
  9
$DIMDLE
 40
0.0
  9
$DIMEXE
 40
0.18
  9
$DIMTP
 40
0.0
  9
$DIMTM
 40
0.0
  9
$DIMTXT
 40
0.125
  9
$DIMCEN
 40
0.1875
  9
$DIMTSZ
 40
0.125
  9
$DIMTOL
 70
     0
  9
$DIMLIM
 70
     0
  9
$DIMTIH
 70
     0
  9
$DIMTOH
 70
     0
  9
$DIMSE1
 70
     0
  9
$DIMSE2
 70
     0
  9
$DIMTAD
 70
     0
  9
$DIMZIN
 70
     3
  9
$DIMBLK
  1

  9
$DIMASO
 70
     1
  9
$DIMSHO
 70
     1
  9
$DIMPOST
  1

  9
$DIMAPOST
  1

  9
$DIMALT
 70
     0
  9
$DIMALTD
 70
     1
  9
$DIMALTF
 40
25.4
  9
$DIMLFAC
 40
1.0
  9
$DIMTOFL
 70
     0
  9
$DIMTVP
 40
0.0
  9
$DIMTIX
 70
     0
  9
$DIMSOXD
 70
     0
  9
$DIMSAH
 70
     0
  9
$DIMBLK1
  1

  9
$DIMBLK2
  1

  9
$DIMSTYLE
  2
STANDARD
  9
$DIMCLRD
 70
     0
  9
$DIMCLRE
 70
     0
  9
$DIMCLRT
 70
     0
  9
$DIMTFAC
 40
1.0
  9
$DIMGAP
 40
0.125
  9
$DIMJUST
 70
     0
  9
$DIMSD1
 70
     0
  9
$DIMSD2
 70
     0
  9
$DIMTOLJ
 70
     1
  9
$DIMTZIN
 70
     0
  9
$DIMALTZ
 70
     0
  9
$DIMALTTZ
 70
     0
  9
$DIMFIT
 70
     3
  9
$DIMUPT
 70
     0
  9
$DIMUNIT
 70
     2
  9
$DIMDEC
 70
     4
  9
$DIMTDEC
 70
     4
  9
$DIMALTU
 70
     2
  9
$DIMALTTD
 70
     2
  9
$DIMTXSTY
  7
STANDARD
  9
$DIMAUNIT
 70
     0
  9
$LUNITS
 70
     5
  9
$LUPREC
 70
     4
  9
$SKETCHINC
 40
0.1
  9
$FILLETRAD
 40
0.062
  9
$AUNITS
 70
     0
  9
$AUPREC
 70
     0
  9
$MENU
  1
acad
  9
$ELEVATION
 40
0.0
  9
$PELEVATION
 40
0.0
  9
$THICKNESS
 40
0.0
  9
$LIMCHECK
 70
     0
  9
$BLIPMODE
 70
     0
  9
$CHAMFERA
 40
0.0
  9
$CHAMFERB
 40
0.0
  9
$CHAMFERC
 40
0.0
  9
$CHAMFERD
 40
0.0
  9
$SKPOLY
 70
     0
  9
$TDCREATE
 40
2450382.660515625
  9
$TDUPDATE
 40
2452297.071437535
  9
$TDINDWG
 40
0.0170728588
  9
$TDUSRTIMER
 40
0.0170728588
  9
$USRTIMER
 70
     1
  9
$ANGBASE
 50
0.0
  9
$ANGDIR
 70
     0
  9
$PDMODE
 70
     0
  9
$PDSIZE
 40
0.0
  9
$PLINEWID
 40
0.0
  9
$COORDS
 70
     2
  9
$SPLFRAME
 70
     0
  9
$SPLINETYPE
 70
     6
  9
$SPLINESEGS
 70
     8
  9
$ATTDIA
 70
     0
  9
$ATTREQ
 70
     1
  9
$HANDLING
 70
 22529
  9
$HANDSEED
  5
2F7
  9
$SURFTAB1
 70
     6
  9
$SURFTAB2
 70
     6
  9
$SURFTYPE
 70
     6
  9
$SURFU
 70
     6
  9
$SURFV
 70
     6
  9
$UCSNAME
  2

  9
$UCSORG
 10
0.0
 20
0.0
 30
0.0
  9
$UCSXDIR
 10
1.0
 20
0.0
 30
0.0
  9
$UCSYDIR
 10
0.0
 20
1.0
 30
0.0
  9
$PUCSNAME
  2

  9
$PUCSORG
 10
0.0
 20
0.0
 30
0.0
  9
$PUCSXDIR
 10
1.0
 20
0.0
 30
0.0
  9
$PUCSYDIR
 10
0.0
 20
1.0
 30
0.0
  9
$USERI1
 70
     0
  9
$USERI2
 70
     0
  9
$USERI3
 70
     0
  9
$USERI4
 70
     0
  9
$USERI5
 70
     0
  9
$USERR1
 40
0.0
  9
$USERR2
 40
0.0
  9
$USERR3
 40
0.0
  9
$USERR4
 40
0.0
  9
$USERR5
 40
0.0
  9
$WORLDVIEW
 70
     1
  9
$SHADEDGE
 70
     3
  9
$SHADEDIF
 70
    70
  9
$TILEMODE
 70
     1
  9
$MAXACTVP
 70
    15
  9
$PINSBASE
 10
0.0
 20
0.0
 30
0.0
  9
$PLIMCHECK
 70
     0
  9
$PEXTMIN
 10
1.000000000000000E+20
 20
1.000000000000000E+20
 30
1.000000000000000E+20
  9
$PEXTMAX
 10
-1.000000000000000E+20
 20
-1.000000000000000E+20
 30
-1.000000000000000E+20
  9
$PLIMMIN
 10
0.0
 20
0.0
  9
$PLIMMAX
 10
12.0
 20
9.0
  9
$UNITMODE
 70
     0
  9
$VISRETAIN
 70
     0
  9
$PLINEGEN
 70
     0
  9
$PSLTSCALE
 70
     1
  9
$TREEDEPTH
 70
  3020
  9
$PICKSTYLE
 70
     1
  9
$CMLSTYLE
  2
STANDARD
  9
$CMLJUST
 70
     0
  9
$CMLSCALE
 40
1.0
  9
$PROXYGRAPHICS
 70
     1
  9
$MEASUREMENT
 70
     0
  0
ENDSEC
  0
SECTION
  2
CLASSES
  0
CLASS
  1
ACDBDICTIONARYWDFLT
  2
AcDbDictionaryWithDefault
  3
AutoCAD 2000
 90
        0
280
     0
281
     0
  0
CLASS
  1
ACDBPLACEHOLDER
  2
AcDbPlaceHolder
  3
AutoCAD 2000
 90
        0
280
     0
281
     0
  0
CLASS
  1
LAYOUT
  2
AcDbLayout
  3
AutoCAD 2000
 90
        0
280
     0
281
     0
  0
CLASS
  1
DICTIONARYVAR
  2
AcDbDictionaryVar
  3
AutoCAD 2000
 90
        0
280
     0
281
     0
  0
CLASS
  1
LONG_TRANSACTION
  2
AcDbLongTransaction
  3
AutoCAD 2000
 90
        0
280
     0
281
     0
  0
CLASS
  1
LWPOLYLINE
  2
AcDbPolyline
  3
AutoCAD 2000
 90
        0
280
     0
281
     1
  0
CLASS
  1
HATCH
  2
AcDbHatch
  3
AutoCAD 2000
 90
        0
280
     0
281
     1
  0
CLASS
  1
XRECORD
  2
AcDbXrecord
  3
AutoCAD 2000
 90
        0
280
     0
281
     0
  0
CLASS
  1
LONG_TRANSACTION
  2
AcDbLongTransaction
  3
AutoCAD 2000
 90
        0
280
     0
281
     0
  0
CLASS
  1
LWPOLYLINE
  2
AcDbPolyline
  3
AutoCAD 2000
 90
        0
280
     0
281
     1
  0
CLASS
  1
HATCH
  2
AcDbHatch
  3
AutoCAD 2000
 90
        0
280
     0
281
     1
  0
CLASS
  1
XRECORD
  2
AcDbXrecord
  3
AutoCAD 2000
 90
        0
280
     0
281
     0
  0
CLASS
  1
LONG_TRANSACTION
  2
AcDbLongTransaction
  3
AutoCAD 2000
 90
        0
280
     0
281
     0
  0
CLASS
  1
LWPOLYLINE
  2
AcDbPolyline
  3
AutoCAD 2000
 90
        0
280
     0
281
     1
  0
CLASS
  1
HATCH
  2
AcDbHatch
  3
AutoCAD 2000
 90
        0
280
     0
281
     1
  0
CLASS
  1
XRECORD
  2
AcDbXrecord
  3
AutoCAD 2000
 90
        0
280
     0
281
     0
  0
CLASS
  1
LONG_TRANSACTION
  2
AcDbLongTransaction
  3
AutoCAD 2000
 90
        0
280
     0
281
     0
  0
CLASS
  1
LWPOLYLINE
  2
AcDbPolyline
  3
AutoCAD 2000
 90
        0
280
     0
281
     1
  0
CLASS
  1
HATCH
  2
AcDbHatch
  3
AutoCAD 2000
 90
        0
280
     0
281
     1
  0
CLASS
  1
XRECORD
  2
AcDbXrecord
  3
AutoCAD 2000
 90
        0
280
     0
281
     0
  0
CLASS
  1
LONG_TRANSACTION
  2
AcDbLongTransaction
  3
AutoCAD 2000
 90
        0
280
     0
281
     0
  0
CLASS
  1
LWPOLYLINE
  2
AcDbPolyline
  3
AutoCAD 2000
 90
        0
280
     0
281
     1
  0
CLASS
  1
HATCH
  2
AcDbHatch
  3
AutoCAD 2000
 90
        0
280
     0
281
     1
  0
CLASS
  1
XRECORD
  2
AcDbXrecord
  3
AutoCAD 2000
 90
        0
280
     0
281
     0
  0
ENDSEC
  0
SECTION
  2
TABLES
  0
TABLE
  2
VPORT
  5
8
330
0
100
AcDbSymbolTable
 70
     2
  0
VPORT
  5
2D4
330
8
100
AcDbSymbolTableRecord
100
AcDbViewportTableRecord
  2
*ACTIVE
 70
     0
 10
0.0
 20
0.0
 11
1.0
 21
1.0
 12
-7.861277446704641
 22
20.46505745973561
 13
0.0
 23
0.0
 14
0.5740882589684922
 24
0.5740882589684922
 15
0.5
 25
0.5
 16
0.0
 26
0.0
 36
1.0
 17
0.0
 27
0.0
 37
0.0
 40
8.247154336401111
 41
1.570528967254408
 42
50.0
 43
0.0
 44
0.0
 50
0.0
 51
0.0
 71
     0
 72
   100
 73
     1
 74
     0
 75
     0
 76
     0
 77
     0
 78
     0
  0
ENDTAB
  0
TABLE
  2
LTYPE
  5
5
330
0
100
AcDbSymbolTable
 70
     3
  0
LTYPE
  5
12
330
5
100
AcDbSymbolTableRecord
100
AcDbLinetypeTableRecord
  2
BYBLOCK
 70
     0
  3

 72
    65
 73
     0
 40
0.0
  0
LTYPE
  5
13
330
5
100
AcDbSymbolTableRecord
100
AcDbLinetypeTableRecord
  2
BYLAYER
 70
     0
  3

 72
    65
 73
     0
 40
0.0
  0
LTYPE
  5
14
330
5
100
AcDbSymbolTableRecord
100
AcDbLinetypeTableRecord
  2
CONTINUOUS
 70
     0
  3
Solid line
 72
    65
 73
     0
 40
0.0
  0
LTYPE
  5
E0
330
5
100
AcDbSymbolTableRecord
100
AcDbLinetypeTableRecord
  2
HIDDEN2
 70
     0
  3
_ _ _ _ _ _ _ _ _ _ _ _ _ _ _ _ _ _ _ _ _ _ _ _
 72
    65
 73
     2
 40
0.1875
 49
0.125
 74
     0
 49
-0.0625
 74
     0
  0
LTYPE
  5
F2
330
5
100
AcDbSymbolTableRecord
100
AcDbLinetypeTableRecord
  2
HIDDEN
 70
     0
  3
__ __ __ __ __ __ __ __ __ __ __ __ __ __ __ __
 72
    65
 73
     2
 40
0.375
 49
0.25
 74
     0
 49
-0.125
 74
     0
  0
ENDTAB
  0
TABLE
  2
LAYER
  5
2
330
0
100
AcDbSymbolTable
 70
     4
  0
LAYER
  5
F
330
2
100
AcDbSymbolTableRecord
100
AcDbLayerTableRecord
  2
0
 70
     0
 62
     7
  6
CONTINUOUS
  0
LAYER
  5
F8
330
2
100
AcDbSymbolTableRecord
100
AcDbLayerTableRecord
  2
DEFPOINTS
 70
     0
 62
     7
  6
CONTINUOUS
  0
LAYER
  5
F9
330
2
100
AcDbSymbolTableRecord
100
AcDbLayerTableRecord
  2
ADP2DETAIL
 70
     0
 62
     5
  6
HIDDEN2
  0
LAYER
  5
FC
330
2
100
AcDbSymbolTableRecord
100
AcDbLayerTableRecord
  2
ADPDIM
 70
     0
 62
     3
  6
CONTINUOUS
  0
ENDTAB
  0
TABLE
  2
STYLE
  5
3
330
0
100
AcDbSymbolTable
 70
     2
  0
STYLE
  5
10
330
3
100
AcDbSymbolTableRecord
100
AcDbTextStyleTableRecord
  2
STANDARD
 70
     0
 40
0.0
 41
1.0
 50
0.0
 71
     0
 42
0.2
  3
txt
  4

  0
STYLE
  5
190
330
3
100
AcDbSymbolTableRecord
100
AcDbTextStyleTableRecord
  2
ARIAL_WIDE
 70
     0
 40
0.0
 41
1.25
 50
0.0
 71
     0
 42
0.2
  3
ARIAL.TTF
  4

1001
ACAD
1000
Arial
1071
       34
  0
ENDTAB
  0
TABLE
  2
VIEW
  5
6
330
0
100
AcDbSymbolTable
 70
     0
  0
ENDTAB
  0
TABLE
  2
UCS
  5
7
330
0
100
AcDbSymbolTable
 70
     0
  0
ENDTAB
  0
TABLE
  2
APPID
  5
9
330
0
100
AcDbSymbolTable
 70
     1
  0
APPID
  5
11
330
9
100
AcDbSymbolTableRecord
100
AcDbRegAppTableRecord
  2
ACAD
 70
     0
  0
ENDTAB
  0
TABLE
  2
DIMSTYLE
  5
A
330
0
100
AcDbSymbolTable
 70
     1
  0
DIMSTYLE
105
184
330
A
100
AcDbSymbolTableRecord
100
AcDbDimStyleTableRecord
  2
STANDARD
 70
     0
  3

  4

  5

  6

  7

 40
1.0
 41
0.18
 42
0.0625
 43
0.38
 44
0.18
 45
0.0
 46
0.0
 47
0.0
 48
0.0
140
0.18
141
0.09
142
0.0
143
25.4
144
1.0
145
0.0
146
1.0
147
0.09
 71
     0
 72
     0
 73
     1
 74
     1
 75
     0
 76
     0
 77
     0
 78
     0
170
     0
171
     2
172
     0
173
     0
174
     0
175
     0
176
     0
177
     0
178
     0
270
     2
271
     4
272
     4
273
     2
274
     2
340
10
275
     0
280
     0
281
     0
282
     0
283
     1
284
     0
285
     0
286
     0
287
     3
288
     0
  0
ENDTAB
  0
TABLE
  2
BLOCK_RECORD
  5
1
330
0
100
AcDbSymbolTable
 70
     6
  0
BLOCK_RECORD
  5
18
102
{ACAD_XDICTIONARY
360
1E5
102
}
330
1
100
AcDbSymbolTableRecord
100
AcDbBlockTableRecord
  2
*MODEL_SPACE
  0
BLOCK_RECORD
  5
15
102
{ACAD_XDICTIONARY
360
1E3
102
}
330
1
100
AcDbSymbolTableRecord
100
AcDbBlockTableRecord
  2
*PAPER_SPACE
  0
BLOCK_RECORD
  5
D9
330
1
100
AcDbSymbolTableRecord
100
AcDbBlockTableRecord
  2
*D0
  0
BLOCK_RECORD
  5
DA
330
1
100
AcDbSymbolTableRecord
100
AcDbBlockTableRecord
  2
*D1
  0
BLOCK_RECORD
  5
DB
330
1
100
AcDbSymbolTableRecord
100
AcDbBlockTableRecord
  2
*D2
  0
BLOCK_RECORD
  5
DC
330
1
100
AcDbSymbolTableRecord
100
AcDbBlockTableRecord
  2
*D3
  0
BLOCK_RECORD
  5
DD
330
1
100
AcDbSymbolTableRecord
100
AcDbBlockTableRecord
  2
*D4
  0
BLOCK_RECORD
  5
DE
330
1
100
AcDbSymbolTableRecord
100
AcDbBlockTableRecord
  2
*D5
  0
ENDTAB
  0
ENDSEC
  0
SECTION
  2
BLOCKS
  0
BLOCK
  5
FF
330
18
100
AcDbEntity
  8
0
100
AcDbBlockBegin
  2
*MODEL_SPACE
 70
     0
 10
0.0
 20
0.0
 30
0.0
  3
*MODEL_SPACE
  1

  0
ENDBLK
  5
100
330
18
100
AcDbEntity
  8
0
100
AcDbBlockEnd
  0
BLOCK
  5
FD
330
15
100
AcDbEntity
 67
     1
  8
0
100
AcDbBlockBegin
  2
*PAPER_SPACE
 70
     0
 10
0.0
 20
0.0
 30
0.0
  3
*PAPER_SPACE
  1

  0
ENDBLK
  5
FE
330
15
100
AcDbEntity
 67
     1
  8
0
100
AcDbBlockEnd
  0
BLOCK
  5
102
330
D9
100
AcDbEntity
  8
0
100
AcDbBlockBegin
  2
*D0
 70
     1
 10
0.0
 20
0.0
 30
0.0
  3
*D0
  1

  0
LINE
  5
103
330
D9
100
AcDbEntity
  8
0
  6
BYBLOCK
 62
     0
100
AcDbLine
 10
-11.57658126778574
 20
21.64366732820665
 30
0.0
 11
-11.57658126778574
 21
23.32565229624693
 31
0.0
  0
LINE
  5
104
330
D9
100
AcDbEntity
  8
0
  6
BYBLOCK
 62
     0
100
AcDbLine
 10
-9.076581267785742
 20
23.26315229624693
 30
0.0
 11
-9.076581267785742
 21
22.96565229624693
 31
0.0
  0
LINE
  5
105
330
D9
100
AcDbEntity
  8
0
  6
BYBLOCK
 62
     0
100
AcDbLine
 10
-11.57658126778574
 20
23.14565229624693
 30
0.0
 11
-10.72241460111907
 21
23.14565229624693
 31
0.0
  0
LINE
  5
106
330
D9
100
AcDbEntity
  8
0
  6
BYBLOCK
 62
     0
100
AcDbLine
 10
-9.076581267785742
 20
23.14565229624693
 30
0.0
 11
-9.930747934452408
 21
23.14565229624693
 31
0.0
  0
LINE
  5
107
330
D9
100
AcDbEntity
  8
0
  6
BYBLOCK
 62
     0
100
AcDbLine
 10
-11.70158126778574
 20
23.02065229624693
 30
0.0
 11
-11.45158126778574
 21
23.27065229624693
 31
0.0
  0
LINE
  5
108
330
D9
100
AcDbEntity
  8
0
  6
BYBLOCK
 62
     0
100
AcDbLine
 10
-9.201581267785742
 20
23.02065229624693
 30
0.0
 11
-8.951581267785742
 21
23.27065229624693
 31
0.0
  0
TEXT
  5
109
330
D9
100
AcDbEntity
  8
0
  6
BYBLOCK
 62
     0
100
AcDbText
 10
-10.59741460111907
 20
23.08315229624693
 30
0.0
 40
0.125
  1
2 1/2
 72
     1
 11
-10.32658126778574
 21
23.14565229624693
 31
0.0
100
AcDbText
 73
     2
  0
POINT
  5
10A
330
D9
100
AcDbEntity
  8
DEFPOINTS
  6
BYBLOCK
 62
     0
100
AcDbPoint
 10
-11.57658126778574
 20
21.58116732820665
 30
0.0
  0
POINT
  5
10B
330
D9
100
AcDbEntity
  8
DEFPOINTS
  6
BYBLOCK
 62
     0
100
AcDbPoint
 10
-9.076581267785742
 20
23.32565229624693
 30
0.0
  0
POINT
  5
10C
330
D9
100
AcDbEntity
  8
DEFPOINTS
  6
BYBLOCK
 62
     0
100
AcDbPoint
 10
-9.076581267785742
 20
23.14565229624693
 30
0.0
  0
ENDBLK
  5
10D
330
D9
100
AcDbEntity
  8
0
100
AcDbBlockEnd
  0
BLOCK
  5
10E
330
DA
100
AcDbEntity
  8
0
100
AcDbBlockBegin
  2
*D1
 70
     1
 10
0.0
 20
0.0
 30
0.0
  3
*D1
  1

  0
LINE
  5
10F
330
DA
100
AcDbEntity
  8
0
  6
BYBLOCK
 62
     0
100
AcDbLine
 10
-7.051071542668804
 20
20.21097386799229
 30
0.0
 11
-8.247649839646618
 21
19.37586679682837
 31
0.0
  0
LINE
  5
110
330
DA
100
AcDbEntity
  8
0
  6
BYBLOCK
 62
     0
100
AcDbLine
 10
-7.082036833632372
 20
20.03693033678374
 30
0.0
 11
-7.020106251705236
 21
20.38501739920084
 31
0.0
  0
LINE
  5
111
330
DA
100
AcDbEntity
  8
0
  6
BYBLOCK
 62
     0
100
AcDbLine
 10
-7.059188823268201
 20
20.33616732820665
 30
0.0
 11
-6.684188823268201
 21
20.33616732820665
 31
0.0
  0
LINE
  5
112
330
DA
100
AcDbEntity
  8
0
  6
BYBLOCK
 62
     0
100
AcDbLine
 10
-6.871688823268201
 20
20.14866732820665
 30
0.0
 11
-6.871688823268201
 21
20.52366732820665
 31
0.0
  0
TEXT
  5
113
330
DA
100
AcDbEntity
  8
0
  6
BYBLOCK
 62
     0
100
AcDbText
 10
-8.758570472044354
 20
18.94307261729872
 30
0.0
 40
0.125
  1
%%c7/16
 50
34.91167355860935
 72
     1
 11
-8.572247141419138
 21
19.14932624977381
 31
0.0
100
AcDbText
 73
     2
  0
POINT
  5
114
330
DA
100
AcDbEntity
  8
DEFPOINTS
  6
BYBLOCK
 62
     0
100
AcDbPoint
 10
-7.051071542668804
 20
20.21097386799229
 30
0.0
  0
POINT
  5
115
330
DA
100
AcDbEntity
  8
DEFPOINTS
  6
BYBLOCK
 62
     0
100
AcDbPoint
 10
-6.692306103867599
 20
20.46136078842101
 30
0.0
  0
ENDBLK
  5
116
330
DA
100
AcDbEntity
  8
0
100
AcDbBlockEnd
  0
BLOCK
  5
117
330
DB
100
AcDbEntity
  8
0
100
AcDbBlockBegin
  2
*D2
 70
     1
 10
0.0
 20
0.0
 30
0.0
  3
*D2
  1

  0
LINE
  5
118
330
DB
100
AcDbEntity
  8
0
  6
BYBLOCK
 62
     0
100
AcDbLine
 10
-6.583550715182049
 20
20.36048239011549
 30
0.0
 11
-5.074822837924441
 21
20.36048239011549
 31
0.0
  0
LINE
  5
119
330
DB
100
AcDbEntity
  8
0
  6
BYBLOCK
 62
     0
100
AcDbLine
 10
-5.809188823268202
 20
18.83616732820665
 30
0.0
 11
-5.074822837924441
 21
18.83616732820665
 31
0.0
  0
LINE
  5
11A
330
DB
100
AcDbEntity
  8
0
  6
BYBLOCK
 62
     0
100
AcDbLine
 10
-5.254822837924441
 20
20.36048239011549
 30
0.0
 11
-5.254822837924441
 21
19.97332485916107
 31
0.0
  0
LINE
  5
11B
330
DB
100
AcDbEntity
  8
0
  6
BYBLOCK
 62
     0
100
AcDbLine
 10
-5.254822837924441
 20
18.83616732820665
 30
0.0
 11
-5.254822837924441
 21
19.22332485916107
 31
0.0
  0
LINE
  5
11C
330
DB
100
AcDbEntity
  8
0
  6
BYBLOCK
 62
     0
100
AcDbLine
 10
-5.129822837924441
 20
20.23548239011549
 30
0.0
 11
-5.379822837924441
 21
20.48548239011549
 31
0.0
  0
LINE
  5
11D
330
DB
100
AcDbEntity
  8
0
  6
BYBLOCK
 62
     0
100
AcDbLine
 10
-5.129822837924441
 20
18.71116732820665
 30
0.0
 11
-5.379822837924441
 21
18.96116732820665
 31
0.0
  0
TEXT
  5
11E
330
DB
100
AcDbEntity
  8
0
  6
BYBLOCK
 62
     0
100
AcDbText
 10
-5.192322837924441
 20
19.34832485916107
 30
0.0
 40
0.125
  1
1 1/2
 50
90.0
 72
     1
 11
-5.254822837924441
 21
19.59832485916107
 31
0.0
100
AcDbText
 73
     2
  0
POINT
  5
11F
330
DB
100
AcDbEntity
  8
DEFPOINTS
  6
BYBLOCK
 62
     0
100
AcDbPoint
 10
-6.646050715182049
 20
20.36048239011549
 30
0.0
  0
POINT
  5
120
330
DB
100
AcDbEntity
  8
DEFPOINTS
  6
BYBLOCK
 62
     0
100
AcDbPoint
 10
-5.871688823268202
 20
18.83616732820665
 30
0.0
  0
POINT
  5
121
330
DB
100
AcDbEntity
  8
DEFPOINTS
  6
BYBLOCK
 62
     0
100
AcDbPoint
 10
-5.254822837924441
 20
18.83616732820665
 30
0.0
  0
ENDBLK
  5
122
330
DB
100
AcDbEntity
  8
0
100
AcDbBlockEnd
  0
BLOCK
  5
123
330
DC
100
AcDbEntity
  8
0
100
AcDbBlockBegin
  2
*D3
 70
     1
 10
0.0
 20
0.0
 30
0.0
  3
*D3
  1

  0
LINE
  5
124
330
DC
100
AcDbEntity
  8
0
  6
BYBLOCK
 62
     0
100
AcDbLine
 10
-7.871688823268202
 20
18.77366732820665
 30
0.0
 11
-7.871688823268202
 21
18.2458133729835
 31
0.0
  0
LINE
  5
125
330
DC
100
AcDbEntity
  8
0
  6
BYBLOCK
 62
     0
100
AcDbLine
 10
-5.871688823268202
 20
18.77366732820665
 30
0.0
 11
-5.871688823268202
 21
18.2458133729835
 31
0.0
  0
LINE
  5
126
330
DC
100
AcDbEntity
  8
0
  6
BYBLOCK
 62
     0
100
AcDbLine
 10
-7.871688823268202
 20
18.4258133729835
 30
0.0
 11
-7.038355489934869
 21
18.4258133729835
 31
0.0
  0
LINE
  5
127
330
DC
100
AcDbEntity
  8
0
  6
BYBLOCK
 62
     0
100
AcDbLine
 10
-5.871688823268202
 20
18.4258133729835
 30
0.0
 11
-6.705022156601535
 21
18.4258133729835
 31
0.0
  0
LINE
  5
128
330
DC
100
AcDbEntity
  8
0
  6
BYBLOCK
 62
     0
100
AcDbLine
 10
-7.996688823268202
 20
18.3008133729835
 30
0.0
 11
-7.746688823268202
 21
18.5508133729835
 31
0.0
  0
LINE
  5
129
330
DC
100
AcDbEntity
  8
0
  6
BYBLOCK
 62
     0
100
AcDbLine
 10
-5.996688823268202
 20
18.3008133729835
 30
0.0
 11
-5.746688823268202
 21
18.5508133729835
 31
0.0
  0
TEXT
  5
12A
330
DC
100
AcDbEntity
  8
0
  6
BYBLOCK
 62
     0
100
AcDbText
 10
-6.913355489934869
 20
18.3633133729835
 30
0.0
 40
0.125
  1
2
 72
     1
 11
-6.871688823268202
 21
18.4258133729835
 31
0.0
100
AcDbText
 73
     2
  0
POINT
  5
12B
330
DC
100
AcDbEntity
  8
DEFPOINTS
  6
BYBLOCK
 62
     0
100
AcDbPoint
 10
-7.871688823268202
 20
18.83616732820665
 30
0.0
  0
POINT
  5
12C
330
DC
100
AcDbEntity
  8
DEFPOINTS
  6
BYBLOCK
 62
     0
100
AcDbPoint
 10
-5.871688823268202
 20
18.83616732820665
 30
0.0
  0
POINT
  5
12D
330
DC
100
AcDbEntity
  8
DEFPOINTS
  6
BYBLOCK
 62
     0
100
AcDbPoint
 10
-5.871688823268202
 20
18.4258133729835
 30
0.0
  0
ENDBLK
  5
12E
330
DC
100
AcDbEntity
  8
0
100
AcDbBlockEnd
  0
BLOCK
  5
12F
330
DD
100
AcDbEntity
  8
0
100
AcDbBlockBegin
  2
*D4
 70
     1
 10
0.0
 20
0.0
 30
0.0
  3
*D4
  1

  0
LINE
  5
130
330
DD
100
AcDbEntity
  8
0
  6
BYBLOCK
 62
     0
100
AcDbLine
 10
-5.806861934010562
 20
22.88527577925047
 30
0.0
 11
-5.077847230128072
 21
22.88527577925047
 31
0.0
  0
LINE
  5
131
330
DD
100
AcDbEntity
  8
0
  6
BYBLOCK
 62
     0
100
AcDbLine
 10
-5.806861934010562
 20
20.36048239011549
 30
0.0
 11
-5.077847230128073
 21
20.36048239011549
 31
0.0
  0
LINE
  5
132
330
DD
100
AcDbEntity
  8
0
  6
BYBLOCK
 62
     0
100
AcDbLine
 10
-5.257847230128072
 20
22.88527577925047
 30
0.0
 11
-5.257847230128072
 21
22.01871241801631
 31
0.0
  0
LINE
  5
133
330
DD
100
AcDbEntity
  8
0
  6
BYBLOCK
 62
     0
100
AcDbLine
 10
-5.257847230128072
 20
20.36048239011549
 30
0.0
 11
-5.257847230128072
 21
21.22704575134965
 31
0.0
  0
LINE
  5
134
330
DD
100
AcDbEntity
  8
0
  6
BYBLOCK
 62
     0
100
AcDbLine
 10
-5.132847230128072
 20
22.76027577925046
 30
0.0
 11
-5.382847230128072
 21
23.01027577925047
 31
0.0
  0
LINE
  5
135
330
DD
100
AcDbEntity
  8
0
  6
BYBLOCK
 62
     0
100
AcDbLine
 10
-5.132847230128072
 20
20.23548239011549
 30
0.0
 11
-5.382847230128072
 21
20.48548239011549
 31
0.0
  0
TEXT
  5
136
330
DD
100
AcDbEntity
  8
0
  6
BYBLOCK
 62
     0
100
AcDbText
 10
-5.195347230128072
 20
21.35204575134965
 30
0.0
 40
0.125
  1
2 1/2
 50
90.0
 72
     1
 11
-5.257847230128072
 21
21.62287908468298
 31
0.0
100
AcDbText
 73
     2
  0
POINT
  5
137
330
DD
100
AcDbEntity
  8
DEFPOINTS
  6
BYBLOCK
 62
     0
100
AcDbPoint
 10
-5.869361934010562
 20
22.88527577925047
 30
0.0
  0
POINT
  5
138
330
DD
100
AcDbEntity
  8
DEFPOINTS
  6
BYBLOCK
 62
     0
100
AcDbPoint
 10
-5.869361934010562
 20
20.36048239011549
 30
0.0
  0
POINT
  5
139
330
DD
100
AcDbEntity
  8
DEFPOINTS
  6
BYBLOCK
 62
     0
100
AcDbPoint
 10
-5.257847230128072
 20
20.36048239011549
 30
0.0
  0
ENDBLK
  5
13A
330
DD
100
AcDbEntity
  8
0
100
AcDbBlockEnd
  0
BLOCK
  5
13B
330
DE
100
AcDbEntity
  8
0
100
AcDbBlockBegin
  2
*D5
 70
     1
 10
0.0
 20
0.0
 30
0.0
  3
*D5
  1

  0
LINE
  5
13C
330
DE
100
AcDbEntity
  8
0
  6
BYBLOCK
 62
     0
100
AcDbLine
 10
-7.371688823268202
 20
23.06803768744907
 30
0.0
 11
-7.371688823268202
 21
23.33701688989489
 31
0.0
  0
LINE
  5
13D
330
DE
100
AcDbEntity
  8
0
  6
BYBLOCK
 62
     0
100
AcDbLine
 10
-6.371688823268202
 20
23.06803768744907
 30
0.0
 11
-6.371688823268202
 21
23.33701688989489
 31
0.0
  0
LINE
  5
13E
330
DE
100
AcDbEntity
  8
0
  6
BYBLOCK
 62
     0
100
AcDbLine
 10
-7.371688823268202
 20
23.15701688989489
 30
0.0
 11
-7.017522156601535
 21
23.15701688989489
 31
0.0
  0
LINE
  5
13F
330
DE
100
AcDbEntity
  8
0
  6
BYBLOCK
 62
     0
100
AcDbLine
 10
-6.371688823268202
 20
23.15701688989489
 30
0.0
 11
-6.725855489934869
 21
23.15701688989489
 31
0.0
  0
LINE
  5
140
330
DE
100
AcDbEntity
  8
0
  6
BYBLOCK
 62
     0
100
AcDbLine
 10
-7.496688823268202
 20
23.03201688989489
 30
0.0
 11
-7.246688823268202
 21
23.28201688989488
 31
0.0
  0
LINE
  5
141
330
DE
100
AcDbEntity
  8
0
  6
BYBLOCK
 62
     0
100
AcDbLine
 10
-6.496688823268202
 20
23.03201688989489
 30
0.0
 11
-6.246688823268202
 21
23.28201688989488
 31
0.0
  0
TEXT
  5
142
330
DE
100
AcDbEntity
  8
0
  6
BYBLOCK
 62
     0
100
AcDbText
 10
-6.892522156601535
 20
23.09451688989489
 30
0.0
 40
0.125
  1
1
 72
     1
 11
-6.871688823268202
 21
23.15701688989489
 31
0.0
100
AcDbText
 73
     2
  0
POINT
  5
143
330
DE
100
AcDbEntity
  8
DEFPOINTS
  6
BYBLOCK
 62
     0
100
AcDbPoint
 10
-7.371688823268202
 20
23.00553768744907
 30
0.0
  0
POINT
  5
144
330
DE
100
AcDbEntity
  8
DEFPOINTS
  6
BYBLOCK
 62
     0
100
AcDbPoint
 10
-6.371688823268202
 20
23.00553768744907
 30
0.0
  0
POINT
  5
145
330
DE
100
AcDbEntity
  8
DEFPOINTS
  6
BYBLOCK
 62
     0
100
AcDbPoint
 10
-6.371688823268202
 20
23.15701688989489
 30
0.0
  0
ENDBLK
  5
146
330
DE
100
AcDbEntity
  8
0
100
AcDbBlockEnd
  0
ENDSEC
  0
SECTION
  2
ENTITIES
  0
LINE
  5
147
330
18
100
AcDbEntity
  8
ADP2DETAIL
  6
HIDDEN
100
AcDbLine
 10
-7.869361934010562
 20
21.51231618388693
 30
0.0
 11
-5.869361934010562
 21
21.51231618388693
 31
0.0
  0
LWPOLYLINE
  5
148
330
18
100
AcDbEntity
  8
ADP2DETAIL
  6
HIDDEN
100
AcDbPolyline
 90
        3
 70
     0
 43
0.0
 10
-7.462421107082613
 20
22.8846208776658
 10
-7.462421107082613
 20
22.70324566299089
 10
-7.524421107082613
 20
22.64124566299089
  0
DIMENSION
  5
14D
330
18
100
AcDbEntity
  8
ADPDIM
100
AcDbDimension
  2
*D5
 10
-6.371688823268202
 20
23.15701688989489
 30
0.0
 11
-6.871688823268202
 21
23.15701688989489
 31
0.0
100
AcDbAlignedDimension
 13
-7.371688823268202
 23
23.00553768744907
 33
0.0
 14
-6.371688823268202
 24
23.00553768744907
 34
0.0
100
AcDbRotatedDimension
  0
LINE
  5
14E
330
18
100
AcDbEntity
  8
0
100
AcDbLine
 10
-7.869361934010562
 20
21.1099810765517
 30
0.0
 11
-5.869361934010562
 21
21.1099810765517
 31
0.0
  0
LINE
  5
14F
330
18
100
AcDbEntity
  8
0
100
AcDbLine
 10
-7.871688823268202
 20
22.8846208776658
 30
0.0
 11
-5.871688823268202
 21
22.8846208776658
 31
0.0
  0
LINE
  5
150
330
18
100
AcDbEntity
  8
0
100
AcDbLine
 10
-7.869361934010562
 20
22.64277547823512
 30
0.0
 11
-5.869361934010562
 21
22.64277547823512
 31
0.0
  0
LINE
  5
151
330
18
100
AcDbEntity
  8
0
100
AcDbLine
 10
-5.871688823268202
 20
18.83616732820665
 30
0.0
 11
-7.871688823268202
 21
18.83616732820665
 31
0.0
  0
DIMENSION
  5
152
330
18
100
AcDbEntity
  8
ADPDIM
100
AcDbDimension
  2
*D3
 10
-5.871688823268202
 20
18.4258133729835
 30
0.0
 11
-6.871688823268202
 21
18.4258133729835
 31
0.0
100
AcDbAlignedDimension
 13
-7.871688823268202
 23
18.83616732820665
 33
0.0
 14
-5.871688823268202
 24
18.83616732820665
 34
0.0
100
AcDbRotatedDimension
  0
DIMENSION
  5
153
330
18
100
AcDbEntity
  8
ADPDIM
100
AcDbDimension
  2
*D1
 10
-6.692306103867599
 20
20.46136078842101
 30
0.0
 11
-8.572247141419138
 21
19.14932624977381
 31
0.0
 70
     3
100
AcDbDiametricDimension
 15
-7.051071542668804
 25
20.21097386799229
 35
0.0
 40
1.459179029833662
  0
LINE
  5
154
330
18
100
AcDbEntity
  8
0
100
AcDbLine
 10
-7.871688823268202
 20
18.83616732820665
 30
0.0
 11
-7.871688823268202
 21
22.8846208776658
 31
0.0
  0
LINE
  5
155
330
18
100
AcDbEntity
  8
0
100
AcDbLine
 10
-11.11658126778574
 20
20.89109756189673
 30
0.0
 11
-11.11658126778574
 21
19.02416732820665
 31
0.0
  0
LINE
  5
156
330
18
100
AcDbEntity
  8
0
100
AcDbLine
 10
-11.57658126778574
 20
18.84616732820665
 30
0.0
 11
-11.57658126778574
 21
21.58116732820665
 31
0.0
  0
LINE
  5
157
330
18
100
AcDbEntity
  8
0
100
AcDbLine
 10
-11.30458126778574
 20
18.83616732820665
 30
0.0
 11
-11.56658126778574
 21
18.83616732820665
 31
0.0
  0
ARC
  5
158
330
18
100
AcDbEntity
  8
0
100
AcDbCircle
 10
-11.56658126778574
 20
18.84616732820665
 30
0.0
 40
0.01
100
AcDbArc
 50
180.0
 51
270.0
  0
ARC
  5
159
330
18
100
AcDbEntity
  8
0
100
AcDbCircle
 10
-11.30458126778574
 20
19.02416732820665
 30
0.0
 40
0.188
100
AcDbArc
 50
270.0
 51
0.0
  0
LINE
  5
15A
330
18
100
AcDbEntity
  8
ADP2DETAIL
  6
HIDDEN
100
AcDbLine
 10
-11.57658126778574
 20
20.11741732820665
 30
0.0
 11
-11.11658126778574
 21
20.11741732820665
 31
0.0
  0
LINE
  5
15B
330
18
100
AcDbEntity
  8
ADP2DETAIL
  6
HIDDEN
100
AcDbLine
 10
-11.57658126778574
 20
20.55491732820665
 30
0.0
 11
-11.11658126778574
 21
20.55491732820665
 31
0.0
  0
DIMENSION
  5
15C
330
18
100
AcDbEntity
  8
ADPDIM
100
AcDbDimension
  2
*D0
 10
-9.076581267785742
 20
23.14565229624693
 30
0.0
 11
-10.32658126778574
 21
23.14565229624693
 31
0.0
100
AcDbAlignedDimension
 13
-11.57658126778574
 23
21.58116732820665
 33
0.0
 14
-9.076581267785742
 24
23.32565229624693
 34
0.0
100
AcDbRotatedDimension
  0
ARC
  5
15D
330
18
100
AcDbEntity
  8
0
100
AcDbCircle
 10
-11.10208796534257
 20
23.13851797163951
 30
0.0
 40
1.547544485821544
100
AcDbArc
 50
269.0931301385613
 51
350.2344293427713
  0
ARC
  5
15E
330
18
100
AcDbEntity
  8
0
100
AcDbCircle
 10
-11.16823932002088
 20
22.92003673092885
 30
0.0
 40
1.801289184625044
100
AcDbArc
 50
278.311134667954
 51
349.1237905249426
  0
ARC
  5
15F
330
18
100
AcDbEntity
  8
0
100
AcDbCircle
 10
-10.86658126778574
 20
20.89109756189673
 30
0.0
 40
0.25
100
AcDbArc
 50
99.50522887567442
 51
180.0
  0
LINE
  5
160
330
18
100
AcDbEntity
  8
0
100
AcDbLine
 10
-11.56658126778574
 20
21.59116732820665
 30
0.0
 11
-11.11658126778574
 21
21.59116732820665
 31
0.0
  0
ARC
  5
161
330
18
100
AcDbEntity
  8
0
100
AcDbCircle
 10
-11.56658126778574
 20
21.58116732820665
 30
0.0
 40
0.01
100
AcDbArc
 50
90.0
 51
180.0
  0
LWPOLYLINE
  5
162
330
18
100
AcDbEntity
  8
ADP2DETAIL
  6
HIDDEN
100
AcDbPolyline
 90
        3
 70
     0
 43
0.0
 10
-9.181656431503071
 20
22.8846208776658
 10
-9.181656431503071
 20
22.70324566299089
 10
-9.243656431503072
 20
22.64124566299089
  0
LINE
  5
167
330
18
100
AcDbEntity
  8
0
100
AcDbLine
 10
-8.813308632448691
 20
22.6346208776658
 30
0.0
 11
-9.340284831581712
 21
22.6346208776658
 31
0.0
  0
LINE
  5
168
330
18
100
AcDbEntity
  8
0
100
AcDbLine
 10
-9.567066837102689
 20
22.8846208776658
 30
0.0
 11
-8.813308632448691
 21
22.8846208776658
 31
0.0
  0
ARC
  5
169
330
18
100
AcDbEntity
  8
0
100
AcDbCircle
 10
-9.567066837102689
 20
22.8746208776658
 30
0.0
 40
0.01
100
AcDbArc
 50
90.0
 51
171.9132208480403
  0
ARC
  5
16A
330
18
100
AcDbEntity
  8
0
100
AcDbCircle
 10
-9.340284831581712
 20
22.5726208776658
 30
0.0
 40
0.062
100
AcDbArc
 50
90.0
 51
165.7550151096598
  0
LWPOLYLINE
  5
16B
330
18
100
AcDbEntity
  8
ADP2DETAIL
  6
HIDDEN
100
AcDbPolyline
 90
        3
 70
     0
 43
0.0
 10
-8.994156431503075
 20
22.8846208776658
 10
-8.994156431503075
 20
22.70324566299089
 10
-8.932156431503074
 20
22.64124566299089
  0
LINE
  5
170
330
18
100
AcDbEntity
  8
0
100
AcDbLine
 10
-8.803308632448693
 20
22.8746208776658
 30
0.0
 11
-8.803308632448693
 21
22.6446208776658
 31
0.0
  0
DIMENSION
  5
171
330
18
100
AcDbEntity
  8
ADPDIM
100
AcDbDimension
  2
*D4
 10
-5.257847230128072
 20
20.36048239011549
 30
0.0
 11
-5.257847230128072
 21
21.62287908468298
 31
0.0
100
AcDbAlignedDimension
 13
-5.869361934010562
 23
22.88527577925047
 33
0.0
 14
-5.869361934010562
 24
20.36048239011549
 34
0.0
 50
90.0
100
AcDbRotatedDimension
  0
LINE
  5
172
330
18
100
AcDbEntity
  8
0
100
AcDbLine
 10
-5.871688823268202
 20
22.8846208776658
 30
0.0
 11
-5.871688823268202
 21
18.83616732820665
 31
0.0
  0
DIMENSION
  5
173
330
18
100
AcDbEntity
  8
ADPDIM
100
AcDbDimension
  2
*D2
 10
-5.254822837924441
 20
18.83616732820665
 30
0.0
 11
-5.254822837924441
 21
19.59832485916107
 31
0.0
100
AcDbAlignedDimension
 13
-6.646050715182049
 23
20.36048239011549
 33
0.0
 14
-5.871688823268202
 24
18.83616732820665
 34
0.0
 50
90.0
100
AcDbRotatedDimension
  0
CIRCLE
  5
174
330
18
100
AcDbEntity
  8
0
100
AcDbCircle
 10
-6.871688823268202
 20
20.33616732820665
 30
0.0
 40
0.21875
  0
LWPOLYLINE
  5
175
330
18
100
AcDbEntity
  8
ADP2DETAIL
  6
HIDDEN
100
AcDbPolyline
 90
        3
 70
     0
 43
0.0
 10
-7.274921107082615
 20
22.8846208776658
 10
-7.274921107082615
 20
22.70324566299089
 10
-7.212921107082616
 20
22.64124566299089
  0
LWPOLYLINE
  5
17A
330
18
100
AcDbEntity
  8
ADP2DETAIL
  6
HIDDEN
100
AcDbPolyline
 90
        3
 70
     0
 43
0.0
 10
-6.462421107082613
 20
22.8846208776658
 10
-6.462421107082613
 20
22.70324566299089
 10
-6.524421107082613
 20
22.64124566299089
  0
LWPOLYLINE
  5
17F
330
18
100
AcDbEntity
  8
ADP2DETAIL
  6
HIDDEN
100
AcDbPolyline
 90
        3
 70
     0
 43
0.0
 10
-6.274921107082615
 20
22.8846208776658
 10
-6.274921107082615
 20
22.70324566299089
 10
-6.212921107082616
 20
22.64124566299089
  0
TEXT
  5
191
330
18
100
AcDbEntity
  8
ADPDIM
100
AcDbText
 10
-14.30639636078525
 20
17.62827932690925
 30
0.0
 40
0.125
  1
J U L I U S  B L U M  &  C O . ,  I N C .      ( 8 0 0 )  5 2 6 - 6 2 9 3        W W W . J U L I U S B L U M . C O M        P A R T  N o .  4 7 7
 41
1.25
  7
ARIAL_WIDE
 72
     1
 11
-7.871688823268202
 21
17.75327932690925
 31
0.0
100
AcDbText
 73
     3
  0
ENDSEC
  0
SECTION
  2
OBJECTS
  0
DICTIONARY
  5
C
330
0
100
AcDbDictionary
  3
ACAD_GROUP
350
D
  3
ACAD_LAYOUT
350
18A
  3
ACAD_MLINESTYLE
350
E
  3
ACAD_PLOTSETTINGS
350
18B
  3
ACAD_PLOTSTYLENAME
350
188
  3
ACDBHEADERROUNDTRIPXREC
350
2D5
  3
ACDBVARIABLEDICTIONARY
350
1EB
  0
DICTIONARY
  5
1E5
330
18
100
AcDbDictionary
280
     1
  3
ACAD_LAYOUTSELFREF
360
2F6
  0
DICTIONARY
  5
1E3
330
15
100
AcDbDictionary
280
     1
  3
ACAD_LAYOUTSELFREF
360
2F5
  0
DICTIONARY
  5
D
102
{ACAD_REACTORS
330
C
102
}
330
C
100
AcDbDictionary
  0
DICTIONARY
  5
18A
102
{ACAD_REACTORS
330
C
102
}
330
C
100
AcDbDictionary
  0
DICTIONARY
  5
E
102
{ACAD_REACTORS
330
C
102
}
330
C
100
AcDbDictionary
  3
STANDARD
350
1B
  0
DICTIONARY
  5
18B
102
{ACAD_REACTORS
330
C
102
}
330
C
100
AcDbDictionary
  0
ACDBDICTIONARYWDFLT
  5
188
102
{ACAD_REACTORS
330
C
102
}
330
C
100
AcDbDictionary
281
     1
  3
Normal
350
189
100
AcDbDictionaryWithDefault
340
189
  0
DICTIONARY
  5
2D5
102
{ACAD_REACTORS
330
C
102
}
330
C
100
AcDbDictionary
  3
CEPSNTYPE
350
2DF
  3
FINGERPRINTGUID
350
2E0
  3
HYPERLINKBASE
350
2D8
  3
INSUNITS
350
2DE
  3
LAYOUTDICT
350
2DA
  3
LWETCUNION
350
2DD
  3
PLOTSETDICT
350
2DB
  3
PLOTSTYLNAMDICT
350
2DC
  3
PSVPSCALE
350
2E2
  3
PUCSBASE
350
2E5
  3
PUCSORGBACK
350
2EB
  3
PUCSORGBOTTOM
350
2E7
  3
PUCSORGFRONT
350
2EA
  3
PUCSORGLEFT
350
2E8
  3
PUCSORGRIGHT
350
2E9
  3
PUCSORGTOP
350
2E6
  3
PUCSORTHOREF
350
2E3
  3
PUCSORTHOVIEW
350
2E4
  3
STYLESHEET
350
2D9
  3
TSTACKALIGN
350
2D6
  3
TSTACKSIZE
350
2D7
  3
UCSBASE
350
2EE
  3
UCSORGBACK
350
2F4
  3
UCSORGBOTTOM
350
2F0
  3
UCSORGFRONT
350
2F3
  3
UCSORGLEFT
350
2F1
  3
UCSORGRIGHT
350
2F2
  3
UCSORGTOP
350
2EF
  3
UCSORTHOREF
350
2EC
  3
UCSORTHOVIEW
350
2ED
  3
VERSIONGUID
350
2E1
  0
DICTIONARY
  5
1EB
102
{ACAD_REACTORS
330
C
102
}
330
C
100
AcDbDictionary
  3
DIMASSOC
350
1EC
  0
XRECORD
  5
2F6
102
{ACAD_REACTORS
330
1E5
102
}
330
1E5
100
AcDbXrecord
340
18
  0
XRECORD
  5
2F5
102
{ACAD_REACTORS
330
1E3
102
}
330
1E3
100
AcDbXrecord
340
15
  0
MLINESTYLE
  5
1B
102
{ACAD_REACTORS
330
E
102
}
330
E
100
AcDbMlineStyle
  2
STANDARD
 70
     0
  3

 62
     0
 51
90.0
 52
90.0
 71
     2
 49
0.5
 62
   256
  6
BYLAYER
 49
-0.5
 62
   256
  6
BYLAYER
  0
ACDBPLACEHOLDER
  5
189
102
{ACAD_REACTORS
330
188
102
}
330
188
100
AcDbPlaceHolder
280
     0
  0
XRECORD
  5
2DF
102
{ACAD_REACTORS
330
2D5
102
}
330
2D5
100
AcDbXrecord
 90
        0
  0
XRECORD
  5
2E0
102
{ACAD_REACTORS
330
2D5
102
}
330
2D5
100
AcDbXrecord
  1
{5DFEF10B-1FC2-4091-8943-BED216D2ED77}
  0
XRECORD
  5
2D8
102
{ACAD_REACTORS
330
2D5
102
}
330
2D5
100
AcDbXrecord
  1

  0
XRECORD
  5
2DE
102
{ACAD_REACTORS
330
2D5
102
}
330
2D5
100
AcDbXrecord
 90
        0
  0
XRECORD
  5
2DA
102
{ACAD_REACTORS
330
2D5
102
}
330
2D5
100
AcDbXrecord
340
18A
  0
XRECORD
  5
2DD
102
{ACAD_REACTORS
330
2D5
102
}
330
2D5
100
AcDbXrecord
 90
    14877
  0
XRECORD
  5
2DB
102
{ACAD_REACTORS
330
2D5
102
}
330
2D5
100
AcDbXrecord
340
18B
  0
XRECORD
  5
2DC
102
{ACAD_REACTORS
330
2D5
102
}
330
2D5
100
AcDbXrecord
340
188
  0
XRECORD
  5
2E2
102
{ACAD_REACTORS
330
2D5
102
}
330
2D5
100
AcDbXrecord
 40
0.0
  0
XRECORD
  5
2E5
102
{ACAD_REACTORS
330
2D5
102
}
330
2D5
100
AcDbXrecord
340
0
  0
XRECORD
  5
2EB
102
{ACAD_REACTORS
330
2D5
102
}
330
2D5
100
AcDbXrecord
 10
0.0
 20
0.0
 30
0.0
  0
XRECORD
  5
2E7
102
{ACAD_REACTORS
330
2D5
102
}
330
2D5
100
AcDbXrecord
 10
0.0
 20
0.0
 30
0.0
  0
XRECORD
  5
2EA
102
{ACAD_REACTORS
330
2D5
102
}
330
2D5
100
AcDbXrecord
 10
0.0
 20
0.0
 30
0.0
  0
XRECORD
  5
2E8
102
{ACAD_REACTORS
330
2D5
102
}
330
2D5
100
AcDbXrecord
 10
0.0
 20
0.0
 30
0.0
  0
XRECORD
  5
2E9
102
{ACAD_REACTORS
330
2D5
102
}
330
2D5
100
AcDbXrecord
 10
0.0
 20
0.0
 30
0.0
  0
XRECORD
  5
2E6
102
{ACAD_REACTORS
330
2D5
102
}
330
2D5
100
AcDbXrecord
 10
0.0
 20
0.0
 30
0.0
  0
XRECORD
  5
2E3
102
{ACAD_REACTORS
330
2D5
102
}
330
2D5
100
AcDbXrecord
340
0
  0
XRECORD
  5
2E4
102
{ACAD_REACTORS
330
2D5
102
}
330
2D5
100
AcDbXrecord
 70
     0
  0
XRECORD
  5
2D9
102
{ACAD_REACTORS
330
2D5
102
}
330
2D5
100
AcDbXrecord
  1

  0
XRECORD
  5
2D6
102
{ACAD_REACTORS
330
2D5
102
}
330
2D5
100
AcDbXrecord
 90
        1
  0
XRECORD
  5
2D7
102
{ACAD_REACTORS
330
2D5
102
}
330
2D5
100
AcDbXrecord
 90
       70
  0
XRECORD
  5
2EE
102
{ACAD_REACTORS
330
2D5
102
}
330
2D5
100
AcDbXrecord
340
0
  0
XRECORD
  5
2F4
102
{ACAD_REACTORS
330
2D5
102
}
330
2D5
100
AcDbXrecord
 10
0.0
 20
0.0
 30
0.0
  0
XRECORD
  5
2F0
102
{ACAD_REACTORS
330
2D5
102
}
330
2D5
100
AcDbXrecord
 10
0.0
 20
0.0
 30
0.0
  0
XRECORD
  5
2F3
102
{ACAD_REACTORS
330
2D5
102
}
330
2D5
100
AcDbXrecord
 10
0.0
 20
0.0
 30
0.0
  0
XRECORD
  5
2F1
102
{ACAD_REACTORS
330
2D5
102
}
330
2D5
100
AcDbXrecord
 10
0.0
 20
0.0
 30
0.0
  0
XRECORD
  5
2F2
102
{ACAD_REACTORS
330
2D5
102
}
330
2D5
100
AcDbXrecord
 10
0.0
 20
0.0
 30
0.0
  0
XRECORD
  5
2EF
102
{ACAD_REACTORS
330
2D5
102
}
330
2D5
100
AcDbXrecord
 10
0.0
 20
0.0
 30
0.0
  0
XRECORD
  5
2EC
102
{ACAD_REACTORS
330
2D5
102
}
330
2D5
100
AcDbXrecord
340
0
  0
XRECORD
  5
2ED
102
{ACAD_REACTORS
330
2D5
102
}
330
2D5
100
AcDbXrecord
 70
     0
  0
XRECORD
  5
2E1
102
{ACAD_REACTORS
330
2D5
102
}
330
2D5
100
AcDbXrecord
  1
{44DCA68C-655E-411C-89A8-0DBB960B3973}
  0
DICTIONARYVAR
  5
1EC
102
{ACAD_REACTORS
330
1EB
102
}
330
1EB
100
DictionaryVariables
280
     0
  1
1
  0
ENDSEC
  0
EOF
