  0
SECTION
  2
HEADER
  9
$ACADVER
  1
AC1014
  9
$ACADMAINTVER
 70
     9
  9
$DWGCODEPAGE
  3
ANSI_1252
  9
$INSBASE
 10
2.692983796245771
 20
1.650387496488604
 30
0.0
  9
$EXTMIN
 10
-2.146962920171601
 20
0.3625191277755721
 30
0.0
  9
$EXTMAX
 10
10.90449512894163
 20
2.628453955677767
 30
0.0
  9
$LIMMIN
 10
0.0
 20
0.0
  9
$LIMMAX
 10
36.0
 20
36.0
  9
$ORTHOMODE
 70
     1
  9
$REGENMODE
 70
     1
  9
$FILLMODE
 70
     1
  9
$QTEXTMODE
 70
     0
  9
$MIRRTEXT
 70
     1
  9
$DRAGMODE
 70
     0
  9
$LTSCALE
 40
1.0
  9
$OSMODE
 70
    37
  9
$ATTMODE
 70
     1
  9
$TEXTSIZE
 40
0.2
  9
$TRACEWID
 40
0.05
  9
$TEXTSTYLE
  7
STANDARD
  9
$CLAYER
  8
ADPDIM
  9
$CELTYPE
  6
BYLAYER
  9
$CECOLOR
 62
   256
  9
$CELTSCALE
 40
1.0
  9
$DELOBJ
 70
     1
  9
$DISPSILH
 70
     0
  9
$DIMSCALE
 40
1.0
  9
$DIMASZ
 40
0.125
  9
$DIMEXO
 40
0.0625
  9
$DIMDLI
 40
0.38
  9
$DIMRND
 40
0.0
  9
$DIMDLE
 40
0.0
  9
$DIMEXE
 40
0.18
  9
$DIMTP
 40
0.0
  9
$DIMTM
 40
0.0
  9
$DIMTXT
 40
0.125
  9
$DIMCEN
 40
0.1875
  9
$DIMTSZ
 40
0.125
  9
$DIMTOL
 70
     0
  9
$DIMLIM
 70
     0
  9
$DIMTIH
 70
     0
  9
$DIMTOH
 70
     0
  9
$DIMSE1
 70
     0
  9
$DIMSE2
 70
     0
  9
$DIMTAD
 70
     0
  9
$DIMZIN
 70
     3
  9
$DIMBLK
  1

  9
$DIMASO
 70
     1
  9
$DIMSHO
 70
     1
  9
$DIMPOST
  1

  9
$DIMAPOST
  1

  9
$DIMALT
 70
     0
  9
$DIMALTD
 70
     1
  9
$DIMALTF
 40
25.4
  9
$DIMLFAC
 40
1.0
  9
$DIMTOFL
 70
     0
  9
$DIMTVP
 40
0.0
  9
$DIMTIX
 70
     0
  9
$DIMSOXD
 70
     0
  9
$DIMSAH
 70
     0
  9
$DIMBLK1
  1

  9
$DIMBLK2
  1

  9
$DIMSTYLE
  2
STANDARD
  9
$DIMCLRD
 70
     0
  9
$DIMCLRE
 70
     0
  9
$DIMCLRT
 70
     0
  9
$DIMTFAC
 40
1.0
  9
$DIMGAP
 40
0.125
  9
$DIMJUST
 70
     0
  9
$DIMSD1
 70
     0
  9
$DIMSD2
 70
     0
  9
$DIMTOLJ
 70
     1
  9
$DIMTZIN
 70
     0
  9
$DIMALTZ
 70
     0
  9
$DIMALTTZ
 70
     0
  9
$DIMFIT
 70
     3
  9
$DIMUPT
 70
     0
  9
$DIMUNIT
 70
     2
  9
$DIMDEC
 70
     4
  9
$DIMTDEC
 70
     4
  9
$DIMALTU
 70
     2
  9
$DIMALTTD
 70
     2
  9
$DIMTXSTY
  7
STANDARD
  9
$DIMAUNIT
 70
     0
  9
$LUNITS
 70
     5
  9
$LUPREC
 70
     4
  9
$SKETCHINC
 40
0.1
  9
$FILLETRAD
 40
0.062
  9
$AUNITS
 70
     0
  9
$AUPREC
 70
     0
  9
$MENU
  1
acad
  9
$ELEVATION
 40
0.0
  9
$PELEVATION
 40
0.0
  9
$THICKNESS
 40
0.0
  9
$LIMCHECK
 70
     0
  9
$BLIPMODE
 70
     0
  9
$CHAMFERA
 40
0.0
  9
$CHAMFERB
 40
0.0
  9
$CHAMFERC
 40
0.0
  9
$CHAMFERD
 40
0.0
  9
$SKPOLY
 70
     0
  9
$TDCREATE
 40
2450221.413733796
  9
$TDUPDATE
 40
2452297.089283310
  9
$TDINDWG
 40
0.0113882755
  9
$TDUSRTIMER
 40
0.0113882755
  9
$USRTIMER
 70
     1
  9
$ANGBASE
 50
0.0
  9
$ANGDIR
 70
     0
  9
$PDMODE
 70
     0
  9
$PDSIZE
 40
0.0
  9
$PLINEWID
 40
0.0
  9
$COORDS
 70
     2
  9
$SPLFRAME
 70
     0
  9
$SPLINETYPE
 70
     6
  9
$SPLINESEGS
 70
     8
  9
$ATTDIA
 70
     0
  9
$ATTREQ
 70
     1
  9
$HANDLING
 70
 22529
  9
$HANDSEED
  5
1E6
  9
$SURFTAB1
 70
     6
  9
$SURFTAB2
 70
     6
  9
$SURFTYPE
 70
     6
  9
$SURFU
 70
     6
  9
$SURFV
 70
     6
  9
$UCSNAME
  2

  9
$UCSORG
 10
0.0
 20
0.0
 30
0.0
  9
$UCSXDIR
 10
1.0
 20
0.0
 30
0.0
  9
$UCSYDIR
 10
0.0
 20
1.0
 30
0.0
  9
$PUCSNAME
  2

  9
$PUCSORG
 10
0.0
 20
0.0
 30
0.0
  9
$PUCSXDIR
 10
1.0
 20
0.0
 30
0.0
  9
$PUCSYDIR
 10
0.0
 20
1.0
 30
0.0
  9
$USERI1
 70
     0
  9
$USERI2
 70
     0
  9
$USERI3
 70
     0
  9
$USERI4
 70
     0
  9
$USERI5
 70
     0
  9
$USERR1
 40
0.0
  9
$USERR2
 40
0.0
  9
$USERR3
 40
0.0
  9
$USERR4
 40
0.0
  9
$USERR5
 40
0.0
  9
$WORLDVIEW
 70
     1
  9
$SHADEDGE
 70
     3
  9
$SHADEDIF
 70
    70
  9
$TILEMODE
 70
     1
  9
$MAXACTVP
 70
    15
  9
$PINSBASE
 10
0.0004882947541773
 20
0.7501380653138911
 30
0.0
  9
$PLIMCHECK
 70
     0
  9
$PEXTMIN
 10
1.000000000000000E+20
 20
1.000000000000000E+20
 30
1.000000000000000E+20
  9
$PEXTMAX
 10
-1.000000000000000E+20
 20
-1.000000000000000E+20
 30
-1.000000000000000E+20
  9
$PLIMMIN
 10
0.0
 20
0.0
  9
$PLIMMAX
 10
12.0
 20
9.0
  9
$UNITMODE
 70
     0
  9
$VISRETAIN
 70
     0
  9
$PLINEGEN
 70
     0
  9
$PSLTSCALE
 70
     1
  9
$TREEDEPTH
 70
  3020
  9
$PICKSTYLE
 70
     1
  9
$CMLSTYLE
  2
STANDARD
  9
$CMLJUST
 70
     0
  9
$CMLSCALE
 40
1.0
  9
$PROXYGRAPHICS
 70
     1
  9
$MEASUREMENT
 70
     0
  0
ENDSEC
  0
SECTION
  2
CLASSES
  0
CLASS
  1
ACDBDICTIONARYWDFLT
  2
AcDbDictionaryWithDefault
  3
AutoCAD 2000
 90
        0
280
     0
281
     0
  0
CLASS
  1
ACDBPLACEHOLDER
  2
AcDbPlaceHolder
  3
AutoCAD 2000
 90
        0
280
     0
281
     0
  0
CLASS
  1
LAYOUT
  2
AcDbLayout
  3
AutoCAD 2000
 90
        0
280
     0
281
     0
  0
CLASS
  1
DICTIONARYVAR
  2
AcDbDictionaryVar
  3
AutoCAD 2000
 90
        0
280
     0
281
     0
  0
CLASS
  1
LONG_TRANSACTION
  2
AcDbLongTransaction
  3
AutoCAD 2000
 90
        0
280
     0
281
     0
  0
CLASS
  1
LWPOLYLINE
  2
AcDbPolyline
  3
AutoCAD 2000
 90
        0
280
     0
281
     1
  0
CLASS
  1
HATCH
  2
AcDbHatch
  3
AutoCAD 2000
 90
        0
280
     0
281
     1
  0
CLASS
  1
XRECORD
  2
AcDbXrecord
  3
AutoCAD 2000
 90
        0
280
     0
281
     0
  0
CLASS
  1
LONG_TRANSACTION
  2
AcDbLongTransaction
  3
AutoCAD 2000
 90
        0
280
     0
281
     0
  0
CLASS
  1
LWPOLYLINE
  2
AcDbPolyline
  3
AutoCAD 2000
 90
        0
280
     0
281
     1
  0
CLASS
  1
HATCH
  2
AcDbHatch
  3
AutoCAD 2000
 90
        0
280
     0
281
     1
  0
CLASS
  1
XRECORD
  2
AcDbXrecord
  3
AutoCAD 2000
 90
        0
280
     0
281
     0
  0
CLASS
  1
LONG_TRANSACTION
  2
AcDbLongTransaction
  3
AutoCAD 2000
 90
        0
280
     0
281
     0
  0
CLASS
  1
LWPOLYLINE
  2
AcDbPolyline
  3
AutoCAD 2000
 90
        0
280
     0
281
     1
  0
CLASS
  1
HATCH
  2
AcDbHatch
  3
AutoCAD 2000
 90
        0
280
     0
281
     1
  0
CLASS
  1
XRECORD
  2
AcDbXrecord
  3
AutoCAD 2000
 90
        0
280
     0
281
     0
  0
CLASS
  1
LONG_TRANSACTION
  2
AcDbLongTransaction
  3
AutoCAD 2000
 90
        0
280
     0
281
     0
  0
CLASS
  1
LWPOLYLINE
  2
AcDbPolyline
  3
AutoCAD 2000
 90
        0
280
     0
281
     1
  0
CLASS
  1
HATCH
  2
AcDbHatch
  3
AutoCAD 2000
 90
        0
280
     0
281
     1
  0
CLASS
  1
XRECORD
  2
AcDbXrecord
  3
AutoCAD 2000
 90
        0
280
     0
281
     0
  0
CLASS
  1
LONG_TRANSACTION
  2
AcDbLongTransaction
  3
AutoCAD 2000
 90
        0
280
     0
281
     0
  0
CLASS
  1
LWPOLYLINE
  2
AcDbPolyline
  3
AutoCAD 2000
 90
        0
280
     0
281
     1
  0
CLASS
  1
HATCH
  2
AcDbHatch
  3
AutoCAD 2000
 90
        0
280
     0
281
     1
  0
CLASS
  1
XRECORD
  2
AcDbXrecord
  3
AutoCAD 2000
 90
        0
280
     0
281
     0
  0
ENDSEC
  0
SECTION
  2
TABLES
  0
TABLE
  2
VPORT
  5
8
330
0
100
AcDbSymbolTable
 70
     2
  0
VPORT
  5
1C3
330
8
100
AcDbSymbolTableRecord
100
AcDbViewportTableRecord
  2
*ACTIVE
 70
     0
 10
0.0
 20
0.0
 11
1.0
 21
1.0
 12
4.389140747251635
 22
1.494660143437642
 13
0.0
 23
0.0
 14
0.5740882589684922
 24
0.5740882589684922
 15
0.5
 25
0.5
 16
0.0
 26
0.0
 36
1.0
 17
0.0
 27
0.0
 37
0.0
 40
8.366412258028091
 41
1.570528967254408
 42
50.0
 43
0.0
 44
0.0
 50
0.0
 51
0.0
 71
     0
 72
   100
 73
     1
 74
     0
 75
     0
 76
     0
 77
     0
 78
     0
  0
ENDTAB
  0
TABLE
  2
LTYPE
  5
5
330
0
100
AcDbSymbolTable
 70
     1
  0
LTYPE
  5
12
330
5
100
AcDbSymbolTableRecord
100
AcDbLinetypeTableRecord
  2
BYBLOCK
 70
     0
  3

 72
    65
 73
     0
 40
0.0
  0
LTYPE
  5
13
330
5
100
AcDbSymbolTableRecord
100
AcDbLinetypeTableRecord
  2
BYLAYER
 70
     0
  3

 72
    65
 73
     0
 40
0.0
  0
LTYPE
  5
14
330
5
100
AcDbSymbolTableRecord
100
AcDbLinetypeTableRecord
  2
CONTINUOUS
 70
     0
  3
Solid line
 72
    65
 73
     0
 40
0.0
  0
ENDTAB
  0
TABLE
  2
LAYER
  5
2
330
0
100
AcDbSymbolTable
 70
     4
  0
LAYER
  5
F
330
2
100
AcDbSymbolTableRecord
100
AcDbLayerTableRecord
  2
0
 70
     0
 62
     7
  6
CONTINUOUS
  0
LAYER
  5
29
330
2
100
AcDbSymbolTableRecord
100
AcDbLayerTableRecord
  2
ADPDIM
 70
     0
 62
     3
  6
CONTINUOUS
  0
LAYER
  5
2B
330
2
100
AcDbSymbolTableRecord
100
AcDbLayerTableRecord
  2
ADP1DETAIL
 70
     0
 62
     7
  6
CONTINUOUS
  0
LAYER
  5
2D
330
2
100
AcDbSymbolTableRecord
100
AcDbLayerTableRecord
  2
DEFPOINTS
 70
     0
 62
     7
  6
CONTINUOUS
  0
ENDTAB
  0
TABLE
  2
STYLE
  5
3
330
0
100
AcDbSymbolTable
 70
     2
  0
STYLE
  5
10
330
3
100
AcDbSymbolTableRecord
100
AcDbTextStyleTableRecord
  2
STANDARD
 70
     0
 40
0.0
 41
1.0
 50
0.0
 71
     0
 42
0.2
  3
txt
  4

  0
STYLE
  5
7F
330
3
100
AcDbSymbolTableRecord
100
AcDbTextStyleTableRecord
  2
ARIAL_WIDE
 70
     0
 40
0.0
 41
1.25
 50
0.0
 71
     0
 42
0.2
  3
ARIAL.TTF
  4

1001
ACAD
1000
Arial
1071
       34
  0
ENDTAB
  0
TABLE
  2
VIEW
  5
6
330
0
100
AcDbSymbolTable
 70
     0
  0
ENDTAB
  0
TABLE
  2
UCS
  5
7
330
0
100
AcDbSymbolTable
 70
     0
  0
ENDTAB
  0
TABLE
  2
APPID
  5
9
330
0
100
AcDbSymbolTable
 70
     1
  0
APPID
  5
11
330
9
100
AcDbSymbolTableRecord
100
AcDbRegAppTableRecord
  2
ACAD
 70
     0
  0
ENDTAB
  0
TABLE
  2
DIMSTYLE
  5
A
330
0
100
AcDbSymbolTable
 70
     1
  0
DIMSTYLE
105
73
330
A
100
AcDbSymbolTableRecord
100
AcDbDimStyleTableRecord
  2
STANDARD
 70
     0
  3

  4

  5

  6

  7

 40
1.0
 41
0.18
 42
0.0625
 43
0.38
 44
0.18
 45
0.0
 46
0.0
 47
0.0
 48
0.0
140
0.18
141
0.09
142
0.0
143
25.4
144
1.0
145
0.0
146
1.0
147
0.09
 71
     0
 72
     0
 73
     1
 74
     1
 75
     0
 76
     0
 77
     0
 78
     0
170
     0
171
     2
172
     0
173
     0
174
     0
175
     0
176
     0
177
     0
178
     0
270
     2
271
     4
272
     4
273
     2
274
     2
340
10
275
     0
280
     0
281
     0
282
     0
283
     1
284
     0
285
     0
286
     0
287
     3
288
     0
  0
ENDTAB
  0
TABLE
  2
BLOCK_RECORD
  5
1
330
0
100
AcDbSymbolTable
 70
     2
  0
BLOCK_RECORD
  5
18
102
{ACAD_XDICTIONARY
360
D4
102
}
330
1
100
AcDbSymbolTableRecord
100
AcDbBlockTableRecord
  2
*MODEL_SPACE
  0
BLOCK_RECORD
  5
15
102
{ACAD_XDICTIONARY
360
D2
102
}
330
1
100
AcDbSymbolTableRecord
100
AcDbBlockTableRecord
  2
*PAPER_SPACE
  0
BLOCK_RECORD
  5
26
330
1
100
AcDbSymbolTableRecord
100
AcDbBlockTableRecord
  2
*D0
  0
BLOCK_RECORD
  5
27
330
1
100
AcDbSymbolTableRecord
100
AcDbBlockTableRecord
  2
*D1
  0
ENDTAB
  0
ENDSEC
  0
SECTION
  2
BLOCKS
  0
BLOCK
  5
30
330
18
100
AcDbEntity
  8
0
100
AcDbBlockBegin
  2
*MODEL_SPACE
 70
     0
 10
0.0
 20
0.0
 30
0.0
  3
*MODEL_SPACE
  1

  0
ENDBLK
  5
31
330
18
100
AcDbEntity
  8
0
100
AcDbBlockEnd
  0
BLOCK
  5
2E
330
15
100
AcDbEntity
 67
     1
  8
0
100
AcDbBlockBegin
  2
*PAPER_SPACE
 70
     0
 10
0.0
 20
0.0
 30
0.0
  3
*PAPER_SPACE
  1

  0
ENDBLK
  5
2F
330
15
100
AcDbEntity
 67
     1
  8
0
100
AcDbBlockEnd
  0
BLOCK
  5
33
330
26
100
AcDbEntity
  8
0
100
AcDbBlockBegin
  2
*D0
 70
     1
 10
0.0
 20
0.0
 30
0.0
  3
*D0
  1

  0
LINE
  5
34
330
26
100
AcDbEntity
  8
0
  6
BYBLOCK
 62
     0
100
AcDbLine
 10
2.630483796245771
 20
1.712887496488604
 30
0.0
 11
2.630483796245771
 21
2.628453955677767
 31
0.0
  0
LINE
  5
35
330
26
100
AcDbEntity
  8
0
  6
BYBLOCK
 62
     0
100
AcDbLine
 10
6.130483796245771
 20
1.712887496488604
 30
0.0
 11
6.130483796245771
 21
2.628453955677767
 31
0.0
  0
LINE
  5
36
330
26
100
AcDbEntity
  8
0
  6
BYBLOCK
 62
     0
100
AcDbLine
 10
2.630483796245771
 20
2.448453955677767
 30
0.0
 11
3.984650462912437
 21
2.448453955677767
 31
0.0
  0
LINE
  5
37
330
26
100
AcDbEntity
  8
0
  6
BYBLOCK
 62
     0
100
AcDbLine
 10
6.130483796245771
 20
2.448453955677767
 30
0.0
 11
4.776317129579104
 21
2.448453955677767
 31
0.0
  0
LINE
  5
38
330
26
100
AcDbEntity
  8
0
  6
BYBLOCK
 62
     0
100
AcDbLine
 10
2.505483796245771
 20
2.323453955677767
 30
0.0
 11
2.755483796245771
 21
2.573453955677767
 31
0.0
  0
LINE
  5
39
330
26
100
AcDbEntity
  8
0
  6
BYBLOCK
 62
     0
100
AcDbLine
 10
6.005483796245771
 20
2.323453955677767
 30
0.0
 11
6.255483796245771
 21
2.573453955677767
 31
0.0
  0
TEXT
  5
3A
330
26
100
AcDbEntity
  8
0
  6
BYBLOCK
 62
     0
100
AcDbText
 10
4.109650462912438
 20
2.385953955677767
 30
0.0
 40
0.125
  1
3 1/2
 72
     1
 11
4.380483796245771
 21
2.448453955677767
 31
0.0
100
AcDbText
 73
     2
  0
POINT
  5
3B
330
26
100
AcDbEntity
  8
DEFPOINTS
  6
BYBLOCK
 62
     0
100
AcDbPoint
 10
2.630483796245771
 20
1.650387496488604
 30
0.0
  0
POINT
  5
3C
330
26
100
AcDbEntity
  8
DEFPOINTS
  6
BYBLOCK
 62
     0
100
AcDbPoint
 10
6.130483796245771
 20
1.650387496488604
 30
0.0
  0
POINT
  5
3D
330
26
100
AcDbEntity
  8
DEFPOINTS
  6
BYBLOCK
 62
     0
100
AcDbPoint
 10
6.130483796245771
 20
2.448453955677767
 30
0.0
  0
ENDBLK
  5
3E
330
26
100
AcDbEntity
  8
0
100
AcDbBlockEnd
  0
BLOCK
  5
3F
330
27
100
AcDbEntity
  8
0
100
AcDbBlockBegin
  2
*D1
 70
     1
 10
0.0
 20
0.0
 30
0.0
  3
*D1
  1

  0
LINE
  5
40
330
27
100
AcDbEntity
  8
0
  6
BYBLOCK
 62
     0
100
AcDbLine
 10
4.88178155657261
 20
2.275387496488605
 30
0.0
 11
6.524412221981829
 21
2.275387496488605
 31
0.0
  0
LINE
  5
41
330
27
100
AcDbEntity
  8
0
  6
BYBLOCK
 62
     0
100
AcDbLine
 10
6.192983796245771
 20
1.650387496488604
 30
0.0
 11
6.524412221981829
 21
1.650387496488604
 31
0.0
  0
LINE
  5
42
330
27
100
AcDbEntity
  8
0
  6
BYBLOCK
 62
     0
100
AcDbLine
 10
6.344412221981829
 20
2.275387496488605
 30
0.0
 11
6.344412221981829
 21
2.525387496488605
 31
0.0
  0
LINE
  5
43
330
27
100
AcDbEntity
  8
0
  6
BYBLOCK
 62
     0
100
AcDbLine
 10
6.344412221981829
 20
1.650387496488604
 30
0.0
 11
6.344412221981829
 21
1.400387496488604
 31
0.0
  0
LINE
  5
44
330
27
100
AcDbEntity
  8
0
  6
BYBLOCK
 62
     0
100
AcDbLine
 10
6.469412221981829
 20
2.150387496488605
 30
0.0
 11
6.219412221981829
 21
2.400387496488605
 31
0.0
  0
LINE
  5
45
330
27
100
AcDbEntity
  8
0
  6
BYBLOCK
 62
     0
100
AcDbLine
 10
6.469412221981829
 20
1.525387496488604
 30
0.0
 11
6.219412221981829
 21
1.775387496488604
 31
0.0
  0
TEXT
  5
46
330
27
100
AcDbEntity
  8
0
  6
BYBLOCK
 62
     0
100
AcDbText
 10
6.406912221981829
 20
0.9420541631552715
 30
0.0
 40
0.125
  1
5/8
 50
90.0
 72
     1
 11
6.344412221981829
 21
1.108720829821938
 31
0.0
100
AcDbText
 73
     2
  0
POINT
  5
47
330
27
100
AcDbEntity
  8
DEFPOINTS
  6
BYBLOCK
 62
     0
100
AcDbPoint
 10
4.81928155657261
 20
2.275387496488605
 30
0.0
  0
POINT
  5
48
330
27
100
AcDbEntity
  8
DEFPOINTS
  6
BYBLOCK
 62
     0
100
AcDbPoint
 10
6.130483796245771
 20
1.650387496488604
 30
0.0
  0
POINT
  5
49
330
27
100
AcDbEntity
  8
DEFPOINTS
  6
BYBLOCK
 62
     0
100
AcDbPoint
 10
6.344412221981829
 20
1.650387496488604
 30
0.0
  0
ENDBLK
  5
4A
330
27
100
AcDbEntity
  8
0
100
AcDbBlockEnd
  0
ENDSEC
  0
SECTION
  2
ENTITIES
  0
DIMENSION
  5
4B
330
18
100
AcDbEntity
  8
ADPDIM
100
AcDbDimension
  2
*D1
 10
6.344412221981829
 20
1.650387496488604
 30
0.0
 11
6.344412221981829
 21
1.108720829821938
 31
0.0
100
AcDbAlignedDimension
 13
4.81928155657261
 23
2.275387496488605
 33
0.0
 14
6.130483796245771
 24
1.650387496488604
 34
0.0
 50
90.0
100
AcDbRotatedDimension
  0
DIMENSION
  5
4C
330
18
100
AcDbEntity
  8
ADPDIM
100
AcDbDimension
  2
*D0
 10
6.130483796245771
 20
2.448453955677767
 30
0.0
 11
4.380483796245771
 21
2.448453955677767
 31
0.0
100
AcDbAlignedDimension
 13
2.630483796245771
 23
1.650387496488604
 33
0.0
 14
6.130483796245771
 24
1.650387496488604
 34
0.0
100
AcDbRotatedDimension
  0
LINE
  5
4D
330
18
100
AcDbEntity
  8
ADP1DETAIL
100
AcDbLine
 10
3.690483796245771
 20
2.275387496488605
 30
0.0
 11
3.942983796245771
 21
2.275387496488605
 31
0.0
  0
ARC
  5
4E
330
18
100
AcDbEntity
  8
ADP1DETAIL
100
AcDbCircle
 10
3.882983796245771
 20
2.090387496488605
 30
0.0
 40
0.06
100
AcDbArc
 50
0.0
 51
90.0
  0
ARC
  5
4F
330
18
100
AcDbEntity
  8
ADP1DETAIL
100
AcDbCircle
 10
3.882983796245771
 20
2.089504966649912
 30
0.0
 40
0.06
100
AcDbArc
 50
280.0
 51
0.0
  0
ARC
  5
50
330
18
100
AcDbEntity
  8
ADP1DETAIL
100
AcDbCircle
 10
3.882983796245771
 20
2.089504966649912
 30
0.0
 40
0.185
100
AcDbArc
 50
280.0
 51
0.0
  0
LINE
  5
51
330
18
100
AcDbEntity
  8
ADP1DETAIL
100
AcDbLine
 10
3.893402686905787
 20
2.03041650146918
 30
0.0
 11
2.801673157729526
 21
1.837915129839255
 31
0.0
  0
LINE
  5
52
330
18
100
AcDbEntity
  8
ADP1DETAIL
100
AcDbLine
 10
3.915108709114153
 20
1.907315532342654
 30
0.0
 11
2.823379179937892
 21
1.714814160712729
 31
0.0
  0
ARC
  5
53
330
18
100
AcDbEntity
  8
ADP1DETAIL
100
AcDbCircle
 10
2.817983796245771
 20
1.650387496488604
 30
0.0
 40
0.1875
100
AcDbArc
 50
94.9904715808328
 51
180.0
  0
ARC
  5
54
330
18
100
AcDbEntity
  8
ADP1DETAIL
100
AcDbCircle
 10
2.817983796245771
 20
1.650387496488604
 30
0.0
 40
0.0625
100
AcDbArc
 50
94.9904715808328
 51
180.0
  0
LINE
  5
55
330
18
100
AcDbEntity
  8
ADP1DETAIL
100
AcDbLine
 10
2.755483796245771
 20
1.650387496488604
 30
0.0
 11
2.630483796245771
 21
1.650387496488604
 31
0.0
  0
ARC
  5
56
330
18
100
AcDbEntity
  8
ADP1DETAIL
100
AcDbCircle
 10
3.690483796245771
 20
2.215387496488605
 30
0.0
 40
0.06
100
AcDbArc
 50
90.0
 51
180.0
  0
ARC
  5
57
330
18
100
AcDbEntity
  8
ADP1DETAIL
100
AcDbCircle
 10
3.690483796245771
 20
2.210387496488605
 30
0.0
 40
0.06
100
AcDbArc
 50
180.0
 51
270.0
  0
LINE
  5
58
330
18
100
AcDbEntity
  8
ADP1DETAIL
100
AcDbLine
 10
3.690483796245771
 20
2.150387496488605
 30
0.0
 11
3.882983796245771
 21
2.150387496488605
 31
0.0
  0
LINE
  5
59
330
18
100
AcDbEntity
  8
ADPDIM
100
AcDbLine
 10
3.630483796245771
 20
2.210387496488605
 30
0.0
 11
3.630483796245771
 21
2.215387496488605
 31
0.0
  0
LINE
  5
5A
330
18
100
AcDbEntity
  8
ADP1DETAIL
100
AcDbLine
 10
5.087071751829038
 20
1.989482778295642
 30
0.0
 11
5.947062999408408
 21
1.837843118174266
 31
0.0
  0
LINE
  5
5B
330
18
100
AcDbEntity
  8
ADP1DETAIL
100
AcDbLine
 10
4.910424762933222
 20
1.893702082013165
 30
0.0
 11
5.944343530633316
 21
1.712872703717158
 31
0.0
  0
LINE
  5
5C
330
18
100
AcDbEntity
  8
ADP1DETAIL
100
AcDbLine
 10
4.567983796245771
 20
2.275387496488605
 30
0.0
 11
4.81928155657261
 21
2.275387496488605
 31
0.0
  0
LINE
  5
5D
330
18
100
AcDbEntity
  8
ADP1DETAIL
100
AcDbLine
 10
4.098983796245772
 20
2.150387496488605
 30
0.0
 11
4.724483796245771
 21
2.150387496488604
 31
0.0
  0
LINE
  5
5E
330
18
100
AcDbEntity
  8
ADP1DETAIL
100
AcDbLine
 10
4.255483796245771
 20
2.212887496488605
 30
0.0
 11
4.317983796245771
 21
2.275387496488605
 31
0.0
  0
LINE
  5
5F
330
18
100
AcDbEntity
  8
ADP1DETAIL
100
AcDbLine
 10
4.255483796245771
 20
2.212887496488605
 30
0.0
 11
4.192983796245771
 21
2.275387496488605
 31
0.0
  0
LINE
  5
60
330
18
100
AcDbEntity
  8
ADP1DETAIL
100
AcDbLine
 10
4.130483796245771
 20
2.212887496488605
 30
0.0
 11
4.067983796245771
 21
2.275387496488605
 31
0.0
  0
LINE
  5
61
330
18
100
AcDbEntity
  8
ADP1DETAIL
100
AcDbLine
 10
4.130483796245771
 20
2.212887496488605
 30
0.0
 11
4.192983796245771
 21
2.275387496488605
 31
0.0
  0
LINE
  5
62
330
18
100
AcDbEntity
  8
ADP1DETAIL
100
AcDbLine
 10
4.005483796245771
 20
2.212887496488605
 30
0.0
 11
3.942983796245771
 21
2.275387496488605
 31
0.0
  0
LINE
  5
63
330
18
100
AcDbEntity
  8
ADP1DETAIL
100
AcDbLine
 10
4.005483796245771
 20
2.212887496488605
 30
0.0
 11
4.067983796245771
 21
2.275387496488605
 31
0.0
  0
LINE
  5
64
330
18
100
AcDbEntity
  8
ADP1DETAIL
100
AcDbLine
 10
3.942983796245771
 20
2.089504966649912
 30
0.0
 11
3.942983796245771
 21
2.090387496488605
 31
0.0
  0
LINE
  5
65
330
18
100
AcDbEntity
  8
ADP1DETAIL
100
AcDbLine
 10
4.067983796245772
 20
2.089504966649912
 30
0.0
 11
4.067983796245772
 21
2.119387496488605
 31
0.0
  0
ARC
  5
66
330
18
100
AcDbEntity
  8
ADP1DETAIL
100
AcDbCircle
 10
4.098983796245772
 20
2.119387496488605
 30
0.0
 40
0.031
100
AcDbArc
 50
89.99999999999996
 51
180.0
  0
LINE
  5
67
330
18
100
AcDbEntity
  8
ADP1DETAIL
100
AcDbLine
 10
4.505483796245771
 20
2.212887496488605
 30
0.0
 11
4.442983796245771
 21
2.275387496488605
 31
0.0
  0
LINE
  5
68
330
18
100
AcDbEntity
  8
ADP1DETAIL
100
AcDbLine
 10
4.505483796245771
 20
2.212887496488605
 30
0.0
 11
4.567983796245771
 21
2.275387496488605
 31
0.0
  0
LINE
  5
69
330
18
100
AcDbEntity
  8
ADP1DETAIL
100
AcDbLine
 10
4.380483796245771
 20
2.212887496488605
 30
0.0
 11
4.317983796245771
 21
2.275387496488605
 31
0.0
  0
LINE
  5
6A
330
18
100
AcDbEntity
  8
ADP1DETAIL
100
AcDbLine
 10
4.380483796245771
 20
2.212887496488605
 30
0.0
 11
4.442983796245771
 21
2.275387496488605
 31
0.0
  0
ARC
  5
6B
330
18
100
AcDbEntity
  8
ADP1DETAIL
100
AcDbCircle
 10
5.130483796245771
 20
2.235684716548695
 30
0.0
 40
0.25
100
AcDbArc
 50
184.0981620958591
 51
260.0
  0
ARC
  5
6C
330
18
100
AcDbEntity
  8
ADP1DETAIL
100
AcDbCircle
 10
4.81928155657261
 20
2.213387496488605
 30
0.0
 40
0.062
100
AcDbArc
 50
4.098162095859156
 51
90.0
  0
ARC
  5
6D
330
18
100
AcDbEntity
  8
ADP1DETAIL
100
AcDbCircle
 10
4.942983796245771
 20
2.078353535702954
 30
0.0
 40
0.1875
100
AcDbArc
 50
180.0
 51
260.0
  0
LINE
  5
6E
330
18
100
AcDbEntity
  8
ADP1DETAIL
100
AcDbLine
 10
4.755483796245771
 20
2.078353535702954
 30
0.0
 11
4.755483796245771
 21
2.119387496488604
 31
0.0
  0
ARC
  5
6F
330
18
100
AcDbEntity
  8
ADP1DETAIL
100
AcDbCircle
 10
4.724483796245771
 20
2.119387496488604
 30
0.0
 40
0.031
100
AcDbArc
 50
0.0
 51
89.99999999999998
  0
ARC
  5
70
330
18
100
AcDbEntity
  8
ADP1DETAIL
100
AcDbCircle
 10
5.942983796245771
 20
1.650387496488604
 30
0.0
 40
0.1875
100
AcDbArc
 50
0.0
 51
88.75338898070245
  0
LINE
  5
71
330
18
100
AcDbEntity
  8
ADP1DETAIL
100
AcDbLine
 10
6.130483796245771
 20
1.650387496488604
 30
0.0
 11
6.005483796245771
 21
1.650387496488604
 31
0.0
  0
ARC
  5
72
330
18
100
AcDbEntity
  8
ADP1DETAIL
100
AcDbCircle
 10
5.942983796245771
 20
1.650387496488604
 30
0.0
 40
0.0625
100
AcDbArc
 50
0.0
 51
88.75338898070245
  0
TEXT
  5
80
330
18
100
AcDbEntity
  8
ADPDIM
100
AcDbText
 10
-2.146962920171601
 20
0.399524584801493
 30
0.0
 40
0.125
  1
J U L I U S  B L U M  &  C O . ,  I N C .      ( 8 0 0 )  5 2 6 - 6 2 9 3        W W W . J U L I U S B L U M . C O M        P A R T  N o .  4 5 9 0
 41
1.25
  7
ARIAL_WIDE
 72
     1
 11
4.378766104385015
 21
0.524524584801493
 31
0.0
100
AcDbText
 73
     3
  0
ENDSEC
  0
SECTION
  2
OBJECTS
  0
DICTIONARY
  5
C
330
0
100
AcDbDictionary
  3
ACAD_GROUP
350
D
  3
ACAD_LAYOUT
350
79
  3
ACAD_MLINESTYLE
350
E
  3
ACAD_PLOTSETTINGS
350
7A
  3
ACAD_PLOTSTYLENAME
350
77
  3
ACDBHEADERROUNDTRIPXREC
350
1C4
  3
ACDBVARIABLEDICTIONARY
350
DA
  0
DICTIONARY
  5
D4
330
18
100
AcDbDictionary
280
     1
  3
ACAD_LAYOUTSELFREF
360
1E5
  0
DICTIONARY
  5
D2
330
15
100
AcDbDictionary
280
     1
  3
ACAD_LAYOUTSELFREF
360
1E4
  0
DICTIONARY
  5
D
102
{ACAD_REACTORS
330
C
102
}
330
C
100
AcDbDictionary
  0
DICTIONARY
  5
79
102
{ACAD_REACTORS
330
C
102
}
330
C
100
AcDbDictionary
  0
DICTIONARY
  5
E
102
{ACAD_REACTORS
330
C
102
}
330
C
100
AcDbDictionary
  3
STANDARD
350
1B
  0
DICTIONARY
  5
7A
102
{ACAD_REACTORS
330
C
102
}
330
C
100
AcDbDictionary
  0
ACDBDICTIONARYWDFLT
  5
77
102
{ACAD_REACTORS
330
C
102
}
330
C
100
AcDbDictionary
281
     1
  3
Normal
350
78
100
AcDbDictionaryWithDefault
340
78
  0
DICTIONARY
  5
1C4
102
{ACAD_REACTORS
330
C
102
}
330
C
100
AcDbDictionary
  3
CEPSNTYPE
350
1CE
  3
FINGERPRINTGUID
350
1CF
  3
HYPERLINKBASE
350
1C7
  3
INSUNITS
350
1CD
  3
LAYOUTDICT
350
1C9
  3
LWETCUNION
350
1CC
  3
PLOTSETDICT
350
1CA
  3
PLOTSTYLNAMDICT
350
1CB
  3
PSVPSCALE
350
1D1
  3
PUCSBASE
350
1D4
  3
PUCSORGBACK
350
1DA
  3
PUCSORGBOTTOM
350
1D6
  3
PUCSORGFRONT
350
1D9
  3
PUCSORGLEFT
350
1D7
  3
PUCSORGRIGHT
350
1D8
  3
PUCSORGTOP
350
1D5
  3
PUCSORTHOREF
350
1D2
  3
PUCSORTHOVIEW
350
1D3
  3
STYLESHEET
350
1C8
  3
TSTACKALIGN
350
1C5
  3
TSTACKSIZE
350
1C6
  3
UCSBASE
350
1DD
  3
UCSORGBACK
350
1E3
  3
UCSORGBOTTOM
350
1DF
  3
UCSORGFRONT
350
1E2
  3
UCSORGLEFT
350
1E0
  3
UCSORGRIGHT
350
1E1
  3
UCSORGTOP
350
1DE
  3
UCSORTHOREF
350
1DB
  3
UCSORTHOVIEW
350
1DC
  3
VERSIONGUID
350
1D0
  0
DICTIONARY
  5
DA
102
{ACAD_REACTORS
330
C
102
}
330
C
100
AcDbDictionary
  3
DIMASSOC
350
DB
  0
XRECORD
  5
1E5
102
{ACAD_REACTORS
330
D4
102
}
330
D4
100
AcDbXrecord
340
18
  0
XRECORD
  5
1E4
102
{ACAD_REACTORS
330
D2
102
}
330
D2
100
AcDbXrecord
340
15
  0
MLINESTYLE
  5
1B
102
{ACAD_REACTORS
330
E
102
}
330
E
100
AcDbMlineStyle
  2
STANDARD
 70
     0
  3

 62
     0
 51
90.0
 52
90.0
 71
     2
 49
0.5
 62
   256
  6
BYLAYER
 49
-0.5
 62
   256
  6
BYLAYER
  0
ACDBPLACEHOLDER
  5
78
102
{ACAD_REACTORS
330
77
102
}
330
77
100
AcDbPlaceHolder
280
     0
  0
XRECORD
  5
1CE
102
{ACAD_REACTORS
330
1C4
102
}
330
1C4
100
AcDbXrecord
 90
        0
  0
XRECORD
  5
1CF
102
{ACAD_REACTORS
330
1C4
102
}
330
1C4
100
AcDbXrecord
  1
{78BC8C9F-FBF0-43CA-ADBC-610BD5485E95}
  0
XRECORD
  5
1C7
102
{ACAD_REACTORS
330
1C4
102
}
330
1C4
100
AcDbXrecord
  1

  0
XRECORD
  5
1CD
102
{ACAD_REACTORS
330
1C4
102
}
330
1C4
100
AcDbXrecord
 90
        0
  0
XRECORD
  5
1C9
102
{ACAD_REACTORS
330
1C4
102
}
330
1C4
100
AcDbXrecord
340
79
  0
XRECORD
  5
1CC
102
{ACAD_REACTORS
330
1C4
102
}
330
1C4
100
AcDbXrecord
 90
    14877
  0
XRECORD
  5
1CA
102
{ACAD_REACTORS
330
1C4
102
}
330
1C4
100
AcDbXrecord
340
7A
  0
XRECORD
  5
1CB
102
{ACAD_REACTORS
330
1C4
102
}
330
1C4
100
AcDbXrecord
340
77
  0
XRECORD
  5
1D1
102
{ACAD_REACTORS
330
1C4
102
}
330
1C4
100
AcDbXrecord
 40
0.0
  0
XRECORD
  5
1D4
102
{ACAD_REACTORS
330
1C4
102
}
330
1C4
100
AcDbXrecord
340
0
  0
XRECORD
  5
1DA
102
{ACAD_REACTORS
330
1C4
102
}
330
1C4
100
AcDbXrecord
 10
0.0
 20
0.0
 30
0.0
  0
XRECORD
  5
1D6
102
{ACAD_REACTORS
330
1C4
102
}
330
1C4
100
AcDbXrecord
 10
0.0
 20
0.0
 30
0.0
  0
XRECORD
  5
1D9
102
{ACAD_REACTORS
330
1C4
102
}
330
1C4
100
AcDbXrecord
 10
0.0
 20
0.0
 30
0.0
  0
XRECORD
  5
1D7
102
{ACAD_REACTORS
330
1C4
102
}
330
1C4
100
AcDbXrecord
 10
0.0
 20
0.0
 30
0.0
  0
XRECORD
  5
1D8
102
{ACAD_REACTORS
330
1C4
102
}
330
1C4
100
AcDbXrecord
 10
0.0
 20
0.0
 30
0.0
  0
XRECORD
  5
1D5
102
{ACAD_REACTORS
330
1C4
102
}
330
1C4
100
AcDbXrecord
 10
0.0
 20
0.0
 30
0.0
  0
XRECORD
  5
1D2
102
{ACAD_REACTORS
330
1C4
102
}
330
1C4
100
AcDbXrecord
340
0
  0
XRECORD
  5
1D3
102
{ACAD_REACTORS
330
1C4
102
}
330
1C4
100
AcDbXrecord
 70
     0
  0
XRECORD
  5
1C8
102
{ACAD_REACTORS
330
1C4
102
}
330
1C4
100
AcDbXrecord
  1

  0
XRECORD
  5
1C5
102
{ACAD_REACTORS
330
1C4
102
}
330
1C4
100
AcDbXrecord
 90
        1
  0
XRECORD
  5
1C6
102
{ACAD_REACTORS
330
1C4
102
}
330
1C4
100
AcDbXrecord
 90
       70
  0
XRECORD
  5
1DD
102
{ACAD_REACTORS
330
1C4
102
}
330
1C4
100
AcDbXrecord
340
0
  0
XRECORD
  5
1E3
102
{ACAD_REACTORS
330
1C4
102
}
330
1C4
100
AcDbXrecord
 10
0.0
 20
0.0
 30
0.0
  0
XRECORD
  5
1DF
102
{ACAD_REACTORS
330
1C4
102
}
330
1C4
100
AcDbXrecord
 10
0.0
 20
0.0
 30
0.0
  0
XRECORD
  5
1E2
102
{ACAD_REACTORS
330
1C4
102
}
330
1C4
100
AcDbXrecord
 10
0.0
 20
0.0
 30
0.0
  0
XRECORD
  5
1E0
102
{ACAD_REACTORS
330
1C4
102
}
330
1C4
100
AcDbXrecord
 10
0.0
 20
0.0
 30
0.0
  0
XRECORD
  5
1E1
102
{ACAD_REACTORS
330
1C4
102
}
330
1C4
100
AcDbXrecord
 10
0.0
 20
0.0
 30
0.0
  0
XRECORD
  5
1DE
102
{ACAD_REACTORS
330
1C4
102
}
330
1C4
100
AcDbXrecord
 10
0.0
 20
0.0
 30
0.0
  0
XRECORD
  5
1DB
102
{ACAD_REACTORS
330
1C4
102
}
330
1C4
100
AcDbXrecord
340
0
  0
XRECORD
  5
1DC
102
{ACAD_REACTORS
330
1C4
102
}
330
1C4
100
AcDbXrecord
 70
     0
  0
XRECORD
  5
1D0
102
{ACAD_REACTORS
330
1C4
102
}
330
1C4
100
AcDbXrecord
  1
{63B76F42-DB02-40CA-B152-C39529E30D1A}
  0
DICTIONARYVAR
  5
DB
102
{ACAD_REACTORS
330
DA
102
}
330
DA
100
DictionaryVariables
280
     0
  1
1
  0
ENDSEC
  0
EOF
