  0
SECTION
  2
HEADER
  9
$ACADVER
  1
AC1014
  9
$ACADMAINTVER
 70
     9
  9
$DWGCODEPAGE
  3
ANSI_1252
  9
$INSBASE
 10
6.946057367249321
 20
-6.04087182190709
 30
0.0
  9
$EXTMIN
 10
-37.54144464519463
 20
-12.08618146483536
 30
0.0
  9
$EXTMAX
 10
52.54446088004413
 20
45.08412817809291
 30
0.0
  9
$LIMMIN
 10
0.0
 20
0.0
  9
$LIMMAX
 10
36.0
 20
36.0
  9
$ORTHOMODE
 70
     1
  9
$REGENMODE
 70
     1
  9
$FILLMODE
 70
     1
  9
$QTEXTMODE
 70
     0
  9
$MIRRTEXT
 70
     1
  9
$DRAGMODE
 70
     0
  9
$LTSCALE
 40
1.0
  9
$OSMODE
 70
    37
  9
$ATTMODE
 70
     1
  9
$TEXTSIZE
 40
0.2
  9
$TRACEWID
 40
0.05
  9
$TEXTSTYLE
  7
STANDARD
  9
$CLAYER
  8
ADPDIM
  9
$CELTYPE
  6
BYLAYER
  9
$CECOLOR
 62
   256
  9
$CELTSCALE
 40
1.0
  9
$DELOBJ
 70
     1
  9
$DISPSILH
 70
     0
  9
$DIMSCALE
 40
1.0
  9
$DIMASZ
 40
0.125
  9
$DIMEXO
 40
0.0625
  9
$DIMDLI
 40
0.38
  9
$DIMRND
 40
0.0
  9
$DIMDLE
 40
0.0
  9
$DIMEXE
 40
0.18
  9
$DIMTP
 40
0.0
  9
$DIMTM
 40
0.0
  9
$DIMTXT
 40
0.125
  9
$DIMCEN
 40
0.1875
  9
$DIMTSZ
 40
0.125
  9
$DIMTOL
 70
     0
  9
$DIMLIM
 70
     0
  9
$DIMTIH
 70
     0
  9
$DIMTOH
 70
     0
  9
$DIMSE1
 70
     0
  9
$DIMSE2
 70
     0
  9
$DIMTAD
 70
     0
  9
$DIMZIN
 70
     3
  9
$DIMBLK
  1

  9
$DIMASO
 70
     1
  9
$DIMSHO
 70
     1
  9
$DIMPOST
  1

  9
$DIMAPOST
  1

  9
$DIMALT
 70
     0
  9
$DIMALTD
 70
     1
  9
$DIMALTF
 40
25.4
  9
$DIMLFAC
 40
1.0
  9
$DIMTOFL
 70
     0
  9
$DIMTVP
 40
0.0
  9
$DIMTIX
 70
     0
  9
$DIMSOXD
 70
     0
  9
$DIMSAH
 70
     0
  9
$DIMBLK1
  1

  9
$DIMBLK2
  1

  9
$DIMSTYLE
  2
STANDARD
  9
$DIMCLRD
 70
     0
  9
$DIMCLRE
 70
     0
  9
$DIMCLRT
 70
     0
  9
$DIMTFAC
 40
1.0
  9
$DIMGAP
 40
0.125
  9
$DIMJUST
 70
     0
  9
$DIMSD1
 70
     0
  9
$DIMSD2
 70
     0
  9
$DIMTOLJ
 70
     1
  9
$DIMTZIN
 70
     0
  9
$DIMALTZ
 70
     0
  9
$DIMALTTZ
 70
     0
  9
$DIMFIT
 70
     3
  9
$DIMUPT
 70
     0
  9
$DIMUNIT
 70
     2
  9
$DIMDEC
 70
     4
  9
$DIMTDEC
 70
     4
  9
$DIMALTU
 70
     2
  9
$DIMALTTD
 70
     2
  9
$DIMTXSTY
  7
STANDARD
  9
$DIMAUNIT
 70
     0
  9
$LUNITS
 70
     5
  9
$LUPREC
 70
     4
  9
$SKETCHINC
 40
0.1
  9
$FILLETRAD
 40
0.05
  9
$AUNITS
 70
     0
  9
$AUPREC
 70
     0
  9
$MENU
  1
acad
  9
$ELEVATION
 40
0.0
  9
$PELEVATION
 40
0.0
  9
$THICKNESS
 40
0.0
  9
$LIMCHECK
 70
     0
  9
$BLIPMODE
 70
     0
  9
$CHAMFERA
 40
0.0
  9
$CHAMFERB
 40
0.0
  9
$CHAMFERC
 40
0.0
  9
$CHAMFERD
 40
0.0
  9
$SKPOLY
 70
     0
  9
$TDCREATE
 40
2450233.484409907
  9
$TDUPDATE
 40
2452297.071124305
  9
$TDINDWG
 40
0.0236081829
  9
$TDUSRTIMER
 40
0.0236081829
  9
$USRTIMER
 70
     1
  9
$ANGBASE
 50
0.0
  9
$ANGDIR
 70
     0
  9
$PDMODE
 70
     0
  9
$PDSIZE
 40
0.0
  9
$PLINEWID
 40
0.0
  9
$COORDS
 70
     2
  9
$SPLFRAME
 70
     0
  9
$SPLINETYPE
 70
     6
  9
$SPLINESEGS
 70
     8
  9
$ATTDIA
 70
     0
  9
$ATTREQ
 70
     1
  9
$HANDLING
 70
 22529
  9
$HANDSEED
  5
246
  9
$SURFTAB1
 70
     6
  9
$SURFTAB2
 70
     6
  9
$SURFTYPE
 70
     6
  9
$SURFU
 70
     6
  9
$SURFV
 70
     6
  9
$UCSNAME
  2

  9
$UCSORG
 10
0.0
 20
0.0
 30
0.0
  9
$UCSXDIR
 10
1.0
 20
0.0
 30
0.0
  9
$UCSYDIR
 10
0.0
 20
1.0
 30
0.0
  9
$PUCSNAME
  2

  9
$PUCSORG
 10
0.0
 20
0.0
 30
0.0
  9
$PUCSXDIR
 10
1.0
 20
0.0
 30
0.0
  9
$PUCSYDIR
 10
0.0
 20
1.0
 30
0.0
  9
$USERI1
 70
     0
  9
$USERI2
 70
     0
  9
$USERI3
 70
     0
  9
$USERI4
 70
     0
  9
$USERI5
 70
     0
  9
$USERR1
 40
0.0
  9
$USERR2
 40
0.0
  9
$USERR3
 40
0.0
  9
$USERR4
 40
0.0
  9
$USERR5
 40
0.0
  9
$WORLDVIEW
 70
     1
  9
$SHADEDGE
 70
     3
  9
$SHADEDIF
 70
    70
  9
$TILEMODE
 70
     1
  9
$MAXACTVP
 70
    15
  9
$PINSBASE
 10
0.0
 20
-3.941062727799726E+99
 30
0.0
  9
$PLIMCHECK
 70
     0
  9
$PEXTMIN
 10
1.000000000000000E+20
 20
1.000000000000000E+20
 30
1.000000000000000E+20
  9
$PEXTMAX
 10
-1.000000000000000E+20
 20
-1.000000000000000E+20
 30
-1.000000000000000E+20
  9
$PLIMMIN
 10
0.0
 20
0.0
  9
$PLIMMAX
 10
12.0
 20
9.0
  9
$UNITMODE
 70
     0
  9
$VISRETAIN
 70
     0
  9
$PLINEGEN
 70
     0
  9
$PSLTSCALE
 70
     1
  9
$TREEDEPTH
 70
  3020
  9
$PICKSTYLE
 70
     1
  9
$CMLSTYLE
  2
STANDARD
  9
$CMLJUST
 70
     0
  9
$CMLSCALE
 40
1.0
  9
$PROXYGRAPHICS
 70
     1
  9
$MEASUREMENT
 70
     0
  0
ENDSEC
  0
SECTION
  2
CLASSES
  0
CLASS
  1
ACDBDICTIONARYWDFLT
  2
AcDbDictionaryWithDefault
  3
AutoCAD 2000
 90
        0
280
     0
281
     0
  0
CLASS
  1
ACDBPLACEHOLDER
  2
AcDbPlaceHolder
  3
AutoCAD 2000
 90
        0
280
     0
281
     0
  0
CLASS
  1
LAYOUT
  2
AcDbLayout
  3
AutoCAD 2000
 90
        0
280
     0
281
     0
  0
CLASS
  1
DICTIONARYVAR
  2
AcDbDictionaryVar
  3
AutoCAD 2000
 90
        0
280
     0
281
     0
  0
CLASS
  1
LONG_TRANSACTION
  2
AcDbLongTransaction
  3
AutoCAD 2000
 90
        0
280
     0
281
     0
  0
CLASS
  1
LWPOLYLINE
  2
AcDbPolyline
  3
AutoCAD 2000
 90
        0
280
     0
281
     1
  0
CLASS
  1
HATCH
  2
AcDbHatch
  3
AutoCAD 2000
 90
        0
280
     0
281
     1
  0
CLASS
  1
XRECORD
  2
AcDbXrecord
  3
AutoCAD 2000
 90
        0
280
     0
281
     0
  0
CLASS
  1
LONG_TRANSACTION
  2
AcDbLongTransaction
  3
AutoCAD 2000
 90
        0
280
     0
281
     0
  0
CLASS
  1
LWPOLYLINE
  2
AcDbPolyline
  3
AutoCAD 2000
 90
        0
280
     0
281
     1
  0
CLASS
  1
HATCH
  2
AcDbHatch
  3
AutoCAD 2000
 90
        0
280
     0
281
     1
  0
CLASS
  1
XRECORD
  2
AcDbXrecord
  3
AutoCAD 2000
 90
        0
280
     0
281
     0
  0
CLASS
  1
LONG_TRANSACTION
  2
AcDbLongTransaction
  3
AutoCAD 2000
 90
        0
280
     0
281
     0
  0
CLASS
  1
LWPOLYLINE
  2
AcDbPolyline
  3
AutoCAD 2000
 90
        0
280
     0
281
     1
  0
CLASS
  1
HATCH
  2
AcDbHatch
  3
AutoCAD 2000
 90
        0
280
     0
281
     1
  0
CLASS
  1
XRECORD
  2
AcDbXrecord
  3
AutoCAD 2000
 90
        0
280
     0
281
     0
  0
CLASS
  1
LONG_TRANSACTION
  2
AcDbLongTransaction
  3
AutoCAD 2000
 90
        0
280
     0
281
     0
  0
CLASS
  1
LWPOLYLINE
  2
AcDbPolyline
  3
AutoCAD 2000
 90
        0
280
     0
281
     1
  0
CLASS
  1
HATCH
  2
AcDbHatch
  3
AutoCAD 2000
 90
        0
280
     0
281
     1
  0
CLASS
  1
XRECORD
  2
AcDbXrecord
  3
AutoCAD 2000
 90
        0
280
     0
281
     0
  0
CLASS
  1
LONG_TRANSACTION
  2
AcDbLongTransaction
  3
AutoCAD 2000
 90
        0
280
     0
281
     0
  0
CLASS
  1
LWPOLYLINE
  2
AcDbPolyline
  3
AutoCAD 2000
 90
        0
280
     0
281
     1
  0
CLASS
  1
HATCH
  2
AcDbHatch
  3
AutoCAD 2000
 90
        0
280
     0
281
     1
  0
CLASS
  1
XRECORD
  2
AcDbXrecord
  3
AutoCAD 2000
 90
        0
280
     0
281
     0
  0
ENDSEC
  0
SECTION
  2
TABLES
  0
TABLE
  2
VPORT
  5
8
330
0
100
AcDbSymbolTable
 70
     2
  0
VPORT
  5
223
330
8
100
AcDbSymbolTableRecord
100
AcDbViewportTableRecord
  2
*ACTIVE
 70
     0
 10
0.0
 20
0.0
 11
1.0
 21
1.0
 12
7.57438683853821
 22
16.49859428044742
 13
0.0
 23
0.0
 14
0.5740882589684922
 24
0.5740882589684922
 15
0.5
 25
0.5
 16
0.0
 26
0.0
 36
1.0
 17
0.0
 27
0.0
 37
0.0
 40
57.73345704268272
 41
1.570528967254408
 42
50.0
 43
0.0
 44
0.0
 50
0.0
 51
0.0
 71
     0
 72
   100
 73
     1
 74
     0
 75
     0
 76
     0
 77
     0
 78
     0
  0
ENDTAB
  0
TABLE
  2
LTYPE
  5
5
330
0
100
AcDbSymbolTable
 70
     1
  0
LTYPE
  5
12
330
5
100
AcDbSymbolTableRecord
100
AcDbLinetypeTableRecord
  2
BYBLOCK
 70
     0
  3

 72
    65
 73
     0
 40
0.0
  0
LTYPE
  5
13
330
5
100
AcDbSymbolTableRecord
100
AcDbLinetypeTableRecord
  2
BYLAYER
 70
     0
  3

 72
    65
 73
     0
 40
0.0
  0
LTYPE
  5
14
330
5
100
AcDbSymbolTableRecord
100
AcDbLinetypeTableRecord
  2
CONTINUOUS
 70
     0
  3
Solid line
 72
    65
 73
     0
 40
0.0
  0
ENDTAB
  0
TABLE
  2
LAYER
  5
2
330
0
100
AcDbSymbolTable
 70
     4
  0
LAYER
  5
F
330
2
100
AcDbSymbolTableRecord
100
AcDbLayerTableRecord
  2
0
 70
     0
 62
     7
  6
CONTINUOUS
  0
LAYER
  5
56
330
2
100
AcDbSymbolTableRecord
100
AcDbLayerTableRecord
  2
ADPDIM
 70
     0
 62
     3
  6
CONTINUOUS
  0
LAYER
  5
58
330
2
100
AcDbSymbolTableRecord
100
AcDbLayerTableRecord
  2
ADP1DETAIL
 70
     0
 62
     7
  6
CONTINUOUS
  0
LAYER
  5
5A
330
2
100
AcDbSymbolTableRecord
100
AcDbLayerTableRecord
  2
DEFPOINTS
 70
     0
 62
     7
  6
CONTINUOUS
  0
ENDTAB
  0
TABLE
  2
STYLE
  5
3
330
0
100
AcDbSymbolTable
 70
     2
  0
STYLE
  5
10
330
3
100
AcDbSymbolTableRecord
100
AcDbTextStyleTableRecord
  2
STANDARD
 70
     0
 40
0.0
 41
1.0
 50
0.0
 71
     0
 42
0.2
  3
txt
  4

  0
STYLE
  5
DF
330
3
100
AcDbSymbolTableRecord
100
AcDbTextStyleTableRecord
  2
ARIAL_WIDE
 70
     0
 40
0.0
 41
1.25
 50
0.0
 71
     0
 42
0.2
  3
ARIAL.TTF
  4

1001
ACAD
1000
Arial
1071
       34
  0
ENDTAB
  0
TABLE
  2
VIEW
  5
6
330
0
100
AcDbSymbolTable
 70
     0
  0
ENDTAB
  0
TABLE
  2
UCS
  5
7
330
0
100
AcDbSymbolTable
 70
     0
  0
ENDTAB
  0
TABLE
  2
APPID
  5
9
330
0
100
AcDbSymbolTable
 70
     1
  0
APPID
  5
11
330
9
100
AcDbSymbolTableRecord
100
AcDbRegAppTableRecord
  2
ACAD
 70
     0
  0
ENDTAB
  0
TABLE
  2
DIMSTYLE
  5
A
330
0
100
AcDbSymbolTable
 70
     1
  0
DIMSTYLE
105
D3
330
A
100
AcDbSymbolTableRecord
100
AcDbDimStyleTableRecord
  2
STANDARD
 70
     0
  3

  4

  5

  6

  7

 40
1.0
 41
0.18
 42
0.0625
 43
0.38
 44
0.18
 45
0.0
 46
0.0
 47
0.0
 48
0.0
140
0.18
141
0.09
142
0.0
143
25.4
144
1.0
145
0.0
146
1.0
147
0.09
 71
     0
 72
     0
 73
     1
 74
     1
 75
     0
 76
     0
 77
     0
 78
     0
170
     0
171
     2
172
     0
173
     0
174
     0
175
     0
176
     0
177
     0
178
     0
270
     2
271
     4
272
     4
273
     2
274
     2
340
10
275
     0
280
     0
281
     0
282
     0
283
     1
284
     0
285
     0
286
     0
287
     3
288
     0
  0
ENDTAB
  0
TABLE
  2
BLOCK_RECORD
  5
1
330
0
100
AcDbSymbolTable
 70
     4
  0
BLOCK_RECORD
  5
18
102
{ACAD_XDICTIONARY
360
134
102
}
330
1
100
AcDbSymbolTableRecord
100
AcDbBlockTableRecord
  2
*MODEL_SPACE
  0
BLOCK_RECORD
  5
15
102
{ACAD_XDICTIONARY
360
132
102
}
330
1
100
AcDbSymbolTableRecord
100
AcDbBlockTableRecord
  2
*PAPER_SPACE
  0
BLOCK_RECORD
  5
51
330
1
100
AcDbSymbolTableRecord
100
AcDbBlockTableRecord
  2
*D0
  0
BLOCK_RECORD
  5
52
330
1
100
AcDbSymbolTableRecord
100
AcDbBlockTableRecord
  2
*D1
  0
BLOCK_RECORD
  5
53
330
1
100
AcDbSymbolTableRecord
100
AcDbBlockTableRecord
  2
*D2
  0
BLOCK_RECORD
  5
54
330
1
100
AcDbSymbolTableRecord
100
AcDbBlockTableRecord
  2
*D3
  0
ENDTAB
  0
ENDSEC
  0
SECTION
  2
BLOCKS
  0
BLOCK
  5
5D
330
18
100
AcDbEntity
  8
0
100
AcDbBlockBegin
  2
*MODEL_SPACE
 70
     0
 10
0.0
 20
0.0
 30
0.0
  3
*MODEL_SPACE
  1

  0
ENDBLK
  5
5E
330
18
100
AcDbEntity
  8
0
100
AcDbBlockEnd
  0
BLOCK
  5
5B
330
15
100
AcDbEntity
 67
     1
  8
0
100
AcDbBlockBegin
  2
*PAPER_SPACE
 70
     0
 10
0.0
 20
0.0
 30
0.0
  3
*PAPER_SPACE
  1

  0
ENDBLK
  5
5C
330
15
100
AcDbEntity
 67
     1
  8
0
100
AcDbBlockEnd
  0
BLOCK
  5
60
330
51
100
AcDbEntity
  8
0
100
AcDbBlockBegin
  2
*D0
 70
     1
 10
0.0
 20
0.0
 30
0.0
  3
*D0
  1

  0
LINE
  5
61
330
51
100
AcDbEntity
  8
0
  6
BYBLOCK
 62
     0
100
AcDbLine
 10
8.125828878917733
 20
-8.221698473037704
 30
0.0
 11
8.125828878917733
 21
-6.737579184871093
 31
0.0
  0
LINE
  5
62
330
51
100
AcDbEntity
  8
0
  6
BYBLOCK
 62
     0
100
AcDbLine
 10
6.875828878917734
 20
-8.221698473037704
 30
0.0
 11
6.875828878917734
 21
-6.737579184871093
 31
0.0
  0
LINE
  5
63
330
51
100
AcDbEntity
  8
0
  6
BYBLOCK
 62
     0
100
AcDbLine
 10
8.125828878917733
 20
-6.917579184871093
 30
0.0
 11
8.375828878917733
 21
-6.917579184871093
 31
0.0
  0
LINE
  5
64
330
51
100
AcDbEntity
  8
0
  6
BYBLOCK
 62
     0
100
AcDbLine
 10
6.875828878917734
 20
-6.917579184871093
 30
0.0
 11
6.625828878917734
 21
-6.917579184871093
 31
0.0
  0
LINE
  5
65
330
51
100
AcDbEntity
  8
0
  6
BYBLOCK
 62
     0
100
AcDbLine
 10
8.000828878917733
 20
-7.042579184871093
 30
0.0
 11
8.250828878917733
 21
-6.792579184871093
 31
0.0
  0
LINE
  5
66
330
51
100
AcDbEntity
  8
0
  6
BYBLOCK
 62
     0
100
AcDbLine
 10
6.750828878917734
 20
-7.042579184871093
 30
0.0
 11
7.000828878917734
 21
-6.792579184871093
 31
0.0
  0
TEXT
  5
67
330
51
100
AcDbEntity
  8
0
  6
BYBLOCK
 62
     0
100
AcDbText
 10
6.000828878917734
 20
-6.980079184871093
 30
0.0
 40
0.125
  1
1 1/4
 72
     1
 11
6.250828878917734
 21
-6.917579184871093
 31
0.0
100
AcDbText
 73
     2
  0
POINT
  5
68
330
51
100
AcDbEntity
  8
DEFPOINTS
  6
BYBLOCK
 62
     0
100
AcDbPoint
 10
8.125828878917733
 20
-8.284198473037704
 30
0.0
  0
POINT
  5
69
330
51
100
AcDbEntity
  8
DEFPOINTS
  6
BYBLOCK
 62
     0
100
AcDbPoint
 10
6.875828878917734
 20
-8.284198473037704
 30
0.0
  0
POINT
  5
6A
330
51
100
AcDbEntity
  8
DEFPOINTS
  6
BYBLOCK
 62
     0
100
AcDbPoint
 10
6.875828878917734
 20
-6.917579184871093
 30
0.0
  0
ENDBLK
  5
6B
330
51
100
AcDbEntity
  8
0
100
AcDbBlockEnd
  0
BLOCK
  5
6C
330
52
100
AcDbEntity
  8
0
100
AcDbBlockBegin
  2
*D1
 70
     1
 10
0.0
 20
0.0
 30
0.0
  3
*D1
  1

  0
LINE
  5
6D
330
52
100
AcDbEntity
  8
0
  6
BYBLOCK
 62
     0
100
AcDbLine
 10
7.188328878917734
 20
1.084128178092909
 30
0.0
 11
6.254495980768298
 21
1.084128178092909
 31
0.0
  0
LINE
  5
6E
330
52
100
AcDbEntity
  8
0
  6
BYBLOCK
 62
     0
100
AcDbLine
 10
6.813328878917734
 20
-6.04087182190709
 30
0.0
 11
6.254495980768298
 21
-6.04087182190709
 31
0.0
  0
LINE
  5
6F
330
52
100
AcDbEntity
  8
0
  6
BYBLOCK
 62
     0
100
AcDbLine
 10
6.434495980768297
 20
1.084128178092909
 30
0.0
 11
6.434495980768297
 21
-2.082538488573757
 31
0.0
  0
LINE
  5
70
330
52
100
AcDbEntity
  8
0
  6
BYBLOCK
 62
     0
100
AcDbLine
 10
6.434495980768297
 20
-6.04087182190709
 30
0.0
 11
6.434495980768297
 21
-2.874205155240423
 31
0.0
  0
LINE
  5
71
330
52
100
AcDbEntity
  8
0
  6
BYBLOCK
 62
     0
100
AcDbLine
 10
6.559495980768297
 20
0.9591281780929099
 30
0.0
 11
6.309495980768297
 21
1.209128178092909
 31
0.0
  0
LINE
  5
72
330
52
100
AcDbEntity
  8
0
  6
BYBLOCK
 62
     0
100
AcDbLine
 10
6.559495980768297
 20
-6.16587182190709
 30
0.0
 11
6.309495980768297
 21
-5.91587182190709
 31
0.0
  0
TEXT
  5
73
330
52
100
AcDbEntity
  8
0
  6
BYBLOCK
 62
     0
100
AcDbText
 10
6.496995980768297
 20
-2.749205155240423
 30
0.0
 40
0.125
  1
7 1/8
 50
90.0
 72
     1
 11
6.434495980768297
 21
-2.47837182190709
 31
0.0
100
AcDbText
 73
     2
  0
POINT
  5
74
330
52
100
AcDbEntity
  8
DEFPOINTS
  6
BYBLOCK
 62
     0
100
AcDbPoint
 10
7.250828878917734
 20
1.084128178092909
 30
0.0
  0
POINT
  5
75
330
52
100
AcDbEntity
  8
DEFPOINTS
  6
BYBLOCK
 62
     0
100
AcDbPoint
 10
6.875828878917734
 20
-6.04087182190709
 30
0.0
  0
POINT
  5
76
330
52
100
AcDbEntity
  8
DEFPOINTS
  6
BYBLOCK
 62
     0
100
AcDbPoint
 10
6.434495980768297
 20
-6.04087182190709
 30
0.0
  0
ENDBLK
  5
77
330
52
100
AcDbEntity
  8
0
100
AcDbBlockEnd
  0
BLOCK
  5
78
330
53
100
AcDbEntity
  8
0
100
AcDbBlockBegin
  2
*D2
 70
     1
 10
0.0
 20
0.0
 30
0.0
  3
*D2
  1

  0
LINE
  5
79
330
53
100
AcDbEntity
  8
0
  6
BYBLOCK
 62
     0
100
AcDbLine
 10
8.188328878917733
 20
44.95912817809291
 30
0.0
 11
9.13346506423155
 21
44.95912817809291
 31
0.0
  0
LINE
  5
7A
330
53
100
AcDbEntity
  8
0
  6
BYBLOCK
 62
     0
100
AcDbLine
 10
8.188328878917733
 20
-6.04087182190709
 30
0.0
 11
9.133465064231547
 21
-6.04087182190709
 31
0.0
  0
LINE
  5
7B
330
53
100
AcDbEntity
  8
0
  6
BYBLOCK
 62
     0
100
AcDbLine
 10
8.953465064231551
 20
44.95912817809291
 30
0.0
 11
8.953465064231549
 21
19.66746151142624
 31
0.0
  0
LINE
  5
7C
330
53
100
AcDbEntity
  8
0
  6
BYBLOCK
 62
     0
100
AcDbLine
 10
8.953465064231547
 20
-6.04087182190709
 30
0.0
 11
8.953465064231549
 21
19.25079484475958
 31
0.0
  0
LINE
  5
7D
330
53
100
AcDbEntity
  8
0
  6
BYBLOCK
 62
     0
100
AcDbLine
 10
9.078465064231551
 20
44.8341281780929
 30
0.0
 11
8.828465064231551
 21
45.08412817809291
 31
0.0
  0
LINE
  5
7E
330
53
100
AcDbEntity
  8
0
  6
BYBLOCK
 62
     0
100
AcDbLine
 10
9.078465064231547
 20
-6.16587182190709
 30
0.0
 11
8.828465064231547
 21
-5.91587182190709
 31
0.0
  0
TEXT
  5
7F
330
53
100
AcDbEntity
  8
0
  6
BYBLOCK
 62
     0
100
AcDbText
 10
9.015965064231549
 20
19.37579484475957
 30
0.0
 40
0.125
  1
51
 50
90.0
 72
     1
 11
8.953465064231549
 21
19.45912817809291
 31
0.0
100
AcDbText
 73
     2
  0
POINT
  5
80
330
53
100
AcDbEntity
  8
DEFPOINTS
  6
BYBLOCK
 62
     0
100
AcDbPoint
 10
8.125828878917733
 20
44.95912817809291
 30
0.0
  0
POINT
  5
81
330
53
100
AcDbEntity
  8
DEFPOINTS
  6
BYBLOCK
 62
     0
100
AcDbPoint
 10
8.125828878917733
 20
-6.04087182190709
 30
0.0
  0
POINT
  5
82
330
53
100
AcDbEntity
  8
DEFPOINTS
  6
BYBLOCK
 62
     0
100
AcDbPoint
 10
8.953465064231547
 20
-6.04087182190709
 30
0.0
  0
ENDBLK
  5
83
330
53
100
AcDbEntity
  8
0
100
AcDbBlockEnd
  0
BLOCK
  5
84
330
54
100
AcDbEntity
  8
0
100
AcDbBlockBegin
  2
*D3
 70
     1
 10
0.0
 20
0.0
 30
0.0
  3
*D3
  1

  0
LINE
  5
85
330
54
100
AcDbEntity
  8
0
  6
BYBLOCK
 62
     0
100
AcDbLine
 10
8.088608417591995
 20
-7.159198473037704
 30
0.0
 11
8.608694049759197
 21
-7.159198473037704
 31
0.0
  0
LINE
  5
86
330
54
100
AcDbEntity
  8
0
  6
BYBLOCK
 62
     0
100
AcDbLine
 10
8.088608417591995
 20
-9.409198473037704
 30
0.0
 11
8.608694049759197
 21
-9.409198473037704
 31
0.0
  0
LINE
  5
87
330
54
100
AcDbEntity
  8
0
  6
BYBLOCK
 62
     0
100
AcDbLine
 10
8.428694049759197
 20
-7.159198473037704
 30
0.0
 11
8.428694049759197
 21
-7.888365139704372
 31
0.0
  0
LINE
  5
88
330
54
100
AcDbEntity
  8
0
  6
BYBLOCK
 62
     0
100
AcDbLine
 10
8.428694049759197
 20
-9.409198473037704
 30
0.0
 11
8.428694049759197
 21
-8.680031806371038
 31
0.0
  0
LINE
  5
89
330
54
100
AcDbEntity
  8
0
  6
BYBLOCK
 62
     0
100
AcDbLine
 10
8.553694049759197
 20
-7.284198473037704
 30
0.0
 11
8.303694049759197
 21
-7.034198473037704
 31
0.0
  0
LINE
  5
8A
330
54
100
AcDbEntity
  8
0
  6
BYBLOCK
 62
     0
100
AcDbLine
 10
8.553694049759197
 20
-9.534198473037704
 30
0.0
 11
8.303694049759197
 21
-9.284198473037704
 31
0.0
  0
TEXT
  5
8B
330
54
100
AcDbEntity
  8
0
  6
BYBLOCK
 62
     0
100
AcDbText
 10
8.491194049759197
 20
-8.555031806371038
 30
0.0
 40
0.125
  1
2 1/4
 50
90.0
 72
     1
 11
8.428694049759197
 21
-8.284198473037704
 31
0.0
100
AcDbText
 73
     2
  0
POINT
  5
8C
330
54
100
AcDbEntity
  8
DEFPOINTS
  6
BYBLOCK
 62
     0
100
AcDbPoint
 10
8.026108417591995
 20
-7.159198473037704
 30
0.0
  0
POINT
  5
8D
330
54
100
AcDbEntity
  8
DEFPOINTS
  6
BYBLOCK
 62
     0
100
AcDbPoint
 10
8.026108417591995
 20
-9.409198473037704
 30
0.0
  0
POINT
  5
8E
330
54
100
AcDbEntity
  8
DEFPOINTS
  6
BYBLOCK
 62
     0
100
AcDbPoint
 10
8.428694049759197
 20
-9.409198473037704
 30
0.0
  0
ENDBLK
  5
8F
330
54
100
AcDbEntity
  8
0
100
AcDbBlockEnd
  0
ENDSEC
  0
SECTION
  2
ENTITIES
  0
LINE
  5
90
330
18
100
AcDbEntity
  8
ADP1DETAIL
100
AcDbLine
 10
8.047708267092932
 20
44.95912817809291
 30
0.0
 11
8.047708267092932
 21
-6.04087182190709
 31
0.0
  0
LINE
  5
91
330
18
100
AcDbEntity
  8
ADP1DETAIL
100
AcDbLine
 10
8.125828878917733
 20
44.95912817809291
 30
0.0
 11
8.125828878917733
 21
-6.04087182190709
 31
0.0
  0
DIMENSION
  5
92
330
18
100
AcDbEntity
  8
ADPDIM
100
AcDbDimension
  2
*D2
 10
8.953465064231547
 20
-6.04087182190709
 30
0.0
 11
8.953465064231549
 21
19.45912817809291
 31
0.0
100
AcDbAlignedDimension
 13
8.125828878917733
 23
44.95912817809291
 33
0.0
 14
8.125828878917733
 24
-6.04087182190709
 34
0.0
 50
90.0
100
AcDbRotatedDimension
  0
LINE
  5
93
330
18
100
AcDbEntity
  8
ADP1DETAIL
100
AcDbLine
 10
6.946057367249321
 20
44.95912817809291
 30
0.0
 11
6.946057367249321
 21
-6.04087182190709
 31
0.0
  0
LINE
  5
94
330
18
100
AcDbEntity
  8
ADP1DETAIL
100
AcDbLine
 10
6.875828878917734
 20
-6.04087182190709
 30
0.0
 11
6.875828878917734
 21
44.95912817809291
 31
0.0
  0
DIMENSION
  5
95
330
18
100
AcDbEntity
  8
ADPDIM
100
AcDbDimension
  2
*D1
 10
6.434495980768297
 20
-6.04087182190709
 30
0.0
 11
6.434495980768297
 21
-2.47837182190709
 31
0.0
100
AcDbAlignedDimension
 13
7.250828878917734
 23
1.084128178092909
 33
0.0
 14
6.875828878917734
 24
-6.04087182190709
 34
0.0
 50
90.0
100
AcDbRotatedDimension
  0
DIMENSION
  5
96
330
18
100
AcDbEntity
  8
ADPDIM
100
AcDbDimension
  2
*D0
 10
6.875828878917734
 20
-6.917579184871093
 30
0.0
 11
6.250828878917734
 21
-6.917579184871093
 31
0.0
100
AcDbAlignedDimension
 13
8.125828878917733
 23
-8.284198473037704
 33
0.0
 14
6.875828878917734
 24
-8.284198473037704
 34
0.0
100
AcDbRotatedDimension
  0
LINE
  5
97
330
18
100
AcDbEntity
  8
ADP1DETAIL
100
AcDbLine
 10
7.750828878917734
 20
1.084128178092909
 30
0.0
 11
7.750828878917734
 21
-6.04087182190709
 31
0.0
  0
LINE
  5
98
330
18
100
AcDbEntity
  8
ADP1DETAIL
100
AcDbLine
 10
7.250828878917734
 20
-6.04087182190709
 30
0.0
 11
7.250828878917734
 21
1.084128178092909
 31
0.0
  0
ARC
  5
99
330
18
100
AcDbEntity
  8
ADP1DETAIL
100
AcDbCircle
 10
-0.5378341794978346
 20
-8.284198473037704
 30
0.0
 40
8.538663058415568
100
AcDbArc
 50
354.0085724720821
 51
358.1812417149113
  0
ARC
  5
9A
330
18
100
AcDbEntity
  8
ADP1DETAIL
100
AcDbCircle
 10
7.646688642556086
 20
-8.715198473037705
 30
0.0
 40
0.045
100
AcDbArc
 50
270.0
 51
0.000000000000007
  0
ARC
  5
9B
330
18
100
AcDbEntity
  8
ADP1DETAIL
100
AcDbCircle
 10
7.359008117424747
 20
-8.715198473037705
 30
0.0
 40
0.045
100
AcDbArc
 50
180.0
 51
270.0
  0
ARC
  5
9C
330
18
100
AcDbEntity
  8
ADP1DETAIL
100
AcDbCircle
 10
15.37582887891773
 20
-8.284198473037704
 30
0.0
 40
8.375
100
AcDbArc
 50
181.8543124959101
 51
186.1098006652288
  0
ARC
  5
9D
330
18
100
AcDbEntity
  8
ADP1DETAIL
100
AcDbCircle
 10
-0.5378341794978346
 20
-8.284198473037704
 30
0.0
 40
8.663663058415568
100
AcDbArc
 50
352.713601805407
 51
7.286398194592938
  0
ARC
  5
9E
330
18
100
AcDbEntity
  8
ADP1DETAIL
100
AcDbCircle
 10
15.37582887891773
 20
-8.284198473037704
 30
0.0
 40
8.5
100
AcDbArc
 50
172.5720226519545
 51
187.4279773480453
  0
DIMENSION
  5
9F
330
18
100
AcDbEntity
  8
ADPDIM
100
AcDbDimension
  2
*D3
 10
8.428694049759197
 20
-9.409198473037704
 30
0.0
 11
8.428694049759197
 21
-8.284198473037704
 31
0.0
100
AcDbAlignedDimension
 13
8.026108417591995
 23
-7.159198473037704
 33
0.0
 14
8.026108417591995
 24
-9.409198473037704
 34
0.0
 50
90.0
100
AcDbRotatedDimension
  0
LINE
  5
A0
330
18
100
AcDbEntity
  8
ADP1DETAIL
100
AcDbLine
 10
8.026108417591995
 20
-9.409198473037704
 30
0.0
 11
6.976907817257495
 21
-9.409198473037704
 31
0.0
  0
ARC
  5
A1
330
18
100
AcDbEntity
  8
ADP1DETAIL
100
AcDbCircle
 10
7.108060135175567
 20
-9.169198473037704
 30
0.0
 40
0.06
100
AcDbArc
 50
186.1098006652273
 51
270.0
  0
ARC
  5
A2
330
18
100
AcDbEntity
  8
ADP1DETAIL
100
AcDbCircle
 10
6.976907817257495
 20
-9.379198473037705
 30
0.0
 40
0.03
100
AcDbArc
 50
187.4279773480412
 51
270.0
  0
ARC
  5
A3
330
18
100
AcDbEntity
  8
ADP1DETAIL
100
AcDbCircle
 10
7.363008117424745
 20
-8.805198473037703
 30
0.0
 40
0.045
100
AcDbArc
 50
0.0
 51
90.0
  0
LINE
  5
A4
330
18
100
AcDbEntity
  8
ADP1DETAIL
100
AcDbLine
 10
7.363008117424745
 20
-8.760198473037704
 30
0.0
 11
7.359008117424747
 21
-8.760198473037704
 31
0.0
  0
ARC
  5
A5
330
18
100
AcDbEntity
  8
ADP1DETAIL
100
AcDbCircle
 10
7.352508117424748
 20
-9.173698473037704
 30
0.0
 40
0.0554999999999999
100
AcDbArc
 50
269.9999999999998
 51
0.0
  0
LINE
  5
A6
330
18
100
AcDbEntity
  8
ADP1DETAIL
100
AcDbLine
 10
7.408008117424746
 20
-9.173698473037704
 30
0.0
 11
7.408008117424746
 21
-8.805198473037703
 31
0.0
  0
LINE
  5
A7
330
18
100
AcDbEntity
  8
ADP1DETAIL
100
AcDbLine
 10
7.352508117424748
 20
-9.229198473037705
 30
0.0
 11
7.108060135175567
 21
-9.229198473037705
 31
0.0
  0
LINE
  5
A8
330
18
100
AcDbEntity
  8
ADP1DETAIL
100
AcDbLine
 10
7.89451438173591
 20
-9.229198473037705
 30
0.0
 11
7.653188642556085
 21
-9.229198473037705
 31
0.0
  0
LINE
  5
A9
330
18
100
AcDbEntity
  8
ADP1DETAIL
100
AcDbLine
 10
7.642688642556088
 20
-8.760198473037704
 30
0.0
 11
7.646688642556086
 21
-8.760198473037704
 31
0.0
  0
ARC
  5
AA
330
18
100
AcDbEntity
  8
ADP1DETAIL
100
AcDbCircle
 10
7.642688642556088
 20
-8.805198473037703
 30
0.0
 40
0.045
100
AcDbArc
 50
90.0
 51
180.0
  0
ARC
  5
AB
330
18
100
AcDbEntity
  8
ADP1DETAIL
100
AcDbCircle
 10
7.653188642556085
 20
-9.173698473037704
 30
0.0
 40
0.0554999999999999
100
AcDbArc
 50
180.0
 51
270.0
  0
LINE
  5
AC
330
18
100
AcDbEntity
  8
ADP1DETAIL
100
AcDbLine
 10
7.597688642556087
 20
-9.173698473037704
 30
0.0
 11
7.597688642556087
 21
-8.805198473037703
 31
0.0
  0
ARC
  5
AD
330
18
100
AcDbEntity
  8
ADP1DETAIL
100
AcDbCircle
 10
7.89451438173591
 20
-9.169198473037704
 30
0.0
 40
0.06
100
AcDbArc
 50
270.0
 51
354.0085724720765
  0
ARC
  5
AE
330
18
100
AcDbEntity
  8
ADP1DETAIL
100
AcDbCircle
 10
8.026108417591995
 20
-9.379198473037705
 30
0.0
 40
0.03
100
AcDbArc
 50
270.0
 51
352.7136018053963
  0
LINE
  5
AF
330
18
100
AcDbEntity
  8
ADP1DETAIL
100
AcDbLine
 10
7.359008117424747
 20
-8.604198473037705
 30
0.0
 11
7.646688642556086
 21
-8.604198473037705
 31
0.0
  0
LINE
  5
B0
330
18
100
AcDbEntity
  8
ADP1DETAIL
100
AcDbLine
 10
7.884008117424746
 20
-7.339198473037704
 30
0.0
 11
7.119008117424745
 21
-7.339198473037704
 31
0.0
  0
LINE
  5
B1
330
18
100
AcDbEntity
  8
ADP1DETAIL
100
AcDbLine
 10
6.976907817257495
 20
-7.159198473037704
 30
0.0
 11
8.026108417591995
 21
-7.159198473037704
 31
0.0
  0
LINE
  5
B2
330
18
100
AcDbEntity
  8
ADP1DETAIL
100
AcDbLine
 10
7.251508117424745
 20
-7.476198473037704
 30
0.0
 11
7.251508117424745
 21
-7.576198473037704
 31
0.0
  0
LINE
  5
B3
330
18
100
AcDbEntity
  8
ADP1DETAIL
100
AcDbLine
 10
7.251508117424745
 20
-7.576198473037704
 30
0.0
 11
7.058416961740609
 21
-7.576198473037704
 31
0.0
  0
LINE
  5
B4
330
18
100
AcDbEntity
  8
ADP1DETAIL
100
AcDbLine
 10
7.119008117424749
 20
-8.555198473037705
 30
0.0
 11
7.005214564543909
 21
-8.555198473037705
 31
0.0
  0
LINE
  5
B5
330
18
100
AcDbEntity
  8
ADP1DETAIL
100
AcDbLine
 10
7.251508117424749
 20
-8.367198473037703
 30
0.0
 11
7.030997184988849
 21
-8.367198473037703
 31
0.0
  0
ARC
  5
B6
330
18
100
AcDbEntity
  8
ADP1DETAIL
100
AcDbCircle
 10
7.058416961740609
 20
-7.606198473037705
 30
0.0
 40
0.03
100
AcDbArc
 50
90.0
 51
175.3397958863762
  0
ARC
  5
B7
330
18
100
AcDbEntity
  8
ADP1DETAIL
100
AcDbCircle
 10
7.030997184988849
 20
-8.337198473037705
 30
0.0
 40
0.03
100
AcDbArc
 50
180.3638941557134
 51
270.0
  0
ARC
  5
B8
330
18
100
AcDbEntity
  8
ADP1DETAIL
100
AcDbCircle
 10
15.37582887891773
 20
-8.284198473037704
 30
0.0
 40
8.375
100
AcDbArc
 50
175.3397958863806
 51
180.3638941557123
  0
LINE
  5
B9
330
18
100
AcDbEntity
  8
ADP1DETAIL
100
AcDbLine
 10
7.314008117424745
 20
-8.715198473037705
 30
0.0
 11
7.314008117424745
 21
-8.649198473037705
 31
0.0
  0
ARC
  5
BA
330
18
100
AcDbEntity
  8
ADP1DETAIL
100
AcDbCircle
 10
7.359008117424747
 20
-8.649198473037705
 30
0.0
 40
0.045
100
AcDbArc
 50
90.0
 51
180.0
  0
LINE
  5
BB
330
18
100
AcDbEntity
  8
ADP1DETAIL
100
AcDbLine
 10
7.251508117424749
 20
-8.367198473037703
 30
0.0
 11
7.251508117424749
 21
-8.467198473037704
 31
0.0
  0
LINE
  5
BC
330
18
100
AcDbEntity
  8
ADP1DETAIL
100
AcDbLine
 10
7.119008117424749
 20
-8.467198473037704
 30
0.0
 11
7.119008117424749
 21
-8.555198473037705
 31
0.0
  0
LINE
  5
BD
330
18
100
AcDbEntity
  8
ADP1DETAIL
100
AcDbLine
 10
7.251508117424749
 20
-8.467198473037704
 30
0.0
 11
7.119008117424749
 21
-8.467198473037704
 31
0.0
  0
ARC
  5
BE
330
18
100
AcDbEntity
  8
ADP1DETAIL
100
AcDbCircle
 10
6.976907817257495
 20
-7.189198473037705
 30
0.0
 40
0.03
100
AcDbArc
 50
90.0
 51
172.5720226519494
  0
LINE
  5
BF
330
18
100
AcDbEntity
  8
ADP1DETAIL
100
AcDbLine
 10
7.119008117424745
 20
-7.339198473037704
 30
0.0
 11
7.119008117424745
 21
-7.476198473037704
 31
0.0
  0
LINE
  5
C0
330
18
100
AcDbEntity
  8
ADP1DETAIL
100
AcDbLine
 10
7.119008117424745
 20
-7.476198473037704
 30
0.0
 11
7.251508117424745
 21
-7.476198473037704
 31
0.0
  0
LINE
  5
C1
330
18
100
AcDbEntity
  8
ADP1DETAIL
100
AcDbLine
 10
7.751508117424742
 20
-7.476198473037704
 30
0.0
 11
7.751508117424742
 21
-7.576198473037704
 31
0.0
  0
LINE
  5
C2
330
18
100
AcDbEntity
  8
ADP1DETAIL
100
AcDbLine
 10
7.751508117424742
 20
-7.576198473037704
 30
0.0
 11
7.943773158834081
 21
-7.576198473037704
 31
0.0
  0
LINE
  5
C3
330
18
100
AcDbEntity
  8
ADP1DETAIL
100
AcDbLine
 10
7.751508117424742
 20
-8.467198473037704
 30
0.0
 11
7.884008117424742
 21
-8.467198473037704
 31
0.0
  0
LINE
  5
C4
330
18
100
AcDbEntity
  8
ADP1DETAIL
100
AcDbLine
 10
7.751508117424742
 20
-8.367198473037703
 30
0.0
 11
7.970663810256046
 21
-8.367198473037703
 31
0.0
  0
LINE
  5
C5
330
18
100
AcDbEntity
  8
ADP1DETAIL
100
AcDbLine
 10
7.691688642556088
 20
-8.715198473037705
 30
0.0
 11
7.691688642556088
 21
-8.649198473037705
 31
0.0
  0
LINE
  5
C6
330
18
100
AcDbEntity
  8
ADP1DETAIL
100
AcDbLine
 10
7.751508117424742
 20
-8.367198473037703
 30
0.0
 11
7.751508117424742
 21
-8.467198473037704
 31
0.0
  0
ARC
  5
C7
330
18
100
AcDbEntity
  8
ADP1DETAIL
100
AcDbCircle
 10
7.646688642556086
 20
-8.649198473037705
 30
0.0
 40
0.045
100
AcDbArc
 50
0.000000000000007
 51
90.0
  0
ARC
  5
C8
330
18
100
AcDbEntity
  8
ADP1DETAIL
100
AcDbCircle
 10
7.943773158834081
 20
-7.606198473037705
 30
0.0
 40
0.03
100
AcDbArc
 50
4.570373187075918
 51
90.0
  0
ARC
  5
C9
330
18
100
AcDbEntity
  8
ADP1DETAIL
100
AcDbCircle
 10
7.970663810256046
 20
-8.337198473037705
 30
0.0
 40
0.03
100
AcDbArc
 50
270.0
 51
359.6431053937851
  0
LINE
  5
CA
330
18
100
AcDbEntity
  8
ADP1DETAIL
100
AcDbLine
 10
7.884008117424742
 20
-8.467198473037704
 30
0.0
 11
7.884008117424742
 21
-8.555198473037705
 31
0.0
  0
LINE
  5
CB
330
18
100
AcDbEntity
  8
ADP1DETAIL
100
AcDbLine
 10
7.884008117424742
 20
-8.555198473037705
 30
0.0
 11
7.996527297797975
 21
-8.555198473037705
 31
0.0
  0
ARC
  5
CC
330
18
100
AcDbEntity
  8
ADP1DETAIL
100
AcDbCircle
 10
-0.5378341794978346
 20
-8.284198473037704
 30
0.0
 40
8.538663058415568
100
AcDbArc
 50
359.6431053937919
 51
4.570373187075802
  0
LINE
  5
CD
330
18
100
AcDbEntity
  8
ADP1DETAIL
100
AcDbLine
 10
7.884008117424742
 20
-7.476198473037704
 30
0.0
 11
7.751508117424742
 21
-7.476198473037704
 31
0.0
  0
ARC
  5
CE
330
18
100
AcDbEntity
  8
ADP1DETAIL
100
AcDbCircle
 10
8.026108417591995
 20
-7.189198473037705
 30
0.0
 40
0.03
100
AcDbArc
 50
7.286398194593135
 51
90.0
  0
LINE
  5
CF
330
18
100
AcDbEntity
  8
ADP1DETAIL
100
AcDbLine
 10
7.884008117424742
 20
-7.339198473037704
 30
0.0
 11
7.884008117424742
 21
-7.476198473037704
 31
0.0
  0
LINE
  5
D0
330
18
100
AcDbEntity
  8
ADP1DETAIL
100
AcDbLine
 10
8.125828878917733
 20
-6.04087182190709
 30
0.0
 11
6.875828878917734
 21
-6.04087182190709
 31
0.0
  0
LINE
  5
D1
330
18
100
AcDbEntity
  8
ADP1DETAIL
100
AcDbLine
 10
7.750828878917734
 20
1.084128178092909
 30
0.0
 11
7.250828878917734
 21
1.084128178092909
 31
0.0
  0
LINE
  5
D2
330
18
100
AcDbEntity
  8
ADP1DETAIL
100
AcDbLine
 10
6.875828878917734
 20
44.95912817809291
 30
0.0
 11
8.125828878917733
 21
44.95912817809291
 31
0.0
  0
TEXT
  5
E0
330
18
100
AcDbEntity
  8
ADPDIM
100
AcDbText
 10
-37.54144464519463
 20
-11.82714326565391
 30
0.0
 40
0.875
  1
J U L I U S  B L U M  &  C O . ,  I N C .      ( 8 0 0 )  5 2 6 - 6 2 9 3        W W W . J U L I U S B L U M . C O M        P A R T  N o .  4 5 9
 41
1.25
  7
ARIAL_WIDE
 72
     1
 11
7.501508117424744
 21
-10.95214326565391
 31
0.0
100
AcDbText
 73
     3
  0
ENDSEC
  0
SECTION
  2
OBJECTS
  0
DICTIONARY
  5
C
330
0
100
AcDbDictionary
  3
ACAD_GROUP
350
D
  3
ACAD_LAYOUT
350
D9
  3
ACAD_MLINESTYLE
350
E
  3
ACAD_PLOTSETTINGS
350
DA
  3
ACAD_PLOTSTYLENAME
350
D7
  3
ACDBHEADERROUNDTRIPXREC
350
224
  3
ACDBVARIABLEDICTIONARY
350
13A
  0
DICTIONARY
  5
134
330
18
100
AcDbDictionary
280
     1
  3
ACAD_LAYOUTSELFREF
360
245
  0
DICTIONARY
  5
132
330
15
100
AcDbDictionary
280
     1
  3
ACAD_LAYOUTSELFREF
360
244
  0
DICTIONARY
  5
D
102
{ACAD_REACTORS
330
C
102
}
330
C
100
AcDbDictionary
  0
DICTIONARY
  5
D9
102
{ACAD_REACTORS
330
C
102
}
330
C
100
AcDbDictionary
  0
DICTIONARY
  5
E
102
{ACAD_REACTORS
330
C
102
}
330
C
100
AcDbDictionary
  3
STANDARD
350
1B
  0
DICTIONARY
  5
DA
102
{ACAD_REACTORS
330
C
102
}
330
C
100
AcDbDictionary
  0
ACDBDICTIONARYWDFLT
  5
D7
102
{ACAD_REACTORS
330
C
102
}
330
C
100
AcDbDictionary
281
     1
  3
Normal
350
D8
100
AcDbDictionaryWithDefault
340
D8
  0
DICTIONARY
  5
224
102
{ACAD_REACTORS
330
C
102
}
330
C
100
AcDbDictionary
  3
CEPSNTYPE
350
22E
  3
FINGERPRINTGUID
350
22F
  3
HYPERLINKBASE
350
227
  3
INSUNITS
350
22D
  3
LAYOUTDICT
350
229
  3
LWETCUNION
350
22C
  3
PLOTSETDICT
350
22A
  3
PLOTSTYLNAMDICT
350
22B
  3
PSVPSCALE
350
231
  3
PUCSBASE
350
234
  3
PUCSORGBACK
350
23A
  3
PUCSORGBOTTOM
350
236
  3
PUCSORGFRONT
350
239
  3
PUCSORGLEFT
350
237
  3
PUCSORGRIGHT
350
238
  3
PUCSORGTOP
350
235
  3
PUCSORTHOREF
350
232
  3
PUCSORTHOVIEW
350
233
  3
STYLESHEET
350
228
  3
TSTACKALIGN
350
225
  3
TSTACKSIZE
350
226
  3
UCSBASE
350
23D
  3
UCSORGBACK
350
243
  3
UCSORGBOTTOM
350
23F
  3
UCSORGFRONT
350
242
  3
UCSORGLEFT
350
240
  3
UCSORGRIGHT
350
241
  3
UCSORGTOP
350
23E
  3
UCSORTHOREF
350
23B
  3
UCSORTHOVIEW
350
23C
  3
VERSIONGUID
350
230
  0
DICTIONARY
  5
13A
102
{ACAD_REACTORS
330
C
102
}
330
C
100
AcDbDictionary
  3
DIMASSOC
350
13B
  0
XRECORD
  5
245
102
{ACAD_REACTORS
330
134
102
}
330
134
100
AcDbXrecord
340
18
  0
XRECORD
  5
244
102
{ACAD_REACTORS
330
132
102
}
330
132
100
AcDbXrecord
340
15
  0
MLINESTYLE
  5
1B
102
{ACAD_REACTORS
330
E
102
}
330
E
100
AcDbMlineStyle
  2
STANDARD
 70
     0
  3

 62
     0
 51
90.0
 52
90.0
 71
     2
 49
0.5
 62
   256
  6
BYLAYER
 49
-0.5
 62
   256
  6
BYLAYER
  0
ACDBPLACEHOLDER
  5
D8
102
{ACAD_REACTORS
330
D7
102
}
330
D7
100
AcDbPlaceHolder
280
     0
  0
XRECORD
  5
22E
102
{ACAD_REACTORS
330
224
102
}
330
224
100
AcDbXrecord
 90
        0
  0
XRECORD
  5
22F
102
{ACAD_REACTORS
330
224
102
}
330
224
100
AcDbXrecord
  1
{09C32AD6-5E99-41EB-8F9C-4E968470D3E0}
  0
XRECORD
  5
227
102
{ACAD_REACTORS
330
224
102
}
330
224
100
AcDbXrecord
  1

  0
XRECORD
  5
22D
102
{ACAD_REACTORS
330
224
102
}
330
224
100
AcDbXrecord
 90
        0
  0
XRECORD
  5
229
102
{ACAD_REACTORS
330
224
102
}
330
224
100
AcDbXrecord
340
D9
  0
XRECORD
  5
22C
102
{ACAD_REACTORS
330
224
102
}
330
224
100
AcDbXrecord
 90
    14877
  0
XRECORD
  5
22A
102
{ACAD_REACTORS
330
224
102
}
330
224
100
AcDbXrecord
340
DA
  0
XRECORD
  5
22B
102
{ACAD_REACTORS
330
224
102
}
330
224
100
AcDbXrecord
340
D7
  0
XRECORD
  5
231
102
{ACAD_REACTORS
330
224
102
}
330
224
100
AcDbXrecord
 40
0.0
  0
XRECORD
  5
234
102
{ACAD_REACTORS
330
224
102
}
330
224
100
AcDbXrecord
340
0
  0
XRECORD
  5
23A
102
{ACAD_REACTORS
330
224
102
}
330
224
100
AcDbXrecord
 10
0.0
 20
0.0
 30
0.0
  0
XRECORD
  5
236
102
{ACAD_REACTORS
330
224
102
}
330
224
100
AcDbXrecord
 10
0.0
 20
0.0
 30
0.0
  0
XRECORD
  5
239
102
{ACAD_REACTORS
330
224
102
}
330
224
100
AcDbXrecord
 10
0.0
 20
0.0
 30
0.0
  0
XRECORD
  5
237
102
{ACAD_REACTORS
330
224
102
}
330
224
100
AcDbXrecord
 10
0.0
 20
0.0
 30
0.0
  0
XRECORD
  5
238
102
{ACAD_REACTORS
330
224
102
}
330
224
100
AcDbXrecord
 10
0.0
 20
0.0
 30
0.0
  0
XRECORD
  5
235
102
{ACAD_REACTORS
330
224
102
}
330
224
100
AcDbXrecord
 10
0.0
 20
0.0
 30
0.0
  0
XRECORD
  5
232
102
{ACAD_REACTORS
330
224
102
}
330
224
100
AcDbXrecord
340
0
  0
XRECORD
  5
233
102
{ACAD_REACTORS
330
224
102
}
330
224
100
AcDbXrecord
 70
     0
  0
XRECORD
  5
228
102
{ACAD_REACTORS
330
224
102
}
330
224
100
AcDbXrecord
  1

  0
XRECORD
  5
225
102
{ACAD_REACTORS
330
224
102
}
330
224
100
AcDbXrecord
 90
        1
  0
XRECORD
  5
226
102
{ACAD_REACTORS
330
224
102
}
330
224
100
AcDbXrecord
 90
       70
  0
XRECORD
  5
23D
102
{ACAD_REACTORS
330
224
102
}
330
224
100
AcDbXrecord
340
0
  0
XRECORD
  5
243
102
{ACAD_REACTORS
330
224
102
}
330
224
100
AcDbXrecord
 10
0.0
 20
0.0
 30
0.0
  0
XRECORD
  5
23F
102
{ACAD_REACTORS
330
224
102
}
330
224
100
AcDbXrecord
 10
0.0
 20
0.0
 30
0.0
  0
XRECORD
  5
242
102
{ACAD_REACTORS
330
224
102
}
330
224
100
AcDbXrecord
 10
0.0
 20
0.0
 30
0.0
  0
XRECORD
  5
240
102
{ACAD_REACTORS
330
224
102
}
330
224
100
AcDbXrecord
 10
0.0
 20
0.0
 30
0.0
  0
XRECORD
  5
241
102
{ACAD_REACTORS
330
224
102
}
330
224
100
AcDbXrecord
 10
0.0
 20
0.0
 30
0.0
  0
XRECORD
  5
23E
102
{ACAD_REACTORS
330
224
102
}
330
224
100
AcDbXrecord
 10
0.0
 20
0.0
 30
0.0
  0
XRECORD
  5
23B
102
{ACAD_REACTORS
330
224
102
}
330
224
100
AcDbXrecord
340
0
  0
XRECORD
  5
23C
102
{ACAD_REACTORS
330
224
102
}
330
224
100
AcDbXrecord
 70
     0
  0
XRECORD
  5
230
102
{ACAD_REACTORS
330
224
102
}
330
224
100
AcDbXrecord
  1
{86F0FE9F-41BD-42B0-BD26-162ACD37B386}
  0
DICTIONARYVAR
  5
13B
102
{ACAD_REACTORS
330
13A
102
}
330
13A
100
DictionaryVariables
280
     0
  1
1
  0
ENDSEC
  0
EOF
