  0
SECTION
  2
HEADER
  9
$ACADVER
  1
AC1014
  9
$ACADMAINTVER
 70
     9
  9
$DWGCODEPAGE
  3
ANSI_1252
  9
$INSBASE
 10
4.786747550222049
 20
0.0750765323002907
 30
0.0
  9
$EXTMIN
 10
-39.56870521239733
 20
-5.482324716252633
 30
0.0
  9
$EXTMAX
 10
50.51720031284142
 20
51.2000765323003
 30
0.0
  9
$LIMMIN
 10
0.0
 20
0.0
  9
$LIMMAX
 10
36.0
 20
36.0
  9
$ORTHOMODE
 70
     1
  9
$REGENMODE
 70
     1
  9
$FILLMODE
 70
     1
  9
$QTEXTMODE
 70
     0
  9
$MIRRTEXT
 70
     1
  9
$DRAGMODE
 70
     0
  9
$LTSCALE
 40
1.0
  9
$OSMODE
 70
    37
  9
$ATTMODE
 70
     1
  9
$TEXTSIZE
 40
0.2
  9
$TRACEWID
 40
0.05
  9
$TEXTSTYLE
  7
STANDARD
  9
$CLAYER
  8
ADPDIM
  9
$CELTYPE
  6
BYLAYER
  9
$CECOLOR
 62
   256
  9
$CELTSCALE
 40
1.0
  9
$DELOBJ
 70
     1
  9
$DISPSILH
 70
     0
  9
$DIMSCALE
 40
1.0
  9
$DIMASZ
 40
0.125
  9
$DIMEXO
 40
0.0625
  9
$DIMDLI
 40
0.38
  9
$DIMRND
 40
0.0
  9
$DIMDLE
 40
0.0
  9
$DIMEXE
 40
0.18
  9
$DIMTP
 40
0.0
  9
$DIMTM
 40
0.0
  9
$DIMTXT
 40
0.125
  9
$DIMCEN
 40
0.1875
  9
$DIMTSZ
 40
0.125
  9
$DIMTOL
 70
     0
  9
$DIMLIM
 70
     0
  9
$DIMTIH
 70
     0
  9
$DIMTOH
 70
     0
  9
$DIMSE1
 70
     0
  9
$DIMSE2
 70
     0
  9
$DIMTAD
 70
     0
  9
$DIMZIN
 70
     3
  9
$DIMBLK
  1

  9
$DIMASO
 70
     1
  9
$DIMSHO
 70
     1
  9
$DIMPOST
  1

  9
$DIMAPOST
  1

  9
$DIMALT
 70
     0
  9
$DIMALTD
 70
     1
  9
$DIMALTF
 40
25.4
  9
$DIMLFAC
 40
1.0
  9
$DIMTOFL
 70
     0
  9
$DIMTVP
 40
0.0
  9
$DIMTIX
 70
     0
  9
$DIMSOXD
 70
     0
  9
$DIMSAH
 70
     0
  9
$DIMBLK1
  1

  9
$DIMBLK2
  1

  9
$DIMSTYLE
  2
STANDARD
  9
$DIMCLRD
 70
     0
  9
$DIMCLRE
 70
     0
  9
$DIMCLRT
 70
     0
  9
$DIMTFAC
 40
1.0
  9
$DIMGAP
 40
0.125
  9
$DIMJUST
 70
     0
  9
$DIMSD1
 70
     0
  9
$DIMSD2
 70
     0
  9
$DIMTOLJ
 70
     1
  9
$DIMTZIN
 70
     0
  9
$DIMALTZ
 70
     0
  9
$DIMALTTZ
 70
     0
  9
$DIMFIT
 70
     3
  9
$DIMUPT
 70
     0
  9
$DIMUNIT
 70
     2
  9
$DIMDEC
 70
     4
  9
$DIMTDEC
 70
     4
  9
$DIMALTU
 70
     2
  9
$DIMALTTD
 70
     2
  9
$DIMTXSTY
  7
STANDARD
  9
$DIMAUNIT
 70
     0
  9
$LUNITS
 70
     5
  9
$LUPREC
 70
     5
  9
$SKETCHINC
 40
0.1
  9
$FILLETRAD
 40
0.062
  9
$AUNITS
 70
     0
  9
$AUPREC
 70
     0
  9
$MENU
  1
acad
  9
$ELEVATION
 40
0.0
  9
$PELEVATION
 40
0.0
  9
$THICKNESS
 40
0.0
  9
$LIMCHECK
 70
     0
  9
$BLIPMODE
 70
     0
  9
$CHAMFERA
 40
0.0
  9
$CHAMFERB
 40
0.0
  9
$CHAMFERC
 40
0.0
  9
$CHAMFERD
 40
0.0
  9
$SKPOLY
 70
     0
  9
$TDCREATE
 40
2450217.565123842
  9
$TDUPDATE
 40
2452297.071100254
  9
$TDINDWG
 40
0.0238975579
  9
$TDUSRTIMER
 40
0.0238975579
  9
$USRTIMER
 70
     1
  9
$ANGBASE
 50
0.0
  9
$ANGDIR
 70
     0
  9
$PDMODE
 70
     0
  9
$PDSIZE
 40
0.0
  9
$PLINEWID
 40
0.0
  9
$COORDS
 70
     2
  9
$SPLFRAME
 70
     0
  9
$SPLINETYPE
 70
     6
  9
$SPLINESEGS
 70
     8
  9
$ATTDIA
 70
     0
  9
$ATTREQ
 70
     1
  9
$HANDLING
 70
 22529
  9
$HANDSEED
  5
244
  9
$SURFTAB1
 70
     6
  9
$SURFTAB2
 70
     6
  9
$SURFTYPE
 70
     6
  9
$SURFU
 70
     6
  9
$SURFV
 70
     6
  9
$UCSNAME
  2

  9
$UCSORG
 10
0.0
 20
0.0
 30
0.0
  9
$UCSXDIR
 10
1.0
 20
0.0
 30
0.0
  9
$UCSYDIR
 10
0.0
 20
1.0
 30
0.0
  9
$PUCSNAME
  2

  9
$PUCSORG
 10
0.0
 20
0.0
 30
0.0
  9
$PUCSXDIR
 10
1.0
 20
0.0
 30
0.0
  9
$PUCSYDIR
 10
0.0
 20
1.0
 30
0.0
  9
$USERI1
 70
     0
  9
$USERI2
 70
     0
  9
$USERI3
 70
     0
  9
$USERI4
 70
     0
  9
$USERI5
 70
     0
  9
$USERR1
 40
0.0
  9
$USERR2
 40
0.0
  9
$USERR3
 40
0.0
  9
$USERR4
 40
0.0
  9
$USERR5
 40
0.0
  9
$WORLDVIEW
 70
     1
  9
$SHADEDGE
 70
     3
  9
$SHADEDIF
 70
    70
  9
$TILEMODE
 70
     1
  9
$MAXACTVP
 70
    15
  9
$PINSBASE
 10
0.0008545056916773
 20
1.250276130627782
 30
0.0
  9
$PLIMCHECK
 70
     0
  9
$PEXTMIN
 10
1.000000000000000E+20
 20
1.000000000000000E+20
 30
1.000000000000000E+20
  9
$PEXTMAX
 10
-1.000000000000000E+20
 20
-1.000000000000000E+20
 30
-1.000000000000000E+20
  9
$PLIMMIN
 10
0.0
 20
0.0
  9
$PLIMMAX
 10
12.0
 20
9.0
  9
$UNITMODE
 70
     0
  9
$VISRETAIN
 70
     0
  9
$PLINEGEN
 70
     0
  9
$PSLTSCALE
 70
     1
  9
$TREEDEPTH
 70
  3020
  9
$PICKSTYLE
 70
     1
  9
$CMLSTYLE
  2
STANDARD
  9
$CMLJUST
 70
     0
  9
$CMLSCALE
 40
1.0
  9
$PROXYGRAPHICS
 70
     1
  9
$MEASUREMENT
 70
     0
  0
ENDSEC
  0
SECTION
  2
CLASSES
  0
CLASS
  1
ACDBDICTIONARYWDFLT
  2
AcDbDictionaryWithDefault
  3
AutoCAD 2000
 90
        0
280
     0
281
     0
  0
CLASS
  1
ACDBPLACEHOLDER
  2
AcDbPlaceHolder
  3
AutoCAD 2000
 90
        0
280
     0
281
     0
  0
CLASS
  1
LAYOUT
  2
AcDbLayout
  3
AutoCAD 2000
 90
        0
280
     0
281
     0
  0
CLASS
  1
DICTIONARYVAR
  2
AcDbDictionaryVar
  3
AutoCAD 2000
 90
        0
280
     0
281
     0
  0
CLASS
  1
LONG_TRANSACTION
  2
AcDbLongTransaction
  3
AutoCAD 2000
 90
        0
280
     0
281
     0
  0
CLASS
  1
LWPOLYLINE
  2
AcDbPolyline
  3
AutoCAD 2000
 90
        0
280
     0
281
     1
  0
CLASS
  1
HATCH
  2
AcDbHatch
  3
AutoCAD 2000
 90
        0
280
     0
281
     1
  0
CLASS
  1
XRECORD
  2
AcDbXrecord
  3
AutoCAD 2000
 90
        0
280
     0
281
     0
  0
CLASS
  1
LONG_TRANSACTION
  2
AcDbLongTransaction
  3
AutoCAD 2000
 90
        0
280
     0
281
     0
  0
CLASS
  1
LWPOLYLINE
  2
AcDbPolyline
  3
AutoCAD 2000
 90
        0
280
     0
281
     1
  0
CLASS
  1
HATCH
  2
AcDbHatch
  3
AutoCAD 2000
 90
        0
280
     0
281
     1
  0
CLASS
  1
XRECORD
  2
AcDbXrecord
  3
AutoCAD 2000
 90
        0
280
     0
281
     0
  0
CLASS
  1
LONG_TRANSACTION
  2
AcDbLongTransaction
  3
AutoCAD 2000
 90
        0
280
     0
281
     0
  0
CLASS
  1
LWPOLYLINE
  2
AcDbPolyline
  3
AutoCAD 2000
 90
        0
280
     0
281
     1
  0
CLASS
  1
HATCH
  2
AcDbHatch
  3
AutoCAD 2000
 90
        0
280
     0
281
     1
  0
CLASS
  1
XRECORD
  2
AcDbXrecord
  3
AutoCAD 2000
 90
        0
280
     0
281
     0
  0
CLASS
  1
LONG_TRANSACTION
  2
AcDbLongTransaction
  3
AutoCAD 2000
 90
        0
280
     0
281
     0
  0
CLASS
  1
LWPOLYLINE
  2
AcDbPolyline
  3
AutoCAD 2000
 90
        0
280
     0
281
     1
  0
CLASS
  1
HATCH
  2
AcDbHatch
  3
AutoCAD 2000
 90
        0
280
     0
281
     1
  0
CLASS
  1
XRECORD
  2
AcDbXrecord
  3
AutoCAD 2000
 90
        0
280
     0
281
     0
  0
CLASS
  1
LONG_TRANSACTION
  2
AcDbLongTransaction
  3
AutoCAD 2000
 90
        0
280
     0
281
     0
  0
CLASS
  1
LWPOLYLINE
  2
AcDbPolyline
  3
AutoCAD 2000
 90
        0
280
     0
281
     1
  0
CLASS
  1
HATCH
  2
AcDbHatch
  3
AutoCAD 2000
 90
        0
280
     0
281
     1
  0
CLASS
  1
XRECORD
  2
AcDbXrecord
  3
AutoCAD 2000
 90
        0
280
     0
281
     0
  0
ENDSEC
  0
SECTION
  2
TABLES
  0
TABLE
  2
VPORT
  5
8
330
0
100
AcDbSymbolTable
 70
     2
  0
VPORT
  5
221
330
8
100
AcDbSymbolTableRecord
100
AcDbViewportTableRecord
  2
*ACTIVE
 70
     0
 10
0.0
 20
0.0
 11
1.0
 21
1.0
 12
5.546900051785833
 22
22.85856441948766
 13
0.0
 23
0.0
 14
0.5740882589684922
 24
0.5740882589684922
 15
0.5
 25
0.5
 16
0.0
 26
0.0
 36
1.0
 17
0.0
 27
0.0
 37
0.0
 40
57.73113749840476
 41
1.570528967254407
 42
50.0
 43
0.0
 44
0.0
 50
0.0
 51
0.0
 71
     0
 72
   100
 73
     1
 74
     0
 75
     0
 76
     0
 77
     0
 78
     0
  0
ENDTAB
  0
TABLE
  2
LTYPE
  5
5
330
0
100
AcDbSymbolTable
 70
     2
  0
LTYPE
  5
12
330
5
100
AcDbSymbolTableRecord
100
AcDbLinetypeTableRecord
  2
BYBLOCK
 70
     0
  3

 72
    65
 73
     0
 40
0.0
  0
LTYPE
  5
13
330
5
100
AcDbSymbolTableRecord
100
AcDbLinetypeTableRecord
  2
BYLAYER
 70
     0
  3

 72
    65
 73
     0
 40
0.0
  0
LTYPE
  5
14
330
5
100
AcDbSymbolTableRecord
100
AcDbLinetypeTableRecord
  2
CONTINUOUS
 70
     0
  3
Solid line
 72
    65
 73
     0
 40
0.0
  0
LTYPE
  5
5A
330
5
100
AcDbSymbolTableRecord
100
AcDbLinetypeTableRecord
  2
HIDDEN2
 70
     0
  3
_ _ _ _ _ _ _ _ _ _ _ _ _ _ _ _ _ _ _ _ _ _ _ _
 72
    65
 73
     2
 40
0.1875
 49
0.125
 74
     0
 49
-0.0625
 74
     0
  0
ENDTAB
  0
TABLE
  2
LAYER
  5
2
330
0
100
AcDbSymbolTable
 70
     5
  0
LAYER
  5
F
330
2
100
AcDbSymbolTableRecord
100
AcDbLayerTableRecord
  2
0
 70
     0
 62
     7
  6
CONTINUOUS
  0
LAYER
  5
5B
330
2
100
AcDbSymbolTableRecord
100
AcDbLayerTableRecord
  2
ADP2DETAIL
 70
     0
 62
     5
  6
CONTINUOUS
  0
LAYER
  5
5C
330
2
100
AcDbSymbolTableRecord
100
AcDbLayerTableRecord
  2
ADPDIM
 70
     0
 62
     3
  6
CONTINUOUS
  0
LAYER
  5
5E
330
2
100
AcDbSymbolTableRecord
100
AcDbLayerTableRecord
  2
ADP1DETAIL
 70
     0
 62
     7
  6
CONTINUOUS
  0
LAYER
  5
60
330
2
100
AcDbSymbolTableRecord
100
AcDbLayerTableRecord
  2
DEFPOINTS
 70
     0
 62
     7
  6
CONTINUOUS
  0
ENDTAB
  0
TABLE
  2
STYLE
  5
3
330
0
100
AcDbSymbolTable
 70
     2
  0
STYLE
  5
10
330
3
100
AcDbSymbolTableRecord
100
AcDbTextStyleTableRecord
  2
STANDARD
 70
     0
 40
0.0
 41
1.0
 50
0.0
 71
     0
 42
0.2
  3
txt
  4

  0
STYLE
  5
DD
330
3
100
AcDbSymbolTableRecord
100
AcDbTextStyleTableRecord
  2
ARIAL_WIDE
 70
     0
 40
0.0
 41
1.25
 50
0.0
 71
     0
 42
0.2
  3
ARIAL.TTF
  4

1001
ACAD
1000
Arial
1071
       34
  0
ENDTAB
  0
TABLE
  2
VIEW
  5
6
330
0
100
AcDbSymbolTable
 70
     0
  0
ENDTAB
  0
TABLE
  2
UCS
  5
7
330
0
100
AcDbSymbolTable
 70
     0
  0
ENDTAB
  0
TABLE
  2
APPID
  5
9
330
0
100
AcDbSymbolTable
 70
     1
  0
APPID
  5
11
330
9
100
AcDbSymbolTableRecord
100
AcDbRegAppTableRecord
  2
ACAD
 70
     0
  0
ENDTAB
  0
TABLE
  2
DIMSTYLE
  5
A
330
0
100
AcDbSymbolTable
 70
     1
  0
DIMSTYLE
105
D1
330
A
100
AcDbSymbolTableRecord
100
AcDbDimStyleTableRecord
  2
STANDARD
 70
     0
  3

  4

  5

  6

  7

 40
1.0
 41
0.18
 42
0.0625
 43
0.38
 44
0.18
 45
0.0
 46
0.0
 47
0.0
 48
0.0
140
0.18
141
0.09
142
0.0
143
25.4
144
1.0
145
0.0
146
1.0
147
0.09
 71
     0
 72
     0
 73
     1
 74
     1
 75
     0
 76
     0
 77
     0
 78
     0
170
     0
171
     2
172
     0
173
     0
174
     0
175
     0
176
     0
177
     0
178
     0
270
     2
271
     4
272
     4
273
     2
274
     2
340
10
275
     0
280
     0
281
     0
282
     0
283
     1
284
     0
285
     0
286
     0
287
     3
288
     0
  0
ENDTAB
  0
TABLE
  2
BLOCK_RECORD
  5
1
330
0
100
AcDbSymbolTable
 70
     4
  0
BLOCK_RECORD
  5
18
102
{ACAD_XDICTIONARY
360
132
102
}
330
1
100
AcDbSymbolTableRecord
100
AcDbBlockTableRecord
  2
*MODEL_SPACE
  0
BLOCK_RECORD
  5
15
102
{ACAD_XDICTIONARY
360
130
102
}
330
1
100
AcDbSymbolTableRecord
100
AcDbBlockTableRecord
  2
*PAPER_SPACE
  0
BLOCK_RECORD
  5
41
330
1
100
AcDbSymbolTableRecord
100
AcDbBlockTableRecord
  2
*D0
  0
BLOCK_RECORD
  5
42
330
1
100
AcDbSymbolTableRecord
100
AcDbBlockTableRecord
  2
*D1
  0
BLOCK_RECORD
  5
45
330
1
100
AcDbSymbolTableRecord
100
AcDbBlockTableRecord
  2
*D2
  0
BLOCK_RECORD
  5
46
330
1
100
AcDbSymbolTableRecord
100
AcDbBlockTableRecord
  2
*D3
  0
ENDTAB
  0
ENDSEC
  0
SECTION
  2
BLOCKS
  0
BLOCK
  5
63
330
18
100
AcDbEntity
  8
0
100
AcDbBlockBegin
  2
*MODEL_SPACE
 70
     0
 10
0.0
 20
0.0
 30
0.0
  3
*MODEL_SPACE
  1

  0
ENDBLK
  5
64
330
18
100
AcDbEntity
  8
0
100
AcDbBlockEnd
  0
BLOCK
  5
61
330
15
100
AcDbEntity
 67
     1
  8
0
100
AcDbBlockBegin
  2
*PAPER_SPACE
 70
     0
 10
0.0
 20
0.0
 30
0.0
  3
*PAPER_SPACE
  1

  0
ENDBLK
  5
62
330
15
100
AcDbEntity
 67
     1
  8
0
100
AcDbBlockEnd
  0
BLOCK
  5
66
330
41
100
AcDbEntity
  8
0
100
AcDbBlockBegin
  2
*D0
 70
     1
 10
0.0
 20
0.0
 30
0.0
  3
*D0
  1

  0
LINE
  5
67
330
41
100
AcDbEntity
  8
0
  6
BYBLOCK
 62
     0
100
AcDbLine
 10
6.224247550222049
 20
0.0750765323002907
 30
0.0
 11
7.055819955676549
 21
0.0750765323002906
 31
0.0
  0
LINE
  5
68
330
41
100
AcDbEntity
  8
0
  6
BYBLOCK
 62
     0
100
AcDbLine
 10
6.224247550222049
 20
51.0750765323003
 30
0.0
 11
7.055819955676553
 21
51.0750765323003
 31
0.0
  0
LINE
  5
69
330
41
100
AcDbEntity
  8
0
  6
BYBLOCK
 62
     0
100
AcDbLine
 10
6.87581995567655
 20
0.0750765323002906
 30
0.0
 11
6.875819955676552
 21
25.36674319896696
 31
0.0
  0
LINE
  5
6A
330
41
100
AcDbEntity
  8
0
  6
BYBLOCK
 62
     0
100
AcDbLine
 10
6.875819955676553
 20
51.0750765323003
 30
0.0
 11
6.875819955676552
 21
25.78340986563363
 31
0.0
  0
LINE
  5
6B
330
41
100
AcDbEntity
  8
0
  6
BYBLOCK
 62
     0
100
AcDbLine
 10
7.00081995567655
 20
-0.0499234676997094
 30
0.0
 11
6.75081995567655
 21
0.2000765323002906
 31
0.0
  0
LINE
  5
6C
330
41
100
AcDbEntity
  8
0
  6
BYBLOCK
 62
     0
100
AcDbLine
 10
7.000819955676553
 20
50.9500765323003
 30
0.0
 11
6.750819955676553
 21
51.2000765323003
 31
0.0
  0
TEXT
  5
6D
330
41
100
AcDbEntity
  8
0
  6
BYBLOCK
 62
     0
100
AcDbText
 10
6.938319955676552
 20
25.49174319896696
 30
0.0
 40
0.125
  1
51
 50
90.0
 72
     1
 11
6.875819955676552
 21
25.57507653230029
 31
0.0
100
AcDbText
 73
     2
  0
POINT
  5
6E
330
41
100
AcDbEntity
  8
DEFPOINTS
  6
BYBLOCK
 62
     0
100
AcDbPoint
 10
6.161747550222049
 20
0.0750765323002907
 30
0.0
  0
POINT
  5
6F
330
41
100
AcDbEntity
  8
DEFPOINTS
  6
BYBLOCK
 62
     0
100
AcDbPoint
 10
6.161747550222049
 20
51.0750765323003
 30
0.0
  0
POINT
  5
70
330
41
100
AcDbEntity
  8
DEFPOINTS
  6
BYBLOCK
 62
     0
100
AcDbPoint
 10
6.875819955676553
 20
51.0750765323003
 30
0.0
  0
ENDBLK
  5
71
330
41
100
AcDbEntity
  8
0
100
AcDbBlockEnd
  0
BLOCK
  5
72
330
42
100
AcDbEntity
  8
0
100
AcDbBlockBegin
  2
*D1
 70
     1
 10
0.0
 20
0.0
 30
0.0
  3
*D1
  1

  0
LINE
  5
73
330
42
100
AcDbEntity
  8
0
  6
BYBLOCK
 62
     0
100
AcDbLine
 10
5.161747550222049
 20
7.20007653230029
 30
0.0
 11
4.074550384173141
 21
7.20007653230029
 31
0.0
  0
LINE
  5
74
330
42
100
AcDbEntity
  8
0
  6
BYBLOCK
 62
     0
100
AcDbLine
 10
5.161747550222049
 20
0.0750765323002907
 30
0.0
 11
4.074550384173141
 21
0.0750765323002907
 31
0.0
  0
LINE
  5
75
330
42
100
AcDbEntity
  8
0
  6
BYBLOCK
 62
     0
100
AcDbLine
 10
4.254550384173141
 20
7.20007653230029
 30
0.0
 11
4.254550384173141
 21
4.033409865633624
 31
0.0
  0
LINE
  5
76
330
42
100
AcDbEntity
  8
0
  6
BYBLOCK
 62
     0
100
AcDbLine
 10
4.254550384173141
 20
0.0750765323002907
 30
0.0
 11
4.254550384173141
 21
3.241743198966956
 31
0.0
  0
LINE
  5
77
330
42
100
AcDbEntity
  8
0
  6
BYBLOCK
 62
     0
100
AcDbLine
 10
4.379550384173141
 20
7.07507653230029
 30
0.0
 11
4.129550384173142
 21
7.32507653230029
 31
0.0
  0
LINE
  5
78
330
42
100
AcDbEntity
  8
0
  6
BYBLOCK
 62
     0
100
AcDbLine
 10
4.379550384173141
 20
-0.0499234676997093
 30
0.0
 11
4.129550384173141
 21
0.2000765323002907
 31
0.0
  0
TEXT
  5
79
330
42
100
AcDbEntity
  8
0
  6
BYBLOCK
 62
     0
100
AcDbText
 10
4.317050384173141
 20
3.366743198966956
 30
0.0
 40
0.125
  1
7 1/8
 50
90.0
 72
     1
 11
4.254550384173141
 21
3.63757653230029
 31
0.0
100
AcDbText
 73
     2
  0
POINT
  5
7A
330
42
100
AcDbEntity
  8
DEFPOINTS
  6
BYBLOCK
 62
     0
100
AcDbPoint
 10
5.224247550222049
 20
7.20007653230029
 30
0.0
  0
POINT
  5
7B
330
42
100
AcDbEntity
  8
DEFPOINTS
  6
BYBLOCK
 62
     0
100
AcDbPoint
 10
5.224247550222049
 20
0.0750765323002907
 30
0.0
  0
POINT
  5
7C
330
42
100
AcDbEntity
  8
DEFPOINTS
  6
BYBLOCK
 62
     0
100
AcDbPoint
 10
4.254550384173141
 20
0.0750765323002907
 30
0.0
  0
ENDBLK
  5
7D
330
42
100
AcDbEntity
  8
0
100
AcDbBlockEnd
  0
BLOCK
  5
7E
330
45
100
AcDbEntity
  8
0
100
AcDbBlockBegin
  2
*D2
 70
     1
 10
0.0
 20
0.0
 30
0.0
  3
*D2
  1

  0
LINE
  5
7F
330
45
100
AcDbEntity
  8
0
  6
BYBLOCK
 62
     0
100
AcDbLine
 10
5.948215973824364
 20
-0.4016393603588946
 30
0.0
 11
6.697683203732128
 21
-0.4016393603588946
 31
0.0
  0
LINE
  5
80
330
45
100
AcDbEntity
  8
0
  6
BYBLOCK
 62
     0
100
AcDbLine
 10
6.190338718631196
 20
-2.399775941495591
 30
0.0
 11
6.697683203732128
 21
-2.399775941495591
 31
0.0
  0
LINE
  5
81
330
45
100
AcDbEntity
  8
0
  6
BYBLOCK
 62
     0
100
AcDbLine
 10
6.517683203732128
 20
-0.4016393603588946
 30
0.0
 11
6.517683203732128
 21
-1.234040984260576
 31
0.0
  0
LINE
  5
82
330
45
100
AcDbEntity
  8
0
  6
BYBLOCK
 62
     0
100
AcDbLine
 10
6.517683203732128
 20
-2.399775941495591
 30
0.0
 11
6.517683203732128
 21
-1.567374317593909
 31
0.0
  0
LINE
  5
83
330
45
100
AcDbEntity
  8
0
  6
BYBLOCK
 62
     0
100
AcDbLine
 10
6.642683203732128
 20
-0.5266393603588946
 30
0.0
 11
6.392683203732128
 21
-0.2766393603588946
 31
0.0
  0
LINE
  5
84
330
45
100
AcDbEntity
  8
0
  6
BYBLOCK
 62
     0
100
AcDbLine
 10
6.642683203732128
 20
-2.524775941495591
 30
0.0
 11
6.392683203732128
 21
-2.274775941495591
 31
0.0
  0
TEXT
  5
85
330
45
100
AcDbEntity
  8
0
  6
BYBLOCK
 62
     0
100
AcDbText
 10
6.580183203732128
 20
-1.442374317593909
 30
0.0
 40
0.125
  1
2
 50
90.0
 72
     1
 11
6.517683203732128
 21
-1.400707650927242
 31
0.0
100
AcDbText
 73
     2
  0
POINT
  5
86
330
45
100
AcDbEntity
  8
DEFPOINTS
  6
BYBLOCK
 62
     0
100
AcDbPoint
 10
5.885715973824364
 20
-0.4016393603588945
 30
0.0
  0
POINT
  5
87
330
45
100
AcDbEntity
  8
DEFPOINTS
  6
BYBLOCK
 62
     0
100
AcDbPoint
 10
6.127838718631196
 20
-2.399775941495591
 30
0.0
  0
POINT
  5
88
330
45
100
AcDbEntity
  8
DEFPOINTS
  6
BYBLOCK
 62
     0
100
AcDbPoint
 10
6.517683203732128
 20
-2.399775941495591
 30
0.0
  0
ENDBLK
  5
89
330
45
100
AcDbEntity
  8
0
100
AcDbBlockEnd
  0
BLOCK
  5
8A
330
46
100
AcDbEntity
  8
0
100
AcDbBlockBegin
  2
*D3
 70
     1
 10
0.0
 20
0.0
 30
0.0
  3
*D3
  1

  0
LINE
  5
8B
330
46
100
AcDbEntity
  8
0
  6
BYBLOCK
 62
     0
100
AcDbLine
 10
4.790879997263662
 20
-2.428619861193435
 30
0.0
 11
4.790879997263662
 21
-2.87664973422922
 31
0.0
  0
LINE
  5
8C
330
46
100
AcDbEntity
  8
0
  6
BYBLOCK
 62
     0
100
AcDbLine
 10
6.157615103180436
 20
-2.428619861193436
 30
0.0
 11
6.157615103180436
 21
-2.87664973422922
 31
0.0
  0
LINE
  5
8D
330
46
100
AcDbEntity
  8
0
  6
BYBLOCK
 62
     0
100
AcDbLine
 10
4.790879997263662
 20
-2.696649734229221
 30
0.0
 11
5.078414216888716
 21
-2.696649734229221
 31
0.0
  0
LINE
  5
8E
330
46
100
AcDbEntity
  8
0
  6
BYBLOCK
 62
     0
100
AcDbLine
 10
6.157615103180436
 20
-2.696649734229221
 30
0.0
 11
5.870080883555382
 21
-2.696649734229221
 31
0.0
  0
LINE
  5
8F
330
46
100
AcDbEntity
  8
0
  6
BYBLOCK
 62
     0
100
AcDbLine
 10
4.665879997263662
 20
-2.821649734229221
 30
0.0
 11
4.915879997263662
 21
-2.571649734229221
 31
0.0
  0
LINE
  5
90
330
46
100
AcDbEntity
  8
0
  6
BYBLOCK
 62
     0
100
AcDbLine
 10
6.032615103180436
 20
-2.821649734229221
 30
0.0
 11
6.282615103180436
 21
-2.571649734229221
 31
0.0
  0
TEXT
  5
91
330
46
100
AcDbEntity
  8
0
  6
BYBLOCK
 62
     0
100
AcDbText
 10
5.203414216888716
 20
-2.759149734229221
 30
0.0
 40
0.125
  1
1 3/8
 72
     1
 11
5.474247550222049
 21
-2.696649734229221
 31
0.0
100
AcDbText
 73
     2
  0
POINT
  5
92
330
46
100
AcDbEntity
  8
DEFPOINTS
  6
BYBLOCK
 62
     0
100
AcDbPoint
 10
4.790879997263662
 20
-2.366119861193435
 30
0.0
  0
POINT
  5
93
330
46
100
AcDbEntity
  8
DEFPOINTS
  6
BYBLOCK
 62
     0
100
AcDbPoint
 10
6.157615103180436
 20
-2.366119861193436
 30
0.0
  0
POINT
  5
94
330
46
100
AcDbEntity
  8
DEFPOINTS
  6
BYBLOCK
 62
     0
100
AcDbPoint
 10
6.157615103180436
 20
-2.696649734229221
 30
0.0
  0
ENDBLK
  5
95
330
46
100
AcDbEntity
  8
0
100
AcDbBlockEnd
  0
ENDSEC
  0
SECTION
  2
ENTITIES
  0
DIMENSION
  5
96
330
18
100
AcDbEntity
  8
ADPDIM
100
AcDbDimension
  2
*D0
 10
6.875819955676553
 20
51.0750765323003
 30
0.0
 11
6.875819955676552
 21
25.57507653230029
 31
0.0
100
AcDbAlignedDimension
 13
6.161747550222049
 23
0.0750765323002907
 33
0.0
 14
6.161747550222049
 24
51.0750765323003
 34
0.0
 50
90.0
100
AcDbRotatedDimension
  0
LINE
  5
97
330
18
100
AcDbEntity
  8
ADP2DETAIL
  6
HIDDEN2
100
AcDbLine
 10
5.024812449000331
 20
51.0750765323003
 30
0.0
 11
5.024812449000331
 21
0.0750765323002907
 31
0.0
  0
LINE
  5
98
330
18
100
AcDbEntity
  8
ADP2DETAIL
  6
HIDDEN2
100
AcDbLine
 10
5.923059576800003
 20
51.0750765323003
 30
0.0
 11
5.923059576800003
 21
0.0750765323002907
 31
0.0
  0
LINE
  5
99
330
18
100
AcDbEntity
  8
ADP1DETAIL
100
AcDbLine
 10
6.161747550222049
 20
51.0750765323003
 30
0.0
 11
6.161747550222049
 21
0.0750765323002907
 31
0.0
  0
LINE
  5
9A
330
18
100
AcDbEntity
  8
ADP1DETAIL
100
AcDbLine
 10
4.786747550222049
 20
0.0750765323002907
 30
0.0
 11
4.786747550222049
 21
51.0750765323003
 31
0.0
  0
LINE
  5
9B
330
18
100
AcDbEntity
  8
ADP1DETAIL
100
AcDbLine
 10
5.72424755022205
 20
-1.088501068846499
 30
0.0
 11
5.724247550222049
 21
-1.188501068846499
 31
0.0
  0
LINE
  5
9C
330
18
100
AcDbEntity
  8
ADP1DETAIL
100
AcDbLine
 10
5.224247550222049
 20
-1.188501068846498
 30
0.0
 11
5.22424755022205
 21
-1.088501068846498
 31
0.0
  0
LINE
  5
9D
330
18
100
AcDbEntity
  8
ADP1DETAIL
100
AcDbLine
 10
4.790879997263662
 20
-2.366119861193436
 30
0.0
 11
5.028888057834471
 21
-0.4276997632544158
 31
0.0
  0
LINE
  5
9E
330
18
100
AcDbEntity
  8
ADP1DETAIL
100
AcDbLine
 10
6.157615103180436
 20
-2.366119861193436
 30
0.0
 11
5.919607042609628
 21
-0.4276997632544158
 31
0.0
  0
DIMENSION
  5
9F
330
18
100
AcDbEntity
  8
ADPDIM
100
AcDbDimension
  2
*D2
 10
6.517683203732128
 20
-2.399775941495591
 30
0.0
 11
6.517683203732128
 21
-1.400707650927242
 31
0.0
100
AcDbAlignedDimension
 13
5.885715973824364
 23
-0.4016393603588945
 33
0.0
 14
6.127838718631196
 24
-2.399775941495591
 34
0.0
 50
90.0
100
AcDbRotatedDimension
  0
LINE
  5
A0
330
18
100
AcDbEntity
  8
ADP1DETAIL
100
AcDbLine
 10
6.127838718631196
 20
-2.399775941495591
 30
0.0
 11
4.820656381812901
 21
-2.39977594149559
 31
0.0
  0
LINE
  5
A1
330
18
100
AcDbEntity
  8
ADP1DETAIL
100
AcDbLine
 10
5.811747550222048
 20
-2.219775941495591
 30
0.0
 11
5.136747550222048
 21
-2.21977594149559
 31
0.0
  0
DIMENSION
  5
A2
330
18
100
AcDbEntity
  8
ADPDIM
100
AcDbDimension
  2
*D3
 10
6.157615103180436
 20
-2.696649734229221
 30
0.0
 11
5.474247550222049
 21
-2.696649734229221
 31
0.0
100
AcDbAlignedDimension
 13
4.790879997263662
 23
-2.366119861193435
 33
0.0
 14
6.157615103180436
 24
-2.366119861193436
 34
0.0
100
AcDbRotatedDimension
  0
ARC
  5
A3
330
18
100
AcDbEntity
  8
ADP1DETAIL
100
AcDbCircle
 10
4.820656381812901
 20
-2.36977594149559
 30
0.0
 40
0.03
100
AcDbArc
 50
173.0
 51
270.0
  0
ARC
  5
A4
330
18
100
AcDbEntity
  8
ADP1DETAIL
100
AcDbCircle
 10
5.076916878937091
 20
-1.88277594149559
 30
0.0
 40
0.1
100
AcDbArc
 50
173.0
 51
270.0
  0
LINE
  5
A5
330
18
100
AcDbEntity
  8
ADP1DETAIL
100
AcDbLine
 10
4.977662263772959
 20
-1.870589007155075
 30
0.0
 11
5.058069684275699
 21
-1.215723119200939
 31
0.0
  0
ARC
  5
A6
330
18
100
AcDbEntity
  8
ADP1DETAIL
100
AcDbCircle
 10
5.08883861497658
 20
-1.219501068846499
 30
0.0
 40
0.031
100
AcDbArc
 50
90.0
 51
173.0
  0
LINE
  5
A7
330
18
100
AcDbEntity
  8
ADP1DETAIL
100
AcDbLine
 10
5.08883861497658
 20
-1.188501068846499
 30
0.0
 11
5.224247550222049
 21
-1.188501068846499
 31
0.0
  0
LINE
  5
A8
330
18
100
AcDbEntity
  8
ADP1DETAIL
100
AcDbLine
 10
5.076916878937091
 20
-1.98277594149559
 30
0.0
 11
5.224247550222048
 21
-1.98277594149559
 31
0.0
  0
LINE
  5
A9
330
18
100
AcDbEntity
  8
ADP1DETAIL
100
AcDbLine
 10
5.136747550222048
 20
-2.08277594149559
 30
0.0
 11
5.224247550222049
 21
-2.082775941495591
 31
0.0
  0
LINE
  5
AA
330
18
100
AcDbEntity
  8
ADP1DETAIL
100
AcDbLine
 10
5.224247550222049
 20
-2.08277594149559
 30
0.0
 11
5.224247550222049
 21
-1.98277594149559
 31
0.0
  0
LINE
  5
AB
330
18
100
AcDbEntity
  8
ADP1DETAIL
100
AcDbLine
 10
5.136747550222048
 20
-2.21977594149559
 30
0.0
 11
5.136747550222048
 21
-2.08277594149559
 31
0.0
  0
ARC
  5
AC
330
18
100
AcDbEntity
  8
ADP1DETAIL
100
AcDbCircle
 10
5.859656485467517
 20
-1.219501068846497
 30
0.0
 40
0.031
100
AcDbArc
 50
7.000000000000055
 51
90.00000000000031
  0
LINE
  5
AD
330
18
100
AcDbEntity
  8
ADP1DETAIL
100
AcDbLine
 10
5.724247550222049
 20
-1.188501068846499
 30
0.0
 11
5.859656485467517
 21
-1.188501068846498
 31
0.0
  0
ARC
  5
AE
330
18
100
AcDbEntity
  8
ADP1DETAIL
100
AcDbCircle
 10
5.871578221507006
 20
-1.88277594149559
 30
0.0
 40
0.1
100
AcDbArc
 50
270.0
 51
7.000000000000055
  0
LINE
  5
AF
330
18
100
AcDbEntity
  8
ADP1DETAIL
100
AcDbLine
 10
5.724247550222048
 20
-1.98277594149559
 30
0.0
 11
5.871578221507006
 21
-1.98277594149559
 31
0.0
  0
LINE
  5
B0
330
18
100
AcDbEntity
  8
ADP1DETAIL
100
AcDbLine
 10
5.724247550222049
 20
-2.082775941495591
 30
0.0
 11
5.811747550222048
 21
-2.082775941495591
 31
0.0
  0
LINE
  5
B1
330
18
100
AcDbEntity
  8
ADP1DETAIL
100
AcDbLine
 10
5.724247550222049
 20
-1.98277594149559
 30
0.0
 11
5.724247550222049
 21
-2.082775941495591
 31
0.0
  0
LINE
  5
B2
330
18
100
AcDbEntity
  8
ADP1DETAIL
100
AcDbLine
 10
5.811747550222048
 20
-2.082775941495591
 30
0.0
 11
5.811747550222048
 21
-2.219775941495591
 31
0.0
  0
LINE
  5
B3
330
18
100
AcDbEntity
  8
ADP1DETAIL
100
AcDbLine
 10
5.970832836671138
 20
-1.870589007155075
 30
0.0
 11
5.890425416168398
 21
-1.215723119200939
 31
0.0
  0
ARC
  5
B4
330
18
100
AcDbEntity
  8
ADP1DETAIL
100
AcDbCircle
 10
6.127838718631196
 20
-2.369775941495591
 30
0.0
 40
0.03
100
AcDbArc
 50
270.0
 51
7.000000000000055
  0
DIMENSION
  5
B5
330
18
100
AcDbEntity
  8
ADPDIM
100
AcDbDimension
  2
*D1
 10
4.254550384173141
 20
0.0750765323002907
 30
0.0
 11
4.254550384173141
 21
3.63757653230029
 31
0.0
100
AcDbAlignedDimension
 13
5.224247550222049
 23
7.20007653230029
 33
0.0
 14
5.224247550222049
 24
0.0750765323002907
 34
0.0
 50
90.0
100
AcDbRotatedDimension
  0
LINE
  5
B6
330
18
100
AcDbEntity
  8
ADP1DETAIL
100
AcDbLine
 10
5.724247550222049
 20
7.20007653230029
 30
0.0
 11
5.724247550222049
 21
0.0750765323002907
 31
0.0
  0
LINE
  5
B7
330
18
100
AcDbEntity
  8
ADP1DETAIL
100
AcDbLine
 10
5.224247550222049
 20
0.0750765323002907
 30
0.0
 11
5.224247550222049
 21
7.20007653230029
 31
0.0
  0
ARC
  5
B8
330
18
100
AcDbEntity
  8
ADP1DETAIL
100
AcDbCircle
 10
5.474247550222049
 20
2.57000895940881
 30
0.0
 40
3.0
100
AcDbArc
 50
262.116682371001
 51
277.883317628999
  0
LINE
  5
B9
330
18
100
AcDbEntity
  8
ADP1DETAIL
100
AcDbLine
 10
6.161747550222049
 20
0.0750765323002907
 30
0.0
 11
4.786747550222049
 21
0.0750765323002907
 31
0.0
  0
ARC
  5
BA
330
18
100
AcDbEntity
  8
ADP1DETAIL
100
AcDbCircle
 10
5.353747550222049
 20
-0.89277594149559
 30
0.0
 40
0.062
100
AcDbArc
 50
179.9999999999997
 51
270.0
  0
LINE
  5
BB
330
18
100
AcDbEntity
  8
ADP1DETAIL
100
AcDbLine
 10
5.260747550222051
 20
-0.5816393603588939
 30
0.0
 11
5.163351863382017
 21
-0.5816393603588939
 31
0.0
  0
ARC
  5
BC
330
18
100
AcDbEntity
  8
ADP1DETAIL
100
AcDbCircle
 10
5.26074755022205
 20
-0.6126393603588934
 30
0.0
 40
0.031
100
AcDbArc
 50
0.0
 51
90.0
  0
ARC
  5
BD
330
18
100
AcDbEntity
  8
ADP1DETAIL
100
AcDbCircle
 10
5.163351863382017
 20
-0.6126393603588934
 30
0.0
 40
0.031
100
AcDbArc
 50
90.0
 51
173.0
  0
ARC
  5
BE
330
18
100
AcDbEntity
  8
ADP1DETAIL
100
AcDbCircle
 10
5.058664442383709
 20
-0.4313558435565702
 30
0.0
 40
0.03
100
AcDbArc
 50
82.11668237100129
 51
172.9999999999994
  0
ARC
  5
BF
330
18
100
AcDbEntity
  8
ADP1DETAIL
100
AcDbCircle
 10
5.122747550222048
 20
-1.057501068846498
 30
0.0
 40
0.031
100
AcDbArc
 50
180.0
 51
269.9999999999997
  0
LINE
  5
C0
330
18
100
AcDbEntity
  8
ADP1DETAIL
100
AcDbLine
 10
5.122747550222049
 20
-1.088501068846498
 30
0.0
 11
5.22424755022205
 21
-1.088501068846498
 31
0.0
  0
LINE
  5
C1
330
18
100
AcDbEntity
  8
ADP1DETAIL
100
AcDbLine
 10
5.091747550222049
 20
-1.057501068846498
 30
0.0
 11
5.091747550222049
 21
-0.941438911978976
 31
0.0
  0
LINE
  5
C2
330
18
100
AcDbEntity
  8
ADP1DETAIL
100
AcDbLine
 10
5.29174755022205
 20
-0.8927759414955902
 30
0.0
 11
5.291747550222051
 21
-0.6126393603588936
 31
0.0
  0
LINE
  5
C3
330
18
100
AcDbEntity
  8
ADP1DETAIL
100
AcDbLine
 10
5.091747550222049
 20
-0.941438911978976
 30
0.0
 11
5.132582932681136
 21
-0.6088614107133337
 31
0.0
  0
LINE
  5
C4
330
18
100
AcDbEntity
  8
ADP1DETAIL
100
AcDbLine
 10
5.785143237062082
 20
-0.5816393603588939
 30
0.0
 11
5.68774755022205
 21
-0.5816393603588939
 31
0.0
  0
ARC
  5
C5
330
18
100
AcDbEntity
  8
ADP1DETAIL
100
AcDbCircle
 10
5.687747550222049
 20
-0.6126393603588934
 30
0.0
 40
0.031
100
AcDbArc
 50
90.0
 51
180.0
  0
LINE
  5
C6
330
18
100
AcDbEntity
  8
ADP1DETAIL
100
AcDbLine
 10
5.59474755022205
 20
-0.9547759414955905
 30
0.0
 11
5.35374755022205
 21
-0.9547759414955901
 31
0.0
  0
ARC
  5
C7
330
18
100
AcDbEntity
  8
ADP1DETAIL
100
AcDbCircle
 10
5.594747550222049
 20
-0.89277594149559
 30
0.0
 40
0.062
100
AcDbArc
 50
269.9999999999998
 51
0.0
  0
LINE
  5
C8
330
18
100
AcDbEntity
  8
ADP1DETAIL
100
AcDbLine
 10
5.65674755022205
 20
-0.8927759414955907
 30
0.0
 11
5.65674755022205
 21
-0.6126393603588936
 31
0.0
  0
ARC
  5
C9
330
18
100
AcDbEntity
  8
ADP1DETAIL
100
AcDbCircle
 10
5.785143237062081
 20
-0.6126393603588934
 30
0.0
 40
0.031
100
AcDbArc
 50
6.999999999999975
 51
90.0
  0
ARC
  5
CA
330
18
100
AcDbEntity
  8
ADP1DETAIL
100
AcDbCircle
 10
5.889830658060388
 20
-0.4313558435565702
 30
0.0
 40
0.03
100
AcDbArc
 50
7.000000000000294
 51
97.88331762899872
  0
ARC
  5
CB
330
18
100
AcDbEntity
  8
ADP1DETAIL
100
AcDbCircle
 10
5.825747550222049
 20
-1.057501068846497
 30
0.0
 40
0.031
100
AcDbArc
 50
270.0000000000002
 51
0.0
  0
LINE
  5
CC
330
18
100
AcDbEntity
  8
ADP1DETAIL
100
AcDbLine
 10
5.72424755022205
 20
-1.088501068846499
 30
0.0
 11
5.82574755022205
 21
-1.088501068846498
 31
0.0
  0
LINE
  5
CD
330
18
100
AcDbEntity
  8
ADP1DETAIL
100
AcDbLine
 10
5.85674755022205
 20
-0.941438911978977
 30
0.0
 11
5.85674755022205
 21
-1.057501068846498
 31
0.0
  0
LINE
  5
CE
330
18
100
AcDbEntity
  8
ADP1DETAIL
100
AcDbLine
 10
5.85674755022205
 20
-0.941438911978977
 30
0.0
 11
5.815912167762963
 21
-0.6088614107133337
 31
0.0
  0
LINE
  5
CF
330
18
100
AcDbEntity
  8
ADP1DETAIL
100
AcDbLine
 10
5.224247550222049
 20
7.20007653230029
 30
0.0
 11
5.724247550222049
 21
7.20007653230029
 31
0.0
  0
LINE
  5
D0
330
18
100
AcDbEntity
  8
ADP1DETAIL
100
AcDbLine
 10
4.786747550222049
 20
51.0750765323003
 30
0.0
 11
6.161747550222049
 21
51.0750765323003
 31
0.0
  0
TEXT
  5
DE
330
18
100
AcDbEntity
  8
ADPDIM
100
AcDbText
 10
-39.56870521239733
 20
-5.223286517071187
 30
0.0
 40
0.875
  1
J U L I U S  B L U M  &  C O . ,  I N C .      ( 8 0 0 )  5 2 6 - 6 2 9 3        W W W . J U L I U S B L U M . C O M        P A R T  N o .  4 5 8
 41
1.25
  7
ARIAL_WIDE
 72
     1
 11
5.474247550222049
 21
-4.348286517071187
 31
0.0
100
AcDbText
 73
     3
  0
ENDSEC
  0
SECTION
  2
OBJECTS
  0
DICTIONARY
  5
C
330
0
100
AcDbDictionary
  3
ACAD_GROUP
350
D
  3
ACAD_LAYOUT
350
D7
  3
ACAD_MLINESTYLE
350
E
  3
ACAD_PLOTSETTINGS
350
D8
  3
ACAD_PLOTSTYLENAME
350
D5
  3
ACDBHEADERROUNDTRIPXREC
350
222
  3
ACDBVARIABLEDICTIONARY
350
138
  0
DICTIONARY
  5
132
330
18
100
AcDbDictionary
280
     1
  3
ACAD_LAYOUTSELFREF
360
243
  0
DICTIONARY
  5
130
330
15
100
AcDbDictionary
280
     1
  3
ACAD_LAYOUTSELFREF
360
242
  0
DICTIONARY
  5
D
102
{ACAD_REACTORS
330
C
102
}
330
C
100
AcDbDictionary
  0
DICTIONARY
  5
D7
102
{ACAD_REACTORS
330
C
102
}
330
C
100
AcDbDictionary
  0
DICTIONARY
  5
E
102
{ACAD_REACTORS
330
C
102
}
330
C
100
AcDbDictionary
  3
STANDARD
350
1B
  0
DICTIONARY
  5
D8
102
{ACAD_REACTORS
330
C
102
}
330
C
100
AcDbDictionary
  0
ACDBDICTIONARYWDFLT
  5
D5
102
{ACAD_REACTORS
330
C
102
}
330
C
100
AcDbDictionary
281
     1
  3
Normal
350
D6
100
AcDbDictionaryWithDefault
340
D6
  0
DICTIONARY
  5
222
102
{ACAD_REACTORS
330
C
102
}
330
C
100
AcDbDictionary
  3
CEPSNTYPE
350
22C
  3
FINGERPRINTGUID
350
22D
  3
HYPERLINKBASE
350
225
  3
INSUNITS
350
22B
  3
LAYOUTDICT
350
227
  3
LWETCUNION
350
22A
  3
PLOTSETDICT
350
228
  3
PLOTSTYLNAMDICT
350
229
  3
PSVPSCALE
350
22F
  3
PUCSBASE
350
232
  3
PUCSORGBACK
350
238
  3
PUCSORGBOTTOM
350
234
  3
PUCSORGFRONT
350
237
  3
PUCSORGLEFT
350
235
  3
PUCSORGRIGHT
350
236
  3
PUCSORGTOP
350
233
  3
PUCSORTHOREF
350
230
  3
PUCSORTHOVIEW
350
231
  3
STYLESHEET
350
226
  3
TSTACKALIGN
350
223
  3
TSTACKSIZE
350
224
  3
UCSBASE
350
23B
  3
UCSORGBACK
350
241
  3
UCSORGBOTTOM
350
23D
  3
UCSORGFRONT
350
240
  3
UCSORGLEFT
350
23E
  3
UCSORGRIGHT
350
23F
  3
UCSORGTOP
350
23C
  3
UCSORTHOREF
350
239
  3
UCSORTHOVIEW
350
23A
  3
VERSIONGUID
350
22E
  0
DICTIONARY
  5
138
102
{ACAD_REACTORS
330
C
102
}
330
C
100
AcDbDictionary
  3
DIMASSOC
350
139
  0
XRECORD
  5
243
102
{ACAD_REACTORS
330
132
102
}
330
132
100
AcDbXrecord
340
18
  0
XRECORD
  5
242
102
{ACAD_REACTORS
330
130
102
}
330
130
100
AcDbXrecord
340
15
  0
MLINESTYLE
  5
1B
102
{ACAD_REACTORS
330
E
102
}
330
E
100
AcDbMlineStyle
  2
STANDARD
 70
     0
  3

 62
     0
 51
90.0
 52
90.0
 71
     2
 49
0.5
 62
   256
  6
BYLAYER
 49
-0.5
 62
   256
  6
BYLAYER
  0
ACDBPLACEHOLDER
  5
D6
102
{ACAD_REACTORS
330
D5
102
}
330
D5
100
AcDbPlaceHolder
280
     0
  0
XRECORD
  5
22C
102
{ACAD_REACTORS
330
222
102
}
330
222
100
AcDbXrecord
 90
        0
  0
XRECORD
  5
22D
102
{ACAD_REACTORS
330
222
102
}
330
222
100
AcDbXrecord
  1
{372FCB79-3DA2-4BDC-8D2F-46E89D196D78}
  0
XRECORD
  5
225
102
{ACAD_REACTORS
330
222
102
}
330
222
100
AcDbXrecord
  1

  0
XRECORD
  5
22B
102
{ACAD_REACTORS
330
222
102
}
330
222
100
AcDbXrecord
 90
        0
  0
XRECORD
  5
227
102
{ACAD_REACTORS
330
222
102
}
330
222
100
AcDbXrecord
340
D7
  0
XRECORD
  5
22A
102
{ACAD_REACTORS
330
222
102
}
330
222
100
AcDbXrecord
 90
    14877
  0
XRECORD
  5
228
102
{ACAD_REACTORS
330
222
102
}
330
222
100
AcDbXrecord
340
D8
  0
XRECORD
  5
229
102
{ACAD_REACTORS
330
222
102
}
330
222
100
AcDbXrecord
340
D5
  0
XRECORD
  5
22F
102
{ACAD_REACTORS
330
222
102
}
330
222
100
AcDbXrecord
 40
0.0
  0
XRECORD
  5
232
102
{ACAD_REACTORS
330
222
102
}
330
222
100
AcDbXrecord
340
0
  0
XRECORD
  5
238
102
{ACAD_REACTORS
330
222
102
}
330
222
100
AcDbXrecord
 10
0.0
 20
0.0
 30
0.0
  0
XRECORD
  5
234
102
{ACAD_REACTORS
330
222
102
}
330
222
100
AcDbXrecord
 10
0.0
 20
0.0
 30
0.0
  0
XRECORD
  5
237
102
{ACAD_REACTORS
330
222
102
}
330
222
100
AcDbXrecord
 10
0.0
 20
0.0
 30
0.0
  0
XRECORD
  5
235
102
{ACAD_REACTORS
330
222
102
}
330
222
100
AcDbXrecord
 10
0.0
 20
0.0
 30
0.0
  0
XRECORD
  5
236
102
{ACAD_REACTORS
330
222
102
}
330
222
100
AcDbXrecord
 10
0.0
 20
0.0
 30
0.0
  0
XRECORD
  5
233
102
{ACAD_REACTORS
330
222
102
}
330
222
100
AcDbXrecord
 10
0.0
 20
0.0
 30
0.0
  0
XRECORD
  5
230
102
{ACAD_REACTORS
330
222
102
}
330
222
100
AcDbXrecord
340
0
  0
XRECORD
  5
231
102
{ACAD_REACTORS
330
222
102
}
330
222
100
AcDbXrecord
 70
     0
  0
XRECORD
  5
226
102
{ACAD_REACTORS
330
222
102
}
330
222
100
AcDbXrecord
  1

  0
XRECORD
  5
223
102
{ACAD_REACTORS
330
222
102
}
330
222
100
AcDbXrecord
 90
        1
  0
XRECORD
  5
224
102
{ACAD_REACTORS
330
222
102
}
330
222
100
AcDbXrecord
 90
       70
  0
XRECORD
  5
23B
102
{ACAD_REACTORS
330
222
102
}
330
222
100
AcDbXrecord
340
0
  0
XRECORD
  5
241
102
{ACAD_REACTORS
330
222
102
}
330
222
100
AcDbXrecord
 10
0.0
 20
0.0
 30
0.0
  0
XRECORD
  5
23D
102
{ACAD_REACTORS
330
222
102
}
330
222
100
AcDbXrecord
 10
0.0
 20
0.0
 30
0.0
  0
XRECORD
  5
240
102
{ACAD_REACTORS
330
222
102
}
330
222
100
AcDbXrecord
 10
0.0
 20
0.0
 30
0.0
  0
XRECORD
  5
23E
102
{ACAD_REACTORS
330
222
102
}
330
222
100
AcDbXrecord
 10
0.0
 20
0.0
 30
0.0
  0
XRECORD
  5
23F
102
{ACAD_REACTORS
330
222
102
}
330
222
100
AcDbXrecord
 10
0.0
 20
0.0
 30
0.0
  0
XRECORD
  5
23C
102
{ACAD_REACTORS
330
222
102
}
330
222
100
AcDbXrecord
 10
0.0
 20
0.0
 30
0.0
  0
XRECORD
  5
239
102
{ACAD_REACTORS
330
222
102
}
330
222
100
AcDbXrecord
340
0
  0
XRECORD
  5
23A
102
{ACAD_REACTORS
330
222
102
}
330
222
100
AcDbXrecord
 70
     0
  0
XRECORD
  5
22E
102
{ACAD_REACTORS
330
222
102
}
330
222
100
AcDbXrecord
  1
{122DAB52-8C8E-4ED4-9A94-AC381C9402FB}
  0
DICTIONARYVAR
  5
139
102
{ACAD_REACTORS
330
138
102
}
330
138
100
DictionaryVariables
280
     0
  1
1
  0
ENDSEC
  0
EOF
