  0
SECTION
  2
HEADER
  9
$ACADVER
  1
AC1015
  9
$ACADMAINTVER
 70
    20
  9
$DWGCODEPAGE
  3
ANSI_1252
  9
$INSBASE
 10
-15.21719942302814
 20
-16.50301596540938
 30
0.0
  9
$EXTMIN
 10
-21.91873634321914
 20
-17.65586108630467
 30
0.0
  9
$EXTMAX
 10
-8.515662502837145
 20
-12.49562962599132
 30
0.0
  9
$LIMMIN
 10
0.0
 20
0.0
  9
$LIMMAX
 10
36.0
 20
36.0
  9
$ORTHOMODE
 70
     1
  9
$REGENMODE
 70
     1
  9
$FILLMODE
 70
     1
  9
$QTEXTMODE
 70
     0
  9
$MIRRTEXT
 70
     1
  9
$LTSCALE
 40
1.0
  9
$ATTMODE
 70
     1
  9
$TEXTSIZE
 40
0.2
  9
$TRACEWID
 40
0.05
  9
$TEXTSTYLE
  7
STANDARD
  9
$CLAYER
  8
ADPDIM
  9
$CELTYPE
  6
BYLAYER
  9
$CECOLOR
 62
   256
  9
$CELTSCALE
 40
1.0
  9
$DISPSILH
 70
     0
  9
$DIMSCALE
 40
1.0
  9
$DIMASZ
 40
0.125
  9
$DIMEXO
 40
0.0625
  9
$DIMDLI
 40
0.38
  9
$DIMRND
 40
0.0
  9
$DIMDLE
 40
0.0
  9
$DIMEXE
 40
0.18
  9
$DIMTP
 40
0.0
  9
$DIMTM
 40
0.0
  9
$DIMTXT
 40
0.125
  9
$DIMCEN
 40
0.1875
  9
$DIMTSZ
 40
0.125
  9
$DIMTOL
 70
     0
  9
$DIMLIM
 70
     0
  9
$DIMTIH
 70
     0
  9
$DIMTOH
 70
     0
  9
$DIMSE1
 70
     0
  9
$DIMSE2
 70
     0
  9
$DIMTAD
 70
     0
  9
$DIMZIN
 70
     2
  9
$DIMBLK
  1

  9
$DIMASO
 70
     1
  9
$DIMSHO
 70
     1
  9
$DIMPOST
  1

  9
$DIMAPOST
  1

  9
$DIMALT
 70
     0
  9
$DIMALTD
 70
     1
  9
$DIMALTF
 40
25.4
  9
$DIMLFAC
 40
1.0
  9
$DIMTOFL
 70
     0
  9
$DIMTVP
 40
0.0
  9
$DIMTIX
 70
     0
  9
$DIMSOXD
 70
     0
  9
$DIMSAH
 70
     0
  9
$DIMBLK1
  1

  9
$DIMBLK2
  1

  9
$DIMSTYLE
  2
STANDARD
  9
$DIMCLRD
 70
     0
  9
$DIMCLRE
 70
     0
  9
$DIMCLRT
 70
     0
  9
$DIMTFAC
 40
1.0
  9
$DIMGAP
 40
0.125
  9
$DIMJUST
 70
     0
  9
$DIMSD1
 70
     0
  9
$DIMSD2
 70
     0
  9
$DIMTOLJ
 70
     1
  9
$DIMTZIN
 70
     0
  9
$DIMALTZ
 70
     0
  9
$DIMALTTZ
 70
     0
  9
$DIMUPT
 70
     0
  9
$DIMDEC
 70
     2
  9
$DIMTDEC
 70
     4
  9
$DIMALTU
 70
     2
  9
$DIMALTTD
 70
     2
  9
$DIMTXSTY
  7
STANDARD
  9
$DIMAUNIT
 70
     0
  9
$DIMADEC
 70
     0
  9
$DIMALTRND
 40
0.0
  9
$DIMAZIN
 70
     0
  9
$DIMDSEP
 70
    46
  9
$DIMATFIT
 70
     3
  9
$DIMFRAC
 70
     2
  9
$DIMLDRBLK
  1

  9
$DIMLUNIT
 70
     5
  9
$DIMLWD
 70
    -2
  9
$DIMLWE
 70
    -2
  9
$DIMTMOVE
 70
     0
  9
$LUNITS
 70
     5
  9
$LUPREC
 70
     4
  9
$SKETCHINC
 40
0.1
  9
$FILLETRAD
 40
0.0
  9
$AUNITS
 70
     0
  9
$AUPREC
 70
     0
  9
$MENU
  1
acad
  9
$ELEVATION
 40
0.0
  9
$PELEVATION
 40
0.0
  9
$THICKNESS
 40
0.0
  9
$LIMCHECK
 70
     0
  9
$CHAMFERA
 40
0.0
  9
$CHAMFERB
 40
0.0
  9
$CHAMFERC
 40
0.0
  9
$CHAMFERD
 40
0.0
  9
$SKPOLY
 70
     0
  9
$TDCREATE
 40
2450406.659535486
  9
$TDUCREATE
 40
2450406.826202153
  9
$TDUPDATE
 40
2453961.662088935
  9
$TDUUPDATE
 40
2453961.828755602
  9
$TDINDWG
 40
0.0483299306
  9
$TDUSRTIMER
 40
0.0483299306
  9
$USRTIMER
 70
     1
  9
$ANGBASE
 50
0.0
  9
$ANGDIR
 70
     0
  9
$PDMODE
 70
     0
  9
$PDSIZE
 40
0.0
  9
$PLINEWID
 40
0.0
  9
$SPLFRAME
 70
     0
  9
$SPLINETYPE
 70
     6
  9
$SPLINESEGS
 70
     8
  9
$HANDSEED
  5
441
  9
$SURFTAB1
 70
     6
  9
$SURFTAB2
 70
     6
  9
$SURFTYPE
 70
     6
  9
$SURFU
 70
     6
  9
$SURFV
 70
     6
  9
$UCSBASE
  2

  9
$UCSNAME
  2

  9
$UCSORG
 10
0.0
 20
0.0
 30
0.0
  9
$UCSXDIR
 10
1.0
 20
0.0
 30
0.0
  9
$UCSYDIR
 10
0.0
 20
1.0
 30
0.0
  9
$UCSORTHOREF
  2

  9
$UCSORTHOVIEW
 70
     0
  9
$UCSORGTOP
 10
0.0
 20
0.0
 30
0.0
  9
$UCSORGBOTTOM
 10
0.0
 20
0.0
 30
0.0
  9
$UCSORGLEFT
 10
0.0
 20
0.0
 30
0.0
  9
$UCSORGRIGHT
 10
0.0
 20
0.0
 30
0.0
  9
$UCSORGFRONT
 10
0.0
 20
0.0
 30
0.0
  9
$UCSORGBACK
 10
0.0
 20
0.0
 30
0.0
  9
$PUCSBASE
  2

  9
$PUCSNAME
  2

  9
$PUCSORG
 10
0.0
 20
0.0
 30
0.0
  9
$PUCSXDIR
 10
1.0
 20
0.0
 30
0.0
  9
$PUCSYDIR
 10
0.0
 20
1.0
 30
0.0
  9
$PUCSORTHOREF
  2

  9
$PUCSORTHOVIEW
 70
     0
  9
$PUCSORGTOP
 10
0.0
 20
0.0
 30
0.0
  9
$PUCSORGBOTTOM
 10
0.0
 20
0.0
 30
0.0
  9
$PUCSORGLEFT
 10
0.0
 20
0.0
 30
0.0
  9
$PUCSORGRIGHT
 10
0.0
 20
0.0
 30
0.0
  9
$PUCSORGFRONT
 10
0.0
 20
0.0
 30
0.0
  9
$PUCSORGBACK
 10
0.0
 20
0.0
 30
0.0
  9
$USERI1
 70
     0
  9
$USERI2
 70
     0
  9
$USERI3
 70
     0
  9
$USERI4
 70
     0
  9
$USERI5
 70
     0
  9
$USERR1
 40
0.0
  9
$USERR2
 40
0.0
  9
$USERR3
 40
0.0
  9
$USERR4
 40
0.0
  9
$USERR5
 40
0.0
  9
$WORLDVIEW
 70
     1
  9
$SHADEDGE
 70
     3
  9
$SHADEDIF
 70
    70
  9
$TILEMODE
 70
     1
  9
$MAXACTVP
 70
    15
  9
$PINSBASE
 10
0.0008545028977096
 20
1.250283272183907
 30
0.0
  9
$PLIMCHECK
 70
     0
  9
$PEXTMIN
 10
1.000000000000000E+20
 20
1.000000000000000E+20
 30
1.000000000000000E+20
  9
$PEXTMAX
 10
-1.000000000000000E+20
 20
-1.000000000000000E+20
 30
-1.000000000000000E+20
  9
$PLIMMIN
 10
0.0
 20
0.0
  9
$PLIMMAX
 10
12.0
 20
9.0
  9
$UNITMODE
 70
     0
  9
$VISRETAIN
 70
     0
  9
$PLINEGEN
 70
     0
  9
$PSLTSCALE
 70
     1
  9
$TREEDEPTH
 70
  3020
  9
$CMLSTYLE
  2
STANDARD
  9
$CMLJUST
 70
     0
  9
$CMLSCALE
 40
1.0
  9
$PROXYGRAPHICS
 70
     1
  9
$MEASUREMENT
 70
     0
  9
$CELWEIGHT
370
    -1
  9
$ENDCAPS
280
     0
  9
$JOINSTYLE
280
     0
  9
$LWDISPLAY
290
     0
  9
$INSUNITS
 70
     0
  9
$HYPERLINKBASE
  1

  9
$STYLESHEET
  1

  9
$XEDIT
290
     1
  9
$CEPSNTYPE
380
     0
  9
$PSTYLEMODE
290
     1
  9
$FINGERPRINTGUID
  2
{87333387-62AD-439C-9A54-A3A852F367A0}
  9
$VERSIONGUID
  2
{CFADDDEF-FC8A-4639-B983-3B34DA3EB096}
  9
$EXTNAMES
290
     1
  9
$PSVPSCALE
 40
0.0
  9
$OLESTARTUP
290
     0
  0
ENDSEC
  0
SECTION
  2
CLASSES
  0
CLASS
  1
ACDBDICTIONARYWDFLT
  2
AcDbDictionaryWithDefault
  3
ObjectDBX Classes
 90
        0
280
     0
281
     0
  0
CLASS
  1
ACDBPLACEHOLDER
  2
AcDbPlaceHolder
  3
ObjectDBX Classes
 90
        0
280
     0
281
     0
  0
CLASS
  1
LAYOUT
  2
AcDbLayout
  3
ObjectDBX Classes
 90
        0
280
     0
281
     0
  0
CLASS
  1
DICTIONARYVAR
  2
AcDbDictionaryVar
  3
ObjectDBX Classes
 90
        0
280
     0
281
     0
  0
CLASS
  1
MATERIAL
  2
AcDbMaterial
  3
ObjectDBX Classes
 90
     1024
280
     0
281
     0
  0
CLASS
  1
VISUALSTYLE
  2
AcDbVisualStyle
  3
ObjectDBX Classes
 90
     4095
280
     0
281
     0
  0
CLASS
  1
TABLESTYLE
  2
AcDbTableStyle
  3
ObjectDBX Classes
 90
     4095
280
     0
281
     0
  0
ENDSEC
  0
SECTION
  2
TABLES
  0
TABLE
  2
VPORT
  5
13
330
0
100
AcDbSymbolTable
 70
     1
  0
VPORT
  5
27B
330
13
100
AcDbSymbolTableRecord
100
AcDbViewportTableRecord
  2
*Active
 70
     0
 10
0.0
 20
0.0
 11
1.0
 21
1.0
 12
-14.12895576286938
 22
-15.06844358841782
 13
0.0
 23
0.0
 14
0.5740882589684922
 24
0.5740882589684922
 15
0.5
 25
0.5
 16
0.0
 26
0.0
 36
1.0
 17
0.0
 27
0.0
 37
0.0
 40
8.599306521132289
 41
1.726930320150659
 42
50.0
 43
0.0
 44
0.0
 50
0.0
 51
0.0
 71
     0
 72
   100
 73
     1
 74
     0
 75
     0
 76
     0
 77
     0
 78
     0
281
     0
 65
     1
110
0.0
120
0.0
130
0.0
111
1.0
121
0.0
131
0.0
112
0.0
122
1.0
132
0.0
 79
     0
146
0.0
  0
ENDTAB
  0
TABLE
  2
LTYPE
  5
F
330
0
100
AcDbSymbolTable
 70
     2
  0
LTYPE
  5
10
330
F
100
AcDbSymbolTableRecord
100
AcDbLinetypeTableRecord
  2
BYBLOCK
 70
     0
  3

 72
    65
 73
     0
 40
0.0
  0
LTYPE
  5
6
330
F
100
AcDbSymbolTableRecord
100
AcDbLinetypeTableRecord
  2
BYLAYER
 70
     0
  3

 72
    65
 73
     0
 40
0.0
  0
LTYPE
  5
5
330
F
100
AcDbSymbolTableRecord
100
AcDbLinetypeTableRecord
  2
CONTINUOUS
 70
     0
  3
Solid line
 72
    65
 73
     0
 40
0.0
  0
LTYPE
  5
30
330
F
100
AcDbSymbolTableRecord
100
AcDbLinetypeTableRecord
  2
HIDDEN2
 70
     0
  3
_ _ _ _ _ _ _ _ _ _ _ _ _ _ _ _ _ _ _ _ _ _ _ _
 72
    65
 73
     2
 40
0.1875
 49
0.125
 74
     0
 49
-0.0625
 74
     0
  0
ENDTAB
  0
TABLE
  2
LAYER
  5
B
330
0
100
AcDbSymbolTable
 70
     5
  0
LAYER
  5
C
330
B
100
AcDbSymbolTableRecord
100
AcDbLayerTableRecord
  2
0
 70
     0
 62
     7
  6
CONTINUOUS
370
    -3
390
93
  0
LAYER
  5
4
330
B
100
AcDbSymbolTableRecord
100
AcDbLayerTableRecord
  2
ADP1DETAIL
 70
     0
 62
     7
  6
CONTINUOUS
370
    -3
390
93
  0
LAYER
  5
29
330
B
100
AcDbSymbolTableRecord
100
AcDbLayerTableRecord
  2
DEFPOINTS
 70
     0
 62
     7
  6
CONTINUOUS
290
     0
370
    -3
390
93
  0
LAYER
  5
1C
330
B
100
AcDbSymbolTableRecord
100
AcDbLayerTableRecord
  2
ADPDIM
 70
     0
 62
     3
  6
CONTINUOUS
370
    -3
390
93
  0
LAYER
  5
2F
330
B
100
AcDbSymbolTableRecord
100
AcDbLayerTableRecord
  2
ADP2DETAIL
 70
     0
 62
     5
  6
CONTINUOUS
370
    -3
390
93
  0
ENDTAB
  0
TABLE
  2
STYLE
  5
D
330
0
100
AcDbSymbolTable
 70
     2
  0
STYLE
  5
E
330
D
100
AcDbSymbolTableRecord
100
AcDbTextStyleTableRecord
  2
STANDARD
 70
     0
 40
0.0
 41
1.0
 50
0.0
 71
     0
 42
0.2
  3
txt
  4

  0
STYLE
  5
9A
330
D
100
AcDbSymbolTableRecord
100
AcDbTextStyleTableRecord
  2
ARIAL_WIDE
 70
     0
 40
0.0
 41
1.25
 50
0.0
 71
     0
 42
0.2
  3
ARIAL.TTF
  4

1001
ACAD
1000
Arial
1071
       34
  0
ENDTAB
  0
TABLE
  2
VIEW
  5
11
330
0
100
AcDbSymbolTable
 70
     0
  0
ENDTAB
  0
TABLE
  2
UCS
  5
12
330
0
100
AcDbSymbolTable
 70
     0
  0
ENDTAB
  0
TABLE
  2
APPID
  5
15
330
0
100
AcDbSymbolTable
 70
     1
  0
APPID
  5
16
330
15
100
AcDbSymbolTableRecord
100
AcDbRegAppTableRecord
  2
ACAD
 70
     0
  0
ENDTAB
  0
TABLE
  2
DIMSTYLE
  5
17
330
0
100
AcDbSymbolTable
 70
     1
100
AcDbDimStyleTable
 71
     0
  0
DIMSTYLE
105
1E
102
{ACAD_REACTORS
330
1F
330
3AB
330
3C2
330
3C3
102
}
330
17
100
AcDbSymbolTableRecord
100
AcDbDimStyleTableRecord
  2
STANDARD
 70
     0
340
E
  0
ENDTAB
  0
TABLE
  2
BLOCK_RECORD
  5
1
330
0
100
AcDbSymbolTable
 70
    10
  0
BLOCK_RECORD
  5
2
102
{ACAD_XDICTIONARY
360
116
102
}
330
1
100
AcDbSymbolTableRecord
100
AcDbBlockTableRecord
  2
*MODEL_SPACE
340
96
  0
BLOCK_RECORD
  5
8
102
{ACAD_XDICTIONARY
360
118
102
}
330
1
100
AcDbSymbolTableRecord
100
AcDbBlockTableRecord
  2
*PAPER_SPACE
340
97
  0
BLOCK_RECORD
  5
11A
330
1
100
AcDbSymbolTableRecord
100
AcDbBlockTableRecord
  2
*D0
340
0
  0
BLOCK_RECORD
  5
129
330
1
100
AcDbSymbolTableRecord
100
AcDbBlockTableRecord
  2
*D1
340
0
  0
BLOCK_RECORD
  5
136
330
1
100
AcDbSymbolTableRecord
100
AcDbBlockTableRecord
  2
*D2
340
0
  0
BLOCK_RECORD
  5
362
330
1
100
AcDbSymbolTableRecord
100
AcDbBlockTableRecord
  2
*D3
340
0
  0
BLOCK_RECORD
  5
36F
330
1
100
AcDbSymbolTableRecord
100
AcDbBlockTableRecord
  2
*D4
340
0
  0
BLOCK_RECORD
  5
37C
330
1
100
AcDbSymbolTableRecord
100
AcDbBlockTableRecord
  2
*D5
340
0
  0
BLOCK_RECORD
  5
3C4
330
1
100
AcDbSymbolTableRecord
100
AcDbBlockTableRecord
  2
*D7
340
0
  0
BLOCK_RECORD
  5
3D1
330
1
100
AcDbSymbolTableRecord
100
AcDbBlockTableRecord
  2
*D8
340
0
  0
BLOCK_RECORD
  5
3DE
330
1
100
AcDbSymbolTableRecord
100
AcDbBlockTableRecord
  2
*D9
340
0
  0
ENDTAB
  0
ENDSEC
  0
SECTION
  2
BLOCKS
  0
BLOCK
  5
3
330
2
100
AcDbEntity
  8
0
100
AcDbBlockBegin
  2
*MODEL_SPACE
 70
     0
 10
0.0
 20
0.0
 30
0.0
  3
*MODEL_SPACE
  1

  0
ENDBLK
  5
7
330
2
100
AcDbEntity
  8
0
100
AcDbBlockEnd
  0
BLOCK
  5
9
330
8
100
AcDbEntity
 67
     1
  8
0
100
AcDbBlockBegin
  2
*PAPER_SPACE
 70
     0
 10
0.0
 20
0.0
 30
0.0
  3
*PAPER_SPACE
  1

  0
ENDBLK
  5
A
330
8
100
AcDbEntity
 67
     1
  8
0
100
AcDbBlockEnd
  0
BLOCK
  5
125
330
11A
100
AcDbEntity
  8
0
100
AcDbBlockBegin
  2
*D0
 70
     1
 10
0.0
 20
0.0
 30
0.0
  3
*D0
  1

  0
LINE
  5
2A3
330
11A
100
AcDbEntity
  8
ADPDIM
 62
     0
100
AcDbLine
 10
-15.21719942302814
 20
-16.56551596540938
 30
0.0
 11
-15.21719942302814
 21
-16.89979289349054
 31
0.0
  0
LINE
  5
2A4
330
11A
100
AcDbEntity
  8
ADPDIM
 62
     0
100
AcDbLine
 10
-11.24214190933691
 20
-16.13508860827388
 30
0.0
 11
-11.24214190933691
 21
-16.89979289349054
 31
0.0
  0
LINE
  5
2A5
330
11A
100
AcDbEntity
  8
ADPDIM
 62
     0
100
AcDbLine
 10
-15.21719942302814
 20
-16.71979289349054
 30
0.0
 11
-13.39633733284919
 21
-16.71979289349054
 31
0.0
  0
LINE
  5
2A6
330
11A
100
AcDbEntity
  8
ADPDIM
 62
     0
100
AcDbLine
 10
-11.24214190933691
 20
-16.71979289349054
 30
0.0
 11
-13.06300399951586
 21
-16.71979289349054
 31
0.0
  0
LINE
  5
2A7
330
11A
100
AcDbEntity
  8
ADPDIM
 62
     0
100
AcDbLine
 10
-11.36714190933691
 20
-16.84479289349054
 30
0.0
 11
-11.11714190933691
 21
-16.59479289349054
 31
0.0
  0
LINE
  5
2A8
330
11A
100
AcDbEntity
  8
ADPDIM
 62
     0
100
AcDbLine
 10
-15.34219942302814
 20
-16.84479289349054
 30
0.0
 11
-15.09219942302814
 21
-16.59479289349054
 31
0.0
  0
MTEXT
  5
2A9
330
11A
100
AcDbEntity
  8
ADPDIM
 62
     0
100
AcDbMText
 10
-13.22967066618253
 20
-16.71979289349054
 30
0.0
 40
0.125
 41
0.0
 71
     5
 72
     1
  1
\A1;4
 73
     1
 44
1.0
1001
ACAD
1000
MTEXTBEGIN
1070
    73
1070
     1
1070
    44
1040
1.0
1070
    74
1070
     0
1000
MTEXTEND
  0
POINT
  5
2AA
330
11A
100
AcDbEntity
  8
DEFPOINTS
 62
     0
100
AcDbPoint
 10
-15.21719942302814
 20
-16.50301596540938
 30
0.0
  0
POINT
  5
2AB
330
11A
100
AcDbEntity
  8
DEFPOINTS
 62
     0
100
AcDbPoint
 10
-11.24214190933691
 20
-16.07258860827388
 30
0.0
  0
POINT
  5
2AC
330
11A
100
AcDbEntity
  8
DEFPOINTS
 62
     0
100
AcDbPoint
 10
-11.24214190933691
 20
-16.71979289349054
 30
0.0
  0
ENDBLK
  5
126
330
11A
100
AcDbEntity
  8
0
100
AcDbBlockEnd
  0
BLOCK
  5
134
330
129
100
AcDbEntity
  8
0
100
AcDbBlockBegin
  2
*D1
 70
     1
 10
0.0
 20
0.0
 30
0.0
  3
*D1
  1

  0
LINE
  5
2AF
330
129
100
AcDbEntity
  8
ADPDIM
 62
     0
100
AcDbLine
 10
-19.27277187649161
 20
-15.89731248123236
 30
0.0
 11
-19.27277187649161
 21
-15.48629336529083
 31
0.0
  0
LINE
  5
2B0
330
129
100
AcDbEntity
  8
ADPDIM
 62
     0
100
AcDbLine
 10
-16.53732917290834
 20
-15.98571840385822
 30
0.0
 11
-16.53732917290834
 21
-15.48629336529083
 31
0.0
  0
LINE
  5
2B1
330
129
100
AcDbEntity
  8
ADPDIM
 62
     0
100
AcDbLine
 10
-19.27277187649161
 20
-15.66629336529083
 30
0.0
 11
-18.32171719136664
 21
-15.66629336529083
 31
0.0
  0
LINE
  5
2B2
330
129
100
AcDbEntity
  8
ADPDIM
 62
     0
100
AcDbLine
 10
-16.53732917290834
 20
-15.66629336529083
 30
0.0
 11
-17.4883838580333
 21
-15.66629336529083
 31
0.0
  0
LINE
  5
2B3
330
129
100
AcDbEntity
  8
ADPDIM
 62
     0
100
AcDbLine
 10
-16.66232917290834
 20
-15.79129336529083
 30
0.0
 11
-16.41232917290834
 21
-15.54129336529083
 31
0.0
  0
LINE
  5
2B4
330
129
100
AcDbEntity
  8
ADPDIM
 62
     0
100
AcDbLine
 10
-19.39777187649161
 20
-15.79129336529083
 30
0.0
 11
-19.14777187649161
 21
-15.54129336529083
 31
0.0
  0
MTEXT
  5
2B5
330
129
100
AcDbEntity
  8
ADPDIM
 62
     0
100
AcDbMText
 10
-17.90505052469997
 20
-15.66629336529083
 30
0.0
 40
0.125
 41
0.0
 71
     5
 72
     1
  1
\A1;2 3/4
 73
     1
 44
1.0
1001
ACAD
1000
MTEXTBEGIN
1070
    73
1070
     1
1070
    44
1040
1.0
1070
    74
1070
     0
1000
MTEXTEND
  0
POINT
  5
2B6
330
129
100
AcDbEntity
  8
DEFPOINTS
 62
     0
100
AcDbPoint
 10
-19.27277187649161
 20
-15.95981248123236
 30
0.0
  0
POINT
  5
2B7
330
129
100
AcDbEntity
  8
DEFPOINTS
 62
     0
100
AcDbPoint
 10
-16.53732917290834
 20
-16.04821840385822
 30
0.0
  0
POINT
  5
2B8
330
129
100
AcDbEntity
  8
DEFPOINTS
 62
     0
100
AcDbPoint
 10
-16.53732917290834
 20
-15.66629336529083
 30
0.0
  0
ENDBLK
  5
135
330
129
100
AcDbEntity
  8
0
100
AcDbBlockEnd
  0
BLOCK
  5
141
330
136
100
AcDbEntity
  8
0
100
AcDbBlockBegin
  2
*D2
 70
     1
 10
0.0
 20
0.0
 30
0.0
  3
*D2
  1

  0
LINE
  5
2B9
330
136
100
AcDbEntity
  8
ADPDIM
 62
     0
100
AcDbLine
 10
-18.66919394960627
 20
-16.62055384280362
 30
0.0
 11
-18.66919394960627
 21
-16.92657010992544
 31
0.0
  0
LINE
  5
2BA
330
136
100
AcDbEntity
  8
ADPDIM
 62
     0
100
AcDbLine
 10
-17.13509997108949
 20
-16.62055384280362
 30
0.0
 11
-17.13509997108949
 21
-16.92657010992544
 31
0.0
  0
LINE
  5
2BB
330
136
100
AcDbEntity
  8
ADPDIM
 62
     0
100
AcDbLine
 10
-18.66919394960627
 20
-16.74657010992544
 30
0.0
 11
-18.27714696034788
 21
-16.74657010992544
 31
0.0
  0
LINE
  5
2BC
330
136
100
AcDbEntity
  8
ADPDIM
 62
     0
100
AcDbLine
 10
-17.13509997108949
 20
-16.74657010992544
 30
0.0
 11
-17.52714696034788
 21
-16.74657010992544
 31
0.0
  0
LINE
  5
2BD
330
136
100
AcDbEntity
  8
ADPDIM
 62
     0
100
AcDbLine
 10
-17.26009997108949
 20
-16.87157010992544
 30
0.0
 11
-17.01009997108949
 21
-16.62157010992544
 31
0.0
  0
LINE
  5
2BE
330
136
100
AcDbEntity
  8
ADPDIM
 62
     0
100
AcDbLine
 10
-18.79419394960627
 20
-16.87157010992544
 30
0.0
 11
-18.54419394960627
 21
-16.62157010992544
 31
0.0
  0
MTEXT
  5
2BF
330
136
100
AcDbEntity
  8
ADPDIM
 62
     0
100
AcDbMText
 10
-17.90214696034788
 20
-16.74657010992544
 30
0.0
 40
0.125
 41
0.0
 71
     5
 72
     1
  1
\A1;1 1/2
 73
     1
 44
1.0
1001
ACAD
1000
MTEXTBEGIN
1070
    73
1070
     1
1070
    44
1040
1.0
1070
    74
1070
     0
1000
MTEXTEND
  0
POINT
  5
2C0
330
136
100
AcDbEntity
  8
DEFPOINTS
 62
     0
100
AcDbPoint
 10
-18.66919394960627
 20
-16.55805384280363
 30
0.0
  0
POINT
  5
2C1
330
136
100
AcDbEntity
  8
DEFPOINTS
 62
     0
100
AcDbPoint
 10
-17.13509997108949
 20
-16.55805384280363
 30
0.0
  0
POINT
  5
2C2
330
136
100
AcDbEntity
  8
DEFPOINTS
 62
     0
100
AcDbPoint
 10
-17.13509997108949
 20
-16.74657010992544
 30
0.0
  0
ENDBLK
  5
142
330
136
100
AcDbEntity
  8
0
100
AcDbBlockEnd
  0
BLOCK
  5
363
330
362
100
AcDbEntity
  8
0
100
AcDbBlockBegin
  2
*D3
 70
     1
 10
0.0
 20
0.0
 30
0.0
  3
*D3
  1

  0
LINE
  5
364
330
362
100
AcDbEntity
  8
0
  6
ByBlock
 62
     0
100
AcDbLine
 10
14.33308070905292
 20
-15.80657860360492
 30
0.0
 11
14.33308070905292
 21
-15.39555948766339
 31
0.0
  0
LINE
  5
365
330
362
100
AcDbEntity
  8
0
  6
ByBlock
 62
     0
100
AcDbLine
 10
17.06852341263618
 20
-15.89498452623078
 30
0.0
 11
17.06852341263618
 21
-15.39555948766339
 31
0.0
  0
LINE
  5
366
330
362
100
AcDbEntity
  8
0
  6
ByBlock
 62
     0
100
AcDbLine
 10
14.33308070905292
 20
-15.57555948766339
 30
0.0
 11
15.28413539417789
 21
-15.57555948766339
 31
0.0
  0
LINE
  5
367
330
362
100
AcDbEntity
  8
0
  6
ByBlock
 62
     0
100
AcDbLine
 10
17.06852341263618
 20
-15.57555948766339
 30
0.0
 11
16.11746872751122
 21
-15.57555948766339
 31
0.0
  0
LINE
  5
368
330
362
100
AcDbEntity
  8
0
  6
ByBlock
 62
     0
100
AcDbLine
 10
14.20808070905292
 20
-15.70055948766339
 30
0.0
 11
14.45808070905292
 21
-15.45055948766339
 31
0.0
  0
LINE
  5
369
330
362
100
AcDbEntity
  8
0
  6
ByBlock
 62
     0
100
AcDbLine
 10
16.94352341263618
 20
-15.70055948766339
 30
0.0
 11
17.19352341263618
 21
-15.45055948766339
 31
0.0
  0
TEXT
  5
36A
330
362
100
AcDbEntity
  8
0
  6
ByBlock
 62
     0
100
AcDbText
 10
15.40913539417788
 20
-15.63805948766339
 30
0.0
 40
0.125
  1
2 3/4
 72
     1
 11
15.70080206084455
 21
-15.57555948766339
 31
0.0
100
AcDbText
 73
     2
  0
POINT
  5
36B
330
362
100
AcDbEntity
  8
DEFPOINTS
  6
ByBlock
 62
     0
100
AcDbPoint
 10
14.33308070905292
 20
-15.86907860360492
 30
0.0
  0
POINT
  5
36C
330
362
100
AcDbEntity
  8
DEFPOINTS
  6
ByBlock
 62
     0
100
AcDbPoint
 10
17.06852341263618
 20
-15.95748452623078
 30
0.0
  0
POINT
  5
36D
330
362
100
AcDbEntity
  8
DEFPOINTS
  6
ByBlock
 62
     0
100
AcDbPoint
 10
17.06852341263618
 20
-15.57555948766339
 30
0.0
  0
ENDBLK
  5
36E
330
362
100
AcDbEntity
  8
0
100
AcDbBlockEnd
  0
BLOCK
  5
370
330
36F
100
AcDbEntity
  8
0
100
AcDbBlockBegin
  2
*D4
 70
     1
 10
0.0
 20
0.0
 30
0.0
  3
*D4
  1

  0
LINE
  5
371
330
36F
100
AcDbEntity
  8
ADPDIM
 62
     0
370
    -2
100
AcDbLine
 10
10.74654763067705
 20
-10.41411160041005
 30
0.0
 11
10.74654763067705
 21
-10.72012786753186
 31
0.0
  0
LINE
  5
372
330
36F
100
AcDbEntity
  8
ADPDIM
 62
     0
370
    -2
100
AcDbLine
 10
12.28064160919384
 20
-10.41411160041005
 30
0.0
 11
12.28064160919384
 21
-10.72012786753186
 31
0.0
  0
LINE
  5
373
330
36F
100
AcDbEntity
  8
ADPDIM
 62
     0
370
    -2
100
AcDbLine
 10
10.74654763067705
 20
-10.54012786753186
 30
0.0
 11
11.01359461993545
 21
-10.54012786753186
 31
0.0
  0
LINE
  5
374
330
36F
100
AcDbEntity
  8
ADPDIM
 62
     0
370
    -2
100
AcDbLine
 10
12.28064160919384
 20
-10.54012786753186
 30
0.0
 11
12.01359461993545
 21
-10.54012786753186
 31
0.0
  0
LINE
  5
375
330
36F
100
AcDbEntity
  8
ADPDIM
 62
     0
370
    -2
100
AcDbLine
 10
12.15564160919385
 20
-10.66512786753186
 30
0.0
 11
12.40564160919384
 21
-10.41512786753186
 31
0.0
  0
LINE
  5
376
330
36F
100
AcDbEntity
  8
ADPDIM
 62
     0
370
    -2
100
AcDbLine
 10
10.62154763067705
 20
-10.66512786753186
 30
0.0
 11
10.87154763067705
 21
-10.41512786753186
 31
0.0
  0
MTEXT
  5
377
330
36F
100
AcDbEntity
  8
ADPDIM
 62
     0
100
AcDbMText
 10
11.51359461993544
 20
-10.54012786753186
 30
0.0
 40
0.125
 41
0.0
 71
     5
 72
     1
  1
\A1;1 17/32
 73
     1
 44
1.0
1001
ACAD
1000
MTEXTBEGIN
1070
    73
1070
     1
1070
    44
1040
1.0
1070
    74
1070
     0
1000
MTEXTEND
  0
POINT
  5
378
330
36F
100
AcDbEntity
  8
DEFPOINTS
 62
     0
100
AcDbPoint
 10
10.74654763067705
 20
-10.35161160041005
 30
0.0
  0
POINT
  5
379
330
36F
100
AcDbEntity
  8
DEFPOINTS
 62
     0
100
AcDbPoint
 10
12.28064160919384
 20
-10.35161160041005
 30
0.0
  0
POINT
  5
37A
330
36F
100
AcDbEntity
  8
DEFPOINTS
 62
     0
100
AcDbPoint
 10
12.28064160919384
 20
-10.54012786753186
 30
0.0
  0
ENDBLK
  5
37B
330
36F
100
AcDbEntity
  8
0
100
AcDbBlockEnd
  0
BLOCK
  5
37D
330
37C
100
AcDbEntity
  8
0
100
AcDbBlockBegin
  2
*D5
 70
     1
 10
0.0
 20
0.0
 30
0.0
  3
*D5
  1

  0
LINE
  5
37E
330
37C
100
AcDbEntity
  8
ADPDIM
 62
     0
370
    -2
100
AcDbLine
 10
10.87126851556874
 20
-10.10275222393672
 30
0.0
 11
10.87126851556874
 21
-10.39181977054677
 31
0.0
  0
LINE
  5
37F
330
37C
100
AcDbEntity
  8
ADPDIM
 62
     0
370
    -2
100
AcDbLine
 10
12.15251851556875
 20
-10.10275222393672
 30
0.0
 11
12.15251851556875
 21
-10.39181977054677
 31
0.0
  0
LINE
  5
380
330
37C
100
AcDbEntity
  8
ADPDIM
 62
     0
370
    -2
100
AcDbLine
 10
10.87126851556874
 20
-10.21181977054677
 30
0.0
 11
11.05356018223541
 21
-10.21181977054677
 31
0.0
  0
LINE
  5
381
330
37C
100
AcDbEntity
  8
ADPDIM
 62
     0
370
    -2
100
AcDbLine
 10
12.15251851556875
 20
-10.21181977054677
 30
0.0
 11
11.97022684890208
 21
-10.21181977054677
 31
0.0
  0
LINE
  5
382
330
37C
100
AcDbEntity
  8
ADPDIM
 62
     0
370
    -2
100
AcDbLine
 10
12.02751851556875
 20
-10.33681977054677
 30
0.0
 11
12.27751851556875
 21
-10.08681977054677
 31
0.0
  0
LINE
  5
383
330
37C
100
AcDbEntity
  8
ADPDIM
 62
     0
370
    -2
100
AcDbLine
 10
10.74626851556874
 20
-10.33681977054677
 30
0.0
 11
10.99626851556874
 21
-10.08681977054677
 31
0.0
  0
MTEXT
  5
384
330
37C
100
AcDbEntity
  8
ADPDIM
 62
     0
100
AcDbMText
 10
11.51189351556874
 20
-10.21181977054677
 30
0.0
 40
0.125
 41
0.0
 71
     5
 72
     1
  1
\A1;1 9/32
 73
     1
 44
1.0
1001
ACAD
1000
MTEXTBEGIN
1070
    73
1070
     1
1070
    44
1040
1.0
1070
    74
1070
     0
1000
MTEXTEND
  0
POINT
  5
385
330
37C
100
AcDbEntity
  8
DEFPOINTS
 62
     0
100
AcDbPoint
 10
10.87126851556874
 20
-10.04025222393672
 30
0.0
  0
POINT
  5
386
330
37C
100
AcDbEntity
  8
DEFPOINTS
 62
     0
100
AcDbPoint
 10
12.15251851556875
 20
-10.04025222393672
 30
0.0
  0
POINT
  5
387
330
37C
100
AcDbEntity
  8
DEFPOINTS
 62
     0
100
AcDbPoint
 10
12.15251851556875
 20
-10.21181977054677
 30
0.0
  0
ENDBLK
  5
388
330
37C
100
AcDbEntity
  8
0
100
AcDbBlockEnd
  0
BLOCK
  5
3CF
330
3C4
100
AcDbEntity
  8
0
100
AcDbBlockBegin
  2
*D7
 70
     1
 10
0.0
 20
0.0
 30
0.0
  3
*D7
  1

  0
LINE
  5
427
330
3C4
100
AcDbEntity
  8
ADPDIM
 62
     0
370
    -2
100
AcDbLine
 10
-18.57393277346675
 20
-15.98056934021102
 30
0.0
 11
-18.57393277346675
 21
-15.56955022426949
 31
0.0
  0
LINE
  5
428
330
3C4
100
AcDbEntity
  8
ADPDIM
 62
     0
370
    -2
100
AcDbLine
 10
-15.83849006988349
 20
-16.06897526283688
 30
0.0
 11
-15.83849006988349
 21
-15.56955022426949
 31
0.0
  0
LINE
  5
429
330
3C4
100
AcDbEntity
  8
ADPDIM
 62
     0
370
    -2
100
AcDbLine
 10
-18.39393277346675
 20
-15.74955022426949
 30
0.0
 11
-17.58787808834179
 21
-15.74955022426949
 31
0.0
  0
LINE
  5
42A
330
3C4
100
AcDbEntity
  8
ADPDIM
 62
     0
370
    -2
100
AcDbLine
 10
-16.01849006988349
 20
-15.74955022426949
 30
0.0
 11
-16.82454475500845
 21
-15.74955022426949
 31
0.0
  0
SOLID
  5
42B
330
3C4
100
AcDbEntity
  8
ADPDIM
 62
     0
100
AcDbTrace
 10
-18.39393277346675
 20
-15.71955022426949
 30
0.0
 11
-18.39393277346675
 21
-15.77955022426949
 31
0.0
 12
-18.57393277346675
 22
-15.74955022426949
 32
0.0
 13
-18.57393277346675
 23
-15.74955022426949
 33
0.0
  0
SOLID
  5
42C
330
3C4
100
AcDbEntity
  8
ADPDIM
 62
     0
100
AcDbTrace
 10
-16.01849006988349
 20
-15.71955022426949
 30
0.0
 11
-16.01849006988349
 21
-15.77955022426949
 31
0.0
 12
-15.83849006988349
 22
-15.74955022426949
 32
0.0
 13
-15.83849006988349
 23
-15.74955022426949
 33
0.0
  0
MTEXT
  5
42D
330
3C4
100
AcDbEntity
  8
ADPDIM
 62
     0
100
AcDbMText
 10
-17.20621142167512
 20
-15.74955022426949
 30
0.0
 40
0.125
 41
0.0
 71
     5
 72
     1
  1
\A1;2 3/4
 73
     1
 44
1.0
1001
ACAD
1000
MTEXTBEGIN
1070
    73
1070
     1
1070
    44
1040
1.0
1070
    74
1070
     0
1000
MTEXTEND
  0
POINT
  5
42E
330
3C4
100
AcDbEntity
  8
DEFPOINTS
 62
     0
100
AcDbPoint
 10
-18.57393277346675
 20
-16.04306934021102
 30
0.0
  0
POINT
  5
42F
330
3C4
100
AcDbEntity
  8
DEFPOINTS
 62
     0
100
AcDbPoint
 10
-15.83849006988349
 20
-16.13147526283689
 30
0.0
  0
POINT
  5
430
330
3C4
100
AcDbEntity
  8
DEFPOINTS
 62
     0
100
AcDbPoint
 10
-15.83849006988349
 20
-15.74955022426949
 30
0.0
  0
ENDBLK
  5
3D0
330
3C4
100
AcDbEntity
  8
0
100
AcDbBlockEnd
  0
BLOCK
  5
3DC
330
3D1
100
AcDbEntity
  8
0
100
AcDbBlockBegin
  2
*D8
 70
     1
 10
0.0
 20
0.0
 30
0.0
  3
*D8
  1

  0
LINE
  5
3F5
330
3D1
100
AcDbEntity
  8
ADPDIM
 62
     0
370
    -2
100
AcDbLine
 10
-17.97042320827844
 20
-16.66171024347609
 30
0.0
 11
-17.97042320827844
 21
-16.9677265105979
 31
0.0
  0
LINE
  5
3F6
330
3D1
100
AcDbEntity
  8
ADPDIM
 62
     0
370
    -2
100
AcDbLine
 10
-16.43632922976165
 20
-16.66171024347609
 30
0.0
 11
-16.43632922976165
 21
-16.9677265105979
 31
0.0
  0
LINE
  5
3F7
330
3D1
100
AcDbEntity
  8
ADPDIM
 62
     0
370
    -2
100
AcDbLine
 10
-17.97042320827844
 20
-16.7877265105979
 30
0.0
 11
-17.70337621902004
 21
-16.7877265105979
 31
0.0
  0
LINE
  5
3F8
330
3D1
100
AcDbEntity
  8
ADPDIM
 62
     0
370
    -2
100
AcDbLine
 10
-16.43632922976165
 20
-16.7877265105979
 30
0.0
 11
-16.70337621902004
 21
-16.7877265105979
 31
0.0
  0
LINE
  5
3F9
330
3D1
100
AcDbEntity
  8
ADPDIM
 62
     0
370
    -2
100
AcDbLine
 10
-16.56132922976165
 20
-16.9127265105979
 30
0.0
 11
-16.31132922976165
 21
-16.6627265105979
 31
0.0
  0
LINE
  5
3FA
330
3D1
100
AcDbEntity
  8
ADPDIM
 62
     0
370
    -2
100
AcDbLine
 10
-18.09542320827844
 20
-16.9127265105979
 30
0.0
 11
-17.84542320827844
 21
-16.6627265105979
 31
0.0
  0
MTEXT
  5
3FB
330
3D1
100
AcDbEntity
  8
ADPDIM
 62
     0
100
AcDbMText
 10
-17.20337621902004
 20
-16.7877265105979
 30
0.0
 40
0.125
 41
0.0
 71
     5
 72
     1
  1
\A1;1 17/32
 73
     1
 44
1.0
1001
ACAD
1000
MTEXTBEGIN
1070
    73
1070
     1
1070
    44
1040
1.0
1070
    74
1070
     0
1000
MTEXTEND
  0
POINT
  5
3FC
330
3D1
100
AcDbEntity
  8
DEFPOINTS
 62
     0
100
AcDbPoint
 10
-17.97042320827844
 20
-16.59921024347609
 30
0.0
  0
POINT
  5
3FD
330
3D1
100
AcDbEntity
  8
DEFPOINTS
 62
     0
100
AcDbPoint
 10
-16.43632922976165
 20
-16.59921024347609
 30
0.0
  0
POINT
  5
3FE
330
3D1
100
AcDbEntity
  8
DEFPOINTS
 62
     0
100
AcDbPoint
 10
-16.43632922976165
 20
-16.7877265105979
 30
0.0
  0
ENDBLK
  5
3DD
330
3D1
100
AcDbEntity
  8
0
100
AcDbBlockEnd
  0
BLOCK
  5
3E9
330
3DE
100
AcDbEntity
  8
0
100
AcDbBlockBegin
  2
*D9
 70
     1
 10
0.0
 20
0.0
 30
0.0
  3
*D9
  1

  0
LINE
  5
3FF
330
3DE
100
AcDbEntity
  8
ADPDIM
 62
     0
370
    -2
100
AcDbLine
 10
-17.84570232338675
 20
-16.35035086700276
 30
0.0
 11
-17.84570232338675
 21
-16.63941841361281
 31
0.0
  0
LINE
  5
400
330
3DE
100
AcDbEntity
  8
ADPDIM
 62
     0
370
    -2
100
AcDbLine
 10
-16.56445232338674
 20
-16.35035086700276
 30
0.0
 11
-16.56445232338674
 21
-16.63941841361281
 31
0.0
  0
LINE
  5
401
330
3DE
100
AcDbEntity
  8
ADPDIM
 62
     0
370
    -2
100
AcDbLine
 10
-17.84570232338675
 20
-16.45941841361281
 30
0.0
 11
-17.66341065672008
 21
-16.45941841361281
 31
0.0
  0
LINE
  5
402
330
3DE
100
AcDbEntity
  8
ADPDIM
 62
     0
370
    -2
100
AcDbLine
 10
-16.56445232338674
 20
-16.45941841361281
 30
0.0
 11
-16.74674399005341
 21
-16.45941841361281
 31
0.0
  0
LINE
  5
403
330
3DE
100
AcDbEntity
  8
ADPDIM
 62
     0
370
    -2
100
AcDbLine
 10
-16.68945232338674
 20
-16.58441841361281
 30
0.0
 11
-16.43945232338674
 21
-16.33441841361281
 31
0.0
  0
LINE
  5
404
330
3DE
100
AcDbEntity
  8
ADPDIM
 62
     0
370
    -2
100
AcDbLine
 10
-17.97070232338675
 20
-16.58441841361281
 30
0.0
 11
-17.72070232338675
 21
-16.33441841361281
 31
0.0
  0
MTEXT
  5
405
330
3DE
100
AcDbEntity
  8
ADPDIM
 62
     0
100
AcDbMText
 10
-17.20507732338674
 20
-16.45941841361281
 30
0.0
 40
0.125
 41
0.0
 71
     5
 72
     1
  1
\A1;1 9/32
 73
     1
 44
1.0
1001
ACAD
1000
MTEXTBEGIN
1070
    73
1070
     1
1070
    44
1040
1.0
1070
    74
1070
     0
1000
MTEXTEND
  0
POINT
  5
406
330
3DE
100
AcDbEntity
  8
DEFPOINTS
 62
     0
100
AcDbPoint
 10
-17.84570232338675
 20
-16.28785086700276
 30
0.0
  0
POINT
  5
407
330
3DE
100
AcDbEntity
  8
DEFPOINTS
 62
     0
100
AcDbPoint
 10
-16.56445232338674
 20
-16.28785086700276
 30
0.0
  0
POINT
  5
408
330
3DE
100
AcDbEntity
  8
DEFPOINTS
 62
     0
100
AcDbPoint
 10
-16.56445232338674
 20
-16.45941841361281
 30
0.0
  0
ENDBLK
  5
3EA
330
3DE
100
AcDbEntity
  8
0
100
AcDbBlockEnd
  0
ENDSEC
  0
SECTION
  2
ENTITIES
  0
DIMENSION
  5
1F
330
2
100
AcDbEntity
  8
ADPDIM
100
AcDbDimension
  2
*D0
 10
-11.24214190933691
 20
-16.71979289349054
 30
0.0
 11
-13.22967066618253
 21
-16.71979289349054
 31
0.0
 70
    32
 71
     5
 42
-1.0
  3
STANDARD
100
AcDbAlignedDimension
 13
-15.21719942302814
 23
-16.50301596540938
 33
0.0
 14
-11.24214190933691
 24
-16.07258860827388
 34
0.0
100
AcDbRotatedDimension
1001
ACAD
1000
DSTYLE
1002
{
1070
   270
1070
     7
1070
   270
1070
     7
1070
   270
1070
     7
1070
   270
1070
     7
1070
    41
1040
0.125
1070
    73
1070
     0
1070
    74
1070
     0
1070
    78
1070
     2
1070
   140
1040
0.125
1070
   141
1040
0.1875
1070
   142
1040
0.125
1070
   147
1040
0.125
1070
   171
1070
     1
1070
   271
1070
     2
1070
   276
1070
     2
1070
   277
1070
     5
1002
}
  0
LINE
  5
2E
330
2
100
AcDbEntity
  8
ADP2DETAIL
  6
HIDDEN2
100
AcDbLine
 10
-12.06114378799139
 20
-13.28291126729972
 30
0.0
 11
-12.06114378799139
 21
-14.45834798468292
 31
0.0
  0
LINE
  5
31
330
2
100
AcDbEntity
  8
ADP2DETAIL
  6
HIDDEN2
100
AcDbLine
 10
-11.96719942302814
 20
-16.13136796552065
 30
0.0
 11
-11.96719942302814
 21
-16.26214261313365
 31
0.0
  0
LINE
  5
32
330
2
100
AcDbEntity
  8
ADP2DETAIL
  6
HIDDEN2
100
AcDbLine
 10
-12.08392055617186
 20
-16.13136796552065
 30
0.0
 11
-11.96719942302814
 21
-16.13136796552065
 31
0.0
  0
LINE
  5
33
330
2
100
AcDbEntity
  8
ADP2DETAIL
  6
HIDDEN2
100
AcDbLine
 10
-12.08392055617186
 20
-16.03606251223135
 30
0.0
 11
-12.08392055617186
 21
-16.13136796552064
 31
0.0
  0
LINE
  5
34
330
2
100
AcDbEntity
  8
ADP2DETAIL
  6
HIDDEN2
100
AcDbLine
 10
-11.86719942302814
 20
-16.26214261313364
 30
0.0
 11
-11.86719942302814
 21
-16.50301596540938
 31
0.0
  0
LINE
  5
35
330
2
100
AcDbEntity
  8
ADP2DETAIL
  6
HIDDEN2
100
AcDbLine
 10
-15.21719942302814
 20
-16.03606251223135
 30
0.0
 11
-11.38479376953029
 21
-16.03606251223135
 31
0.0
  0
LINE
  5
36
330
2
100
AcDbEntity
  8
ADP2DETAIL
  6
HIDDEN2
100
AcDbLine
 10
-15.21719942302814
 20
-16.26214261313364
 30
0.0
 11
-11.88487315955825
 21
-16.26214261313364
 31
0.0
  0
LINE
  5
37
330
2
100
AcDbEntity
  8
ADP1DETAIL
100
AcDbLine
 10
-15.21719942302814
 20
-16.37522505031337
 30
0.0
 11
-11.33009475051341
 21
-16.37522505031337
 31
0.0
  0
LINE
  5
38
330
2
100
AcDbEntity
  8
ADP1DETAIL
100
AcDbLine
 10
-15.21719942302814
 20
-16.07258860827388
 30
0.0
 11
-11.24214190933691
 21
-16.07258860827388
 31
0.0
  0
LINE
  5
39
330
2
100
AcDbEntity
  8
ADP1DETAIL
100
AcDbLine
 10
-12.01375129036889
 20
-15.87501755437604
 30
0.0
 11
-11.24214190933691
 21
-16.07258860827388
 31
0.0
  0
LINE
  5
3A
330
2
100
AcDbEntity
  8
ADP2DETAIL
  6
HIDDEN2
100
AcDbLine
 10
-12.71719942302814
 20
-16.03606251223135
 30
0.0
 11
-12.71719942302814
 21
-16.13136796552064
 31
0.0
  0
LINE
  5
3B
330
2
100
AcDbEntity
  8
ADP2DETAIL
  6
HIDDEN2
100
AcDbLine
 10
-15.21719942302814
 20
-16.13136796552065
 30
0.0
 11
-12.71719942302814
 21
-16.13136796552064
 31
0.0
  0
LINE
  5
3C
330
2
100
AcDbEntity
  8
0
100
AcDbLine
 10
-11.834071631431
 20
-16.50301596540938
 30
0.0
 11
-11.33009475051341
 21
-16.37522505031337
 31
0.0
  0
LINE
  5
3D
330
2
100
AcDbEntity
  8
0
100
AcDbLine
 10
-11.24214190933691
 20
-16.07258860827388
 30
0.0
 11
-11.33009475051341
 21
-16.37522505031337
 31
0.0
  0
LINE
  5
3E
330
2
100
AcDbEntity
  8
ADP1DETAIL
100
AcDbLine
 10
-11.834071631431
 20
-16.50301596540938
 30
0.0
 11
-15.21719942302814
 21
-16.50301596540938
 31
0.0
  0
LINE
  5
3F
330
2
100
AcDbEntity
  8
ADP1DETAIL
100
AcDbLine
 10
-15.21719942302814
 20
-15.87501755437604
 30
0.0
 11
-12.01375129036889
 21
-15.87501755437604
 31
0.0
  0
LINE
  5
40
330
2
100
AcDbEntity
  8
ADP1DETAIL
100
AcDbLine
 10
-15.21719942302814
 20
-16.50301596540938
 30
0.0
 11
-15.21719942302814
 21
-15.87501755437604
 31
0.0
  0
ARC
  5
41
330
2
100
AcDbEntity
  8
ADP1DETAIL
100
AcDbCircle
 10
-11.27719942302814
 20
-12.55562962599132
 30
0.0
 40
0.06
100
AcDbArc
 50
0.0
 51
90.0
  0
ARC
  5
42
330
2
100
AcDbEntity
  8
ADP1DETAIL
100
AcDbCircle
 10
-11.27719942302814
 20
-15.18562962599132
 30
0.0
 40
0.06
100
AcDbArc
 50
270.0
 51
0.0
  0
LINE
  5
43
330
2
100
AcDbEntity
  8
ADP2DETAIL
  6
HIDDEN2
100
AcDbLine
 10
-15.21719942302814
 20
-13.70302747766649
 30
0.0
 11
-12.71719942302814
 21
-13.70302747766649
 31
0.0
  0
LINE
  5
44
330
2
100
AcDbEntity
  8
ADP2DETAIL
  6
HIDDEN2
100
AcDbLine
 10
-15.21719942302814
 20
-13.28291126729972
 30
0.0
 11
-12.06114378799139
 21
-13.28291126729972
 31
0.0
  0
LINE
  5
45
330
2
100
AcDbEntity
  8
ADP2DETAIL
  6
HIDDEN2
100
AcDbLine
 10
-15.21719942302814
 20
-14.45834798468292
 30
0.0
 11
-12.06114378799139
 21
-14.45834798468292
 31
0.0
  0
LINE
  5
46
330
2
100
AcDbEntity
  8
ADP2DETAIL
  6
HIDDEN2
100
AcDbLine
 10
-15.21719942302814
 20
-14.03823177431615
 30
0.0
 11
-12.71719942302814
 21
-14.03823177431615
 31
0.0
  0
LINE
  5
4F
330
2
100
AcDbEntity
  8
ADP2DETAIL
  6
HIDDEN2
100
AcDbLine
 10
-15.21719942302814
 20
-13.10527587803749
 30
0.0
 11
-11.86719942302814
 21
-13.10527587803749
 31
0.0
  0
LINE
  5
50
330
2
100
AcDbEntity
  8
ADP2DETAIL
  6
HIDDEN2
100
AcDbLine
 10
-15.21719942302814
 20
-13.23398796701166
 30
0.0
 11
-11.96719942302814
 21
-13.23398796701166
 31
0.0
  0
LINE
  5
51
330
2
100
AcDbEntity
  8
ADP2DETAIL
  6
HIDDEN2
100
AcDbLine
 10
-15.21719942302814
 20
-12.59042760619849
 30
0.0
 11
-11.36719942302814
 21
-12.59042760619849
 31
0.0
  0
LINE
  5
52
330
2
100
AcDbEntity
  8
ADP2DETAIL
  6
HIDDEN2
100
AcDbLine
 10
-11.36719942302814
 20
-12.59042760619849
 30
0.0
 11
-11.36719942302814
 21
-15.15083164578415
 31
0.0
  0
LINE
  5
53
330
2
100
AcDbEntity
  8
ADP2DETAIL
  6
HIDDEN2
100
AcDbLine
 10
-11.86719942302814
 20
-13.10527587803749
 30
0.0
 11
-11.86719942302814
 21
-14.63598337394515
 31
0.0
  0
LINE
  5
54
330
2
100
AcDbEntity
  8
ADP2DETAIL
  6
HIDDEN2
100
AcDbLine
 10
-12.71719942302814
 20
-13.70302747766649
 30
0.0
 11
-12.71719942302814
 21
-14.03823177431615
 31
0.0
  0
LINE
  5
55
330
2
100
AcDbEntity
  8
ADP2DETAIL
  6
HIDDEN2
100
AcDbLine
 10
-15.21719942302814
 20
-14.50727128497099
 30
0.0
 11
-11.96719942302814
 21
-14.50727128497099
 31
0.0
  0
LINE
  5
56
330
2
100
AcDbEntity
  8
ADP2DETAIL
  6
HIDDEN2
100
AcDbLine
 10
-15.21719942302814
 20
-14.63598337394515
 30
0.0
 11
-11.86719942302814
 21
-14.63598337394515
 31
0.0
  0
LINE
  5
57
330
2
100
AcDbEntity
  8
ADP2DETAIL
  6
HIDDEN2
100
AcDbLine
 10
-11.96719942302814
 20
-13.23398796701166
 30
0.0
 11
-11.96719942302814
 21
-14.50727128497099
 31
0.0
  0
LINE
  5
58
330
2
100
AcDbEntity
  8
ADP2DETAIL
  6
HIDDEN2
100
AcDbLine
 10
-15.21719942302814
 20
-15.15083164578415
 30
0.0
 11
-11.36719942302814
 21
-15.15083164578415
 31
0.0
  0
LINE
  5
59
330
2
100
AcDbEntity
  8
ADP1DETAIL
100
AcDbLine
 10
-15.21719942302814
 20
-15.24562962599132
 30
0.0
 11
-15.21719942302814
 21
-12.49562962599132
 31
0.0
  0
LINE
  5
5A
330
2
100
AcDbEntity
  8
ADP1DETAIL
100
AcDbLine
 10
-11.27719942302814
 20
-15.24562962599132
 30
0.0
 11
-15.21719942302814
 21
-15.24562962599132
 31
0.0
  0
LINE
  5
5B
330
2
100
AcDbEntity
  8
ADP1DETAIL
100
AcDbLine
 10
-11.21719942302814
 20
-12.55562962599132
 30
0.0
 11
-11.21719942302814
 21
-15.18562962599132
 31
0.0
  0
LINE
  5
5C
330
2
100
AcDbEntity
  8
ADP1DETAIL
100
AcDbLine
 10
-15.21719942302814
 20
-12.49562962599132
 30
0.0
 11
-11.27719942302814
 21
-12.49562962599132
 31
0.0
  0
TEXT
  5
9B
330
2
100
AcDbEntity
  8
ADPDIM
100
AcDbText
 10
-21.91873634321914
 20
-17.61885562927875
 30
0.0
 40
0.125
  1
J U L I U S  B L U M  &  C O . ,  I N C .      ( 8 0 0 )  5 2 6 - 6 2 9 3        W W W . J U L I U S B L U M . C O M        P A R T  N o .  4 5 7 4 - N
 41
1.25
  7
ARIAL_WIDE
 72
     1
 11
-15.21719942302814
 21
-17.49385562927875
 31
0.0
100
AcDbText
 73
     3
  0
LINE
  5
3A9
330
2
100
AcDbEntity
  8
0
100
AcDbLine
 10
-16.55687780790727
 20
-16.33995132530896
 30
0.0
 11
-16.45687780790727
 21
-16.33995132530896
 31
0.0
  0
ARC
  5
3AA
330
2
100
AcDbEntity
  8
0
100
AcDbCircle
 10
-17.20737780790727
 20
-22.02695132530896
 30
0.0
 40
6.062
100
AcDbArc
 50
77.14144657021669
 51
89.98939599811327
  0
DIMENSION
  5
3AB
330
2
100
AcDbEntity
  8
ADPDIM
100
AcDbDimension
  2
*D7
 10
-15.83849006988349
 20
-15.74955022426949
 30
0.0
 11
-17.20621142167512
 21
-15.74955022426949
 31
0.0
 70
    32
 71
     5
 42
2.735442703583261
  3
STANDARD
100
AcDbAlignedDimension
 13
-18.57393277346675
 23
-16.04306934021102
 33
0.0
 14
-15.83849006988349
 24
-16.13147526283689
 34
0.0
100
AcDbRotatedDimension
1001
ACAD
1000
DSTYLE
1002
{
1070
   140
1040
0.125
1070
   276
1070
     2
1070
   277
1070
     5
1002
}
  0
ARC
  5
3AC
330
2
100
AcDbEntity
  8
0
100
AcDbCircle
 10
-17.20513396168974
 20
-22.02695132530896
 30
0.0
 40
6.062
100
AcDbArc
 50
90.01060400188672
 51
102.8585534297831
  0
LINE
  5
3AD
330
2
100
AcDbEntity
  8
0
100
AcDbLine
 10
-17.20513396168974
 20
-16.21495132530897
 30
0.0
 11
-17.83563396168974
 21
-16.21495132530897
 31
0.0
  0
LINE
  5
3AE
330
2
100
AcDbEntity
  8
0
100
AcDbLine
 10
-17.97063396168974
 20
-16.35495132530896
 30
0.0
 11
-17.97063396168974
 21
-16.57067314701899
 31
0.0
  0
LINE
  5
3AF
330
2
100
AcDbEntity
  8
0
100
AcDbLine
 10
-18.5770708138031
 20
-16.15584546725254
 30
0.0
 11
-18.48911797262658
 21
-16.45848190929203
 31
0.0
  0
LINE
  5
3B0
330
2
100
AcDbEntity
  8
0
100
AcDbLine
 10
-17.9893207615944
 20
-16.58521300625019
 30
0.0
 11
-18.48911797262658
 21
-16.45848190929203
 31
0.0
  0
ARC
  5
3B1
330
2
100
AcDbEntity
  8
0
100
AcDbCircle
 10
-17.98563396168974
 20
-16.57067314701899
 30
0.0
 40
0.0149999999999988
100
AcDbArc
 50
255.7716723370215
 51
0.0000000000034604
  0
ARC
  5
3B2
330
2
100
AcDbEntity
  8
0
100
AcDbCircle
 10
-18.54730246933446
 20
-16.14719412818876
 30
0.0
 40
0.031
100
AcDbArc
 50
102.8585534297849
 51
196.2050326530361
  0
ARC
  5
3B3
330
2
100
AcDbEntity
  8
0
100
AcDbCircle
 10
-17.83563396168974
 20
-16.22495132530896
 30
0.0
 40
0.01
100
AcDbArc
 50
90.0
 51
180.0
  0
LINE
  5
3B4
330
2
100
AcDbEntity
  8
0
100
AcDbLine
 10
-17.84563396168974
 20
-16.22495132530896
 30
0.0
 11
-17.84563396168974
 21
-16.32995132530896
 31
0.0
  0
ARC
  5
3B5
330
2
100
AcDbEntity
  8
0
100
AcDbCircle
 10
-17.85563396168974
 20
-16.32995132530896
 30
0.0
 40
0.01
100
AcDbArc
 50
270.0
 51
0.0
  0
ARC
  5
3B6
330
2
100
AcDbEntity
  8
0
100
AcDbCircle
 10
-17.95563396168974
 20
-16.35495132530896
 30
0.0
 40
0.0150000000000006
100
AcDbArc
 50
90.0
 51
180.0
  0
LINE
  5
3B7
330
2
100
AcDbEntity
  8
0
100
AcDbLine
 10
-17.85563396168974
 20
-16.33995132530896
 30
0.0
 11
-17.95563396168974
 21
-16.33995132530896
 31
0.0
  0
LINE
  5
3B8
330
2
100
AcDbEntity
  8
0
100
AcDbLine
 10
-17.20737780790727
 20
-16.21495132530897
 30
0.0
 11
-16.57687780790726
 21
-16.21495132530897
 31
0.0
  0
ARC
  5
3B9
330
2
100
AcDbEntity
  8
0
100
AcDbCircle
 10
-16.55687780790727
 20
-16.32995132530896
 30
0.0
 40
0.01
100
AcDbArc
 50
180.0
 51
270.0
  0
LINE
  5
3BA
330
2
100
AcDbEntity
  8
0
100
AcDbLine
 10
-16.56687780790727
 20
-16.22495132530896
 30
0.0
 11
-16.56687780790727
 21
-16.32995132530896
 31
0.0
  0
ARC
  5
3BB
330
2
100
AcDbEntity
  8
0
100
AcDbCircle
 10
-16.57687780790726
 20
-16.22495132530896
 30
0.0
 40
0.01
100
AcDbArc
 50
0.0
 51
90.0
  0
LINE
  5
3BC
330
2
100
AcDbEntity
  8
0
100
AcDbLine
 10
-16.44187780790726
 20
-16.35495132530896
 30
0.0
 11
-16.44187780790726
 21
-16.57067314701899
 31
0.0
  0
LINE
  5
3BD
330
2
100
AcDbEntity
  8
0
100
AcDbLine
 10
-15.83544095579392
 20
-16.15584546725254
 30
0.0
 11
-15.92339379697042
 21
-16.45848190929203
 31
0.0
  0
ARC
  5
3BE
330
2
100
AcDbEntity
  8
0
100
AcDbCircle
 10
-16.42687780790728
 20
-16.57067314701899
 30
0.0
 40
0.0149999999999988
100
AcDbArc
 50
179.9999999999965
 51
284.2283276629783
  0
LINE
  5
3BF
330
2
100
AcDbEntity
  8
0
100
AcDbLine
 10
-16.42319100800261
 20
-16.58521300625019
 30
0.0
 11
-15.92339379697042
 21
-16.45848190929203
 31
0.0
  0
ARC
  5
3C0
330
2
100
AcDbEntity
  8
0
100
AcDbCircle
 10
-16.45687780790727
 20
-16.35495132530896
 30
0.0
 40
0.0150000000000006
100
AcDbArc
 50
0.0
 51
90.0
  0
ARC
  5
3C1
330
2
100
AcDbEntity
  8
0
100
AcDbCircle
 10
-15.86520930026255
 20
-16.14719412818876
 30
0.0
 40
0.031
100
AcDbArc
 50
343.7949673469636
 51
77.14144657021503
  0
DIMENSION
  5
3C2
330
2
100
AcDbEntity
  8
ADPDIM
100
AcDbDimension
  2
*D8
 10
-16.43632922976165
 20
-16.7877265105979
 30
0.0
 11
-17.20337621902004
 21
-16.7877265105979
 31
0.0
 70
    32
 71
     5
 42
1.534093978516789
  3
STANDARD
100
AcDbAlignedDimension
 13
-17.97042320827844
 23
-16.59921024347609
 33
0.0
 14
-16.43632922976165
 24
-16.59921024347609
 34
0.0
100
AcDbRotatedDimension
1001
ACAD
1000
DSTYLE
1002
{
1070
   276
1070
     2
1070
   271
1070
     5
1070
   277
1070
     5
1070
    41
1040
0.125
1070
    73
1070
     0
1070
    74
1070
     0
1070
    78
1070
     3
1070
   140
1040
0.125
1070
   141
1040
0.1875
1070
   142
1040
0.125
1070
   147
1040
0.125
1070
   171
1070
     1
1002
}
  0
DIMENSION
  5
3C3
330
2
100
AcDbEntity
  8
ADPDIM
 62
     3
100
AcDbDimension
  2
*D9
 10
-16.56445232338674
 20
-16.45941841361281
 30
0.0
 11
-17.20507732338674
 21
-16.45941841361281
 31
0.0
 70
    32
 71
     5
 42
1.28125000000001
  3
STANDARD
100
AcDbAlignedDimension
 13
-17.84570232338675
 23
-16.28785086700276
 33
0.0
 14
-16.56445232338674
 24
-16.28785086700276
 34
0.0
100
AcDbRotatedDimension
1001
ACAD
1000
DSTYLE
1002
{
1070
   271
1070
     5
1070
   276
1070
     2
1070
   277
1070
     5
1070
    41
1040
0.125
1070
    73
1070
     0
1070
    74
1070
     0
1070
    78
1070
     3
1070
   140
1040
0.125
1070
   141
1040
0.1875
1070
   142
1040
0.125
1070
   147
1040
0.125
1070
   171
1070
     1
1002
}
  0
ENDSEC
  0
SECTION
  2
OBJECTS
  0
DICTIONARY
  5
1B
330
0
100
AcDbDictionary
281
     1
  3
ACAD_COLOR
350
2DB
  3
ACAD_GROUP
350
19
  3
ACAD_LAYOUT
350
94
  3
ACAD_MATERIAL
350
2C6
  3
ACAD_MLINESTYLE
350
1A
  3
ACAD_PLOTSETTINGS
350
95
  3
ACAD_PLOTSTYLENAME
350
92
  3
ACAD_TABLESTYLE
350
2DC
  3
ACAD_VISUALSTYLE
350
2CA
  3
AcDbVariableDictionary
350
145
  3
DWGPROPS
350
434
  0
DICTIONARY
  5
116
330
2
100
AcDbDictionary
280
     1
281
     1
  3
ACAD_LAYOUTSELFREF
360
29F
  0
DICTIONARY
  5
118
330
8
100
AcDbDictionary
280
     1
281
     1
  3
ACAD_LAYOUTSELFREF
360
2A0
  0
DICTIONARY
  5
2DB
102
{ACAD_REACTORS
330
1B
102
}
330
1B
100
AcDbDictionary
281
     1
  0
DICTIONARY
  5
19
102
{ACAD_REACTORS
330
1B
102
}
330
1B
100
AcDbDictionary
281
     1
  0
DICTIONARY
  5
94
102
{ACAD_REACTORS
330
1B
102
}
330
1B
100
AcDbDictionary
281
     1
  3
Layout1
350
97
  3
Model
350
96
  0
DICTIONARY
  5
2C6
102
{ACAD_REACTORS
330
1B
102
}
330
1B
100
AcDbDictionary
281
     1
  3
ByBlock
350
2C8
  3
ByLayer
350
2C7
  3
Global
350
2C9
  0
DICTIONARY
  5
1A
102
{ACAD_REACTORS
330
1B
102
}
330
1B
100
AcDbDictionary
281
     1
  3
STANDARD
350
1D
  0
DICTIONARY
  5
95
102
{ACAD_REACTORS
330
1B
102
}
330
1B
100
AcDbDictionary
281
     1
  0
ACDBDICTIONARYWDFLT
  5
92
102
{ACAD_REACTORS
330
1B
102
}
330
1B
100
AcDbDictionary
281
     1
  3
Normal
350
93
100
AcDbDictionaryWithDefault
340
93
  0
DICTIONARY
  5
2DC
102
{ACAD_REACTORS
330
1B
102
}
330
1B
100
AcDbDictionary
281
     1
  3
Standard
350
2DD
  0
DICTIONARY
  5
2CA
102
{ACAD_REACTORS
330
1B
102
}
330
1B
100
AcDbDictionary
281
     1
  3
2dWireframe
350
2D0
  3
3D Hidden
350
2D2
  3
3dWireframe
350
2D1
  3
Basic
350
2CF
  3
Brighten
350
2D6
  3
ColorChange
350
2DA
  3
Conceptual
350
2D3
  3
Dim
350
2D5
  3
Facepattern
350
2D9
  3
Flat
350
2CB
  3
FlatWithEdges
350
2CC
  3
Gouraud
350
2CD
  3
GouraudWithEdges
350
2CE
  3
Linepattern
350
2D8
  3
Realistic
350
2D4
  3
Thicken
350
2D7
  0
DICTIONARY
  5
145
102
{ACAD_REACTORS
330
1B
102
}
330
1B
100
AcDbDictionary
281
     1
  3
CTABLESTYLE
350
431
  3
DIMASSOC
350
146
  3
INDEXCTL
350
433
  3
SORTENTS
350
432
  0
XRECORD
  5
434
102
{ACAD_REACTORS
330
1B
102
}
330
1B
100
AcDbXrecord
280
     1
  1
DWGPROPS COOKIE
  2

  3

  4

  6

  7

  8
Yu Hu
  9

300
=
301
=
302
=
303
=
304
=
305
=
306
=
307
=
308
=
309
=
 40
0.0483298148148148
 41
2450406.659535486
 42
2453961.662088935
  1

 90
        0
  0
XRECORD
  5
29F
102
{ACAD_REACTORS
330
116
102
}
330
116
100
AcDbXrecord
280
     1
340
2
  0
XRECORD
  5
2A0
102
{ACAD_REACTORS
330
118
102
}
330
118
100
AcDbXrecord
280
     1
340
8
  0
LAYOUT
  5
97
102
{ACAD_XDICTIONARY
360
437
102
}
102
{ACAD_REACTORS
330
94
102
}
330
94
100
AcDbPlotSettings
  1

  2
Fax
  4

  6

 40
0.0
 41
0.0
 42
0.0
 43
0.0
 44
0.0
 45
0.0
 46
0.0
 47
0.0
 48
0.0
 49
0.0
140
0.0
141
0.0
142
1.0
143
1.0
 70
   688
 72
     0
 73
     0
 74
     5
  7
Default R14 pen assignments.ctb
 75
    16
147
1.0
148
0.0
149
0.0
100
AcDbLayout
  1
Layout1
 70
     1
 71
     1
 10
0.0
 20
0.0
 11
12.0
 21
9.0
 12
0.0008545028977096
 22
1.250283272183907
 32
0.0
 14
1.000000000000000E+20
 24
1.000000000000000E+20
 34
1.000000000000000E+20
 15
-1.000000000000000E+20
 25
-1.000000000000000E+20
 35
-1.000000000000000E+20
146
0.0
 13
0.0
 23
0.0
 33
0.0
 16
1.0
 26
0.0
 36
0.0
 17
0.0
 27
1.0
 37
0.0
 76
     0
330
8
  0
LAYOUT
  5
96
102
{ACAD_XDICTIONARY
360
435
102
}
102
{ACAD_REACTORS
330
94
102
}
330
94
100
AcDbPlotSettings
  1

  2
Fax
  4

  6

 40
0.0
 41
0.0
 42
0.0
 43
0.0
 44
0.0
 45
0.0
 46
0.0
 47
0.0
 48
0.0
 49
0.0
140
0.0
141
0.0
142
1.0
143
1.0
 70
  1712
 72
     0
 73
     0
 74
     0
  7
Default R14 pen assignments.ctb
 75
     0
147
1.0
148
0.0
149
0.0
100
AcDbLayout
  1
Model
 70
     1
 71
     0
 10
0.0
 20
0.0
 11
12.0
 21
9.0
 12
0.0
 22
0.0
 32
0.0
 14
0.0
 24
0.0
 34
0.0
 15
0.0
 25
0.0
 35
0.0
146
0.0
 13
0.0
 23
0.0
 33
0.0
 16
1.0
 26
0.0
 36
0.0
 17
0.0
 27
1.0
 37
0.0
 76
     0
330
2
331
27B
  0
MATERIAL
  5
2C8
102
{ACAD_XDICTIONARY
360
43B
102
}
102
{ACAD_REACTORS
330
2C6
102
}
330
2C6
100
AcDbMaterial
  1
ByBlock
  0
MATERIAL
  5
2C7
102
{ACAD_XDICTIONARY
360
439
102
}
102
{ACAD_REACTORS
330
2C6
102
}
330
2C6
100
AcDbMaterial
  1
ByLayer
  0
MATERIAL
  5
2C9
102
{ACAD_XDICTIONARY
360
43D
102
}
102
{ACAD_REACTORS
330
2C6
102
}
330
2C6
100
AcDbMaterial
  1
Global
  0
MLINESTYLE
  5
1D
102
{ACAD_REACTORS
330
1A
102
}
330
1A
100
AcDbMlineStyle
  2
STANDARD
 70
     0
  3

 62
     0
 51
90.0
 52
90.0
 71
     2
 49
0.5
 62
   256
  6
BYLAYER
 49
-0.5
 62
   256
  6
BYLAYER
  0
ACDBPLACEHOLDER
  5
93
102
{ACAD_REACTORS
330
92
102
}
330
92
  0
TABLESTYLE
  5
2DD
102
{ACAD_XDICTIONARY
360
43F
102
}
102
{ACAD_REACTORS
330
2DC
102
}
330
2DC
100
AcDbTableStyle
  3
Standard
 70
     0
 71
     0
 40
0.06
 41
0.06
280
     0
281
     0
  7
STANDARD
140
0.18
170
     2
 62
     0
 63
     7
283
     0
274
    -2
284
     1
 64
     0
275
    -2
285
     1
 65
     0
276
    -2
286
     1
 66
     0
277
    -2
287
     1
 67
     0
278
    -2
288
     1
 68
     0
279
    -2
289
     1
 69
     0
  7
STANDARD
140
0.25
170
     5
 62
     0
 63
     7
283
     0
274
    -2
284
     1
 64
     0
275
    -2
285
     1
 65
     0
276
    -2
286
     1
 66
     0
277
    -2
287
     1
 67
     0
278
    -2
288
     1
 68
     0
279
    -2
289
     1
 69
     0
  7
STANDARD
140
0.18
170
     5
 62
     0
 63
     7
283
     0
274
    -2
284
     1
 64
     0
275
    -2
285
     1
 65
     0
276
    -2
286
     1
 66
     0
277
    -2
287
     1
 67
     0
278
    -2
288
     1
 68
     0
279
    -2
289
     1
 69
     0
  0
VISUALSTYLE
  5
2D0
102
{ACAD_REACTORS
330
2CA
102
}
330
2CA
100
AcDbVisualStyle
  2
2dWireframe
 70
     4
 71
     0
 72
     2
 73
     0
 90
        0
 40
-0.6
 41
-30.0
 62
     5
 63
     7
 74
     1
 91
        4
 64
     7
 65
   257
 75
     1
175
     1
 42
1.0
 92
        0
 66
   257
 43
1.0
 76
     1
 77
     6
 78
     2
 67
     7
 79
     5
170
     0
171
     0
290
     0
174
     0
 93
        1
 44
0.0
173
     0
291
     0
 45
0.0
1001
ACAD
1000
AcDbSavedByObjectVersion
1070
     0
  0
VISUALSTYLE
  5
2D2
102
{ACAD_REACTORS
330
2CA
102
}
330
2CA
100
AcDbVisualStyle
  2
3D Hidden
 70
     6
 71
     1
 72
     2
 73
     2
 90
        0
 40
-0.6
 41
-30.0
 62
     5
 63
     7
 74
     2
 91
        2
 64
     7
 65
   257
 75
     2
175
     1
 42
40.0
 92
        0
 66
   257
 43
1.0
 76
     1
 77
     6
 78
     2
 67
     7
 79
     3
170
     0
171
     0
290
     0
174
     0
 93
        1
 44
0.0
173
     0
291
     0
 45
0.0
1001
ACAD
1000
AcDbSavedByObjectVersion
1070
     0
  0
VISUALSTYLE
  5
2D1
102
{ACAD_REACTORS
330
2CA
102
}
330
2CA
100
AcDbVisualStyle
  2
3dWireframe
 70
     5
 71
     0
 72
     2
 73
     0
 90
        0
 40
-0.6
 41
-30.0
 62
     5
 63
     7
 74
     1
 91
        4
 64
     7
 65
   257
 75
     1
175
     1
 42
1.0
 92
        0
 66
   257
 43
1.0
 76
     1
 77
     6
 78
     2
 67
     7
 79
     5
170
     0
171
     0
290
     0
174
     0
 93
        1
 44
0.0
173
     0
291
     0
 45
0.0
1001
ACAD
1000
AcDbSavedByObjectVersion
1070
     0
  0
VISUALSTYLE
  5
2CF
102
{ACAD_REACTORS
330
2CA
102
}
330
2CA
100
AcDbVisualStyle
  2
Basic
 70
     7
 71
     1
 72
     0
 73
     1
 90
        0
 40
-0.6
 41
-30.0
 62
     5
 63
     7
 74
     0
 91
        4
 64
     7
 65
   257
 75
     1
175
     1
 42
1.0
 92
        8
 66
     7
 43
1.0
 76
     1
 77
     6
 78
     2
 67
     7
 79
     5
170
     0
171
     0
290
     0
174
     0
 93
        1
 44
0.0
173
     0
291
     1
 45
0.0
1001
ACAD
1000
AcDbSavedByObjectVersion
1070
     0
  0
VISUALSTYLE
  5
2D6
102
{ACAD_REACTORS
330
2CA
102
}
330
2CA
100
AcDbVisualStyle
  2
Brighten
 70
    12
 71
     2
 72
     2
 73
     0
 90
        0
 40
-0.6
 41
-30.0
 62
     5
 63
     7
 74
     1
 91
        4
 64
     7
 65
   257
 75
     1
175
     1
 42
1.0
 92
        8
 66
     7
 43
1.0
 76
     1
 77
     6
 78
     2
 67
     7
 79
     5
170
     0
171
     0
290
     0
174
     0
 93
        1
 44
50.0
173
     0
291
     1
 45
0.0
1001
ACAD
1000
AcDbSavedByObjectVersion
1070
     0
  0
VISUALSTYLE
  5
2DA
102
{ACAD_REACTORS
330
2CA
102
}
330
2CA
100
AcDbVisualStyle
  2
ColorChange
 70
    16
 71
     2
 72
     2
 73
     3
 90
        0
 40
-0.6
 41
-30.0
 62
     5
 63
     8
 74
     1
 91
        4
 64
     7
 65
   257
 75
     1
175
     1
 42
1.0
 92
        8
 66
     8
 43
1.0
 76
     1
 77
     6
 78
     2
 67
     7
 79
     5
170
     0
171
     0
290
     0
174
     0
 93
        1
 44
0.0
173
     0
291
     1
 45
0.0
1001
ACAD
1000
AcDbSavedByObjectVersion
1070
     0
  0
VISUALSTYLE
  5
2D3
102
{ACAD_REACTORS
330
2CA
102
}
330
2CA
100
AcDbVisualStyle
  2
Conceptual
 70
     9
 71
     3
 72
     2
 73
     0
 90
        0
 40
-0.6
 41
-30.0
 62
     5
 63
     7
 74
     2
 91
        2
 64
     7
 65
   257
 75
     1
175
     1
 42
40.0
 92
        8
 66
     7
 43
1.0
 76
     1
 77
     6
 78
     2
 67
     7
 79
     3
170
     0
171
     0
290
     0
174
     0
 93
        1
 44
0.0
173
     0
291
     0
 45
0.0
1001
ACAD
1000
AcDbSavedByObjectVersion
1070
     0
  0
VISUALSTYLE
  5
2D5
102
{ACAD_REACTORS
330
2CA
102
}
330
2CA
100
AcDbVisualStyle
  2
Dim
 70
    11
 71
     2
 72
     2
 73
     0
 90
        0
 40
-0.6
 41
-30.0
 62
     5
 63
     7
 74
     1
 91
        4
 64
     7
 65
   257
 75
     1
175
     1
 42
1.0
 92
        8
 66
     7
 43
1.0
 76
     1
 77
     6
 78
     2
 67
     7
 79
     5
170
     0
171
     0
290
     0
174
     0
 93
        1
 44
-50.0
173
     0
291
     1
 45
0.0
1001
ACAD
1000
AcDbSavedByObjectVersion
1070
     0
  0
VISUALSTYLE
  5
2D9
102
{ACAD_REACTORS
330
2CA
102
}
330
2CA
100
AcDbVisualStyle
  2
Facepattern
 70
    15
 71
     2
 72
     2
 73
     0
 90
        0
 40
-0.6
 41
-30.0
 62
     5
 63
     7
 74
     1
 91
        4
 64
     7
 65
   257
 75
     1
175
     1
 42
1.0
 92
        8
 66
     7
 43
1.0
 76
     1
 77
     6
 78
     2
 67
     7
 79
     5
170
     0
171
     0
290
     0
174
     0
 93
        1
 44
0.0
173
     0
291
     1
 45
0.0
1001
ACAD
1000
AcDbSavedByObjectVersion
1070
     0
  0
VISUALSTYLE
  5
2CB
102
{ACAD_REACTORS
330
2CA
102
}
330
2CA
100
AcDbVisualStyle
  2
Flat
 70
     0
 71
     2
 72
     1
 73
     1
 90
        2
 40
-0.6
 41
30.0
 62
     5
 63
     7
 74
     0
 91
        4
 64
     7
 65
   257
 75
     1
175
     1
 42
1.0
 92
        8
 66
     7
 43
1.0
 76
     1
 77
     6
 78
     2
 67
     7
 79
     5
170
     0
171
     0
290
     0
174
     0
 93
       13
 44
0.0
173
     0
291
     1
 45
0.0
1001
ACAD
1000
AcDbSavedByObjectVersion
1070
     0
  0
VISUALSTYLE
  5
2CC
102
{ACAD_REACTORS
330
2CA
102
}
330
2CA
100
AcDbVisualStyle
  2
FlatWithEdges
 70
     1
 71
     2
 72
     1
 73
     1
 90
        2
 40
-0.6
 41
30.0
 62
     5
 63
     7
 74
     1
 91
        4
 64
     7
 65
   257
 75
     1
175
     1
 42
1.0
 92
        0
 66
   257
 43
1.0
 76
     1
 77
     6
 78
     2
 67
     7
 79
     5
170
     0
171
     0
290
     0
174
     0
 93
       13
 44
0.0
173
     0
291
     1
 45
0.0
1001
ACAD
1000
AcDbSavedByObjectVersion
1070
     0
  0
VISUALSTYLE
  5
2CD
102
{ACAD_REACTORS
330
2CA
102
}
330
2CA
100
AcDbVisualStyle
  2
Gouraud
 70
     2
 71
     2
 72
     2
 73
     1
 90
        2
 40
-0.6
 41
30.0
 62
     5
 63
     7
 74
     0
 91
        4
 64
     7
 65
   257
 75
     1
175
     1
 42
1.0
 92
        0
 66
     7
 43
1.0
 76
     1
 77
     6
 78
     2
 67
     7
 79
     5
170
     0
171
     0
290
     0
174
     0
 93
       13
 44
0.0
173
     0
291
     1
 45
0.0
1001
ACAD
1000
AcDbSavedByObjectVersion
1070
     0
  0
VISUALSTYLE
  5
2CE
102
{ACAD_REACTORS
330
2CA
102
}
330
2CA
100
AcDbVisualStyle
  2
GouraudWithEdges
 70
     3
 71
     2
 72
     2
 73
     1
 90
        2
 40
-0.6
 41
30.0
 62
     5
 63
     7
 74
     1
 91
        4
 64
     7
 65
   257
 75
     1
175
     1
 42
1.0
 92
        0
 66
   257
 43
1.0
 76
     1
 77
     6
 78
     2
 67
     7
 79
     5
170
     0
171
     0
290
     0
174
     0
 93
       13
 44
0.0
173
     0
291
     1
 45
0.0
1001
ACAD
1000
AcDbSavedByObjectVersion
1070
     0
  0
VISUALSTYLE
  5
2D8
102
{ACAD_REACTORS
330
2CA
102
}
330
2CA
100
AcDbVisualStyle
  2
Linepattern
 70
    14
 71
     2
 72
     2
 73
     0
 90
        0
 40
-0.6
 41
-30.0
 62
     5
 63
     7
 74
     1
 91
        4
 64
     7
 65
   257
 75
     7
175
     7
 42
1.0
 92
        8
 66
     7
 43
1.0
 76
     1
 77
     6
 78
     2
 67
     7
 79
     5
170
     0
171
     0
290
     0
174
     0
 93
        1
 44
0.0
173
     0
291
     1
 45
0.0
1001
ACAD
1000
AcDbSavedByObjectVersion
1070
     0
  0
VISUALSTYLE
  5
2D4
102
{ACAD_REACTORS
330
2CA
102
}
330
2CA
100
AcDbVisualStyle
  2
Realistic
 70
     8
 71
     2
 72
     2
 73
     0
 90
        0
 40
-0.6
 41
-30.0
 62
     5
 63
     7
 74
     1
 91
        0
 64
     7
 65
   257
 75
     1
175
     1
 42
1.0
 92
        8
 66
     8
 43
1.0
 76
     1
 77
     6
 78
     2
 67
     7
 79
     5
170
     0
171
     0
290
     0
174
     0
 93
       13
 44
0.0
173
     0
291
     0
 45
0.0
1001
ACAD
1000
AcDbSavedByObjectVersion
1070
     0
  0
VISUALSTYLE
  5
2D7
102
{ACAD_REACTORS
330
2CA
102
}
330
2CA
100
AcDbVisualStyle
  2
Thicken
 70
    13
 71
     2
 72
     2
 73
     0
 90
        0
 40
-0.6
 41
-30.0
 62
     5
 63
     7
 74
     1
 91
        4
 64
     7
 65
   257
 75
     1
175
     1
 42
1.0
 92
       12
 66
     7
 43
1.0
 76
     1
 77
     6
 78
     2
 67
     7
 79
     5
170
     0
171
     0
290
     0
174
     0
 93
        1
 44
0.0
173
     0
291
     1
 45
0.0
1001
ACAD
1000
AcDbSavedByObjectVersion
1070
     0
  0
DICTIONARYVAR
  5
431
102
{ACAD_REACTORS
330
145
102
}
330
145
100
DictionaryVariables
280
     0
  1
STANDARD
  0
DICTIONARYVAR
  5
146
102
{ACAD_REACTORS
330
145
102
}
330
145
100
DictionaryVariables
280
     0
  1
1
  0
DICTIONARYVAR
  5
433
102
{ACAD_REACTORS
330
145
102
}
330
145
100
DictionaryVariables
280
     0
  1
0
  0
DICTIONARYVAR
  5
432
102
{ACAD_REACTORS
330
145
102
}
330
145
100
DictionaryVariables
280
     0
  1
127
  0
DICTIONARY
  5
437
330
97
100
AcDbDictionary
280
     1
281
     1
  3
ACAD_XREC_ROUNDTRIP
360
438
  0
DICTIONARY
  5
435
330
96
100
AcDbDictionary
280
     1
281
     1
  3
ACAD_XREC_ROUNDTRIP
360
436
  0
DICTIONARY
  5
43B
330
2C8
100
AcDbDictionary
280
     1
281
     1
  3
ACAD_XREC_ROUNDTRIP
360
43C
  0
DICTIONARY
  5
439
330
2C7
100
AcDbDictionary
280
     1
281
     1
  3
ACAD_XREC_ROUNDTRIP
360
43A
  0
DICTIONARY
  5
43D
330
2C9
100
AcDbDictionary
280
     1
281
     1
  3
ACAD_XREC_ROUNDTRIP
360
43E
  0
DICTIONARY
  5
43F
330
2DD
100
AcDbDictionary
280
     1
281
     1
  3
ACAD_XREC_ROUNDTRIP
360
440
  0
XRECORD
  5
438
102
{ACAD_REACTORS
330
437
102
}
330
437
100
AcDbXrecord
280
     1
102
SHADEPLOT
 70
     0
102
SHADEPLOTRESLEVEL
 70
     2
102
SHADEPLOTCUSTOMDPI
 70
   300
  0
XRECORD
  5
436
102
{ACAD_REACTORS
330
435
102
}
330
435
100
AcDbXrecord
280
     1
102
SHADEPLOT
 70
     0
102
SHADEPLOTRESLEVEL
 70
     2
102
SHADEPLOTCUSTOMDPI
 70
   300
  0
XRECORD
  5
43C
102
{ACAD_REACTORS
330
43B
102
}
330
43B
100
AcDbXrecord
280
     1
102
MATERIAL
148
0.0
149
0.0
149
0.0
 93
        0
 94
       63
282
     0
 72
     1
 77
     1
171
     1
175
     1
179
     1
273
     0
  0
XRECORD
  5
43A
102
{ACAD_REACTORS
330
439
102
}
330
439
100
AcDbXrecord
280
     1
102
MATERIAL
148
0.0
149
0.0
149
0.0
 93
        0
 94
       63
282
     0
 72
     1
 77
     1
171
     1
175
     1
179
     1
273
     0
  0
XRECORD
  5
43E
102
{ACAD_REACTORS
330
43D
102
}
330
43D
100
AcDbXrecord
280
     1
102
MATERIAL
148
0.0
149
0.0
149
0.0
 93
        0
 94
       63
282
     0
 72
     1
 77
     1
171
     1
175
     1
179
     1
273
     0
  0
XRECORD
  5
440
102
{ACAD_REACTORS
330
43F
102
}
330
43F
100
AcDbXrecord
280
     1
102
ACAD_ROUNDTRIP_PRE2007_TABLESTYLE
 90
      512
 91
        0
  1

 92
      512
 93
        0
  2

 94
      512
 95
        0
  3

  0
ENDSEC
  0
EOF
