  0
SECTION
  2
HEADER
  9
$ACADVER
  1
AC1014
  9
$ACADMAINTVER
 70
     9
  9
$DWGCODEPAGE
  3
ANSI_1252
  9
$INSBASE
 10
2.69668243890827
 20
-19.02793085394822
 30
0.0
  9
$EXTMIN
 10
-4.232188108679749
 20
-19.96146320965079
 30
0.0
  9
$EXTMAX
 10
8.819269940433482
 20
-18.14637443227578
 30
0.0
  9
$LIMMIN
 10
0.0
 20
0.0
  9
$LIMMAX
 10
36.0
 20
36.0
  9
$ORTHOMODE
 70
     1
  9
$REGENMODE
 70
     1
  9
$FILLMODE
 70
     1
  9
$QTEXTMODE
 70
     0
  9
$MIRRTEXT
 70
     1
  9
$DRAGMODE
 70
     0
  9
$LTSCALE
 40
1.0
  9
$OSMODE
 70
    37
  9
$ATTMODE
 70
     1
  9
$TEXTSIZE
 40
0.2
  9
$TRACEWID
 40
0.05
  9
$TEXTSTYLE
  7
STANDARD
  9
$CLAYER
  8
ADP1DETAIL
  9
$CELTYPE
  6
BYLAYER
  9
$CECOLOR
 62
   256
  9
$CELTSCALE
 40
1.0
  9
$DELOBJ
 70
     1
  9
$DISPSILH
 70
     0
  9
$DIMSCALE
 40
1.0
  9
$DIMASZ
 40
0.125
  9
$DIMEXO
 40
0.0625
  9
$DIMDLI
 40
0.38
  9
$DIMRND
 40
0.0
  9
$DIMDLE
 40
0.0
  9
$DIMEXE
 40
0.18
  9
$DIMTP
 40
0.0
  9
$DIMTM
 40
0.0
  9
$DIMTXT
 40
0.125
  9
$DIMCEN
 40
0.1875
  9
$DIMTSZ
 40
0.125
  9
$DIMTOL
 70
     0
  9
$DIMLIM
 70
     0
  9
$DIMTIH
 70
     0
  9
$DIMTOH
 70
     0
  9
$DIMSE1
 70
     0
  9
$DIMSE2
 70
     0
  9
$DIMTAD
 70
     0
  9
$DIMZIN
 70
     3
  9
$DIMBLK
  1

  9
$DIMASO
 70
     1
  9
$DIMSHO
 70
     1
  9
$DIMPOST
  1

  9
$DIMAPOST
  1

  9
$DIMALT
 70
     0
  9
$DIMALTD
 70
     1
  9
$DIMALTF
 40
25.4
  9
$DIMLFAC
 40
1.0
  9
$DIMTOFL
 70
     0
  9
$DIMTVP
 40
0.0
  9
$DIMTIX
 70
     0
  9
$DIMSOXD
 70
     0
  9
$DIMSAH
 70
     0
  9
$DIMBLK1
  1

  9
$DIMBLK2
  1

  9
$DIMSTYLE
  2
STANDARD
  9
$DIMCLRD
 70
     0
  9
$DIMCLRE
 70
     0
  9
$DIMCLRT
 70
     0
  9
$DIMTFAC
 40
1.0
  9
$DIMGAP
 40
0.125
  9
$DIMJUST
 70
     0
  9
$DIMSD1
 70
     0
  9
$DIMSD2
 70
     0
  9
$DIMTOLJ
 70
     1
  9
$DIMTZIN
 70
     0
  9
$DIMALTZ
 70
     0
  9
$DIMALTTZ
 70
     0
  9
$DIMFIT
 70
     3
  9
$DIMUPT
 70
     0
  9
$DIMUNIT
 70
     2
  9
$DIMDEC
 70
     4
  9
$DIMTDEC
 70
     4
  9
$DIMALTU
 70
     2
  9
$DIMALTTD
 70
     2
  9
$DIMTXSTY
  7
STANDARD
  9
$DIMAUNIT
 70
     0
  9
$LUNITS
 70
     5
  9
$LUPREC
 70
     4
  9
$SKETCHINC
 40
0.1
  9
$FILLETRAD
 40
0.062
  9
$AUNITS
 70
     0
  9
$AUPREC
 70
     0
  9
$MENU
  1
acad
  9
$ELEVATION
 40
0.0
  9
$PELEVATION
 40
0.0
  9
$THICKNESS
 40
0.0
  9
$LIMCHECK
 70
     0
  9
$BLIPMODE
 70
     0
  9
$CHAMFERA
 40
0.0
  9
$CHAMFERB
 40
0.0
  9
$CHAMFERC
 40
0.0
  9
$CHAMFERD
 40
0.0
  9
$SKPOLY
 70
     0
  9
$TDCREATE
 40
2450406.662001157
  9
$TDUPDATE
 40
2452297.089015474
  9
$TDINDWG
 40
0.0150969444
  9
$TDUSRTIMER
 40
0.0150969444
  9
$USRTIMER
 70
     1
  9
$ANGBASE
 50
0.0
  9
$ANGDIR
 70
     0
  9
$PDMODE
 70
     0
  9
$PDSIZE
 40
0.0
  9
$PLINEWID
 40
0.0
  9
$COORDS
 70
     2
  9
$SPLFRAME
 70
     0
  9
$SPLINETYPE
 70
     6
  9
$SPLINESEGS
 70
     8
  9
$ATTDIA
 70
     0
  9
$ATTREQ
 70
     1
  9
$HANDLING
 70
 22529
  9
$HANDSEED
  5
2B5
  9
$SURFTAB1
 70
     6
  9
$SURFTAB2
 70
     6
  9
$SURFTYPE
 70
     6
  9
$SURFU
 70
     6
  9
$SURFV
 70
     6
  9
$UCSNAME
  2

  9
$UCSORG
 10
0.0
 20
0.0
 30
0.0
  9
$UCSXDIR
 10
1.0
 20
0.0
 30
0.0
  9
$UCSYDIR
 10
0.0
 20
1.0
 30
0.0
  9
$PUCSNAME
  2

  9
$PUCSORG
 10
0.0
 20
0.0
 30
0.0
  9
$PUCSXDIR
 10
1.0
 20
0.0
 30
0.0
  9
$PUCSYDIR
 10
0.0
 20
1.0
 30
0.0
  9
$USERI1
 70
     0
  9
$USERI2
 70
     0
  9
$USERI3
 70
     0
  9
$USERI4
 70
     0
  9
$USERI5
 70
     0
  9
$USERR1
 40
0.0
  9
$USERR2
 40
0.0
  9
$USERR3
 40
0.0
  9
$USERR4
 40
0.0
  9
$USERR5
 40
0.0
  9
$WORLDVIEW
 70
     1
  9
$SHADEDGE
 70
     3
  9
$SHADEDIF
 70
    70
  9
$TILEMODE
 70
     1
  9
$MAXACTVP
 70
    15
  9
$PINSBASE
 10
0.0008545028977096
 20
1.250283272183907
 30
0.0
  9
$PLIMCHECK
 70
     0
  9
$PEXTMIN
 10
1.000000000000000E+20
 20
1.000000000000000E+20
 30
1.000000000000000E+20
  9
$PEXTMAX
 10
-1.000000000000000E+20
 20
-1.000000000000000E+20
 30
-1.000000000000000E+20
  9
$PLIMMIN
 10
0.0
 20
0.0
  9
$PLIMMAX
 10
12.0
 20
9.0
  9
$UNITMODE
 70
     0
  9
$VISRETAIN
 70
     0
  9
$PLINEGEN
 70
     0
  9
$PSLTSCALE
 70
     1
  9
$TREEDEPTH
 70
  3020
  9
$PICKSTYLE
 70
     1
  9
$CMLSTYLE
  2
STANDARD
  9
$CMLJUST
 70
     0
  9
$CMLSCALE
 40
1.0
  9
$PROXYGRAPHICS
 70
     1
  9
$MEASUREMENT
 70
     0
  0
ENDSEC
  0
SECTION
  2
CLASSES
  0
CLASS
  1
ACDBDICTIONARYWDFLT
  2
AcDbDictionaryWithDefault
  3
AutoCAD 2000
 90
        0
280
     0
281
     0
  0
CLASS
  1
ACDBPLACEHOLDER
  2
AcDbPlaceHolder
  3
AutoCAD 2000
 90
        0
280
     0
281
     0
  0
CLASS
  1
LAYOUT
  2
AcDbLayout
  3
AutoCAD 2000
 90
        0
280
     0
281
     0
  0
CLASS
  1
DICTIONARYVAR
  2
AcDbDictionaryVar
  3
AutoCAD 2000
 90
        0
280
     0
281
     0
  0
CLASS
  1
LONG_TRANSACTION
  2
AcDbLongTransaction
  3
AutoCAD 2000
 90
        0
280
     0
281
     0
  0
CLASS
  1
LWPOLYLINE
  2
AcDbPolyline
  3
AutoCAD 2000
 90
        0
280
     0
281
     1
  0
CLASS
  1
HATCH
  2
AcDbHatch
  3
AutoCAD 2000
 90
        0
280
     0
281
     1
  0
CLASS
  1
XRECORD
  2
AcDbXrecord
  3
AutoCAD 2000
 90
        0
280
     0
281
     0
  0
CLASS
  1
LONG_TRANSACTION
  2
AcDbLongTransaction
  3
AutoCAD 2000
 90
        0
280
     0
281
     0
  0
CLASS
  1
LWPOLYLINE
  2
AcDbPolyline
  3
AutoCAD 2000
 90
        0
280
     0
281
     1
  0
CLASS
  1
HATCH
  2
AcDbHatch
  3
AutoCAD 2000
 90
        0
280
     0
281
     1
  0
CLASS
  1
XRECORD
  2
AcDbXrecord
  3
AutoCAD 2000
 90
        0
280
     0
281
     0
  0
CLASS
  1
LONG_TRANSACTION
  2
AcDbLongTransaction
  3
AutoCAD 2000
 90
        0
280
     0
281
     0
  0
CLASS
  1
LWPOLYLINE
  2
AcDbPolyline
  3
AutoCAD 2000
 90
        0
280
     0
281
     1
  0
CLASS
  1
HATCH
  2
AcDbHatch
  3
AutoCAD 2000
 90
        0
280
     0
281
     1
  0
CLASS
  1
XRECORD
  2
AcDbXrecord
  3
AutoCAD 2000
 90
        0
280
     0
281
     0
  0
CLASS
  1
LONG_TRANSACTION
  2
AcDbLongTransaction
  3
AutoCAD 2000
 90
        0
280
     0
281
     0
  0
CLASS
  1
LWPOLYLINE
  2
AcDbPolyline
  3
AutoCAD 2000
 90
        0
280
     0
281
     1
  0
CLASS
  1
HATCH
  2
AcDbHatch
  3
AutoCAD 2000
 90
        0
280
     0
281
     1
  0
CLASS
  1
XRECORD
  2
AcDbXrecord
  3
AutoCAD 2000
 90
        0
280
     0
281
     0
  0
CLASS
  1
LONG_TRANSACTION
  2
AcDbLongTransaction
  3
AutoCAD 2000
 90
        0
280
     0
281
     0
  0
CLASS
  1
LWPOLYLINE
  2
AcDbPolyline
  3
AutoCAD 2000
 90
        0
280
     0
281
     1
  0
CLASS
  1
HATCH
  2
AcDbHatch
  3
AutoCAD 2000
 90
        0
280
     0
281
     1
  0
CLASS
  1
XRECORD
  2
AcDbXrecord
  3
AutoCAD 2000
 90
        0
280
     0
281
     0
  0
ENDSEC
  0
SECTION
  2
TABLES
  0
TABLE
  2
VPORT
  5
8
330
0
100
AcDbSymbolTable
 70
     2
  0
VPORT
  5
292
330
8
100
AcDbSymbolTableRecord
100
AcDbViewportTableRecord
  2
*ACTIVE
 70
     0
 10
0.0
 20
0.0
 11
1.0
 21
1.0
 12
2.304035997481056
 22
-19.05257293630208
 13
0.0
 23
0.0
 14
0.5740882589684922
 24
0.5740882589684922
 15
0.5
 25
0.5
 16
0.0
 26
0.0
 36
1.0
 17
0.0
 27
0.0
 37
0.0
 40
8.364678758376829
 41
1.570528967254408
 42
50.0
 43
0.0
 44
0.0
 50
0.0
 51
0.0
 71
     0
 72
   100
 73
     1
 74
     0
 75
     0
 76
     0
 77
     0
 78
     0
  0
ENDTAB
  0
TABLE
  2
LTYPE
  5
5
330
0
100
AcDbSymbolTable
 70
     1
  0
LTYPE
  5
12
330
5
100
AcDbSymbolTableRecord
100
AcDbLinetypeTableRecord
  2
BYBLOCK
 70
     0
  3

 72
    65
 73
     0
 40
0.0
  0
LTYPE
  5
13
330
5
100
AcDbSymbolTableRecord
100
AcDbLinetypeTableRecord
  2
BYLAYER
 70
     0
  3

 72
    65
 73
     0
 40
0.0
  0
LTYPE
  5
14
330
5
100
AcDbSymbolTableRecord
100
AcDbLinetypeTableRecord
  2
CONTINUOUS
 70
     0
  3
Solid line
 72
    65
 73
     0
 40
0.0
  0
ENDTAB
  0
TABLE
  2
LAYER
  5
2
330
0
100
AcDbSymbolTable
 70
     4
  0
LAYER
  5
F
330
2
100
AcDbSymbolTableRecord
100
AcDbLayerTableRecord
  2
0
 70
     0
 62
     7
  6
CONTINUOUS
  0
LAYER
  5
10A
330
2
100
AcDbSymbolTableRecord
100
AcDbLayerTableRecord
  2
ADP1DETAIL
 70
     0
 62
     7
  6
CONTINUOUS
  0
LAYER
  5
10C
330
2
100
AcDbSymbolTableRecord
100
AcDbLayerTableRecord
  2
DEFPOINTS
 70
     0
 62
     7
  6
CONTINUOUS
  0
LAYER
  5
10F
330
2
100
AcDbSymbolTableRecord
100
AcDbLayerTableRecord
  2
ADPDIM
 70
     0
 62
     3
  6
CONTINUOUS
  0
ENDTAB
  0
TABLE
  2
STYLE
  5
3
330
0
100
AcDbSymbolTable
 70
     2
  0
STYLE
  5
10
330
3
100
AcDbSymbolTableRecord
100
AcDbTextStyleTableRecord
  2
STANDARD
 70
     0
 40
0.0
 41
1.0
 50
0.0
 71
     0
 42
0.2
  3
txt
  4

  0
STYLE
  5
14E
330
3
100
AcDbSymbolTableRecord
100
AcDbTextStyleTableRecord
  2
ARIAL_WIDE
 70
     0
 40
0.0
 41
1.25
 50
0.0
 71
     0
 42
0.2
  3
ARIAL.TTF
  4

1001
ACAD
1000
Arial
1071
       34
  0
ENDTAB
  0
TABLE
  2
VIEW
  5
6
330
0
100
AcDbSymbolTable
 70
     0
  0
ENDTAB
  0
TABLE
  2
UCS
  5
7
330
0
100
AcDbSymbolTable
 70
     0
  0
ENDTAB
  0
TABLE
  2
APPID
  5
9
330
0
100
AcDbSymbolTable
 70
     1
  0
APPID
  5
11
330
9
100
AcDbSymbolTableRecord
100
AcDbRegAppTableRecord
  2
ACAD
 70
     0
  0
ENDTAB
  0
TABLE
  2
DIMSTYLE
  5
A
330
0
100
AcDbSymbolTable
 70
     1
  0
DIMSTYLE
105
142
330
A
100
AcDbSymbolTableRecord
100
AcDbDimStyleTableRecord
  2
STANDARD
 70
     0
  3

  4

  5

  6

  7

 40
1.0
 41
0.18
 42
0.0625
 43
0.38
 44
0.18
 45
0.0
 46
0.0
 47
0.0
 48
0.0
140
0.18
141
0.09
142
0.0
143
25.4
144
1.0
145
0.0
146
1.0
147
0.09
 71
     0
 72
     0
 73
     1
 74
     1
 75
     0
 76
     0
 77
     0
 78
     0
170
     0
171
     2
172
     0
173
     0
174
     0
175
     0
176
     0
177
     0
178
     0
270
     2
271
     4
272
     4
273
     2
274
     2
340
10
275
     0
280
     0
281
     0
282
     0
283
     1
284
     0
285
     0
286
     0
287
     3
288
     0
  0
ENDTAB
  0
TABLE
  2
BLOCK_RECORD
  5
1
330
0
100
AcDbSymbolTable
 70
     3
  0
BLOCK_RECORD
  5
18
102
{ACAD_XDICTIONARY
360
1A3
102
}
330
1
100
AcDbSymbolTableRecord
100
AcDbBlockTableRecord
  2
*MODEL_SPACE
  0
BLOCK_RECORD
  5
15
102
{ACAD_XDICTIONARY
360
1A1
102
}
330
1
100
AcDbSymbolTableRecord
100
AcDbBlockTableRecord
  2
*PAPER_SPACE
  0
BLOCK_RECORD
  5
E9
330
1
100
AcDbSymbolTableRecord
100
AcDbBlockTableRecord
  2
4573
  0
BLOCK_RECORD
  5
105
330
1
100
AcDbSymbolTableRecord
100
AcDbBlockTableRecord
  2
*D1
  0
BLOCK_RECORD
  5
106
330
1
100
AcDbSymbolTableRecord
100
AcDbBlockTableRecord
  2
*D2
  0
ENDTAB
  0
ENDSEC
  0
SECTION
  2
BLOCKS
  0
BLOCK
  5
112
330
18
100
AcDbEntity
  8
0
100
AcDbBlockBegin
  2
*MODEL_SPACE
 70
     0
 10
0.0
 20
0.0
 30
0.0
  3
*MODEL_SPACE
  1

  0
ENDBLK
  5
113
330
18
100
AcDbEntity
  8
0
100
AcDbBlockEnd
  0
BLOCK
  5
110
330
15
100
AcDbEntity
 67
     1
  8
0
100
AcDbBlockBegin
  2
*PAPER_SPACE
 70
     0
 10
0.0
 20
0.0
 30
0.0
  3
*PAPER_SPACE
  1

  0
ENDBLK
  5
111
330
15
100
AcDbEntity
 67
     1
  8
0
100
AcDbBlockEnd
  0
BLOCK
  5
115
330
E9
100
AcDbEntity
  8
0
100
AcDbBlockBegin
  2
4573
 70
     0
 10
0.0
 20
0.0
 30
0.0
  3
4573
  1

  0
ARC
  5
116
330
E9
100
AcDbEntity
  8
0
100
AcDbCircle
 10
1.37331706323123
 20
-7.645689779941987
 30
0.0
 40
7.868999999999999
100
AcDbArc
 50
80.31784323855147
 51
90.00776145644621
  0
LINE
  5
117
330
E9
100
AcDbEntity
  8
0
100
AcDbLine
 10
1.37331706323123
 20
-0.0886897799419888
 30
0.0
 11
1.763817063231229
 21
-0.0886897799419888
 31
0.0
  0
ARC
  5
118
330
E9
100
AcDbEntity
  8
0
100
AcDbCircle
 10
1.371185147020028
 20
-7.645689779941987
 30
0.0
 40
7.868999999999999
100
AcDbArc
 50
89.99223854355378
 51
99.68215676144854
  0
ARC
  5
119
330
E9
100
AcDbEntity
  8
0
100
AcDbCircle
 10
1.371185147020028
 20
7.58089428481559
 30
0.0
 40
7.868999999999999
100
AcDbArc
 50
260.3178432385515
 51
267.0789027236005
  0
ARC
  5
11A
330
E9
100
AcDbEntity
  8
0
100
AcDbCircle
 10
0.0581851470200299
 20
-0.1149019702836771
 30
0.0
 40
0.062
100
AcDbArc
 50
180.0
 51
260.3178432385555
  0
LINE
  5
11B
330
E9
100
AcDbEntity
  8
0
100
AcDbLine
 10
-0.0038148529799713
 20
-0.1149019702836771
 30
0.0
 11
-0.0038148529799713
 21
0.0501064751572837
 31
0.0
  0
ARC
  5
11C
330
E9
100
AcDbEntity
  8
0
100
AcDbCircle
 10
0.0581851470200263
 20
0.0501064751572837
 30
0.0
 40
0.062
100
AcDbArc
 50
99.68215676144835
 51
180.0
  0
LINE
  5
11D
330
E9
100
AcDbEntity
  8
0
100
AcDbLine
 10
0.9806851470200292
 20
-0.0886897799419888
 30
0.0
 11
0.9806851470200292
 21
-0.2678942044991768
 31
0.0
  0
ARC
  5
11E
330
E9
100
AcDbEntity
  8
0
100
AcDbCircle
 10
0.9706851470200277
 20
-0.2678942044991768
 30
0.0
 40
0.01
100
AcDbArc
 50
267.0789027236234
 51
0.0
  0
LINE
  5
11F
330
E9
100
AcDbEntity
  8
0
100
AcDbLine
 10
1.371185147020028
 20
-0.0886897799419888
 30
0.0
 11
0.9806851470200292
 21
-0.0886897799419888
 31
0.0
  0
ARC
  5
120
330
E9
100
AcDbEntity
  8
0
100
AcDbCircle
 10
1.37331706323123
 20
7.58089428481559
 30
0.0
 40
7.868999999999999
100
AcDbArc
 50
272.9210972763993
 51
279.6821567614484
  0
LINE
  5
121
330
E9
100
AcDbEntity
  8
0
100
AcDbLine
 10
1.763817063231229
 20
-0.0886897799419888
 30
0.0
 11
1.763817063231229
 21
-0.2678942044991768
 31
0.0
  0
ARC
  5
122
330
E9
100
AcDbEntity
  8
0
100
AcDbCircle
 10
1.773817063231231
 20
-0.2678942044991768
 30
0.0
 40
0.01
100
AcDbArc
 50
180.0
 51
272.9210972763765
  0
ARC
  5
123
330
E9
100
AcDbEntity
  8
0
100
AcDbCircle
 10
2.686317063231232
 20
0.0501064751572837
 30
0.0
 40
0.062
100
AcDbArc
 50
0.0
 51
80.31784323855166
  0
ARC
  5
124
330
E9
100
AcDbEntity
  8
0
100
AcDbCircle
 10
2.686317063231228
 20
-0.1149019702836771
 30
0.0
 40
0.062
100
AcDbArc
 50
279.6821567614445
 51
0.0
  0
LINE
  5
125
330
E9
100
AcDbEntity
  8
0
100
AcDbLine
 10
2.74831706323123
 20
-0.1149019702836771
 30
0.0
 11
2.74831706323123
 21
0.0501064751572837
 31
0.0
  0
ENDBLK
  5
126
330
E9
100
AcDbEntity
  8
0
100
AcDbBlockEnd
  0
BLOCK
  5
127
330
105
100
AcDbEntity
  8
0
100
AcDbBlockBegin
  2
*D1
 70
     1
 10
0.0
 20
0.0
 30
0.0
  3
*D1
  1

  0
LINE
  5
128
330
105
100
AcDbEntity
  8
0
  6
BYBLOCK
 62
     0
100
AcDbLine
 10
0.9185409158768667
 20
-18.71994739040921
 30
0.0
 11
0.9185409158768667
 21
-18.14637443227578
 31
0.0
  0
LINE
  5
129
330
105
100
AcDbEntity
  8
0
  6
BYBLOCK
 62
     0
100
AcDbLine
 10
3.670672832088068
 20
-18.71994739040921
 30
0.0
 11
3.670672832088068
 21
-18.14637443227578
 31
0.0
  0
LINE
  5
12A
330
105
100
AcDbEntity
  8
0
  6
BYBLOCK
 62
     0
100
AcDbLine
 10
0.9185409158768667
 20
-18.32637443227578
 30
0.0
 11
1.8779402073158
 21
-18.32637443227578
 31
0.0
  0
LINE
  5
12B
330
105
100
AcDbEntity
  8
0
  6
BYBLOCK
 62
     0
100
AcDbLine
 10
3.670672832088068
 20
-18.32637443227578
 30
0.0
 11
2.711273540649134
 21
-18.32637443227578
 31
0.0
  0
LINE
  5
12C
330
105
100
AcDbEntity
  8
0
  6
BYBLOCK
 62
     0
100
AcDbLine
 10
0.7935409158768669
 20
-18.45137443227578
 30
0.0
 11
1.043540915876866
 21
-18.20137443227578
 31
0.0
  0
LINE
  5
12D
330
105
100
AcDbEntity
  8
0
  6
BYBLOCK
 62
     0
100
AcDbLine
 10
3.545672832088068
 20
-18.45137443227578
 30
0.0
 11
3.795672832088068
 21
-18.20137443227578
 31
0.0
  0
TEXT
  5
12E
330
105
100
AcDbEntity
  8
0
  6
BYBLOCK
 62
     0
100
AcDbText
 10
2.002940207315801
 20
-18.38887443227578
 30
0.0
 40
0.125
  1
2 3/4
 72
     1
 11
2.294606873982467
 21
-18.32637443227578
 31
0.0
100
AcDbText
 73
     2
  0
POINT
  5
12F
330
105
100
AcDbEntity
  8
DEFPOINTS
  6
BYBLOCK
 62
     0
100
AcDbPoint
 10
0.9185409158768667
 20
-18.78244739040921
 30
0.0
  0
POINT
  5
130
330
105
100
AcDbEntity
  8
DEFPOINTS
  6
BYBLOCK
 62
     0
100
AcDbPoint
 10
3.670672832088068
 20
-18.78244739040921
 30
0.0
  0
POINT
  5
131
330
105
100
AcDbEntity
  8
DEFPOINTS
  6
BYBLOCK
 62
     0
100
AcDbPoint
 10
3.670672832088068
 20
-18.32637443227578
 30
0.0
  0
ENDBLK
  5
132
330
105
100
AcDbEntity
  8
0
100
AcDbBlockEnd
  0
BLOCK
  5
133
330
106
100
AcDbEntity
  8
0
100
AcDbBlockBegin
  2
*D2
 70
     1
 10
0.0
 20
0.0
 30
0.0
  3
*D2
  1

  0
LINE
  5
134
330
106
100
AcDbEntity
  8
0
  6
BYBLOCK
 62
     0
100
AcDbLine
 10
1.900266117418349
 20
-19.18194629052182
 30
0.0
 11
1.900266117418349
 21
-19.42512370271476
 31
0.0
  0
LINE
  5
135
330
106
100
AcDbEntity
  8
0
  6
BYBLOCK
 62
     0
100
AcDbLine
 10
2.679887705167636
 20
-19.18194629052182
 30
0.0
 11
2.679887705167636
 21
-19.42512370271476
 31
0.0
  0
LINE
  5
136
330
106
100
AcDbEntity
  8
0
  6
BYBLOCK
 62
     0
100
AcDbLine
 10
1.900266117418349
 20
-19.24512370271476
 30
0.0
 11
1.650266117418349
 21
-19.24512370271476
 31
0.0
  0
LINE
  5
137
330
106
100
AcDbEntity
  8
0
  6
BYBLOCK
 62
     0
100
AcDbLine
 10
2.679887705167636
 20
-19.24512370271476
 30
0.0
 11
2.929887705167636
 21
-19.24512370271476
 31
0.0
  0
LINE
  5
138
330
106
100
AcDbEntity
  8
0
  6
BYBLOCK
 62
     0
100
AcDbLine
 10
1.775266117418349
 20
-19.37012370271476
 30
0.0
 11
2.025266117418349
 21
-19.12012370271476
 31
0.0
  0
LINE
  5
139
330
106
100
AcDbEntity
  8
0
  6
BYBLOCK
 62
     0
100
AcDbLine
 10
2.554887705167636
 20
-19.37012370271476
 30
0.0
 11
2.804887705167636
 21
-19.12012370271476
 31
0.0
  0
TEXT
  5
13A
330
106
100
AcDbEntity
  8
0
  6
BYBLOCK
 62
     0
100
AcDbText
 10
3.054887705167636
 20
-19.30762370271476
 30
0.0
 40
0.125
  1
3/4
 72
     1
 11
3.221554371834302
 21
-19.24512370271476
 31
0.0
100
AcDbText
 73
     2
  0
POINT
  5
13B
330
106
100
AcDbEntity
  8
DEFPOINTS
  6
BYBLOCK
 62
     0
100
AcDbPoint
 10
1.900266117418349
 20
-19.11944629052182
 30
0.0
  0
POINT
  5
13C
330
106
100
AcDbEntity
  8
DEFPOINTS
  6
BYBLOCK
 62
     0
100
AcDbPoint
 10
2.679887705167636
 20
-19.11944629052182
 30
0.0
  0
POINT
  5
13D
330
106
100
AcDbEntity
  8
DEFPOINTS
  6
BYBLOCK
 62
     0
100
AcDbPoint
 10
2.679887705167636
 20
-19.24512370271476
 30
0.0
  0
ENDBLK
  5
13E
330
106
100
AcDbEntity
  8
0
100
AcDbBlockEnd
  0
ENDSEC
  0
SECTION
  2
ENTITIES
  0
DIMENSION
  5
13F
330
18
100
AcDbEntity
  8
ADPDIM
100
AcDbDimension
  2
*D1
 10
3.670672832088068
 20
-18.32637443227578
 30
0.0
 11
2.294606873982467
 21
-18.32637443227578
 31
0.0
100
AcDbAlignedDimension
 13
0.9185409158768667
 23
-18.78244739040921
 33
0.0
 14
3.670672832088068
 24
-18.78244739040921
 34
0.0
100
AcDbRotatedDimension
  0
DIMENSION
  5
140
330
18
100
AcDbEntity
  8
ADPDIM
100
AcDbDimension
  2
*D2
 10
2.679887705167636
 20
-19.24512370271476
 30
0.0
 11
3.221554371834302
 21
-19.24512370271476
 31
0.0
100
AcDbAlignedDimension
 13
1.900266117418349
 23
-19.11944629052182
 33
0.0
 14
2.679887705167636
 24
-19.11944629052182
 34
0.0
100
AcDbRotatedDimension
  0
INSERT
  5
141
330
18
100
AcDbEntity
  8
ADP1DETAIL
100
AcDbBlockReference
  2
4573
 10
0.922355768856838
 20
-18.75004964284602
 30
0.0
  0
TEXT
  5
14F
330
18
100
AcDbEntity
  8
ADPDIM
100
AcDbText
 10
-4.232188108679749
 20
-19.92445775262487
 30
0.0
 40
0.125
  1
J U L I U S  B L U M  &  C O . ,  I N C .      ( 8 0 0 )  5 2 6 - 6 2 9 3        W W W . J U L I U S B L U M . C O M        P A R T  N o .  4 5 7 3
 41
1.25
  7
ARIAL_WIDE
 72
     1
 11
2.293540915876866
 21
-19.79945775262487
 31
0.0
100
AcDbText
 73
     3
  0
ENDSEC
  0
SECTION
  2
OBJECTS
  0
DICTIONARY
  5
C
330
0
100
AcDbDictionary
  3
ACAD_GROUP
350
D
  3
ACAD_LAYOUT
350
148
  3
ACAD_MLINESTYLE
350
E
  3
ACAD_PLOTSETTINGS
350
149
  3
ACAD_PLOTSTYLENAME
350
146
  3
ACDBHEADERROUNDTRIPXREC
350
293
  3
ACDBVARIABLEDICTIONARY
350
1A9
  0
DICTIONARY
  5
1A3
330
18
100
AcDbDictionary
280
     1
  3
ACAD_LAYOUTSELFREF
360
2B4
  0
DICTIONARY
  5
1A1
330
15
100
AcDbDictionary
280
     1
  3
ACAD_LAYOUTSELFREF
360
2B3
  0
DICTIONARY
  5
D
102
{ACAD_REACTORS
330
C
102
}
330
C
100
AcDbDictionary
  0
DICTIONARY
  5
148
102
{ACAD_REACTORS
330
C
102
}
330
C
100
AcDbDictionary
  0
DICTIONARY
  5
E
102
{ACAD_REACTORS
330
C
102
}
330
C
100
AcDbDictionary
  3
STANDARD
350
1B
  0
DICTIONARY
  5
149
102
{ACAD_REACTORS
330
C
102
}
330
C
100
AcDbDictionary
  0
ACDBDICTIONARYWDFLT
  5
146
102
{ACAD_REACTORS
330
C
102
}
330
C
100
AcDbDictionary
281
     1
  3
Normal
350
147
100
AcDbDictionaryWithDefault
340
147
  0
DICTIONARY
  5
293
102
{ACAD_REACTORS
330
C
102
}
330
C
100
AcDbDictionary
  3
CEPSNTYPE
350
29D
  3
FINGERPRINTGUID
350
29E
  3
HYPERLINKBASE
350
296
  3
INSUNITS
350
29C
  3
LAYOUTDICT
350
298
  3
LWETCUNION
350
29B
  3
PLOTSETDICT
350
299
  3
PLOTSTYLNAMDICT
350
29A
  3
PSVPSCALE
350
2A0
  3
PUCSBASE
350
2A3
  3
PUCSORGBACK
350
2A9
  3
PUCSORGBOTTOM
350
2A5
  3
PUCSORGFRONT
350
2A8
  3
PUCSORGLEFT
350
2A6
  3
PUCSORGRIGHT
350
2A7
  3
PUCSORGTOP
350
2A4
  3
PUCSORTHOREF
350
2A1
  3
PUCSORTHOVIEW
350
2A2
  3
STYLESHEET
350
297
  3
TSTACKALIGN
350
294
  3
TSTACKSIZE
350
295
  3
UCSBASE
350
2AC
  3
UCSORGBACK
350
2B2
  3
UCSORGBOTTOM
350
2AE
  3
UCSORGFRONT
350
2B1
  3
UCSORGLEFT
350
2AF
  3
UCSORGRIGHT
350
2B0
  3
UCSORGTOP
350
2AD
  3
UCSORTHOREF
350
2AA
  3
UCSORTHOVIEW
350
2AB
  3
VERSIONGUID
350
29F
  0
DICTIONARY
  5
1A9
102
{ACAD_REACTORS
330
C
102
}
330
C
100
AcDbDictionary
  3
DIMASSOC
350
1AA
  0
XRECORD
  5
2B4
102
{ACAD_REACTORS
330
1A3
102
}
330
1A3
100
AcDbXrecord
340
18
  0
XRECORD
  5
2B3
102
{ACAD_REACTORS
330
1A1
102
}
330
1A1
100
AcDbXrecord
340
15
  0
MLINESTYLE
  5
1B
102
{ACAD_REACTORS
330
E
102
}
330
E
100
AcDbMlineStyle
  2
STANDARD
 70
     0
  3

 62
     0
 51
90.0
 52
90.0
 71
     2
 49
0.5
 62
   256
  6
BYLAYER
 49
-0.5
 62
   256
  6
BYLAYER
  0
ACDBPLACEHOLDER
  5
147
102
{ACAD_REACTORS
330
146
102
}
330
146
100
AcDbPlaceHolder
280
     0
  0
XRECORD
  5
29D
102
{ACAD_REACTORS
330
293
102
}
330
293
100
AcDbXrecord
 90
        0
  0
XRECORD
  5
29E
102
{ACAD_REACTORS
330
293
102
}
330
293
100
AcDbXrecord
  1
{B7264FB8-FD7D-4F44-B4F8-A9EC55EFDD5E}
  0
XRECORD
  5
296
102
{ACAD_REACTORS
330
293
102
}
330
293
100
AcDbXrecord
  1

  0
XRECORD
  5
29C
102
{ACAD_REACTORS
330
293
102
}
330
293
100
AcDbXrecord
 90
        0
  0
XRECORD
  5
298
102
{ACAD_REACTORS
330
293
102
}
330
293
100
AcDbXrecord
340
148
  0
XRECORD
  5
29B
102
{ACAD_REACTORS
330
293
102
}
330
293
100
AcDbXrecord
 90
    14877
  0
XRECORD
  5
299
102
{ACAD_REACTORS
330
293
102
}
330
293
100
AcDbXrecord
340
149
  0
XRECORD
  5
29A
102
{ACAD_REACTORS
330
293
102
}
330
293
100
AcDbXrecord
340
146
  0
XRECORD
  5
2A0
102
{ACAD_REACTORS
330
293
102
}
330
293
100
AcDbXrecord
 40
0.0
  0
XRECORD
  5
2A3
102
{ACAD_REACTORS
330
293
102
}
330
293
100
AcDbXrecord
340
0
  0
XRECORD
  5
2A9
102
{ACAD_REACTORS
330
293
102
}
330
293
100
AcDbXrecord
 10
0.0
 20
0.0
 30
0.0
  0
XRECORD
  5
2A5
102
{ACAD_REACTORS
330
293
102
}
330
293
100
AcDbXrecord
 10
0.0
 20
0.0
 30
0.0
  0
XRECORD
  5
2A8
102
{ACAD_REACTORS
330
293
102
}
330
293
100
AcDbXrecord
 10
0.0
 20
0.0
 30
0.0
  0
XRECORD
  5
2A6
102
{ACAD_REACTORS
330
293
102
}
330
293
100
AcDbXrecord
 10
0.0
 20
0.0
 30
0.0
  0
XRECORD
  5
2A7
102
{ACAD_REACTORS
330
293
102
}
330
293
100
AcDbXrecord
 10
0.0
 20
0.0
 30
0.0
  0
XRECORD
  5
2A4
102
{ACAD_REACTORS
330
293
102
}
330
293
100
AcDbXrecord
 10
0.0
 20
0.0
 30
0.0
  0
XRECORD
  5
2A1
102
{ACAD_REACTORS
330
293
102
}
330
293
100
AcDbXrecord
340
0
  0
XRECORD
  5
2A2
102
{ACAD_REACTORS
330
293
102
}
330
293
100
AcDbXrecord
 70
     0
  0
XRECORD
  5
297
102
{ACAD_REACTORS
330
293
102
}
330
293
100
AcDbXrecord
  1

  0
XRECORD
  5
294
102
{ACAD_REACTORS
330
293
102
}
330
293
100
AcDbXrecord
 90
        1
  0
XRECORD
  5
295
102
{ACAD_REACTORS
330
293
102
}
330
293
100
AcDbXrecord
 90
       70
  0
XRECORD
  5
2AC
102
{ACAD_REACTORS
330
293
102
}
330
293
100
AcDbXrecord
340
0
  0
XRECORD
  5
2B2
102
{ACAD_REACTORS
330
293
102
}
330
293
100
AcDbXrecord
 10
0.0
 20
0.0
 30
0.0
  0
XRECORD
  5
2AE
102
{ACAD_REACTORS
330
293
102
}
330
293
100
AcDbXrecord
 10
0.0
 20
0.0
 30
0.0
  0
XRECORD
  5
2B1
102
{ACAD_REACTORS
330
293
102
}
330
293
100
AcDbXrecord
 10
0.0
 20
0.0
 30
0.0
  0
XRECORD
  5
2AF
102
{ACAD_REACTORS
330
293
102
}
330
293
100
AcDbXrecord
 10
0.0
 20
0.0
 30
0.0
  0
XRECORD
  5
2B0
102
{ACAD_REACTORS
330
293
102
}
330
293
100
AcDbXrecord
 10
0.0
 20
0.0
 30
0.0
  0
XRECORD
  5
2AD
102
{ACAD_REACTORS
330
293
102
}
330
293
100
AcDbXrecord
 10
0.0
 20
0.0
 30
0.0
  0
XRECORD
  5
2AA
102
{ACAD_REACTORS
330
293
102
}
330
293
100
AcDbXrecord
340
0
  0
XRECORD
  5
2AB
102
{ACAD_REACTORS
330
293
102
}
330
293
100
AcDbXrecord
 70
     0
  0
XRECORD
  5
29F
102
{ACAD_REACTORS
330
293
102
}
330
293
100
AcDbXrecord
  1
{46CB81C2-F557-46CE-A2C2-3E6C4DE463D7}
  0
DICTIONARYVAR
  5
1AA
102
{ACAD_REACTORS
330
1A9
102
}
330
1A9
100
DictionaryVariables
280
     0
  1
1
  0
ENDSEC
  0
EOF
