  0
SECTION
  2
HEADER
  9
$ACADVER
  1
AC1015
  9
$ACADMAINTVER
 70
    20
  9
$DWGCODEPAGE
  3
ANSI_1252
  9
$INSBASE
 10
-19.46759798891182
 20
-15.25683355471427
 30
0.0
  9
$EXTMIN
 10
-27.96308406104742
 20
-18.47510064752573
 30
-0.0015258207003583
  9
$EXTMAX
 10
-7.853234099183083
 20
-9.381786859965757
 30
0.0000000349246037
  9
$LIMMIN
 10
0.0
 20
0.0
  9
$LIMMAX
 10
36.0
 20
36.0
  9
$ORTHOMODE
 70
     1
  9
$REGENMODE
 70
     1
  9
$FILLMODE
 70
     1
  9
$QTEXTMODE
 70
     0
  9
$MIRRTEXT
 70
     1
  9
$LTSCALE
 40
1.0
  9
$ATTMODE
 70
     1
  9
$TEXTSIZE
 40
0.2
  9
$TRACEWID
 40
0.05
  9
$TEXTSTYLE
  7
STANDARD
  9
$CLAYER
  8
ADP1DETAIL
  9
$CELTYPE
  6
BYLAYER
  9
$CECOLOR
 62
   256
  9
$CELTSCALE
 40
1.0
  9
$DISPSILH
 70
     0
  9
$DIMSCALE
 40
1.0
  9
$DIMASZ
 40
0.125
  9
$DIMEXO
 40
0.0625
  9
$DIMDLI
 40
0.38
  9
$DIMRND
 40
0.0
  9
$DIMDLE
 40
0.0
  9
$DIMEXE
 40
0.18
  9
$DIMTP
 40
0.0
  9
$DIMTM
 40
0.0
  9
$DIMTXT
 40
0.125
  9
$DIMCEN
 40
0.1875
  9
$DIMTSZ
 40
0.125
  9
$DIMTOL
 70
     0
  9
$DIMLIM
 70
     0
  9
$DIMTIH
 70
     0
  9
$DIMTOH
 70
     0
  9
$DIMSE1
 70
     0
  9
$DIMSE2
 70
     0
  9
$DIMTAD
 70
     0
  9
$DIMZIN
 70
     3
  9
$DIMBLK
  1

  9
$DIMASO
 70
     1
  9
$DIMSHO
 70
     1
  9
$DIMPOST
  1

  9
$DIMAPOST
  1

  9
$DIMALT
 70
     0
  9
$DIMALTD
 70
     1
  9
$DIMALTF
 40
25.4
  9
$DIMLFAC
 40
1.0
  9
$DIMTOFL
 70
     0
  9
$DIMTVP
 40
0.0
  9
$DIMTIX
 70
     0
  9
$DIMSOXD
 70
     0
  9
$DIMSAH
 70
     0
  9
$DIMBLK1
  1

  9
$DIMBLK2
  1

  9
$DIMSTYLE
  2
STANDARD
  9
$DIMCLRD
 70
     0
  9
$DIMCLRE
 70
     0
  9
$DIMCLRT
 70
     0
  9
$DIMTFAC
 40
1.0
  9
$DIMGAP
 40
0.125
  9
$DIMJUST
 70
     0
  9
$DIMSD1
 70
     0
  9
$DIMSD2
 70
     0
  9
$DIMTOLJ
 70
     1
  9
$DIMTZIN
 70
     0
  9
$DIMALTZ
 70
     0
  9
$DIMALTTZ
 70
     0
  9
$DIMUPT
 70
     0
  9
$DIMDEC
 70
     4
  9
$DIMTDEC
 70
     4
  9
$DIMALTU
 70
     2
  9
$DIMALTTD
 70
     2
  9
$DIMTXSTY
  7
STANDARD
  9
$DIMAUNIT
 70
     0
  9
$DIMADEC
 70
     0
  9
$DIMALTRND
 40
0.0
  9
$DIMAZIN
 70
     0
  9
$DIMDSEP
 70
    46
  9
$DIMATFIT
 70
     3
  9
$DIMFRAC
 70
     0
  9
$DIMLDRBLK
  1

  9
$DIMLUNIT
 70
     2
  9
$DIMLWD
 70
    -2
  9
$DIMLWE
 70
    -2
  9
$DIMTMOVE
 70
     0
  9
$LUNITS
 70
     5
  9
$LUPREC
 70
     4
  9
$SKETCHINC
 40
0.1
  9
$FILLETRAD
 40
0.062
  9
$AUNITS
 70
     0
  9
$AUPREC
 70
     0
  9
$MENU
  1
acad
  9
$ELEVATION
 40
0.0
  9
$PELEVATION
 40
0.0
  9
$THICKNESS
 40
0.0
  9
$LIMCHECK
 70
     0
  9
$CHAMFERA
 40
0.0
  9
$CHAMFERB
 40
0.0
  9
$CHAMFERC
 40
0.0
  9
$CHAMFERD
 40
0.0
  9
$SKPOLY
 70
     0
  9
$TDCREATE
 40
2450406.659753078
  9
$TDUCREATE
 40
2450406.826419746
  9
$TDUPDATE
 40
2453972.957354861
  9
$TDUUPDATE
 40
2453973.124021528
  9
$TDINDWG
 40
0.0253957176
  9
$TDUSRTIMER
 40
0.0253957176
  9
$USRTIMER
 70
     1
  9
$ANGBASE
 50
0.0
  9
$ANGDIR
 70
     0
  9
$PDMODE
 70
     0
  9
$PDSIZE
 40
0.0
  9
$PLINEWID
 40
0.0
  9
$SPLFRAME
 70
     0
  9
$SPLINETYPE
 70
     6
  9
$SPLINESEGS
 70
     8
  9
$HANDSEED
  5
3DA
  9
$SURFTAB1
 70
     6
  9
$SURFTAB2
 70
     6
  9
$SURFTYPE
 70
     6
  9
$SURFU
 70
     6
  9
$SURFV
 70
     6
  9
$UCSBASE
  2

  9
$UCSNAME
  2

  9
$UCSORG
 10
0.0
 20
0.0
 30
0.0
  9
$UCSXDIR
 10
1.0
 20
0.0
 30
0.0
  9
$UCSYDIR
 10
0.0
 20
1.0
 30
0.0
  9
$UCSORTHOREF
  2

  9
$UCSORTHOVIEW
 70
     0
  9
$UCSORGTOP
 10
0.0
 20
0.0
 30
0.0
  9
$UCSORGBOTTOM
 10
0.0
 20
0.0
 30
0.0
  9
$UCSORGLEFT
 10
0.0
 20
0.0
 30
0.0
  9
$UCSORGRIGHT
 10
0.0
 20
0.0
 30
0.0
  9
$UCSORGFRONT
 10
0.0
 20
0.0
 30
0.0
  9
$UCSORGBACK
 10
0.0
 20
0.0
 30
0.0
  9
$PUCSBASE
  2

  9
$PUCSNAME
  2

  9
$PUCSORG
 10
0.0
 20
0.0
 30
0.0
  9
$PUCSXDIR
 10
1.0
 20
0.0
 30
0.0
  9
$PUCSYDIR
 10
0.0
 20
1.0
 30
0.0
  9
$PUCSORTHOREF
  2

  9
$PUCSORTHOVIEW
 70
     0
  9
$PUCSORGTOP
 10
0.0
 20
0.0
 30
0.0
  9
$PUCSORGBOTTOM
 10
0.0
 20
0.0
 30
0.0
  9
$PUCSORGLEFT
 10
0.0
 20
0.0
 30
0.0
  9
$PUCSORGRIGHT
 10
0.0
 20
0.0
 30
0.0
  9
$PUCSORGFRONT
 10
0.0
 20
0.0
 30
0.0
  9
$PUCSORGBACK
 10
0.0
 20
0.0
 30
0.0
  9
$USERI1
 70
     0
  9
$USERI2
 70
     0
  9
$USERI3
 70
     0
  9
$USERI4
 70
     0
  9
$USERI5
 70
     0
  9
$USERR1
 40
0.0
  9
$USERR2
 40
0.0
  9
$USERR3
 40
0.0
  9
$USERR4
 40
0.0
  9
$USERR5
 40
0.0
  9
$WORLDVIEW
 70
     1
  9
$SHADEDGE
 70
     3
  9
$SHADEDIF
 70
    70
  9
$TILEMODE
 70
     1
  9
$MAXACTVP
 70
    15
  9
$PINSBASE
 10
0.0008545028977096
 20
1.250283272183907
 30
0.0
  9
$PLIMCHECK
 70
     0
  9
$PEXTMIN
 10
1.000000000000000E+20
 20
1.000000000000000E+20
 30
1.000000000000000E+20
  9
$PEXTMAX
 10
-1.000000000000000E+20
 20
-1.000000000000000E+20
 30
-1.000000000000000E+20
  9
$PLIMMIN
 10
0.0
 20
0.0
  9
$PLIMMAX
 10
12.0
 20
9.0
  9
$UNITMODE
 70
     0
  9
$VISRETAIN
 70
     0
  9
$PLINEGEN
 70
     0
  9
$PSLTSCALE
 70
     1
  9
$TREEDEPTH
 70
  3020
  9
$CMLSTYLE
  2
STANDARD
  9
$CMLJUST
 70
     0
  9
$CMLSCALE
 40
1.0
  9
$PROXYGRAPHICS
 70
     1
  9
$MEASUREMENT
 70
     0
  9
$CELWEIGHT
370
    -1
  9
$ENDCAPS
280
     0
  9
$JOINSTYLE
280
     0
  9
$LWDISPLAY
290
     0
  9
$INSUNITS
 70
     0
  9
$HYPERLINKBASE
  1

  9
$STYLESHEET
  1

  9
$XEDIT
290
     1
  9
$CEPSNTYPE
380
     0
  9
$PSTYLEMODE
290
     1
  9
$FINGERPRINTGUID
  2
{A8EBCDA0-5FEF-492C-A8C4-AF2196669258}
  9
$VERSIONGUID
  2
{3077898A-4D9D-4E1E-AD47-1F1608F79F76}
  9
$EXTNAMES
290
     1
  9
$PSVPSCALE
 40
0.0
  9
$OLESTARTUP
290
     0
  0
ENDSEC
  0
SECTION
  2
CLASSES
  0
CLASS
  1
ACDBDICTIONARYWDFLT
  2
AcDbDictionaryWithDefault
  3
ObjectDBX Classes
 90
        0
280
     0
281
     0
  0
CLASS
  1
ACDBPLACEHOLDER
  2
AcDbPlaceHolder
  3
ObjectDBX Classes
 90
        0
280
     0
281
     0
  0
CLASS
  1
LAYOUT
  2
AcDbLayout
  3
ObjectDBX Classes
 90
        0
280
     0
281
     0
  0
CLASS
  1
DICTIONARYVAR
  2
AcDbDictionaryVar
  3
ObjectDBX Classes
 90
        0
280
     0
281
     0
  0
CLASS
  1
MATERIAL
  2
AcDbMaterial
  3
ObjectDBX Classes
 90
     1024
280
     0
281
     0
  0
CLASS
  1
VISUALSTYLE
  2
AcDbVisualStyle
  3
ObjectDBX Classes
 90
     4095
280
     0
281
     0
  0
CLASS
  1
TABLESTYLE
  2
AcDbTableStyle
  3
ObjectDBX Classes
 90
     4095
280
     0
281
     0
  0
ENDSEC
  0
SECTION
  2
TABLES
  0
TABLE
  2
VPORT
  5
8
330
0
100
AcDbSymbolTable
 70
     1
  0
VPORT
  5
2EE
330
8
100
AcDbSymbolTableRecord
100
AcDbViewportTableRecord
  2
*Active
 70
     0
 10
0.0
 20
0.0
 11
1.0
 21
1.0
 12
-17.90815908011525
 22
-13.92844375374574
 13
0.0
 23
0.0
 14
0.5740882589684922
 24
0.5740882589684922
 15
0.5
 25
0.5
 16
0.0
 26
0.0
 36
1.0
 17
0.0
 27
0.0
 37
0.0
 40
11.72090307051497
 41
1.726930320150659
 42
50.0
 43
0.0
 44
0.0
 50
0.0
 51
0.0
 71
     0
 72
   100
 73
     1
 74
     0
 75
     0
 76
     0
 77
     0
 78
     0
281
     0
 65
     1
110
0.0
120
0.0
130
0.0
111
1.0
121
0.0
131
0.0
112
0.0
122
1.0
132
0.0
 79
     0
146
0.0
  0
ENDTAB
  0
TABLE
  2
LTYPE
  5
5
330
0
100
AcDbSymbolTable
 70
     2
  0
LTYPE
  5
12
330
5
100
AcDbSymbolTableRecord
100
AcDbLinetypeTableRecord
  2
BYBLOCK
 70
     0
  3

 72
    65
 73
     0
 40
0.0
  0
LTYPE
  5
13
330
5
100
AcDbSymbolTableRecord
100
AcDbLinetypeTableRecord
  2
BYLAYER
 70
     0
  3

 72
    65
 73
     0
 40
0.0
  0
LTYPE
  5
14
330
5
100
AcDbSymbolTableRecord
100
AcDbLinetypeTableRecord
  2
CONTINUOUS
 70
     0
  3
Solid line
 72
    65
 73
     0
 40
0.0
  0
LTYPE
  5
144
330
5
100
AcDbSymbolTableRecord
100
AcDbLinetypeTableRecord
  2
HIDDEN2
 70
     0
  3
_ _ _ _ _ _ _ _ _ _ _ _ _ _ _ _ _ _ _ _ _ _ _ _
 72
    65
 73
     2
 40
0.1875
 49
0.125
 74
     0
 49
-0.0625
 74
     0
  0
ENDTAB
  0
TABLE
  2
LAYER
  5
2
330
0
100
AcDbSymbolTable
 70
     5
  0
LAYER
  5
F
330
2
100
AcDbSymbolTableRecord
100
AcDbLayerTableRecord
  2
0
 70
     0
 62
     7
  6
CONTINUOUS
370
    -3
390
1A3
  0
LAYER
  5
148
330
2
100
AcDbSymbolTableRecord
100
AcDbLayerTableRecord
  2
ADP1DETAIL
 70
     0
 62
     7
  6
CONTINUOUS
370
    -3
390
1A3
  0
LAYER
  5
149
330
2
100
AcDbSymbolTableRecord
100
AcDbLayerTableRecord
  2
ADP3DETAIL
 70
     0
 62
     1
  6
CONTINUOUS
370
    -3
390
1A3
  0
LAYER
  5
14A
330
2
100
AcDbSymbolTableRecord
100
AcDbLayerTableRecord
  2
DEFPOINTS
 70
     0
 62
     7
  6
CONTINUOUS
290
     0
370
    -3
390
1A3
  0
LAYER
  5
14D
330
2
100
AcDbSymbolTableRecord
100
AcDbLayerTableRecord
  2
ADPDIM
 70
     0
 62
     3
  6
CONTINUOUS
370
    -3
390
1A3
  0
ENDTAB
  0
TABLE
  2
STYLE
  5
3
330
0
100
AcDbSymbolTable
 70
     2
  0
STYLE
  5
10
330
3
100
AcDbSymbolTableRecord
100
AcDbTextStyleTableRecord
  2
STANDARD
 70
     0
 40
0.0
 41
1.0
 50
0.0
 71
     0
 42
0.2
  3
txt
  4

  0
STYLE
  5
1AA
330
3
100
AcDbSymbolTableRecord
100
AcDbTextStyleTableRecord
  2
ARIAL_WIDE
 70
     0
 40
0.0
 41
1.25
 50
0.0
 71
     0
 42
0.2
  3
ARIAL.TTF
  4

1001
ACAD
1000
Arial
1071
       34
  0
ENDTAB
  0
TABLE
  2
VIEW
  5
6
330
0
100
AcDbSymbolTable
 70
     0
  0
ENDTAB
  0
TABLE
  2
UCS
  5
7
330
0
100
AcDbSymbolTable
 70
     0
  0
ENDTAB
  0
TABLE
  2
APPID
  5
9
330
0
100
AcDbSymbolTable
 70
     1
  0
APPID
  5
11
330
9
100
AcDbSymbolTableRecord
100
AcDbRegAppTableRecord
  2
ACAD
 70
     0
  0
ENDTAB
  0
TABLE
  2
DIMSTYLE
  5
A
330
0
100
AcDbSymbolTable
 70
     1
100
AcDbDimStyleTable
 71
     0
  0
DIMSTYLE
105
19E
102
{ACAD_REACTORS
330
365
330
366
330
368
102
}
330
A
100
AcDbSymbolTableRecord
100
AcDbDimStyleTableRecord
  2
STANDARD
 70
     0
340
10
  0
ENDTAB
  0
TABLE
  2
BLOCK_RECORD
  5
1
330
0
100
AcDbSymbolTable
 70
    12
  0
BLOCK_RECORD
  5
18
102
{ACAD_XDICTIONARY
360
1FF
102
}
330
1
100
AcDbSymbolTableRecord
100
AcDbBlockTableRecord
  2
*MODEL_SPACE
340
1A6
  0
BLOCK_RECORD
  5
15
102
{ACAD_XDICTIONARY
360
1FD
102
}
330
1
100
AcDbSymbolTableRecord
100
AcDbBlockTableRecord
  2
*PAPER_SPACE
340
1A7
  0
BLOCK_RECORD
  5
D5
330
1
100
AcDbSymbolTableRecord
100
AcDbBlockTableRecord
  2
6933
340
0
102
{BLKREFS
331
35F
331
367
102
}
  0
BLOCK_RECORD
  5
10C
330
1
100
AcDbSymbolTableRecord
100
AcDbBlockTableRecord
  2
*D1
340
0
  0
BLOCK_RECORD
  5
10D
330
1
100
AcDbSymbolTableRecord
100
AcDbBlockTableRecord
  2
*D2
340
0
  0
BLOCK_RECORD
  5
141
330
1
100
AcDbSymbolTableRecord
100
AcDbBlockTableRecord
  2
*D3
340
0
  0
BLOCK_RECORD
  5
142
330
1
100
AcDbSymbolTableRecord
100
AcDbBlockTableRecord
  2
*D4
340
0
  0
BLOCK_RECORD
  5
335
330
1
100
AcDbSymbolTableRecord
100
AcDbBlockTableRecord
  2
*D5
340
0
  0
BLOCK_RECORD
  5
342
330
1
100
AcDbSymbolTableRecord
100
AcDbBlockTableRecord
  2
*D6
340
0
  0
BLOCK_RECORD
  5
34F
330
1
100
AcDbSymbolTableRecord
100
AcDbBlockTableRecord
  2
*D7
340
0
  0
BLOCK_RECORD
  5
369
330
1
100
AcDbSymbolTableRecord
100
AcDbBlockTableRecord
  2
*D9
340
0
  0
BLOCK_RECORD
  5
376
330
1
100
AcDbSymbolTableRecord
100
AcDbBlockTableRecord
  2
*D10
340
0
  0
BLOCK_RECORD
  5
383
330
1
100
AcDbSymbolTableRecord
100
AcDbBlockTableRecord
  2
*D11
340
0
  0
ENDTAB
  0
ENDSEC
  0
SECTION
  2
BLOCKS
  0
BLOCK
  5
150
330
18
100
AcDbEntity
  8
0
100
AcDbBlockBegin
  2
*MODEL_SPACE
 70
     0
 10
0.0
 20
0.0
 30
0.0
  3
*MODEL_SPACE
  1

  0
ENDBLK
  5
151
330
18
100
AcDbEntity
  8
0
100
AcDbBlockEnd
  0
BLOCK
  5
14E
330
15
100
AcDbEntity
 67
     1
  8
0
100
AcDbBlockBegin
  2
*PAPER_SPACE
 70
     0
 10
0.0
 20
0.0
 30
0.0
  3
*PAPER_SPACE
  1

  0
ENDBLK
  5
14F
330
15
100
AcDbEntity
 67
     1
  8
0
100
AcDbBlockEnd
  0
BLOCK
  5
153
330
D5
100
AcDbEntity
  8
0
100
AcDbBlockBegin
  2
6933
 70
     0
 10
0.0
 20
0.0
 30
0.0
  3
6933
  1

  0
ARC
  5
154
330
D5
100
AcDbEntity
  8
0
100
AcDbCircle
 10
0.9403926425194377
 20
-2.609422061818071
 30
0.0
 40
3.356225554059557
100
AcDbArc
 50
90.40060923645667
 51
100.53334409849
  0
LINE
  5
155
330
D5
100
AcDbEntity
  8
0
100
AcDbLine
 10
0.387305949783542
 20
0.3725063620110802
 30
0.0
 11
0.9193059497835385
 21
0.3725063620110802
 31
0.0
  0
ARC
  5
156
330
D5
100
AcDbEntity
  8
0
100
AcDbCircle
 10
0.4033059497835403
 20
0.3405063620110802
 30
0.0
 40
0.358
100
AcDbArc
 50
102.3315095628153
 51
180.0
  0
ARC
  5
157
330
D5
100
AcDbEntity
  8
0
100
AcDbCircle
 10
0.2633059497835397
 20
0.3405063620110802
 30
0.0
 40
0.218
100
AcDbArc
 50
179.6312450729446
 51
269.7371744015996
  0
LINE
  5
158
330
D5
100
AcDbEntity
  8
0
100
AcDbLine
 10
0.262305949783542
 20
0.1225063620110802
 30
0.0
 11
0.262305949783542
 21
0.2475063620110802
 31
0.0
  0
LINE
  5
159
330
D5
100
AcDbEntity
  8
0
100
AcDbLine
 10
0.262305949783542
 20
0.2475063620110802
 30
0.0
 11
0.387305949783542
 21
0.2475063620110802
 31
0.0
  0
LINE
  5
15A
330
D5
100
AcDbEntity
  8
0
100
AcDbLine
 10
0.387305949783542
 20
0.2475063620110802
 30
0.0
 11
0.387305949783542
 21
0.3725063620110802
 31
0.0
  0
LINE
  5
15B
330
D5
100
AcDbEntity
  8
0
100
AcDbLine
 10
1.569152360396838
 20
0.2443823220624992
 30
0.0
 11
1.444153789032828
 21
0.2449799481627721
 31
0.0
  0
ARC
  5
15C
330
D5
100
AcDbEntity
  8
0
100
AcDbCircle
 10
1.428598605716839
 20
0.3380553813984335
 30
0.0
 40
0.358
100
AcDbArc
 50
359.7260673302195
 51
77.39455776740417
  0
LINE
  5
15D
330
D5
100
AcDbEntity
  8
0
100
AcDbLine
 10
1.444751415133101
 20
0.3699785195267857
 30
0.0
 11
0.9127574954078632
 21
0.3725220162095439
 31
0.0
  0
LINE
  5
15E
330
D5
100
AcDbEntity
  8
0
100
AcDbLine
 10
1.444153789032828
 20
0.2449799481627721
 30
0.0
 11
1.444751415133101
 21
0.3699785195267857
 31
0.0
  0
ARC
  5
15F
330
D5
100
AcDbEntity
  8
0
100
AcDbCircle
 10
0.8774144176318436
 20
-2.609271511233977
 30
0.0
 40
3.356225554059557
100
AcDbArc
 50
79.19272323172942
 51
89.3254580937628
  0
ARC
  5
160
330
D5
100
AcDbEntity
  8
0
100
AcDbCircle
 10
1.56859700564453
 20
0.3373860401661304
 30
0.0
 40
0.218
100
AcDbArc
 50
269.9888929286198
 51
0.0948222572748857
  0
LINE
  5
161
330
D5
100
AcDbEntity
  8
0
100
AcDbLine
 10
1.568554734296572
 20
0.1193837506984892
 30
0.0
 11
1.569152360396838
 21
0.2443823220624992
 31
0.0
  0
ENDBLK
  5
162
330
D5
100
AcDbEntity
  8
0
100
AcDbBlockEnd
  0
BLOCK
  5
163
330
10C
100
AcDbEntity
  8
0
100
AcDbBlockBegin
  2
*D1
 70
     1
 10
0.0
 20
0.0
 30
0.0
  3
*D1
  1

  0
LINE
  5
164
330
10C
100
AcDbEntity
  8
0
  6
ByBlock
 62
     0
100
AcDbLine
 10
-19.61436950900305
 20
-10.99308026114014
 30
0.0
 11
-17.84120638960568
 21
-12.75821885627922
 31
0.0
  0
LINE
  5
165
330
10C
100
AcDbEntity
  8
0
  6
ByBlock
 62
     0
100
AcDbLine
 10
-19.79114574968632
 20
-10.99348117246599
 30
0.0
 11
-19.43759326831978
 21
-10.99267934981428
 31
0.0
  0
TEXT
  5
166
330
10C
100
AcDbEntity
  8
0
  6
ByBlock
 62
     0
100
AcDbText
 10
-17.79671164594047
 20
-12.89070080896021
 30
0.0
 40
0.125
  1
R2 1/2
 50
315.1299410342689
 72
     1
 11
-17.51638161092229
 21
-13.08157362676781
 31
0.0
100
AcDbText
 73
     2
  0
POINT
  5
167
330
10C
100
AcDbEntity
  8
DEFPOINTS
  6
ByBlock
 62
     0
100
AcDbPoint
 10
-19.61436950900305
 20
-10.99308026114014
 30
0.0
  0
POINT
  5
168
330
10C
100
AcDbEntity
  8
DEFPOINTS
  6
ByBlock
 62
     0
100
AcDbPoint
 10
-17.84259798891181
 20
-12.75683355471427
 30
0.0
  0
ENDBLK
  5
169
330
10C
100
AcDbEntity
  8
0
100
AcDbBlockEnd
  0
BLOCK
  5
16A
330
10D
100
AcDbEntity
  8
0
100
AcDbBlockBegin
  2
*D2
 70
     1
 10
0.0
 20
0.0
 30
0.0
  3
*D2
  1

  0
LINE
  5
16B
330
10D
100
AcDbEntity
  8
0
  6
ByBlock
 62
     0
100
AcDbLine
 10
-17.90370638960568
 20
-12.75821885627922
 30
0.0
 11
-18.66895193459657
 21
-12.75821885627922
 31
0.0
  0
LINE
  5
16C
330
10D
100
AcDbEntity
  8
0
  6
ByBlock
 62
     0
100
AcDbLine
 10
-19.40509798891182
 20
-15.25683355471427
 30
0.0
 11
-18.30895193459657
 21
-15.25683355471427
 31
0.0
  0
LINE
  5
16D
330
10D
100
AcDbEntity
  8
0
  6
ByBlock
 62
     0
100
AcDbLine
 10
-18.48895193459657
 20
-12.75821885627922
 30
0.0
 11
-18.48895193459657
 21
-13.61169287216341
 31
0.0
  0
LINE
  5
16E
330
10D
100
AcDbEntity
  8
0
  6
ByBlock
 62
     0
100
AcDbLine
 10
-18.48895193459657
 20
-15.25683355471427
 30
0.0
 11
-18.48895193459657
 21
-14.40335953883008
 31
0.0
  0
LINE
  5
16F
330
10D
100
AcDbEntity
  8
0
  6
ByBlock
 62
     0
100
AcDbLine
 10
-18.36395193459657
 20
-12.88321885627922
 30
0.0
 11
-18.61395193459657
 21
-12.63321885627922
 31
0.0
  0
LINE
  5
170
330
10D
100
AcDbEntity
  8
0
  6
ByBlock
 62
     0
100
AcDbLine
 10
-18.36395193459657
 20
-15.38183355471427
 30
0.0
 11
-18.61395193459657
 21
-15.13183355471427
 31
0.0
  0
TEXT
  5
171
330
10D
100
AcDbEntity
  8
0
  6
ByBlock
 62
     0
100
AcDbText
 10
-18.42645193459657
 20
-14.27835953883008
 30
0.0
 40
0.125
  1
2 1/2
 50
90.0
 72
     1
 11
-18.48895193459657
 21
-14.00752620549674
 31
0.0
100
AcDbText
 73
     2
  0
POINT
  5
172
330
10D
100
AcDbEntity
  8
DEFPOINTS
  6
ByBlock
 62
     0
100
AcDbPoint
 10
-17.84120638960568
 20
-12.75821885627922
 30
0.0
  0
POINT
  5
173
330
10D
100
AcDbEntity
  8
DEFPOINTS
  6
ByBlock
 62
     0
100
AcDbPoint
 10
-19.46759798891182
 20
-15.25683355471427
 30
0.0
  0
POINT
  5
174
330
10D
100
AcDbEntity
  8
DEFPOINTS
  6
ByBlock
 62
     0
100
AcDbPoint
 10
-18.48895193459657
 20
-15.25683355471427
 30
0.0
  0
ENDBLK
  5
175
330
10D
100
AcDbEntity
  8
0
100
AcDbBlockEnd
  0
BLOCK
  5
176
330
141
100
AcDbEntity
  8
0
100
AcDbBlockBegin
  2
*D3
 70
     1
 10
0.0
 20
0.0
 30
0.0
  3
*D3
  1

  0
LINE
  5
177
330
141
100
AcDbEntity
  8
0
  6
ByBlock
 62
     0
100
AcDbLine
 10
-21.00651510883301
 20
-17.41366728309434
 30
0.0
 11
-21.00651510883301
 21
-17.71306097874215
 31
0.0
  0
LINE
  5
178
330
141
100
AcDbEntity
  8
0
  6
ByBlock
 62
     0
100
AcDbLine
 10
-19.70026631335431
 20
-17.41678989443315
 30
0.0
 11
-19.70026631335431
 21
-17.71306097874215
 31
0.0
  0
LINE
  5
179
330
141
100
AcDbEntity
  8
0
  6
ByBlock
 62
     0
100
AcDbLine
 10
-21.00651510883301
 20
-17.53306097874215
 30
0.0
 11
-21.25651510883301
 21
-17.53306097874215
 31
0.0
  0
LINE
  5
17A
330
141
100
AcDbEntity
  8
0
  6
ByBlock
 62
     0
100
AcDbLine
 10
-19.70026631335431
 20
-17.53306097874215
 30
0.0
 11
-19.45026631335431
 21
-17.53306097874215
 31
0.0
  0
LINE
  5
17B
330
141
100
AcDbEntity
  8
0
  6
ByBlock
 62
     0
100
AcDbLine
 10
-21.13151510883302
 20
-17.65806097874215
 30
0.0
 11
-20.88151510883301
 21
-17.40806097874215
 31
0.0
  0
LINE
  5
17C
330
141
100
AcDbEntity
  8
0
  6
ByBlock
 62
     0
100
AcDbLine
 10
-19.82526631335431
 20
-17.65806097874215
 30
0.0
 11
-19.57526631335431
 21
-17.40806097874215
 31
0.0
  0
TEXT
  5
17D
330
141
100
AcDbEntity
  8
0
  6
ByBlock
 62
     0
100
AcDbText
 10
-19.32526631335431
 20
-17.59556097874215
 30
0.0
 40
0.125
  1
1 5/16
 72
     1
 11
-19.01276631335431
 21
-17.53306097874215
 31
0.0
100
AcDbText
 73
     2
  0
POINT
  5
17E
330
141
100
AcDbEntity
  8
DEFPOINTS
  6
ByBlock
 62
     0
100
AcDbPoint
 10
-21.00651510883301
 20
-17.35116728309434
 30
0.0
  0
POINT
  5
17F
330
141
100
AcDbEntity
  8
DEFPOINTS
  6
ByBlock
 62
     0
100
AcDbPoint
 10
-19.70026631335431
 20
-17.35428989443315
 30
0.0
  0
POINT
  5
180
330
141
100
AcDbEntity
  8
DEFPOINTS
  6
ByBlock
 62
     0
100
AcDbPoint
 10
-19.70026631335431
 20
-17.53306097874215
 30
0.0
  0
ENDBLK
  5
181
330
141
100
AcDbEntity
  8
0
100
AcDbBlockEnd
  0
BLOCK
  5
182
330
142
100
AcDbEntity
  8
0
100
AcDbBlockBegin
  2
*D4
 70
     1
 10
0.0
 20
0.0
 30
0.0
  3
*D4
  1

  0
LINE
  5
183
330
142
100
AcDbEntity
  8
0
  6
ByBlock
 62
     0
100
AcDbLine
 10
-21.22351510883301
 20
-17.07066957668439
 30
0.0
 11
-21.22351510883301
 21
-16.36719824454755
 31
0.0
  0
LINE
  5
184
330
142
100
AcDbEntity
  8
0
  6
ByBlock
 62
     0
100
AcDbLine
 10
-19.48222435151146
 20
-17.07342911728462
 30
0.0
 11
-19.48222435151146
 21
-16.36719824454755
 31
0.0
  0
LINE
  5
185
330
142
100
AcDbEntity
  8
0
  6
ByBlock
 62
     0
100
AcDbLine
 10
-21.22351510883301
 20
-16.54719824454755
 30
0.0
 11
-20.74870306350557
 21
-16.54719824454755
 31
0.0
  0
LINE
  5
186
330
142
100
AcDbEntity
  8
0
  6
ByBlock
 62
     0
100
AcDbLine
 10
-19.48222435151146
 20
-16.54719824454755
 30
0.0
 11
-19.9570363968389
 21
-16.54719824454755
 31
0.0
  0
LINE
  5
187
330
142
100
AcDbEntity
  8
0
  6
ByBlock
 62
     0
100
AcDbLine
 10
-21.34851510883301
 20
-16.67219824454755
 30
0.0
 11
-21.09851510883301
 21
-16.42219824454755
 31
0.0
  0
LINE
  5
188
330
142
100
AcDbEntity
  8
0
  6
ByBlock
 62
     0
100
AcDbLine
 10
-19.60722435151146
 20
-16.67219824454755
 30
0.0
 11
-19.35722435151146
 21
-16.42219824454755
 31
0.0
  0
TEXT
  5
189
330
142
100
AcDbEntity
  8
0
  6
ByBlock
 62
     0
100
AcDbText
 10
-20.62370306350557
 20
-16.60969824454755
 30
0.0
 40
0.125
  1
1 3/4
 72
     1
 11
-20.35286973017224
 21
-16.54719824454755
 31
0.0
100
AcDbText
 73
     2
  0
POINT
  5
18A
330
142
100
AcDbEntity
  8
DEFPOINTS
  6
ByBlock
 62
     0
100
AcDbPoint
 10
-21.22351510883301
 20
-17.13316957668439
 30
0.0
  0
POINT
  5
18B
330
142
100
AcDbEntity
  8
DEFPOINTS
  6
ByBlock
 62
     0
100
AcDbPoint
 10
-19.48222435151146
 20
-17.13592911728462
 30
0.0
  0
POINT
  5
18C
330
142
100
AcDbEntity
  8
DEFPOINTS
  6
ByBlock
 62
     0
100
AcDbPoint
 10
-19.48222435151146
 20
-16.54719824454755
 30
0.0
  0
ENDBLK
  5
18D
330
142
100
AcDbEntity
  8
0
100
AcDbBlockEnd
  0
BLOCK
  5
336
330
335
100
AcDbEntity
  8
0
100
AcDbBlockBegin
  2
*D5
 70
     1
 10
0.0
 20
0.0
 30
0.0
  3
*D5
  1

  0
LINE
  5
337
330
335
100
AcDbEntity
  8
ADPDIM
 62
     0
370
    -2
100
AcDbLine
 10
14.3399623841392
 20
4.025245039949727
 30
0.0
 11
14.3399623841392
 21
3.725851344301918
 31
0.0
  0
LINE
  5
338
330
335
100
AcDbEntity
  8
ADPDIM
 62
     0
370
    -2
100
AcDbLine
 10
15.64621117961791
 20
4.02212242861092
 30
0.0
 11
15.64621117961791
 21
3.725851344301918
 31
0.0
  0
LINE
  5
339
330
335
100
AcDbEntity
  8
ADPDIM
 62
     0
370
    -2
100
AcDbLine
 10
14.1599623841392
 20
3.905851344301918
 30
0.0
 11
13.9799623841392
 21
3.905851344301918
 31
0.0
  0
LINE
  5
33A
330
335
100
AcDbEntity
  8
ADPDIM
 62
     0
370
    -2
100
AcDbLine
 10
15.82621117961791
 20
3.905851344301918
 30
0.0
 11
16.00621117961791
 21
3.905851344301918
 31
0.0
  0
SOLID
  5
33B
330
335
100
AcDbEntity
  8
ADPDIM
 62
     0
100
AcDbTrace
 10
14.1599623841392
 20
3.935851344301918
 30
0.0
 11
14.1599623841392
 21
3.875851344301918
 31
0.0
 12
14.3399623841392
 22
3.905851344301918
 32
0.0
 13
14.3399623841392
 23
3.905851344301918
 33
0.0
  0
SOLID
  5
33C
330
335
100
AcDbEntity
  8
ADPDIM
 62
     0
100
AcDbTrace
 10
15.82621117961791
 20
3.935851344301918
 30
0.0
 11
15.82621117961791
 21
3.875851344301918
 31
0.0
 12
15.64621117961791
 22
3.905851344301918
 32
0.0
 13
15.64621117961791
 23
3.905851344301918
 33
0.0
  0
MTEXT
  5
33D
330
335
100
AcDbEntity
  8
ADPDIM
 62
     0
100
AcDbMText
 10
14.99308678187856
 20
3.905851344301918
 30
0.0
 40
0.125
 41
0.0
 71
     5
 72
     1
  1
\A1;1 5/16
 73
     1
 44
1.0
1001
ACAD
1000
MTEXTBEGIN
1070
    73
1070
     1
1070
    44
1040
1.0
1070
    74
1070
     0
1000
MTEXTEND
  0
POINT
  5
33E
330
335
100
AcDbEntity
  8
DEFPOINTS
 62
     0
100
AcDbPoint
 10
14.3399623841392
 20
4.087745039949727
 30
0.0
  0
POINT
  5
33F
330
335
100
AcDbEntity
  8
DEFPOINTS
 62
     0
100
AcDbPoint
 10
15.64621117961791
 20
4.08462242861092
 30
0.0
  0
POINT
  5
340
330
335
100
AcDbEntity
  8
DEFPOINTS
 62
     0
100
AcDbPoint
 10
15.64621117961791
 20
3.905851344301918
 30
0.0
  0
ENDBLK
  5
341
330
335
100
AcDbEntity
  8
0
100
AcDbBlockEnd
  0
BLOCK
  5
343
330
342
100
AcDbEntity
  8
0
100
AcDbBlockBegin
  2
*D6
 70
     1
 10
0.0
 20
0.0
 30
0.0
  3
*D6
  1

  0
LINE
  5
344
330
342
100
AcDbEntity
  8
ADPDIM
 62
     0
370
    -2
100
AcDbLine
 10
14.12296238413921
 20
4.36824274635968
 30
0.0
 11
14.12296238413921
 21
5.071714078496519
 31
0.0
  0
LINE
  5
345
330
342
100
AcDbEntity
  8
ADPDIM
 62
     0
370
    -2
100
AcDbLine
 10
15.86425314146076
 20
4.365483205759449
 30
0.0
 11
15.86425314146076
 21
5.071714078496519
 31
0.0
  0
LINE
  5
346
330
342
100
AcDbEntity
  8
ADPDIM
 62
     0
370
    -2
100
AcDbLine
 10
14.30296238413921
 20
4.891714078496519
 30
0.0
 11
14.63277442946665
 21
4.891714078496519
 31
0.0
  0
LINE
  5
347
330
342
100
AcDbEntity
  8
ADPDIM
 62
     0
370
    -2
100
AcDbLine
 10
15.68425314146075
 20
4.891714078496519
 30
0.0
 11
15.35444109613331
 21
4.891714078496519
 31
0.0
  0
SOLID
  5
348
330
342
100
AcDbEntity
  8
ADPDIM
 62
     0
100
AcDbTrace
 10
14.30296238413921
 20
4.92171407849652
 30
0.0
 11
14.30296238413921
 21
4.861714078496519
 31
0.0
 12
14.12296238413921
 22
4.891714078496519
 32
0.0
 13
14.12296238413921
 23
4.891714078496519
 33
0.0
  0
SOLID
  5
349
330
342
100
AcDbEntity
  8
ADPDIM
 62
     0
100
AcDbTrace
 10
15.68425314146075
 20
4.92171407849652
 30
0.0
 11
15.68425314146075
 21
4.861714078496519
 31
0.0
 12
15.86425314146076
 22
4.891714078496519
 32
0.0
 13
15.86425314146076
 23
4.891714078496519
 33
0.0
  0
MTEXT
  5
34A
330
342
100
AcDbEntity
  8
ADPDIM
 62
     0
100
AcDbMText
 10
14.99360776279998
 20
4.891714078496519
 30
0.0
 40
0.125
 41
0.0
 71
     5
 72
     1
  1
\A1;1 3/4
 73
     1
 44
1.0
1001
ACAD
1000
MTEXTBEGIN
1070
    73
1070
     1
1070
    44
1040
1.0
1070
    74
1070
     0
1000
MTEXTEND
  0
POINT
  5
34B
330
342
100
AcDbEntity
  8
DEFPOINTS
 62
     0
100
AcDbPoint
 10
14.12296238413921
 20
4.30574274635968
 30
0.0
  0
POINT
  5
34C
330
342
100
AcDbEntity
  8
DEFPOINTS
 62
     0
100
AcDbPoint
 10
15.86425314146076
 20
4.302983205759449
 30
0.0
  0
POINT
  5
34D
330
342
100
AcDbEntity
  8
DEFPOINTS
 62
     0
100
AcDbPoint
 10
15.86425314146076
 20
4.891714078496519
 30
0.0
  0
ENDBLK
  5
34E
330
342
100
AcDbEntity
  8
0
100
AcDbBlockEnd
  0
BLOCK
  5
350
330
34F
100
AcDbEntity
  8
0
100
AcDbBlockBegin
  2
*D7
 70
     1
 10
0.0
 20
0.0
 30
0.0
  3
*D7
  1

  0
LINE
  5
351
330
34F
100
AcDbEntity
  8
ADPDIM
 62
     0
370
    -2
100
AcDbLine
 10
14.46202275488011
 20
4.152178079310601
 30
0.0
 11
14.46202275488011
 21
3.98167567491199
 31
0.0
  0
LINE
  5
352
330
34F
100
AcDbEntity
  8
ADPDIM
 62
     0
370
    -2
100
AcDbLine
 10
15.52452275488011
 20
4.152178079310601
 30
0.0
 11
15.52452275488011
 21
3.98167567491199
 31
0.0
  0
LINE
  5
353
330
34F
100
AcDbEntity
  8
ADPDIM
 62
     0
370
    -2
100
AcDbLine
 10
14.46202275488011
 20
4.16167567491199
 30
0.0
 11
14.21202275488012
 21
4.16167567491199
 31
0.0
  0
LINE
  5
354
330
34F
100
AcDbEntity
  8
ADPDIM
 62
     0
370
    -2
100
AcDbLine
 10
15.52452275488011
 20
4.16167567491199
 30
0.0
 11
15.77452275488012
 21
4.16167567491199
 31
0.0
  0
LINE
  5
355
330
34F
100
AcDbEntity
  8
ADPDIM
 62
     0
370
    -2
100
AcDbLine
 10
15.39952275488011
 20
4.03667567491199
 30
0.0
 11
15.64952275488012
 21
4.28667567491199
 31
0.0
  0
LINE
  5
356
330
34F
100
AcDbEntity
  8
ADPDIM
 62
     0
370
    -2
100
AcDbLine
 10
14.33702275488012
 20
4.03667567491199
 30
0.0
 11
14.58702275488011
 21
4.28667567491199
 31
0.0
  0
MTEXT
  5
357
330
34F
100
AcDbEntity
  8
ADPDIM
 62
     0
100
AcDbMText
 10
14.99327275488012
 20
4.16167567491199
 30
0.0
 40
0.125
 41
0.0
 71
     5
 72
     1
  1
\A1;1 1/16
 73
     1
 44
1.0
1001
ACAD
1000
MTEXTBEGIN
1070
    73
1070
     1
1070
    44
1040
1.0
1070
    74
1070
     0
1000
MTEXTEND
  0
POINT
  5
358
330
34F
100
AcDbEntity
  8
DEFPOINTS
 62
     0
100
AcDbPoint
 10
14.46202275488011
 20
4.214678079310601
 30
0.0
  0
POINT
  5
359
330
34F
100
AcDbEntity
  8
DEFPOINTS
 62
     0
100
AcDbPoint
 10
15.52452275488011
 20
4.214678079310601
 30
0.0
  0
POINT
  5
35A
330
34F
100
AcDbEntity
  8
DEFPOINTS
 62
     0
100
AcDbPoint
 10
15.52452275488011
 20
4.16167567491199
 30
0.0
  0
ENDBLK
  5
35B
330
34F
100
AcDbEntity
  8
0
100
AcDbBlockEnd
  0
BLOCK
  5
374
330
369
100
AcDbEntity
  8
0
100
AcDbBlockBegin
  2
*D9
 70
     1
 10
0.0
 20
0.0
 30
0.0
  3
*D9
  1

  0
LINE
  5
390
330
369
100
AcDbEntity
  8
ADPDIM
 62
     0
370
    -2
100
AcDbLine
 10
-20.98332641854868
 20
-17.07393986642896
 30
0.0
 11
-20.98332641854868
 21
-17.37333356207677
 31
0.0
  0
LINE
  5
391
330
369
100
AcDbEntity
  8
ADPDIM
 62
     0
370
    -2
100
AcDbLine
 10
-19.67707762306998
 20
-17.07706247776776
 30
0.0
 11
-19.67707762306998
 21
-17.37333356207677
 31
0.0
  0
LINE
  5
392
330
369
100
AcDbEntity
  8
ADPDIM
 62
     0
370
    -2
100
AcDbLine
 10
-21.16332641854869
 20
-17.19333356207677
 30
0.0
 11
-21.34332641854868
 21
-17.19333356207677
 31
0.0
  0
LINE
  5
393
330
369
100
AcDbEntity
  8
ADPDIM
 62
     0
370
    -2
100
AcDbLine
 10
-19.49707762306998
 20
-17.19333356207677
 30
0.0
 11
-19.31707762306998
 21
-17.19333356207677
 31
0.0
  0
SOLID
  5
394
330
369
100
AcDbEntity
  8
ADPDIM
 62
     0
100
AcDbTrace
 10
-21.16332641854869
 20
-17.16333356207677
 30
0.0
 11
-21.16332641854869
 21
-17.22333356207677
 31
0.0
 12
-20.98332641854868
 22
-17.19333356207677
 32
0.0
 13
-20.98332641854868
 23
-17.19333356207677
 33
0.0
  0
SOLID
  5
395
330
369
100
AcDbEntity
  8
ADPDIM
 62
     0
100
AcDbTrace
 10
-19.49707762306998
 20
-17.16333356207677
 30
0.0
 11
-19.49707762306998
 21
-17.22333356207677
 31
0.0
 12
-19.67707762306998
 22
-17.19333356207677
 32
0.0
 13
-19.67707762306998
 23
-17.19333356207677
 33
0.0
  0
MTEXT
  5
396
330
369
100
AcDbEntity
  8
ADPDIM
 62
     0
100
AcDbMText
 10
-20.33020202080933
 20
-17.19333356207677
 30
0.0
 40
0.125
 41
0.0
 71
     5
 72
     1
  1
\A1;1 5/16
 73
     1
 44
1.0
1001
ACAD
1000
MTEXTBEGIN
1070
    73
1070
     1
1070
    44
1040
1.0
1070
    74
1070
     0
1000
MTEXTEND
  0
POINT
  5
397
330
369
100
AcDbEntity
  8
DEFPOINTS
 62
     0
100
AcDbPoint
 10
-20.98332641854868
 20
-17.01143986642896
 30
0.0
  0
POINT
  5
398
330
369
100
AcDbEntity
  8
DEFPOINTS
 62
     0
100
AcDbPoint
 10
-19.67707762306998
 20
-17.01456247776777
 30
0.0
  0
POINT
  5
399
330
369
100
AcDbEntity
  8
DEFPOINTS
 62
     0
100
AcDbPoint
 10
-19.67707762306998
 20
-17.19333356207677
 30
0.0
  0
ENDBLK
  5
375
330
369
100
AcDbEntity
  8
0
100
AcDbBlockEnd
  0
BLOCK
  5
381
330
376
100
AcDbEntity
  8
0
100
AcDbBlockBegin
  2
*D10
 70
     1
 10
0.0
 20
0.0
 30
0.0
  3
*D10
  1

  0
LINE
  5
39A
330
376
100
AcDbEntity
  8
ADPDIM
 62
     0
370
    -2
100
AcDbLine
 10
-21.20032641854868
 20
-16.73094216001901
 30
0.0
 11
-21.20032641854868
 21
-16.02747082788217
 31
0.0
  0
LINE
  5
39B
330
376
100
AcDbEntity
  8
ADPDIM
 62
     0
370
    -2
100
AcDbLine
 10
-19.45903566122713
 20
-16.73370170061924
 30
0.0
 11
-19.45903566122713
 21
-16.02747082788217
 31
0.0
  0
LINE
  5
39C
330
376
100
AcDbEntity
  8
ADPDIM
 62
     0
370
    -2
100
AcDbLine
 10
-21.02032641854869
 20
-16.20747082788217
 30
0.0
 11
-20.69051437322124
 21
-16.20747082788217
 31
0.0
  0
LINE
  5
39D
330
376
100
AcDbEntity
  8
ADPDIM
 62
     0
370
    -2
100
AcDbLine
 10
-19.63903566122713
 20
-16.20747082788217
 30
0.0
 11
-19.96884770655458
 21
-16.20747082788217
 31
0.0
  0
SOLID
  5
39E
330
376
100
AcDbEntity
  8
ADPDIM
 62
     0
100
AcDbTrace
 10
-21.02032641854869
 20
-16.17747082788216
 30
0.0
 11
-21.02032641854869
 21
-16.23747082788217
 31
0.0
 12
-21.20032641854868
 22
-16.20747082788217
 32
0.0
 13
-21.20032641854868
 23
-16.20747082788217
 33
0.0
  0
SOLID
  5
39F
330
376
100
AcDbEntity
  8
ADPDIM
 62
     0
100
AcDbTrace
 10
-19.63903566122713
 20
-16.17747082788216
 30
0.0
 11
-19.63903566122713
 21
-16.23747082788217
 31
0.0
 12
-19.45903566122713
 22
-16.20747082788217
 32
0.0
 13
-19.45903566122713
 23
-16.20747082788217
 33
0.0
  0
MTEXT
  5
3A0
330
376
100
AcDbEntity
  8
ADPDIM
 62
     0
100
AcDbMText
 10
-20.32968103988791
 20
-16.20747082788217
 30
0.0
 40
0.125
 41
0.0
 71
     5
 72
     1
  1
\A1;1 3/4
 73
     1
 44
1.0
1001
ACAD
1000
MTEXTBEGIN
1070
    73
1070
     1
1070
    44
1040
1.0
1070
    74
1070
     0
1000
MTEXTEND
  0
POINT
  5
3A1
330
376
100
AcDbEntity
  8
DEFPOINTS
 62
     0
100
AcDbPoint
 10
-21.20032641854868
 20
-16.79344216001901
 30
0.0
  0
POINT
  5
3A2
330
376
100
AcDbEntity
  8
DEFPOINTS
 62
     0
100
AcDbPoint
 10
-19.45903566122713
 20
-16.79620170061924
 30
0.0
  0
POINT
  5
3A3
330
376
100
AcDbEntity
  8
DEFPOINTS
 62
     0
100
AcDbPoint
 10
-19.45903566122713
 20
-16.20747082788217
 30
0.0
  0
ENDBLK
  5
382
330
376
100
AcDbEntity
  8
0
100
AcDbBlockEnd
  0
BLOCK
  5
38E
330
383
100
AcDbEntity
  8
0
100
AcDbBlockBegin
  2
*D11
 70
     1
 10
0.0
 20
0.0
 30
0.0
  3
*D11
  1

  0
LINE
  5
3A4
330
383
100
AcDbEntity
  8
ADPDIM
 62
     0
370
    -2
100
AcDbLine
 10
-20.86126604780778
 20
-16.94700682706808
 30
0.0
 11
-20.86126604780778
 21
-17.1175092314667
 31
0.0
  0
LINE
  5
3A5
330
383
100
AcDbEntity
  8
ADPDIM
 62
     0
370
    -2
100
AcDbLine
 10
-19.79876604780777
 20
-16.94700682706808
 30
0.0
 11
-19.79876604780777
 21
-17.1175092314667
 31
0.0
  0
LINE
  5
3A6
330
383
100
AcDbEntity
  8
ADPDIM
 62
     0
370
    -2
100
AcDbLine
 10
-20.86126604780778
 20
-16.9375092314667
 30
0.0
 11
-21.11126604780777
 21
-16.9375092314667
 31
0.0
  0
LINE
  5
3A7
330
383
100
AcDbEntity
  8
ADPDIM
 62
     0
370
    -2
100
AcDbLine
 10
-19.79876604780777
 20
-16.9375092314667
 30
0.0
 11
-19.54876604780777
 21
-16.9375092314667
 31
0.0
  0
LINE
  5
3A8
330
383
100
AcDbEntity
  8
ADPDIM
 62
     0
370
    -2
100
AcDbLine
 10
-19.92376604780777
 20
-17.0625092314667
 30
0.0
 11
-19.67376604780777
 21
-16.8125092314667
 31
0.0
  0
LINE
  5
3A9
330
383
100
AcDbEntity
  8
ADPDIM
 62
     0
370
    -2
100
AcDbLine
 10
-20.98626604780777
 20
-17.0625092314667
 30
0.0
 11
-20.73626604780777
 21
-16.8125092314667
 31
0.0
  0
MTEXT
  5
3AA
330
383
100
AcDbEntity
  8
ADPDIM
 62
     0
100
AcDbMText
 10
-20.33001604780777
 20
-16.9375092314667
 30
0.0
 40
0.125
 41
0.0
 71
     5
 72
     1
  1
\A1;1 1/16
 73
     1
 44
1.0
1001
ACAD
1000
MTEXTBEGIN
1070
    73
1070
     1
1070
    44
1040
1.0
1070
    74
1070
     0
1000
MTEXTEND
  0
POINT
  5
3AB
330
383
100
AcDbEntity
  8
DEFPOINTS
 62
     0
100
AcDbPoint
 10
-20.86126604780778
 20
-16.88450682706809
 30
0.0
  0
POINT
  5
3AC
330
383
100
AcDbEntity
  8
DEFPOINTS
 62
     0
100
AcDbPoint
 10
-19.79876604780777
 20
-16.88450682706809
 30
0.0
  0
POINT
  5
3AD
330
383
100
AcDbEntity
  8
DEFPOINTS
 62
     0
100
AcDbPoint
 10
-19.79876604780777
 20
-16.9375092314667
 30
0.0
  0
ENDBLK
  5
38F
330
383
100
AcDbEntity
  8
0
100
AcDbBlockEnd
  0
ENDSEC
  0
SECTION
  2
ENTITIES
  0
ARC
  5
191
330
18
100
AcDbEntity
  8
ADP3DETAIL
  6
HIDDEN2
100
AcDbCircle
 10
-17.84259798891181
 20
-12.75683355471427
 30
0.0
 40
2.5
100
AcDbArc
 50
90.0
 51
180.0
  0
LINE
  5
192
330
18
100
AcDbEntity
  8
ADP1DETAIL
100
AcDbLine
 10
-19.46759798891182
 20
-15.25683355471427
 30
0.0
 11
-21.21759798891182
 21
-15.25683355471427
 31
0.0
  0
ARC
  5
193
330
18
100
AcDbEntity
  8
ADP1DETAIL
100
AcDbCircle
 10
-17.84259798891181
 20
-12.75683355471427
 30
0.0
 40
3.375
100
AcDbArc
 50
90.0
 51
180.0
  0
LINE
  5
194
330
18
100
AcDbEntity
  8
ADP3DETAIL
  6
HIDDEN2
100
AcDbLine
 10
-20.34259798891182
 20
-15.71821541957864
 30
0.0
 11
-20.34259798891182
 21
-12.75683355471427
 31
0.0
  0
LINE
  5
195
330
18
100
AcDbEntity
  8
ADP1DETAIL
100
AcDbLine
 10
-21.21759798891182
 20
-15.25683355471427
 30
0.0
 11
-21.21759798891182
 21
-12.75683355471427
 31
0.0
  0
LINE
  5
196
330
18
100
AcDbEntity
  8
ADP3DETAIL
  6
HIDDEN2
100
AcDbLine
 10
-14.63197628841761
 20
-10.25683355471427
 30
0.0
 11
-17.84259798891181
 21
-10.25683355471427
 31
0.0
  0
LINE
  5
197
330
18
100
AcDbEntity
  8
ADP1DETAIL
100
AcDbLine
 10
-17.84259798891181
 20
-9.381833554714273
 30
0.0
 11
-15.34259798891181
 21
-9.381833554714273
 31
0.0
  0
LINE
  5
198
330
18
100
AcDbEntity
  8
ADP1DETAIL
100
AcDbLine
 10
-15.34259798891181
 20
-11.13183355471427
 30
0.0
 11
-17.84259798891181
 21
-11.13183355471427
 31
0.0
  0
DIMENSION
  5
199
330
18
100
AcDbEntity
  8
ADPDIM
100
AcDbDimension
  2
*D2
 10
-18.48895193459657
 20
-15.25683355471427
 30
0.0
 11
-18.48895193459657
 21
-14.00752620549674
 31
0.0
 71
     5
 42
-1.0
100
AcDbAlignedDimension
 13
-17.84120638960568
 23
-12.75821885627922
 33
0.0
 14
-19.46759798891182
 24
-15.25683355471427
 34
0.0
 50
90.0
100
AcDbRotatedDimension
  0
DIMENSION
  5
19A
330
18
100
AcDbEntity
  8
ADPDIM
100
AcDbDimension
  2
*D1
 10
-17.84259798891181
 20
-12.75683355471427
 30
0.0
 11
-17.51638161092229
 21
-13.08157362676781
 31
0.0
 70
     4
 71
     5
 42
-1.0
100
AcDbRadialDimension
 15
-19.61436950900305
 25
-10.99308026114014
 35
0.0
 40
-2.501963570486308
  0
LINE
  5
19B
330
18
100
AcDbEntity
  8
ADP1DETAIL
100
AcDbLine
 10
-19.46759798891181
 20
-12.75683355471427
 30
0.0
 11
-19.46759798891182
 21
-15.25683355471427
 31
0.0
  0
ARC
  5
19C
330
18
100
AcDbEntity
  8
ADP1DETAIL
100
AcDbCircle
 10
-17.84259798891181
 20
-12.75683355471427
 30
0.0
 40
1.625
100
AcDbArc
 50
90.0
 51
180.0
  0
LINE
  5
19D
330
18
100
AcDbEntity
  8
ADP1DETAIL
100
AcDbLine
 10
-15.34259798891181
 20
-9.381833554714273
 30
0.0
 11
-15.34259798891181
 21
-11.13183355471427
 31
0.0
  0
TEXT
  5
1AB
330
18
100
AcDbEntity
  8
ADPDIM
100
AcDbText
 10
-27.96113227111522
 20
-18.41793019140437
 30
0.0
 40
0.1875
  1
J U L I U S  B L U M  &  C O . ,  I N C .      ( 8 0 0 )  5 2 6 - 6 2 9 3        W W W . J U L I U S B L U M . C O M        P A R T  N o .  4 5 3 9 - C
 41
1.25
  7
ARIAL_WIDE
 72
     1
 11
-17.90882689082872
 21
-18.23043019140437
 31
0.0
100
AcDbText
 73
     3
  0
DIMENSION
  5
365
330
18
100
AcDbEntity
  8
ADPDIM
100
AcDbDimension
  2
*D9
 10
-19.67707762306998
 20
-17.19333356207677
 30
0.0
 11
-20.33020202080933
 21
-17.19333356207677
 31
0.0
 70
    32
 71
     5
 42
1.306248795478701
  3
STANDARD
100
AcDbAlignedDimension
 13
-20.98332641854868
 23
-17.01143986642896
 33
0.0
 14
-19.67707762306998
 24
-17.01456247776777
 34
0.0
100
AcDbRotatedDimension
1001
ACAD
1000
DSTYLE
1002
{
1070
   140
1040
0.125
1070
   276
1070
     2
1070
   277
1070
     5
1002
}
  0
DIMENSION
  5
366
330
18
100
AcDbEntity
  8
ADPDIM
100
AcDbDimension
  2
*D10
 10
-19.45903566122713
 20
-16.20747082788217
 30
0.0
 11
-20.32968103988791
 21
-16.20747082788217
 31
0.0
 70
    32
 71
     5
 42
1.74129075732155
  3
STANDARD
100
AcDbAlignedDimension
 13
-21.20032641854868
 23
-16.79344216001901
 33
0.0
 14
-19.45903566122713
 24
-16.79620170061924
 34
0.0
100
AcDbRotatedDimension
1001
ACAD
1000
DSTYLE
1002
{
1070
   140
1040
0.125
1070
   276
1070
     2
1070
   277
1070
     5
1002
}
  0
INSERT
  5
367
330
18
100
AcDbEntity
  8
ADP1DETAIL
100
AcDbBlockReference
  2
6933
 10
-21.24563236833223
 20
-17.13394852203009
 30
0.0
  0
DIMENSION
  5
368
330
18
100
AcDbEntity
  8
ADPDIM
 62
     3
100
AcDbDimension
  2
*D11
 10
-19.79876604780777
 20
-16.9375092314667
 30
0.0
 11
-20.33001604780777
 21
-16.9375092314667
 31
0.0
 70
    32
 71
     5
 42
1.0625
  3
STANDARD
100
AcDbAlignedDimension
 13
-20.86126604780778
 23
-16.88450682706809
 33
0.0
 14
-19.79876604780777
 24
-16.88450682706809
 34
0.0
100
AcDbRotatedDimension
1001
ACAD
1000
DSTYLE
1002
{
1070
   276
1070
     2
1070
   277
1070
     5
1070
    41
1040
0.125
1070
    73
1070
     0
1070
    74
1070
     0
1070
    78
1070
     3
1070
   140
1040
0.125
1070
   141
1040
0.1875
1070
   142
1040
0.125
1070
   147
1040
0.125
1070
   171
1070
     1
1002
}
  0
ENDSEC
  0
SECTION
  2
OBJECTS
  0
DICTIONARY
  5
C
330
0
100
AcDbDictionary
281
     1
  3
ACAD_COLOR
350
32F
  3
ACAD_GROUP
350
D
  3
ACAD_LAYOUT
350
1A4
  3
ACAD_MATERIAL
350
31A
  3
ACAD_MLINESTYLE
350
E
  3
ACAD_PLOTSETTINGS
350
1A5
  3
ACAD_PLOTSTYLENAME
350
1A2
  3
ACAD_TABLESTYLE
350
330
  3
ACAD_VISUALSTYLE
350
31E
  3
AcDbVariableDictionary
350
205
  3
DWGPROPS
350
3CD
  0
DICTIONARY
  5
1FF
330
18
100
AcDbDictionary
280
     1
281
     1
  3
ACAD_LAYOUTSELFREF
360
314
  0
DICTIONARY
  5
1FD
330
15
100
AcDbDictionary
280
     1
281
     1
  3
ACAD_LAYOUTSELFREF
360
313
  0
DICTIONARY
  5
32F
102
{ACAD_REACTORS
330
C
102
}
330
C
100
AcDbDictionary
281
     1
  0
DICTIONARY
  5
D
102
{ACAD_REACTORS
330
C
102
}
330
C
100
AcDbDictionary
281
     1
  0
DICTIONARY
  5
1A4
102
{ACAD_REACTORS
330
C
102
}
330
C
100
AcDbDictionary
281
     1
  3
Layout1
350
1A7
  3
Model
350
1A6
  0
DICTIONARY
  5
31A
102
{ACAD_REACTORS
330
C
102
}
330
C
100
AcDbDictionary
281
     1
  3
ByBlock
350
31C
  3
ByLayer
350
31B
  3
Global
350
31D
  0
DICTIONARY
  5
E
102
{ACAD_REACTORS
330
C
102
}
330
C
100
AcDbDictionary
281
     1
  3
STANDARD
350
1B
  0
DICTIONARY
  5
1A5
102
{ACAD_REACTORS
330
C
102
}
330
C
100
AcDbDictionary
281
     1
  0
ACDBDICTIONARYWDFLT
  5
1A2
102
{ACAD_REACTORS
330
C
102
}
330
C
100
AcDbDictionary
281
     1
  3
Normal
350
1A3
100
AcDbDictionaryWithDefault
340
1A3
  0
DICTIONARY
  5
330
102
{ACAD_REACTORS
330
C
102
}
330
C
100
AcDbDictionary
281
     1
  3
Standard
350
331
  0
DICTIONARY
  5
31E
102
{ACAD_REACTORS
330
C
102
}
330
C
100
AcDbDictionary
281
     1
  3
2dWireframe
350
324
  3
3D Hidden
350
326
  3
3dWireframe
350
325
  3
Basic
350
323
  3
Brighten
350
32A
  3
ColorChange
350
32E
  3
Conceptual
350
327
  3
Dim
350
329
  3
Facepattern
350
32D
  3
Flat
350
31F
  3
FlatWithEdges
350
320
  3
Gouraud
350
321
  3
GouraudWithEdges
350
322
  3
Linepattern
350
32C
  3
Realistic
350
328
  3
Thicken
350
32B
  0
DICTIONARY
  5
205
102
{ACAD_REACTORS
330
C
102
}
330
C
100
AcDbDictionary
281
     1
  3
CTABLESTYLE
350
3CA
  3
DIMASSOC
350
206
  3
INDEXCTL
350
3CC
  3
SORTENTS
350
3CB
  0
XRECORD
  5
3CD
102
{ACAD_REACTORS
330
C
102
}
330
C
100
AcDbXrecord
280
     1
  1
DWGPROPS COOKIE
  2

  3

  4

  6

  7

  8
Yu Hu
  9

300
=
301
=
302
=
303
=
304
=
305
=
306
=
307
=
308
=
309
=
 40
0.0253956018518519
 41
2450406.659753078
 42
2453972.957354861
  1

 90
        0
  0
XRECORD
  5
314
102
{ACAD_REACTORS
330
1FF
102
}
330
1FF
100
AcDbXrecord
280
     1
340
18
  0
XRECORD
  5
313
102
{ACAD_REACTORS
330
1FD
102
}
330
1FD
100
AcDbXrecord
280
     1
340
15
  0
LAYOUT
  5
1A7
102
{ACAD_XDICTIONARY
360
3D0
102
}
102
{ACAD_REACTORS
330
1A4
102
}
330
1A4
100
AcDbPlotSettings
  1

  2
Fax
  4

  6

 40
0.0
 41
0.0
 42
0.0
 43
0.0
 44
0.0
 45
0.0
 46
0.0
 47
0.0
 48
0.0
 49
0.0
140
0.0
141
0.0
142
1.0
143
1.0
 70
   688
 72
     0
 73
     0
 74
     5
  7
Default R14 pen assignments.ctb
 75
    16
147
1.0
148
0.0
149
0.0
100
AcDbLayout
  1
Layout1
 70
     1
 71
     1
 10
0.0
 20
0.0
 11
12.0
 21
9.0
 12
0.0008545028977096
 22
1.250283272183907
 32
0.0
 14
1.000000000000000E+20
 24
1.000000000000000E+20
 34
1.000000000000000E+20
 15
-1.000000000000000E+20
 25
-1.000000000000000E+20
 35
-1.000000000000000E+20
146
0.0
 13
0.0
 23
0.0
 33
0.0
 16
1.0
 26
0.0
 36
0.0
 17
0.0
 27
1.0
 37
0.0
 76
     0
330
15
  0
LAYOUT
  5
1A6
102
{ACAD_XDICTIONARY
360
3CE
102
}
102
{ACAD_REACTORS
330
1A4
102
}
330
1A4
100
AcDbPlotSettings
  1

  2
Fax
  4

  6

 40
0.0
 41
0.0
 42
0.0
 43
0.0
 44
0.0
 45
0.0
 46
0.0
 47
0.0
 48
0.0
 49
0.0
140
0.0
141
0.0
142
1.0
143
1.0
 70
  1712
 72
     0
 73
     0
 74
     0
  7
Default R14 pen assignments.ctb
 75
     0
147
1.0
148
0.0
149
0.0
100
AcDbLayout
  1
Model
 70
     1
 71
     0
 10
0.0
 20
0.0
 11
12.0
 21
9.0
 12
0.0
 22
0.0
 32
0.0
 14
0.0
 24
0.0
 34
0.0
 15
0.0
 25
0.0
 35
0.0
146
0.0
 13
0.0
 23
0.0
 33
0.0
 16
1.0
 26
0.0
 36
0.0
 17
0.0
 27
1.0
 37
0.0
 76
     0
330
18
331
2EE
  0
MATERIAL
  5
31C
102
{ACAD_XDICTIONARY
360
3D4
102
}
102
{ACAD_REACTORS
330
31A
102
}
330
31A
100
AcDbMaterial
  1
ByBlock
  0
MATERIAL
  5
31B
102
{ACAD_XDICTIONARY
360
3D2
102
}
102
{ACAD_REACTORS
330
31A
102
}
330
31A
100
AcDbMaterial
  1
ByLayer
  0
MATERIAL
  5
31D
102
{ACAD_XDICTIONARY
360
3D6
102
}
102
{ACAD_REACTORS
330
31A
102
}
330
31A
100
AcDbMaterial
  1
Global
  0
MLINESTYLE
  5
1B
102
{ACAD_REACTORS
330
E
102
}
330
E
100
AcDbMlineStyle
  2
STANDARD
 70
     0
  3

 62
     0
 51
90.0
 52
90.0
 71
     2
 49
0.5
 62
   256
  6
BYLAYER
 49
-0.5
 62
   256
  6
BYLAYER
  0
ACDBPLACEHOLDER
  5
1A3
102
{ACAD_REACTORS
330
1A2
102
}
330
1A2
  0
TABLESTYLE
  5
331
102
{ACAD_XDICTIONARY
360
3D8
102
}
102
{ACAD_REACTORS
330
330
102
}
330
330
100
AcDbTableStyle
  3
Standard
 70
     0
 71
     0
 40
0.06
 41
0.06
280
     0
281
     0
  7
STANDARD
140
0.18
170
     2
 62
     0
 63
     7
283
     0
274
    -2
284
     1
 64
     0
275
    -2
285
     1
 65
     0
276
    -2
286
     1
 66
     0
277
    -2
287
     1
 67
     0
278
    -2
288
     1
 68
     0
279
    -2
289
     1
 69
     0
  7
STANDARD
140
0.25
170
     5
 62
     0
 63
     7
283
     0
274
    -2
284
     1
 64
     0
275
    -2
285
     1
 65
     0
276
    -2
286
     1
 66
     0
277
    -2
287
     1
 67
     0
278
    -2
288
     1
 68
     0
279
    -2
289
     1
 69
     0
  7
STANDARD
140
0.18
170
     5
 62
     0
 63
     7
283
     0
274
    -2
284
     1
 64
     0
275
    -2
285
     1
 65
     0
276
    -2
286
     1
 66
     0
277
    -2
287
     1
 67
     0
278
    -2
288
     1
 68
     0
279
    -2
289
     1
 69
     0
  0
VISUALSTYLE
  5
324
102
{ACAD_REACTORS
330
31E
102
}
330
31E
100
AcDbVisualStyle
  2
2dWireframe
 70
     4
 71
     0
 72
     2
 73
     0
 90
        0
 40
-0.6
 41
-30.0
 62
     5
 63
     7
 74
     1
 91
        4
 64
     7
 65
   257
 75
     1
175
     1
 42
1.0
 92
        0
 66
   257
 43
1.0
 76
     1
 77
     6
 78
     2
 67
     7
 79
     5
170
     0
171
     0
290
     0
174
     0
 93
        1
 44
0.0
173
     0
291
     0
 45
0.0
1001
ACAD
1000
AcDbSavedByObjectVersion
1070
     0
  0
VISUALSTYLE
  5
326
102
{ACAD_REACTORS
330
31E
102
}
330
31E
100
AcDbVisualStyle
  2
3D Hidden
 70
     6
 71
     1
 72
     2
 73
     2
 90
        0
 40
-0.6
 41
-30.0
 62
     5
 63
     7
 74
     2
 91
        2
 64
     7
 65
   257
 75
     2
175
     1
 42
40.0
 92
        0
 66
   257
 43
1.0
 76
     1
 77
     6
 78
     2
 67
     7
 79
     3
170
     0
171
     0
290
     0
174
     0
 93
        1
 44
0.0
173
     0
291
     0
 45
0.0
1001
ACAD
1000
AcDbSavedByObjectVersion
1070
     0
  0
VISUALSTYLE
  5
325
102
{ACAD_REACTORS
330
31E
102
}
330
31E
100
AcDbVisualStyle
  2
3dWireframe
 70
     5
 71
     0
 72
     2
 73
     0
 90
        0
 40
-0.6
 41
-30.0
 62
     5
 63
     7
 74
     1
 91
        4
 64
     7
 65
   257
 75
     1
175
     1
 42
1.0
 92
        0
 66
   257
 43
1.0
 76
     1
 77
     6
 78
     2
 67
     7
 79
     5
170
     0
171
     0
290
     0
174
     0
 93
        1
 44
0.0
173
     0
291
     0
 45
0.0
1001
ACAD
1000
AcDbSavedByObjectVersion
1070
     0
  0
VISUALSTYLE
  5
323
102
{ACAD_REACTORS
330
31E
102
}
330
31E
100
AcDbVisualStyle
  2
Basic
 70
     7
 71
     1
 72
     0
 73
     1
 90
        0
 40
-0.6
 41
-30.0
 62
     5
 63
     7
 74
     0
 91
        4
 64
     7
 65
   257
 75
     1
175
     1
 42
1.0
 92
        8
 66
     7
 43
1.0
 76
     1
 77
     6
 78
     2
 67
     7
 79
     5
170
     0
171
     0
290
     0
174
     0
 93
        1
 44
0.0
173
     0
291
     1
 45
0.0
1001
ACAD
1000
AcDbSavedByObjectVersion
1070
     0
  0
VISUALSTYLE
  5
32A
102
{ACAD_REACTORS
330
31E
102
}
330
31E
100
AcDbVisualStyle
  2
Brighten
 70
    12
 71
     2
 72
     2
 73
     0
 90
        0
 40
-0.6
 41
-30.0
 62
     5
 63
     7
 74
     1
 91
        4
 64
     7
 65
   257
 75
     1
175
     1
 42
1.0
 92
        8
 66
     7
 43
1.0
 76
     1
 77
     6
 78
     2
 67
     7
 79
     5
170
     0
171
     0
290
     0
174
     0
 93
        1
 44
50.0
173
     0
291
     1
 45
0.0
1001
ACAD
1000
AcDbSavedByObjectVersion
1070
     0
  0
VISUALSTYLE
  5
32E
102
{ACAD_REACTORS
330
31E
102
}
330
31E
100
AcDbVisualStyle
  2
ColorChange
 70
    16
 71
     2
 72
     2
 73
     3
 90
        0
 40
-0.6
 41
-30.0
 62
     5
 63
     8
 74
     1
 91
        4
 64
     7
 65
   257
 75
     1
175
     1
 42
1.0
 92
        8
 66
     8
 43
1.0
 76
     1
 77
     6
 78
     2
 67
     7
 79
     5
170
     0
171
     0
290
     0
174
     0
 93
        1
 44
0.0
173
     0
291
     1
 45
0.0
1001
ACAD
1000
AcDbSavedByObjectVersion
1070
     0
  0
VISUALSTYLE
  5
327
102
{ACAD_REACTORS
330
31E
102
}
330
31E
100
AcDbVisualStyle
  2
Conceptual
 70
     9
 71
     3
 72
     2
 73
     0
 90
        0
 40
-0.6
 41
-30.0
 62
     5
 63
     7
 74
     2
 91
        2
 64
     7
 65
   257
 75
     1
175
     1
 42
40.0
 92
        8
 66
     7
 43
1.0
 76
     1
 77
     6
 78
     2
 67
     7
 79
     3
170
     0
171
     0
290
     0
174
     0
 93
        1
 44
0.0
173
     0
291
     0
 45
0.0
1001
ACAD
1000
AcDbSavedByObjectVersion
1070
     0
  0
VISUALSTYLE
  5
329
102
{ACAD_REACTORS
330
31E
102
}
330
31E
100
AcDbVisualStyle
  2
Dim
 70
    11
 71
     2
 72
     2
 73
     0
 90
        0
 40
-0.6
 41
-30.0
 62
     5
 63
     7
 74
     1
 91
        4
 64
     7
 65
   257
 75
     1
175
     1
 42
1.0
 92
        8
 66
     7
 43
1.0
 76
     1
 77
     6
 78
     2
 67
     7
 79
     5
170
     0
171
     0
290
     0
174
     0
 93
        1
 44
-50.0
173
     0
291
     1
 45
0.0
1001
ACAD
1000
AcDbSavedByObjectVersion
1070
     0
  0
VISUALSTYLE
  5
32D
102
{ACAD_REACTORS
330
31E
102
}
330
31E
100
AcDbVisualStyle
  2
Facepattern
 70
    15
 71
     2
 72
     2
 73
     0
 90
        0
 40
-0.6
 41
-30.0
 62
     5
 63
     7
 74
     1
 91
        4
 64
     7
 65
   257
 75
     1
175
     1
 42
1.0
 92
        8
 66
     7
 43
1.0
 76
     1
 77
     6
 78
     2
 67
     7
 79
     5
170
     0
171
     0
290
     0
174
     0
 93
        1
 44
0.0
173
     0
291
     1
 45
0.0
1001
ACAD
1000
AcDbSavedByObjectVersion
1070
     0
  0
VISUALSTYLE
  5
31F
102
{ACAD_REACTORS
330
31E
102
}
330
31E
100
AcDbVisualStyle
  2
Flat
 70
     0
 71
     2
 72
     1
 73
     1
 90
        2
 40
-0.6
 41
30.0
 62
     5
 63
     7
 74
     0
 91
        4
 64
     7
 65
   257
 75
     1
175
     1
 42
1.0
 92
        8
 66
     7
 43
1.0
 76
     1
 77
     6
 78
     2
 67
     7
 79
     5
170
     0
171
     0
290
     0
174
     0
 93
       13
 44
0.0
173
     0
291
     1
 45
0.0
1001
ACAD
1000
AcDbSavedByObjectVersion
1070
     0
  0
VISUALSTYLE
  5
320
102
{ACAD_REACTORS
330
31E
102
}
330
31E
100
AcDbVisualStyle
  2
FlatWithEdges
 70
     1
 71
     2
 72
     1
 73
     1
 90
        2
 40
-0.6
 41
30.0
 62
     5
 63
     7
 74
     1
 91
        4
 64
     7
 65
   257
 75
     1
175
     1
 42
1.0
 92
        0
 66
   257
 43
1.0
 76
     1
 77
     6
 78
     2
 67
     7
 79
     5
170
     0
171
     0
290
     0
174
     0
 93
       13
 44
0.0
173
     0
291
     1
 45
0.0
1001
ACAD
1000
AcDbSavedByObjectVersion
1070
     0
  0
VISUALSTYLE
  5
321
102
{ACAD_REACTORS
330
31E
102
}
330
31E
100
AcDbVisualStyle
  2
Gouraud
 70
     2
 71
     2
 72
     2
 73
     1
 90
        2
 40
-0.6
 41
30.0
 62
     5
 63
     7
 74
     0
 91
        4
 64
     7
 65
   257
 75
     1
175
     1
 42
1.0
 92
        0
 66
     7
 43
1.0
 76
     1
 77
     6
 78
     2
 67
     7
 79
     5
170
     0
171
     0
290
     0
174
     0
 93
       13
 44
0.0
173
     0
291
     1
 45
0.0
1001
ACAD
1000
AcDbSavedByObjectVersion
1070
     0
  0
VISUALSTYLE
  5
322
102
{ACAD_REACTORS
330
31E
102
}
330
31E
100
AcDbVisualStyle
  2
GouraudWithEdges
 70
     3
 71
     2
 72
     2
 73
     1
 90
        2
 40
-0.6
 41
30.0
 62
     5
 63
     7
 74
     1
 91
        4
 64
     7
 65
   257
 75
     1
175
     1
 42
1.0
 92
        0
 66
   257
 43
1.0
 76
     1
 77
     6
 78
     2
 67
     7
 79
     5
170
     0
171
     0
290
     0
174
     0
 93
       13
 44
0.0
173
     0
291
     1
 45
0.0
1001
ACAD
1000
AcDbSavedByObjectVersion
1070
     0
  0
VISUALSTYLE
  5
32C
102
{ACAD_REACTORS
330
31E
102
}
330
31E
100
AcDbVisualStyle
  2
Linepattern
 70
    14
 71
     2
 72
     2
 73
     0
 90
        0
 40
-0.6
 41
-30.0
 62
     5
 63
     7
 74
     1
 91
        4
 64
     7
 65
   257
 75
     7
175
     7
 42
1.0
 92
        8
 66
     7
 43
1.0
 76
     1
 77
     6
 78
     2
 67
     7
 79
     5
170
     0
171
     0
290
     0
174
     0
 93
        1
 44
0.0
173
     0
291
     1
 45
0.0
1001
ACAD
1000
AcDbSavedByObjectVersion
1070
     0
  0
VISUALSTYLE
  5
328
102
{ACAD_REACTORS
330
31E
102
}
330
31E
100
AcDbVisualStyle
  2
Realistic
 70
     8
 71
     2
 72
     2
 73
     0
 90
        0
 40
-0.6
 41
-30.0
 62
     5
 63
     7
 74
     1
 91
        0
 64
     7
 65
   257
 75
     1
175
     1
 42
1.0
 92
        8
 66
     8
 43
1.0
 76
     1
 77
     6
 78
     2
 67
     7
 79
     5
170
     0
171
     0
290
     0
174
     0
 93
       13
 44
0.0
173
     0
291
     0
 45
0.0
1001
ACAD
1000
AcDbSavedByObjectVersion
1070
     0
  0
VISUALSTYLE
  5
32B
102
{ACAD_REACTORS
330
31E
102
}
330
31E
100
AcDbVisualStyle
  2
Thicken
 70
    13
 71
     2
 72
     2
 73
     0
 90
        0
 40
-0.6
 41
-30.0
 62
     5
 63
     7
 74
     1
 91
        4
 64
     7
 65
   257
 75
     1
175
     1
 42
1.0
 92
       12
 66
     7
 43
1.0
 76
     1
 77
     6
 78
     2
 67
     7
 79
     5
170
     0
171
     0
290
     0
174
     0
 93
        1
 44
0.0
173
     0
291
     1
 45
0.0
1001
ACAD
1000
AcDbSavedByObjectVersion
1070
     0
  0
DICTIONARYVAR
  5
3CA
102
{ACAD_REACTORS
330
205
102
}
330
205
100
DictionaryVariables
280
     0
  1
STANDARD
  0
DICTIONARYVAR
  5
206
102
{ACAD_REACTORS
330
205
102
}
330
205
100
DictionaryVariables
280
     0
  1
1
  0
DICTIONARYVAR
  5
3CC
102
{ACAD_REACTORS
330
205
102
}
330
205
100
DictionaryVariables
280
     0
  1
0
  0
DICTIONARYVAR
  5
3CB
102
{ACAD_REACTORS
330
205
102
}
330
205
100
DictionaryVariables
280
     0
  1
127
  0
DICTIONARY
  5
3D0
330
1A7
100
AcDbDictionary
280
     1
281
     1
  3
ACAD_XREC_ROUNDTRIP
360
3D1
  0
DICTIONARY
  5
3CE
330
1A6
100
AcDbDictionary
280
     1
281
     1
  3
ACAD_XREC_ROUNDTRIP
360
3CF
  0
DICTIONARY
  5
3D4
330
31C
100
AcDbDictionary
280
     1
281
     1
  3
ACAD_XREC_ROUNDTRIP
360
3D5
  0
DICTIONARY
  5
3D2
330
31B
100
AcDbDictionary
280
     1
281
     1
  3
ACAD_XREC_ROUNDTRIP
360
3D3
  0
DICTIONARY
  5
3D6
330
31D
100
AcDbDictionary
280
     1
281
     1
  3
ACAD_XREC_ROUNDTRIP
360
3D7
  0
DICTIONARY
  5
3D8
330
331
100
AcDbDictionary
280
     1
281
     1
  3
ACAD_XREC_ROUNDTRIP
360
3D9
  0
XRECORD
  5
3D1
102
{ACAD_REACTORS
330
3D0
102
}
330
3D0
100
AcDbXrecord
280
     1
102
SHADEPLOT
 70
     0
102
SHADEPLOTRESLEVEL
 70
     2
102
SHADEPLOTCUSTOMDPI
 70
   300
  0
XRECORD
  5
3CF
102
{ACAD_REACTORS
330
3CE
102
}
330
3CE
100
AcDbXrecord
280
     1
102
SHADEPLOT
 70
     0
102
SHADEPLOTRESLEVEL
 70
     2
102
SHADEPLOTCUSTOMDPI
 70
   300
  0
XRECORD
  5
3D5
102
{ACAD_REACTORS
330
3D4
102
}
330
3D4
100
AcDbXrecord
280
     1
102
MATERIAL
148
0.0
149
0.0
149
0.0
 93
        0
 94
       63
282
     0
 72
     1
 77
     1
171
     1
175
     1
179
     1
273
     0
  0
XRECORD
  5
3D3
102
{ACAD_REACTORS
330
3D2
102
}
330
3D2
100
AcDbXrecord
280
     1
102
MATERIAL
148
0.0
149
0.0
149
0.0
 93
        0
 94
       63
282
     0
 72
     1
 77
     1
171
     1
175
     1
179
     1
273
     0
  0
XRECORD
  5
3D7
102
{ACAD_REACTORS
330
3D6
102
}
330
3D6
100
AcDbXrecord
280
     1
102
MATERIAL
148
0.0
149
0.0
149
0.0
 93
        0
 94
       63
282
     0
 72
     1
 77
     1
171
     1
175
     1
179
     1
273
     0
  0
XRECORD
  5
3D9
102
{ACAD_REACTORS
330
3D8
102
}
330
3D8
100
AcDbXrecord
280
     1
102
ACAD_ROUNDTRIP_PRE2007_TABLESTYLE
 90
      512
 91
        0
  1

 92
      512
 93
        0
  2

 94
      512
 95
        0
  3

  0
ENDSEC
  0
EOF
