  0
SECTION
  2
HEADER
  9
$ACADVER
  1
AC1014
  9
$ACADMAINTVER
 70
     9
  9
$DWGCODEPAGE
  3
ANSI_1252
  9
$INSBASE
 10
30.40826508404901
 20
2.445666807288767
 30
0.0
  9
$EXTMIN
 10
24.82155787897909
 20
1.834604556370887
 30
0.0
  9
$EXTMAX
 10
34.61015141581401
 20
3.575986772696767
 30
0.0
  9
$LIMMIN
 10
0.0
 20
0.0
  9
$LIMMAX
 10
36.0
 20
36.0
  9
$ORTHOMODE
 70
     1
  9
$REGENMODE
 70
     1
  9
$FILLMODE
 70
     1
  9
$QTEXTMODE
 70
     0
  9
$MIRRTEXT
 70
     1
  9
$DRAGMODE
 70
     0
  9
$LTSCALE
 40
1.0
  9
$OSMODE
 70
    37
  9
$ATTMODE
 70
     1
  9
$TEXTSIZE
 40
0.2
  9
$TRACEWID
 40
0.05
  9
$TEXTSTYLE
  7
STANDARD
  9
$CLAYER
  8
0
  9
$CELTYPE
  6
BYLAYER
  9
$CECOLOR
 62
   256
  9
$CELTSCALE
 40
1.0
  9
$DELOBJ
 70
     1
  9
$DISPSILH
 70
     0
  9
$DIMSCALE
 40
1.0
  9
$DIMASZ
 40
0.125
  9
$DIMEXO
 40
0.0625
  9
$DIMDLI
 40
0.38
  9
$DIMRND
 40
0.0
  9
$DIMDLE
 40
0.0
  9
$DIMEXE
 40
0.18
  9
$DIMTP
 40
0.0
  9
$DIMTM
 40
0.0
  9
$DIMTXT
 40
0.125
  9
$DIMCEN
 40
0.1875
  9
$DIMTSZ
 40
0.125
  9
$DIMTOL
 70
     0
  9
$DIMLIM
 70
     0
  9
$DIMTIH
 70
     0
  9
$DIMTOH
 70
     0
  9
$DIMSE1
 70
     0
  9
$DIMSE2
 70
     0
  9
$DIMTAD
 70
     0
  9
$DIMZIN
 70
     3
  9
$DIMBLK
  1

  9
$DIMASO
 70
     1
  9
$DIMSHO
 70
     1
  9
$DIMPOST
  1

  9
$DIMAPOST
  1

  9
$DIMALT
 70
     0
  9
$DIMALTD
 70
     1
  9
$DIMALTF
 40
25.4
  9
$DIMLFAC
 40
1.0
  9
$DIMTOFL
 70
     0
  9
$DIMTVP
 40
0.0
  9
$DIMTIX
 70
     0
  9
$DIMSOXD
 70
     0
  9
$DIMSAH
 70
     0
  9
$DIMBLK1
  1

  9
$DIMBLK2
  1

  9
$DIMSTYLE
  2
STANDARD
  9
$DIMCLRD
 70
     0
  9
$DIMCLRE
 70
     0
  9
$DIMCLRT
 70
     0
  9
$DIMTFAC
 40
1.0
  9
$DIMGAP
 40
0.125
  9
$DIMJUST
 70
     0
  9
$DIMSD1
 70
     0
  9
$DIMSD2
 70
     0
  9
$DIMTOLJ
 70
     1
  9
$DIMTZIN
 70
     0
  9
$DIMALTZ
 70
     0
  9
$DIMALTTZ
 70
     0
  9
$DIMFIT
 70
     3
  9
$DIMUPT
 70
     0
  9
$DIMUNIT
 70
     2
  9
$DIMDEC
 70
     4
  9
$DIMTDEC
 70
     4
  9
$DIMALTU
 70
     2
  9
$DIMALTTD
 70
     2
  9
$DIMTXSTY
  7
STANDARD
  9
$DIMAUNIT
 70
     0
  9
$LUNITS
 70
     5
  9
$LUPREC
 70
     4
  9
$SKETCHINC
 40
0.1
  9
$FILLETRAD
 40
0.062
  9
$AUNITS
 70
     0
  9
$AUPREC
 70
     0
  9
$MENU
  1
acad
  9
$ELEVATION
 40
0.0
  9
$PELEVATION
 40
0.0
  9
$THICKNESS
 40
0.0
  9
$LIMCHECK
 70
     0
  9
$BLIPMODE
 70
     0
  9
$CHAMFERA
 40
0.0
  9
$CHAMFERB
 40
0.0
  9
$CHAMFERC
 40
0.0
  9
$CHAMFERD
 40
0.0
  9
$SKPOLY
 70
     0
  9
$TDCREATE
 40
2450406.658725301
  9
$TDUPDATE
 40
2452297.088146157
  9
$TDINDWG
 40
0.0272254282
  9
$TDUSRTIMER
 40
0.0272254282
  9
$USRTIMER
 70
     1
  9
$ANGBASE
 50
0.0
  9
$ANGDIR
 70
     0
  9
$PDMODE
 70
     0
  9
$PDSIZE
 40
0.0
  9
$PLINEWID
 40
0.0
  9
$COORDS
 70
     2
  9
$SPLFRAME
 70
     0
  9
$SPLINETYPE
 70
     6
  9
$SPLINESEGS
 70
     8
  9
$ATTDIA
 70
     0
  9
$ATTREQ
 70
     1
  9
$HANDLING
 70
 22529
  9
$HANDSEED
  5
310
  9
$SURFTAB1
 70
     6
  9
$SURFTAB2
 70
     6
  9
$SURFTYPE
 70
     6
  9
$SURFU
 70
     6
  9
$SURFV
 70
     6
  9
$UCSNAME
  2

  9
$UCSORG
 10
0.0
 20
0.0
 30
0.0
  9
$UCSXDIR
 10
1.0
 20
0.0
 30
0.0
  9
$UCSYDIR
 10
0.0
 20
1.0
 30
0.0
  9
$PUCSNAME
  2

  9
$PUCSORG
 10
0.0
 20
0.0
 30
0.0
  9
$PUCSXDIR
 10
1.0
 20
0.0
 30
0.0
  9
$PUCSYDIR
 10
0.0
 20
1.0
 30
0.0
  9
$USERI1
 70
     0
  9
$USERI2
 70
     0
  9
$USERI3
 70
     0
  9
$USERI4
 70
     0
  9
$USERI5
 70
     0
  9
$USERR1
 40
0.0
  9
$USERR2
 40
0.0
  9
$USERR3
 40
0.0
  9
$USERR4
 40
0.0
  9
$USERR5
 40
0.0
  9
$WORLDVIEW
 70
     1
  9
$SHADEDGE
 70
     3
  9
$SHADEDIF
 70
    70
  9
$TILEMODE
 70
     1
  9
$MAXACTVP
 70
    15
  9
$PINSBASE
 10
0.0008545028977096
 20
1.250283272183907
 30
0.0
  9
$PLIMCHECK
 70
     0
  9
$PEXTMIN
 10
1.000000000000000E+20
 20
1.000000000000000E+20
 30
1.000000000000000E+20
  9
$PEXTMAX
 10
-1.000000000000000E+20
 20
-1.000000000000000E+20
 30
-1.000000000000000E+20
  9
$PLIMMIN
 10
0.0
 20
0.0
  9
$PLIMMAX
 10
12.0
 20
9.0
  9
$UNITMODE
 70
     0
  9
$VISRETAIN
 70
     0
  9
$PLINEGEN
 70
     0
  9
$PSLTSCALE
 70
     1
  9
$TREEDEPTH
 70
  3020
  9
$PICKSTYLE
 70
     1
  9
$CMLSTYLE
  2
STANDARD
  9
$CMLJUST
 70
     0
  9
$CMLSCALE
 40
1.0
  9
$PROXYGRAPHICS
 70
     1
  9
$MEASUREMENT
 70
     0
  0
ENDSEC
  0
SECTION
  2
CLASSES
  0
CLASS
  1
ACDBDICTIONARYWDFLT
  2
AcDbDictionaryWithDefault
  3
AutoCAD 2000
 90
        0
280
     0
281
     0
  0
CLASS
  1
ACDBPLACEHOLDER
  2
AcDbPlaceHolder
  3
AutoCAD 2000
 90
        0
280
     0
281
     0
  0
CLASS
  1
LAYOUT
  2
AcDbLayout
  3
AutoCAD 2000
 90
        0
280
     0
281
     0
  0
CLASS
  1
DICTIONARYVAR
  2
AcDbDictionaryVar
  3
AutoCAD 2000
 90
        0
280
     0
281
     0
  0
CLASS
  1
LONG_TRANSACTION
  2
AcDbLongTransaction
  3
AutoCAD 2000
 90
        0
280
     0
281
     0
  0
CLASS
  1
LWPOLYLINE
  2
AcDbPolyline
  3
AutoCAD 2000
 90
        0
280
     0
281
     1
  0
CLASS
  1
HATCH
  2
AcDbHatch
  3
AutoCAD 2000
 90
        0
280
     0
281
     1
  0
CLASS
  1
XRECORD
  2
AcDbXrecord
  3
AutoCAD 2000
 90
        0
280
     0
281
     0
  0
CLASS
  1
LONG_TRANSACTION
  2
AcDbLongTransaction
  3
AutoCAD 2000
 90
        0
280
     0
281
     0
  0
CLASS
  1
LWPOLYLINE
  2
AcDbPolyline
  3
AutoCAD 2000
 90
        0
280
     0
281
     1
  0
CLASS
  1
HATCH
  2
AcDbHatch
  3
AutoCAD 2000
 90
        0
280
     0
281
     1
  0
CLASS
  1
XRECORD
  2
AcDbXrecord
  3
AutoCAD 2000
 90
        0
280
     0
281
     0
  0
CLASS
  1
LONG_TRANSACTION
  2
AcDbLongTransaction
  3
AutoCAD 2000
 90
        0
280
     0
281
     0
  0
CLASS
  1
LWPOLYLINE
  2
AcDbPolyline
  3
AutoCAD 2000
 90
        0
280
     0
281
     1
  0
CLASS
  1
HATCH
  2
AcDbHatch
  3
AutoCAD 2000
 90
        0
280
     0
281
     1
  0
CLASS
  1
XRECORD
  2
AcDbXrecord
  3
AutoCAD 2000
 90
        0
280
     0
281
     0
  0
CLASS
  1
LONG_TRANSACTION
  2
AcDbLongTransaction
  3
AutoCAD 2000
 90
        0
280
     0
281
     0
  0
CLASS
  1
LWPOLYLINE
  2
AcDbPolyline
  3
AutoCAD 2000
 90
        0
280
     0
281
     1
  0
CLASS
  1
HATCH
  2
AcDbHatch
  3
AutoCAD 2000
 90
        0
280
     0
281
     1
  0
CLASS
  1
XRECORD
  2
AcDbXrecord
  3
AutoCAD 2000
 90
        0
280
     0
281
     0
  0
CLASS
  1
LONG_TRANSACTION
  2
AcDbLongTransaction
  3
AutoCAD 2000
 90
        0
280
     0
281
     0
  0
CLASS
  1
LWPOLYLINE
  2
AcDbPolyline
  3
AutoCAD 2000
 90
        0
280
     0
281
     1
  0
CLASS
  1
HATCH
  2
AcDbHatch
  3
AutoCAD 2000
 90
        0
280
     0
281
     1
  0
CLASS
  1
XRECORD
  2
AcDbXrecord
  3
AutoCAD 2000
 90
        0
280
     0
281
     0
  0
CLASS
  1
LONG_TRANSACTION
  2
AcDbLongTransaction
  3
AutoCAD 2000
 90
        0
280
     0
281
     0
  0
CLASS
  1
LWPOLYLINE
  2
AcDbPolyline
  3
AutoCAD 2000
 90
        0
280
     0
281
     1
  0
CLASS
  1
HATCH
  2
AcDbHatch
  3
AutoCAD 2000
 90
        0
280
     0
281
     1
  0
CLASS
  1
XRECORD
  2
AcDbXrecord
  3
AutoCAD 2000
 90
        0
280
     0
281
     0
  0
ENDSEC
  0
SECTION
  2
TABLES
  0
TABLE
  2
VPORT
  5
8
330
0
100
AcDbSymbolTable
 70
     2
  0
VPORT
  5
2ED
330
8
100
AcDbSymbolTableRecord
100
AcDbViewportTableRecord
  2
*ACTIVE
 70
     0
 10
0.0
 20
0.0
 11
1.0
 21
1.0
 12
29.72344831707124
 22
2.705658024998452
 13
0.0
 23
0.0
 14
0.5740882589684922
 24
0.5740882589684922
 15
0.5
 25
0.5
 16
0.0
 26
0.0
 36
1.0
 17
0.0
 27
0.0
 37
0.0
 40
6.274636861413393
 41
1.570528967254408
 42
50.0
 43
0.0
 44
0.0
 50
0.0
 51
0.0
 71
     0
 72
   100
 73
     1
 74
     0
 75
     0
 76
     0
 77
     0
 78
     0
  0
ENDTAB
  0
TABLE
  2
LTYPE
  5
5
330
0
100
AcDbSymbolTable
 70
     1
  0
LTYPE
  5
12
330
5
100
AcDbSymbolTableRecord
100
AcDbLinetypeTableRecord
  2
BYBLOCK
 70
     0
  3

 72
    65
 73
     0
 40
0.0
  0
LTYPE
  5
13
330
5
100
AcDbSymbolTableRecord
100
AcDbLinetypeTableRecord
  2
BYLAYER
 70
     0
  3

 72
    65
 73
     0
 40
0.0
  0
LTYPE
  5
14
330
5
100
AcDbSymbolTableRecord
100
AcDbLinetypeTableRecord
  2
CONTINUOUS
 70
     0
  3
Solid line
 72
    65
 73
     0
 40
0.0
  0
ENDTAB
  0
TABLE
  2
LAYER
  5
2
330
0
100
AcDbSymbolTable
 70
     3
  0
LAYER
  5
F
330
2
100
AcDbSymbolTableRecord
100
AcDbLayerTableRecord
  2
0
 70
     0
 62
     7
  6
CONTINUOUS
  0
LAYER
  5
119
330
2
100
AcDbSymbolTableRecord
100
AcDbLayerTableRecord
  2
DEFPOINTS
 70
     0
 62
     7
  6
CONTINUOUS
  0
LAYER
  5
11C
330
2
100
AcDbSymbolTableRecord
100
AcDbLayerTableRecord
  2
ADPDIM
 70
     0
 62
     3
  6
CONTINUOUS
  0
ENDTAB
  0
TABLE
  2
STYLE
  5
3
330
0
100
AcDbSymbolTable
 70
     2
  0
STYLE
  5
10
330
3
100
AcDbSymbolTableRecord
100
AcDbTextStyleTableRecord
  2
STANDARD
 70
     0
 40
0.0
 41
1.0
 50
0.0
 71
     0
 42
0.2
  3
txt
  4

  0
STYLE
  5
17A
330
3
100
AcDbSymbolTableRecord
100
AcDbTextStyleTableRecord
  2
ARIAL_WIDE
 70
     0
 40
0.0
 41
1.25
 50
0.0
 71
     0
 42
0.2
  3
ARIAL.TTF
  4

1001
ACAD
1000
Arial
1071
       34
  0
ENDTAB
  0
TABLE
  2
VIEW
  5
6
330
0
100
AcDbSymbolTable
 70
     0
  0
ENDTAB
  0
TABLE
  2
UCS
  5
7
330
0
100
AcDbSymbolTable
 70
     0
  0
ENDTAB
  0
TABLE
  2
APPID
  5
9
330
0
100
AcDbSymbolTable
 70
     1
  0
APPID
  5
11
330
9
100
AcDbSymbolTableRecord
100
AcDbRegAppTableRecord
  2
ACAD
 70
     0
  0
ENDTAB
  0
TABLE
  2
DIMSTYLE
  5
A
330
0
100
AcDbSymbolTable
 70
     1
  0
DIMSTYLE
105
16E
330
A
100
AcDbSymbolTableRecord
100
AcDbDimStyleTableRecord
  2
STANDARD
 70
     0
  3

  4

  5

  6

  7

 40
1.0
 41
0.18
 42
0.0625
 43
0.38
 44
0.18
 45
0.0
 46
0.0
 47
0.0
 48
0.0
140
0.18
141
0.09
142
0.0
143
25.4
144
1.0
145
0.0
146
1.0
147
0.09
 71
     0
 72
     0
 73
     1
 74
     1
 75
     0
 76
     0
 77
     0
 78
     0
170
     0
171
     2
172
     0
173
     0
174
     0
175
     0
176
     0
177
     0
178
     0
270
     2
271
     4
272
     4
273
     2
274
     2
340
10
275
     0
280
     0
281
     0
282
     0
283
     1
284
     0
285
     0
286
     0
287
     3
288
     0
  0
ENDTAB
  0
TABLE
  2
BLOCK_RECORD
  5
1
330
0
100
AcDbSymbolTable
 70
     2
  0
BLOCK_RECORD
  5
18
102
{ACAD_XDICTIONARY
360
1CF
102
}
330
1
100
AcDbSymbolTableRecord
100
AcDbBlockTableRecord
  2
*MODEL_SPACE
  0
BLOCK_RECORD
  5
15
102
{ACAD_XDICTIONARY
360
1CD
102
}
330
1
100
AcDbSymbolTableRecord
100
AcDbBlockTableRecord
  2
*PAPER_SPACE
  0
BLOCK_RECORD
  5
112
330
1
100
AcDbSymbolTableRecord
100
AcDbBlockTableRecord
  2
*D0
  0
BLOCK_RECORD
  5
113
330
1
100
AcDbSymbolTableRecord
100
AcDbBlockTableRecord
  2
*D1
  0
ENDTAB
  0
ENDSEC
  0
SECTION
  2
BLOCKS
  0
BLOCK
  5
11F
330
18
100
AcDbEntity
  8
0
100
AcDbBlockBegin
  2
*MODEL_SPACE
 70
     0
 10
0.0
 20
0.0
 30
0.0
  3
*MODEL_SPACE
  1

  0
ENDBLK
  5
120
330
18
100
AcDbEntity
  8
0
100
AcDbBlockEnd
  0
BLOCK
  5
11D
330
15
100
AcDbEntity
 67
     1
  8
0
100
AcDbBlockBegin
  2
*PAPER_SPACE
 70
     0
 10
0.0
 20
0.0
 30
0.0
  3
*PAPER_SPACE
  1

  0
ENDBLK
  5
11E
330
15
100
AcDbEntity
 67
     1
  8
0
100
AcDbBlockEnd
  0
BLOCK
  5
122
330
112
100
AcDbEntity
  8
0
100
AcDbBlockBegin
  2
*D0
 70
     1
 10
0.0
 20
0.0
 30
0.0
  3
*D0
  1

  0
LINE
  5
123
330
112
100
AcDbEntity
  8
0
  6
BYBLOCK
 62
     0
100
AcDbLine
 10
29.21442913134795
 20
2.396411990368844
 30
0.0
 11
29.21442913134795
 21
2.140666807288767
 31
0.0
  0
LINE
  5
124
330
112
100
AcDbEntity
  8
0
  6
BYBLOCK
 62
     0
100
AcDbLine
 10
30.28326508404901
 20
2.396411990368844
 30
0.0
 11
30.28326508404901
 21
2.140666807288767
 31
0.0
  0
LINE
  5
125
330
112
100
AcDbEntity
  8
0
  6
BYBLOCK
 62
     0
100
AcDbLine
 10
29.21442913134795
 20
2.320666807288767
 30
0.0
 11
28.96442913134795
 21
2.320666807288767
 31
0.0
  0
LINE
  5
126
330
112
100
AcDbEntity
  8
0
  6
BYBLOCK
 62
     0
100
AcDbLine
 10
30.28326508404901
 20
2.320666807288767
 30
0.0
 11
30.53326508404901
 21
2.320666807288767
 31
0.0
  0
LINE
  5
127
330
112
100
AcDbEntity
  8
0
  6
BYBLOCK
 62
     0
100
AcDbLine
 10
29.08942913134795
 20
2.195666807288767
 30
0.0
 11
29.33942913134795
 21
2.445666807288767
 31
0.0
  0
LINE
  5
128
330
112
100
AcDbEntity
  8
0
  6
BYBLOCK
 62
     0
100
AcDbLine
 10
30.15826508404901
 20
2.195666807288767
 30
0.0
 11
30.40826508404901
 21
2.445666807288767
 31
0.0
  0
TEXT
  5
129
330
112
100
AcDbEntity
  8
0
  6
BYBLOCK
 62
     0
100
AcDbText
 10
30.65826508404901
 20
2.258166807288767
 30
0.0
 40
0.125
  1
1 1/16
 72
     1
 11
30.94993175071568
 21
2.320666807288767
 31
0.0
100
AcDbText
 73
     2
  0
POINT
  5
12A
330
112
100
AcDbEntity
  8
DEFPOINTS
  6
BYBLOCK
 62
     0
100
AcDbPoint
 10
29.21442913134795
 20
2.458911990368844
 30
0.0
  0
POINT
  5
12B
330
112
100
AcDbEntity
  8
DEFPOINTS
  6
BYBLOCK
 62
     0
100
AcDbPoint
 10
30.28326508404901
 20
2.458911990368844
 30
0.0
  0
POINT
  5
12C
330
112
100
AcDbEntity
  8
DEFPOINTS
  6
BYBLOCK
 62
     0
100
AcDbPoint
 10
30.28326508404901
 20
2.320666807288767
 30
0.0
  0
ENDBLK
  5
12D
330
112
100
AcDbEntity
  8
0
100
AcDbBlockEnd
  0
BLOCK
  5
12E
330
113
100
AcDbEntity
  8
0
100
AcDbBlockBegin
  2
*D1
 70
     1
 10
0.0
 20
0.0
 30
0.0
  3
*D1
  1

  0
LINE
  5
12F
330
113
100
AcDbEntity
  8
0
  6
BYBLOCK
 62
     0
100
AcDbLine
 10
28.93778916717561
 20
2.747631489239766
 30
0.0
 11
28.93778916717561
 21
3.575986772696767
 31
0.0
  0
LINE
  5
130
330
113
100
AcDbEntity
  8
0
  6
BYBLOCK
 62
     0
100
AcDbLine
 10
30.55990488618823
 20
2.747631489239766
 30
0.0
 11
30.55990488618823
 21
3.575986772696767
 31
0.0
  0
LINE
  5
131
330
113
100
AcDbEntity
  8
0
  6
BYBLOCK
 62
     0
100
AcDbLine
 10
28.93778916717561
 20
3.395986772696767
 30
0.0
 11
29.35301369334858
 21
3.395986772696767
 31
0.0
  0
LINE
  5
132
330
113
100
AcDbEntity
  8
0
  6
BYBLOCK
 62
     0
100
AcDbLine
 10
30.55990488618823
 20
3.395986772696767
 30
0.0
 11
30.14468036001525
 21
3.395986772696767
 31
0.0
  0
LINE
  5
133
330
113
100
AcDbEntity
  8
0
  6
BYBLOCK
 62
     0
100
AcDbLine
 10
28.81278916717561
 20
3.270986772696767
 30
0.0
 11
29.06278916717561
 21
3.520986772696767
 31
0.0
  0
LINE
  5
134
330
113
100
AcDbEntity
  8
0
  6
BYBLOCK
 62
     0
100
AcDbLine
 10
30.43490488618822
 20
3.270986772696767
 30
0.0
 11
30.68490488618822
 21
3.520986772696767
 31
0.0
  0
TEXT
  5
135
330
113
100
AcDbEntity
  8
0
  6
BYBLOCK
 62
     0
100
AcDbText
 10
29.47801369334859
 20
3.333486772696767
 30
0.0
 40
0.125
  1
1 5/8
 72
     1
 11
29.74884702668192
 21
3.395986772696767
 31
0.0
100
AcDbText
 73
     2
  0
POINT
  5
136
330
113
100
AcDbEntity
  8
DEFPOINTS
  6
BYBLOCK
 62
     0
100
AcDbPoint
 10
28.93778916717561
 20
2.685131489239766
 30
0.0
  0
POINT
  5
137
330
113
100
AcDbEntity
  8
DEFPOINTS
  6
BYBLOCK
 62
     0
100
AcDbPoint
 10
30.55990488618823
 20
2.685131489239766
 30
0.0
  0
POINT
  5
138
330
113
100
AcDbEntity
  8
DEFPOINTS
  6
BYBLOCK
 62
     0
100
AcDbPoint
 10
30.55990488618823
 20
3.395986772696767
 30
0.0
  0
ENDBLK
  5
139
330
113
100
AcDbEntity
  8
0
100
AcDbBlockEnd
  0
ENDSEC
  0
SECTION
  2
ENTITIES
  0
ARC
  5
13A
330
18
100
AcDbEntity
  8
0
100
AcDbCircle
 10
30.31582295878069
 20
3.632483070901949
 30
0.0
 40
0.7399999999999985
100
AcDbArc
 50
237.3522069807178
 51
263.1342072008007
  0
ARC
  5
13B
330
18
100
AcDbEntity
  8
0
100
AcDbCircle
 10
30.26279960548667
 20
3.481836956260193
 30
0.0
 40
0.4720000000000001
100
AcDbArc
 50
233.5924566191204
 51
270.2044071373291
  0
DIMENSION
  5
13C
330
18
100
AcDbEntity
  8
ADPDIM
100
AcDbDimension
  2
*D0
 10
30.28326508404901
 20
2.320666807288767
 30
0.0
 11
30.94993175071568
 21
2.320666807288767
 31
0.0
100
AcDbAlignedDimension
 13
29.21442913134795
 23
2.458911990368844
 33
0.0
 14
30.28326508404901
 24
2.458911990368844
 34
0.0
100
AcDbRotatedDimension
  0
DIMENSION
  5
13D
330
18
100
AcDbEntity
  8
ADPDIM
100
AcDbDimension
  2
*D1
 10
30.55990488618823
 20
3.395986772696767
 30
0.0
 11
29.74884702668192
 21
3.395986772696767
 31
0.0
100
AcDbAlignedDimension
 13
28.93778916717561
 23
2.685131489239766
 33
0.0
 14
30.55990488618823
 24
2.685131489239766
 34
0.0
100
AcDbRotatedDimension
  0
ARC
  5
13E
330
18
100
AcDbEntity
  8
0
100
AcDbCircle
 10
29.05835543380606
 20
2.820597447762904
 30
0.0
 40
0.1179999999999985
100
AcDbArc
 50
95.54702259966882
 51
239.5148189894003
  0
ARC
  5
13F
330
18
100
AcDbEntity
  8
0
100
AcDbCircle
 10
28.90868060372153
 20
2.56223288305898
 30
0.0
 40
0.1805927882622702
100
AcDbArc
 50
354.8245616348095
 51
60.17744344242475
  0
ARC
  5
140
330
18
100
AcDbEntity
  8
0
100
AcDbCircle
 10
29.75120134616346
 20
2.831144783589502
 30
0.0
 40
0.3578471972264042
100
AcDbArc
 50
49.18300244968252
 51
90.44777449537638
  0
ARC
  5
141
330
18
100
AcDbEntity
  8
0
100
AcDbCircle
 10
29.74560815174557
 20
2.831144783589502
 30
0.0
 40
0.3578471972264042
100
AcDbArc
 50
89.55222550462364
 51
130.8169975503174
  0
ARC
  5
142
330
18
100
AcDbEntity
  8
0
100
AcDbCircle
 10
29.18098653912834
 20
3.632483070901949
 30
0.0
 40
0.7399999999999985
100
AcDbArc
 50
276.8657927991992
 51
302.6477930192821
  0
ARC
  5
143
330
18
100
AcDbEntity
  8
0
100
AcDbCircle
 10
29.27542638859485
 20
2.848148247734767
 30
0.0
 40
0.05
100
AcDbArc
 50
96.8657927991979
 51
180.0
  0
LINE
  5
144
330
18
100
AcDbEntity
  8
0
100
AcDbLine
 10
29.22542638859484
 20
2.848148247734767
 30
0.0
 11
29.22542638859484
 21
2.829981052861979
 31
0.0
  0
ARC
  5
145
330
18
100
AcDbEntity
  8
0
100
AcDbCircle
 10
29.15490474895451
 20
2.999763116903289
 30
0.0
 40
0.01
100
AcDbArc
 50
89.57266750621382
 51
180.0
  0
LINE
  5
146
330
18
100
AcDbEntity
  8
0
100
AcDbLine
 10
29.14490474895452
 20
2.955148466554886
 30
0.0
 11
29.14490474895451
 21
2.999763116903289
 31
0.0
  0
ARC
  5
147
330
18
100
AcDbEntity
  8
0
100
AcDbCircle
 10
29.13490474895452
 20
2.955148466554886
 30
0.0
 40
0.01
100
AcDbArc
 50
274.9999999999993
 51
0.000000000000007
  0
LINE
  5
148
330
18
100
AcDbEntity
  8
0
100
AcDbLine
 10
29.15497933185321
 20
3.009762838768982
 30
0.0
 11
29.23234158281847
 21
3.00918583262779
 31
0.0
  0
LINE
  5
149
330
18
100
AcDbEntity
  8
0
100
AcDbLine
 10
29.31542638859484
 20
2.779981052861978
 30
0.0
 11
29.27542638859485
 21
2.779981052861978
 31
0.0
  0
ARC
  5
14A
330
18
100
AcDbEntity
  8
0
100
AcDbCircle
 10
29.23400989242236
 20
3.481836956260193
 30
0.0
 40
0.4720000000000001
100
AcDbArc
 50
269.7955928626708
 51
306.4075433808796
  0
LINE
  5
14B
330
18
100
AcDbEntity
  8
0
100
AcDbLine
 10
29.22642638859485
 20
2.679981052861973
 30
0.0
 11
29.31542638859484
 21
2.679981052861973
 31
0.0
  0
LINE
  5
14C
330
18
100
AcDbEntity
  8
0
100
AcDbLine
 10
29.21642638859484
 20
2.544981052861979
 30
0.0
 11
29.21642638859484
 21
2.669981052861972
 31
0.0
  0
ARC
  5
14D
330
18
100
AcDbEntity
  8
0
100
AcDbCircle
 10
29.20642638859484
 20
2.544981052861979
 30
0.0
 40
0.01
100
AcDbArc
 50
270.0
 51
0.000000000000007
  0
LINE
  5
14E
330
18
100
AcDbEntity
  8
0
100
AcDbLine
 10
29.20642638859484
 20
2.534981052861977
 30
0.0
 11
29.09849082807184
 21
2.534981052861977
 31
0.0
  0
ARC
  5
14F
330
18
100
AcDbEntity
  8
0
100
AcDbCircle
 10
29.22642638859485
 20
2.669981052861972
 30
0.0
 40
0.01
100
AcDbArc
 50
90.0
 51
180.0
  0
LINE
  5
150
330
18
100
AcDbEntity
  8
0
100
AcDbLine
 10
29.32542638859485
 20
2.689981052861975
 30
0.0
 11
29.32542638859485
 21
2.769981052861977
 31
0.0
  0
ARC
  5
151
330
18
100
AcDbEntity
  8
0
100
AcDbCircle
 10
29.31542638859484
 20
2.689981052861975
 30
0.0
 40
0.01
100
AcDbArc
 50
270.000000000002
 51
0.000000000000007
  0
ARC
  5
152
330
18
100
AcDbEntity
  8
0
100
AcDbCircle
 10
29.31542638859484
 20
2.769981052861977
 30
0.0
 40
0.01
100
AcDbArc
 50
0.000000000000007
 51
90.0
  0
ARC
  5
153
330
18
100
AcDbEntity
  8
0
100
AcDbCircle
 10
29.27542638859485
 20
2.829981052861979
 30
0.0
 40
0.05
100
AcDbArc
 50
180.0
 51
270.0
  0
ARC
  5
154
330
18
100
AcDbEntity
  8
0
100
AcDbCircle
 10
29.09849082807184
 20
2.544981052861979
 30
0.0
 40
0.01
100
AcDbArc
 50
174.4834109811091
 51
270.0
  0
LINE
  5
155
330
18
100
AcDbEntity
  8
0
100
AcDbLine
 10
29.13577630638199
 20
2.945186519573967
 30
0.0
 11
29.04694924216794
 21
2.937415158440953
 31
0.0
  0
ARC
  5
156
330
18
100
AcDbEntity
  8
0
100
AcDbCircle
 10
29.91121796472922
 20
3.000981052861975
 30
0.0
 40
0.01
100
AcDbArc
 50
57.3522069807206
 51
90.0
  0
LINE
  5
157
330
18
100
AcDbEntity
  8
0
100
AcDbLine
 10
29.58559153317981
 20
3.010981052861976
 30
0.0
 11
29.74840474895451
 21
3.010981052861976
 31
0.0
  0
ARC
  5
158
330
18
100
AcDbEntity
  8
0
100
AcDbCircle
 10
29.58559153317981
 20
3.000981052861975
 30
0.0
 40
0.01
100
AcDbArc
 50
90.0
 51
122.6477930192793
  0
LINE
  5
159
330
18
100
AcDbEntity
  8
0
100
AcDbLine
 10
29.91121796472922
 20
3.010981052861976
 30
0.0
 11
29.74840474895452
 21
3.010981052861976
 31
0.0
  0
LINE
  5
15A
330
18
100
AcDbEntity
  8
0
100
AcDbLine
 10
30.36103319152704
 20
2.945186519573967
 30
0.0
 11
30.44986025574109
 21
2.937415158440953
 31
0.0
  0
ARC
  5
15B
330
18
100
AcDbEntity
  8
0
100
AcDbCircle
 10
30.36190474895452
 20
2.955148466554886
 30
0.0
 40
0.01
100
AcDbArc
 50
180.0
 51
265.0000000000007
  0
LINE
  5
15C
330
18
100
AcDbEntity
  8
0
100
AcDbLine
 10
30.35190474895451
 20
2.955148466554886
 30
0.0
 11
30.35190474895452
 21
2.999763116903289
 31
0.0
  0
ARC
  5
15D
330
18
100
AcDbEntity
  8
0
100
AcDbCircle
 10
30.34190474895452
 20
2.999763116903289
 30
0.0
 40
0.01
100
AcDbArc
 50
0.0
 51
90.42733249378619
  0
LINE
  5
15E
330
18
100
AcDbEntity
  8
0
100
AcDbLine
 10
30.27138310931419
 20
2.848148247734767
 30
0.0
 11
30.27138310931419
 21
2.829981052861979
 31
0.0
  0
LINE
  5
15F
330
18
100
AcDbEntity
  8
0
100
AcDbLine
 10
30.18138310931419
 20
2.779981052861978
 30
0.0
 11
30.22138310931419
 21
2.779981052861978
 31
0.0
  0
ARC
  5
160
330
18
100
AcDbEntity
  8
0
100
AcDbCircle
 10
30.22138310931419
 20
2.848148247734767
 30
0.0
 40
0.05
100
AcDbArc
 50
0.0
 51
83.13420720080211
  0
LINE
  5
161
330
18
100
AcDbEntity
  8
0
100
AcDbLine
 10
30.34183016605582
 20
3.009762838768982
 30
0.0
 11
30.26446791509056
 21
3.00918583262779
 31
0.0
  0
ARC
  5
162
330
18
100
AcDbEntity
  8
0
100
AcDbCircle
 10
30.5881288941875
 20
2.56223288305898
 30
0.0
 40
0.1805927882622702
100
AcDbArc
 50
119.8225565575752
 51
185.1754383651904
  0
ARC
  5
163
330
18
100
AcDbEntity
  8
0
100
AcDbCircle
 10
30.39831866983718
 20
2.544981052861979
 30
0.0
 40
0.01
100
AcDbArc
 50
270.0
 51
5.516589018890842
  0
LINE
  5
164
330
18
100
AcDbEntity
  8
0
100
AcDbLine
 10
30.28038310931419
 20
2.544981052861979
 30
0.0
 11
30.28038310931419
 21
2.669981052861972
 31
0.0
  0
LINE
  5
165
330
18
100
AcDbEntity
  8
0
100
AcDbLine
 10
30.27038310931418
 20
2.679981052861973
 30
0.0
 11
30.18138310931419
 21
2.679981052861973
 31
0.0
  0
LINE
  5
166
330
18
100
AcDbEntity
  8
0
100
AcDbLine
 10
30.17138310931418
 20
2.689981052861975
 30
0.0
 11
30.17138310931418
 21
2.769981052861977
 31
0.0
  0
ARC
  5
167
330
18
100
AcDbEntity
  8
0
100
AcDbCircle
 10
30.29038310931419
 20
2.544981052861979
 30
0.0
 40
0.01
100
AcDbArc
 50
180.0
 51
270.0
  0
ARC
  5
168
330
18
100
AcDbEntity
  8
0
100
AcDbCircle
 10
30.27038310931418
 20
2.669981052861972
 30
0.0
 40
0.01
100
AcDbArc
 50
0.0
 51
90.0
  0
ARC
  5
169
330
18
100
AcDbEntity
  8
0
100
AcDbCircle
 10
30.18138310931419
 20
2.689981052861975
 30
0.0
 40
0.01
100
AcDbArc
 50
180.0
 51
269.9999999999979
  0
LINE
  5
16A
330
18
100
AcDbEntity
  8
0
100
AcDbLine
 10
30.29038310931419
 20
2.534981052861977
 30
0.0
 11
30.39831866983718
 21
2.534981052861977
 31
0.0
  0
ARC
  5
16B
330
18
100
AcDbEntity
  8
0
100
AcDbCircle
 10
30.18138310931419
 20
2.769981052861977
 30
0.0
 40
0.01
100
AcDbArc
 50
90.0
 51
180.0
  0
ARC
  5
16C
330
18
100
AcDbEntity
  8
0
100
AcDbCircle
 10
30.22138310931419
 20
2.829981052861979
 30
0.0
 40
0.05
100
AcDbArc
 50
270.0
 51
0.0
  0
ARC
  5
16D
330
18
100
AcDbEntity
  8
0
100
AcDbCircle
 10
30.43845406410297
 20
2.820597447762904
 30
0.0
 40
0.1179999999999985
100
AcDbArc
 50
300.4851810105996
 51
84.45297740033117
  0
TEXT
  5
17B
330
18
100
AcDbEntity
  8
ADPDIM
100
AcDbText
 10
24.82155787897909
 20
1.862358649140328
 30
0.0
 40
0.09375
  1
J U L I U S  B L U M  &  C O . ,  I N C .      ( 8 0 0 )  5 2 6 - 6 2 9 3        W W W . J U L I U S B L U M . C O M        P A R T  N o .  4 5 3 7
 41
1.25
  7
ARIAL_WIDE
 72
     1
 11
29.71585464739655
 21
1.956108649140328
 31
0.0
100
AcDbText
 73
     3
  0
ENDSEC
  0
SECTION
  2
OBJECTS
  0
DICTIONARY
  5
C
330
0
100
AcDbDictionary
  3
ACAD_GROUP
350
D
  3
ACAD_LAYOUT
350
174
  3
ACAD_MLINESTYLE
350
E
  3
ACAD_PLOTSETTINGS
350
175
  3
ACAD_PLOTSTYLENAME
350
172
  3
ACDBHEADERROUNDTRIPXREC
350
2EE
  3
ACDBVARIABLEDICTIONARY
350
1D5
  0
DICTIONARY
  5
1CF
330
18
100
AcDbDictionary
280
     1
  3
ACAD_LAYOUTSELFREF
360
30F
  0
DICTIONARY
  5
1CD
330
15
100
AcDbDictionary
280
     1
  3
ACAD_LAYOUTSELFREF
360
30E
  0
DICTIONARY
  5
D
102
{ACAD_REACTORS
330
C
102
}
330
C
100
AcDbDictionary
  0
DICTIONARY
  5
174
102
{ACAD_REACTORS
330
C
102
}
330
C
100
AcDbDictionary
  0
DICTIONARY
  5
E
102
{ACAD_REACTORS
330
C
102
}
330
C
100
AcDbDictionary
  3
STANDARD
350
1B
  0
DICTIONARY
  5
175
102
{ACAD_REACTORS
330
C
102
}
330
C
100
AcDbDictionary
  0
ACDBDICTIONARYWDFLT
  5
172
102
{ACAD_REACTORS
330
C
102
}
330
C
100
AcDbDictionary
281
     1
  3
Normal
350
173
100
AcDbDictionaryWithDefault
340
173
  0
DICTIONARY
  5
2EE
102
{ACAD_REACTORS
330
C
102
}
330
C
100
AcDbDictionary
  3
CEPSNTYPE
350
2F8
  3
FINGERPRINTGUID
350
2F9
  3
HYPERLINKBASE
350
2F1
  3
INSUNITS
350
2F7
  3
LAYOUTDICT
350
2F3
  3
LWETCUNION
350
2F6
  3
PLOTSETDICT
350
2F4
  3
PLOTSTYLNAMDICT
350
2F5
  3
PSVPSCALE
350
2FB
  3
PUCSBASE
350
2FE
  3
PUCSORGBACK
350
304
  3
PUCSORGBOTTOM
350
300
  3
PUCSORGFRONT
350
303
  3
PUCSORGLEFT
350
301
  3
PUCSORGRIGHT
350
302
  3
PUCSORGTOP
350
2FF
  3
PUCSORTHOREF
350
2FC
  3
PUCSORTHOVIEW
350
2FD
  3
STYLESHEET
350
2F2
  3
TSTACKALIGN
350
2EF
  3
TSTACKSIZE
350
2F0
  3
UCSBASE
350
307
  3
UCSORGBACK
350
30D
  3
UCSORGBOTTOM
350
309
  3
UCSORGFRONT
350
30C
  3
UCSORGLEFT
350
30A
  3
UCSORGRIGHT
350
30B
  3
UCSORGTOP
350
308
  3
UCSORTHOREF
350
305
  3
UCSORTHOVIEW
350
306
  3
VERSIONGUID
350
2FA
  0
DICTIONARY
  5
1D5
102
{ACAD_REACTORS
330
C
102
}
330
C
100
AcDbDictionary
  3
DIMASSOC
350
1D6
  0
XRECORD
  5
30F
102
{ACAD_REACTORS
330
1CF
102
}
330
1CF
100
AcDbXrecord
340
18
  0
XRECORD
  5
30E
102
{ACAD_REACTORS
330
1CD
102
}
330
1CD
100
AcDbXrecord
340
15
  0
MLINESTYLE
  5
1B
102
{ACAD_REACTORS
330
E
102
}
330
E
100
AcDbMlineStyle
  2
STANDARD
 70
     0
  3

 62
     0
 51
90.0
 52
90.0
 71
     2
 49
0.5
 62
   256
  6
BYLAYER
 49
-0.5
 62
   256
  6
BYLAYER
  0
ACDBPLACEHOLDER
  5
173
102
{ACAD_REACTORS
330
172
102
}
330
172
100
AcDbPlaceHolder
280
     0
  0
XRECORD
  5
2F8
102
{ACAD_REACTORS
330
2EE
102
}
330
2EE
100
AcDbXrecord
 90
        0
  0
XRECORD
  5
2F9
102
{ACAD_REACTORS
330
2EE
102
}
330
2EE
100
AcDbXrecord
  1
{4CD4CEF4-3B58-4DB2-9C52-0B47FF936369}
  0
XRECORD
  5
2F1
102
{ACAD_REACTORS
330
2EE
102
}
330
2EE
100
AcDbXrecord
  1

  0
XRECORD
  5
2F7
102
{ACAD_REACTORS
330
2EE
102
}
330
2EE
100
AcDbXrecord
 90
        0
  0
XRECORD
  5
2F3
102
{ACAD_REACTORS
330
2EE
102
}
330
2EE
100
AcDbXrecord
340
174
  0
XRECORD
  5
2F6
102
{ACAD_REACTORS
330
2EE
102
}
330
2EE
100
AcDbXrecord
 90
    14877
  0
XRECORD
  5
2F4
102
{ACAD_REACTORS
330
2EE
102
}
330
2EE
100
AcDbXrecord
340
175
  0
XRECORD
  5
2F5
102
{ACAD_REACTORS
330
2EE
102
}
330
2EE
100
AcDbXrecord
340
172
  0
XRECORD
  5
2FB
102
{ACAD_REACTORS
330
2EE
102
}
330
2EE
100
AcDbXrecord
 40
0.0
  0
XRECORD
  5
2FE
102
{ACAD_REACTORS
330
2EE
102
}
330
2EE
100
AcDbXrecord
340
0
  0
XRECORD
  5
304
102
{ACAD_REACTORS
330
2EE
102
}
330
2EE
100
AcDbXrecord
 10
0.0
 20
0.0
 30
0.0
  0
XRECORD
  5
300
102
{ACAD_REACTORS
330
2EE
102
}
330
2EE
100
AcDbXrecord
 10
0.0
 20
0.0
 30
0.0
  0
XRECORD
  5
303
102
{ACAD_REACTORS
330
2EE
102
}
330
2EE
100
AcDbXrecord
 10
0.0
 20
0.0
 30
0.0
  0
XRECORD
  5
301
102
{ACAD_REACTORS
330
2EE
102
}
330
2EE
100
AcDbXrecord
 10
0.0
 20
0.0
 30
0.0
  0
XRECORD
  5
302
102
{ACAD_REACTORS
330
2EE
102
}
330
2EE
100
AcDbXrecord
 10
0.0
 20
0.0
 30
0.0
  0
XRECORD
  5
2FF
102
{ACAD_REACTORS
330
2EE
102
}
330
2EE
100
AcDbXrecord
 10
0.0
 20
0.0
 30
0.0
  0
XRECORD
  5
2FC
102
{ACAD_REACTORS
330
2EE
102
}
330
2EE
100
AcDbXrecord
340
0
  0
XRECORD
  5
2FD
102
{ACAD_REACTORS
330
2EE
102
}
330
2EE
100
AcDbXrecord
 70
     0
  0
XRECORD
  5
2F2
102
{ACAD_REACTORS
330
2EE
102
}
330
2EE
100
AcDbXrecord
  1

  0
XRECORD
  5
2EF
102
{ACAD_REACTORS
330
2EE
102
}
330
2EE
100
AcDbXrecord
 90
        1
  0
XRECORD
  5
2F0
102
{ACAD_REACTORS
330
2EE
102
}
330
2EE
100
AcDbXrecord
 90
       70
  0
XRECORD
  5
307
102
{ACAD_REACTORS
330
2EE
102
}
330
2EE
100
AcDbXrecord
340
0
  0
XRECORD
  5
30D
102
{ACAD_REACTORS
330
2EE
102
}
330
2EE
100
AcDbXrecord
 10
0.0
 20
0.0
 30
0.0
  0
XRECORD
  5
309
102
{ACAD_REACTORS
330
2EE
102
}
330
2EE
100
AcDbXrecord
 10
0.0
 20
0.0
 30
0.0
  0
XRECORD
  5
30C
102
{ACAD_REACTORS
330
2EE
102
}
330
2EE
100
AcDbXrecord
 10
0.0
 20
0.0
 30
0.0
  0
XRECORD
  5
30A
102
{ACAD_REACTORS
330
2EE
102
}
330
2EE
100
AcDbXrecord
 10
0.0
 20
0.0
 30
0.0
  0
XRECORD
  5
30B
102
{ACAD_REACTORS
330
2EE
102
}
330
2EE
100
AcDbXrecord
 10
0.0
 20
0.0
 30
0.0
  0
XRECORD
  5
308
102
{ACAD_REACTORS
330
2EE
102
}
330
2EE
100
AcDbXrecord
 10
0.0
 20
0.0
 30
0.0
  0
XRECORD
  5
305
102
{ACAD_REACTORS
330
2EE
102
}
330
2EE
100
AcDbXrecord
340
0
  0
XRECORD
  5
306
102
{ACAD_REACTORS
330
2EE
102
}
330
2EE
100
AcDbXrecord
 70
     0
  0
XRECORD
  5
2FA
102
{ACAD_REACTORS
330
2EE
102
}
330
2EE
100
AcDbXrecord
  1
{09DA47DD-4ED4-4693-B464-B0478FADC2FE}
  0
DICTIONARYVAR
  5
1D6
102
{ACAD_REACTORS
330
1D5
102
}
330
1D5
100
DictionaryVariables
280
     0
  1
1
  0
ENDSEC
  0
EOF
