  0
SECTION
  2
HEADER
  9
$ACADVER
  1
AC1014
  9
$ACADMAINTVER
 70
     9
  9
$DWGCODEPAGE
  3
ANSI_1252
  9
$INSBASE
 10
24.85584807656079
 20
2.552068987215066
 30
0.0
  9
$EXTMIN
 10
19.30475235317429
 20
1.614575581232127
 30
0.0
  9
$EXTMAX
 10
29.09334589000922
 20
3.7207720738861
 30
0.0
  9
$LIMMIN
 10
0.0
 20
0.0
  9
$LIMMAX
 10
36.0
 20
36.0
  9
$ORTHOMODE
 70
     1
  9
$REGENMODE
 70
     1
  9
$FILLMODE
 70
     1
  9
$QTEXTMODE
 70
     0
  9
$MIRRTEXT
 70
     1
  9
$DRAGMODE
 70
     0
  9
$LTSCALE
 40
1.0
  9
$OSMODE
 70
    37
  9
$ATTMODE
 70
     1
  9
$TEXTSIZE
 40
0.2
  9
$TRACEWID
 40
0.05
  9
$TEXTSTYLE
  7
STANDARD
  9
$CLAYER
  8
0
  9
$CELTYPE
  6
BYLAYER
  9
$CECOLOR
 62
   256
  9
$CELTSCALE
 40
1.0
  9
$DELOBJ
 70
     1
  9
$DISPSILH
 70
     0
  9
$DIMSCALE
 40
1.0
  9
$DIMASZ
 40
0.125
  9
$DIMEXO
 40
0.0625
  9
$DIMDLI
 40
0.38
  9
$DIMRND
 40
0.0
  9
$DIMDLE
 40
0.0
  9
$DIMEXE
 40
0.18
  9
$DIMTP
 40
0.0
  9
$DIMTM
 40
0.0
  9
$DIMTXT
 40
0.125
  9
$DIMCEN
 40
0.1875
  9
$DIMTSZ
 40
0.125
  9
$DIMTOL
 70
     0
  9
$DIMLIM
 70
     0
  9
$DIMTIH
 70
     0
  9
$DIMTOH
 70
     0
  9
$DIMSE1
 70
     0
  9
$DIMSE2
 70
     0
  9
$DIMTAD
 70
     0
  9
$DIMZIN
 70
     3
  9
$DIMBLK
  1

  9
$DIMASO
 70
     1
  9
$DIMSHO
 70
     1
  9
$DIMPOST
  1

  9
$DIMAPOST
  1

  9
$DIMALT
 70
     0
  9
$DIMALTD
 70
     1
  9
$DIMALTF
 40
25.4
  9
$DIMLFAC
 40
1.0
  9
$DIMTOFL
 70
     0
  9
$DIMTVP
 40
0.0
  9
$DIMTIX
 70
     0
  9
$DIMSOXD
 70
     0
  9
$DIMSAH
 70
     0
  9
$DIMBLK1
  1

  9
$DIMBLK2
  1

  9
$DIMSTYLE
  2
STANDARD
  9
$DIMCLRD
 70
     0
  9
$DIMCLRE
 70
     0
  9
$DIMCLRT
 70
     0
  9
$DIMTFAC
 40
1.0
  9
$DIMGAP
 40
0.125
  9
$DIMJUST
 70
     0
  9
$DIMSD1
 70
     0
  9
$DIMSD2
 70
     0
  9
$DIMTOLJ
 70
     1
  9
$DIMTZIN
 70
     0
  9
$DIMALTZ
 70
     0
  9
$DIMALTTZ
 70
     0
  9
$DIMFIT
 70
     3
  9
$DIMUPT
 70
     0
  9
$DIMUNIT
 70
     2
  9
$DIMDEC
 70
     4
  9
$DIMTDEC
 70
     4
  9
$DIMALTU
 70
     2
  9
$DIMALTTD
 70
     2
  9
$DIMTXSTY
  7
STANDARD
  9
$DIMAUNIT
 70
     0
  9
$LUNITS
 70
     5
  9
$LUPREC
 70
     4
  9
$SKETCHINC
 40
0.1
  9
$FILLETRAD
 40
0.062
  9
$AUNITS
 70
     0
  9
$AUPREC
 70
     0
  9
$MENU
  1
acad
  9
$ELEVATION
 40
0.0
  9
$PELEVATION
 40
0.0
  9
$THICKNESS
 40
0.0
  9
$LIMCHECK
 70
     0
  9
$BLIPMODE
 70
     0
  9
$CHAMFERA
 40
0.0
  9
$CHAMFERB
 40
0.0
  9
$CHAMFERC
 40
0.0
  9
$CHAMFERD
 40
0.0
  9
$SKPOLY
 70
     0
  9
$TDCREATE
 40
2450406.658578507
  9
$TDUPDATE
 40
2452297.088118668
  9
$TDINDWG
 40
0.0276918056
  9
$TDUSRTIMER
 40
0.0276918056
  9
$USRTIMER
 70
     1
  9
$ANGBASE
 50
0.0
  9
$ANGDIR
 70
     0
  9
$PDMODE
 70
     0
  9
$PDSIZE
 40
0.0
  9
$PLINEWID
 40
0.0
  9
$COORDS
 70
     2
  9
$SPLFRAME
 70
     0
  9
$SPLINETYPE
 70
     6
  9
$SPLINESEGS
 70
     8
  9
$ATTDIA
 70
     0
  9
$ATTREQ
 70
     1
  9
$HANDLING
 70
 22529
  9
$HANDSEED
  5
2E7
  9
$SURFTAB1
 70
     6
  9
$SURFTAB2
 70
     6
  9
$SURFTYPE
 70
     6
  9
$SURFU
 70
     6
  9
$SURFV
 70
     6
  9
$UCSNAME
  2

  9
$UCSORG
 10
0.0
 20
0.0
 30
0.0
  9
$UCSXDIR
 10
1.0
 20
0.0
 30
0.0
  9
$UCSYDIR
 10
0.0
 20
1.0
 30
0.0
  9
$PUCSNAME
  2

  9
$PUCSORG
 10
0.0
 20
0.0
 30
0.0
  9
$PUCSXDIR
 10
1.0
 20
0.0
 30
0.0
  9
$PUCSYDIR
 10
0.0
 20
1.0
 30
0.0
  9
$USERI1
 70
     0
  9
$USERI2
 70
     0
  9
$USERI3
 70
     0
  9
$USERI4
 70
     0
  9
$USERI5
 70
     0
  9
$USERR1
 40
0.0
  9
$USERR2
 40
0.0
  9
$USERR3
 40
0.0
  9
$USERR4
 40
0.0
  9
$USERR5
 40
0.0
  9
$WORLDVIEW
 70
     1
  9
$SHADEDGE
 70
     3
  9
$SHADEDIF
 70
    70
  9
$TILEMODE
 70
     1
  9
$MAXACTVP
 70
    15
  9
$PINSBASE
 10
0.0008545028977096
 20
1.250283272183907
 30
0.0
  9
$PLIMCHECK
 70
     0
  9
$PEXTMIN
 10
1.000000000000000E+20
 20
1.000000000000000E+20
 30
1.000000000000000E+20
  9
$PEXTMAX
 10
-1.000000000000000E+20
 20
-1.000000000000000E+20
 30
-1.000000000000000E+20
  9
$PLIMMIN
 10
0.0
 20
0.0
  9
$PLIMMAX
 10
12.0
 20
9.0
  9
$UNITMODE
 70
     0
  9
$VISRETAIN
 70
     0
  9
$PLINEGEN
 70
     0
  9
$PSLTSCALE
 70
     1
  9
$TREEDEPTH
 70
  3020
  9
$PICKSTYLE
 70
     1
  9
$CMLSTYLE
  2
STANDARD
  9
$CMLJUST
 70
     0
  9
$CMLSCALE
 40
1.0
  9
$PROXYGRAPHICS
 70
     1
  9
$MEASUREMENT
 70
     0
  0
ENDSEC
  0
SECTION
  2
CLASSES
  0
CLASS
  1
ACDBDICTIONARYWDFLT
  2
AcDbDictionaryWithDefault
  3
AutoCAD 2000
 90
        0
280
     0
281
     0
  0
CLASS
  1
ACDBPLACEHOLDER
  2
AcDbPlaceHolder
  3
AutoCAD 2000
 90
        0
280
     0
281
     0
  0
CLASS
  1
LAYOUT
  2
AcDbLayout
  3
AutoCAD 2000
 90
        0
280
     0
281
     0
  0
CLASS
  1
DICTIONARYVAR
  2
AcDbDictionaryVar
  3
AutoCAD 2000
 90
        0
280
     0
281
     0
  0
CLASS
  1
LONG_TRANSACTION
  2
AcDbLongTransaction
  3
AutoCAD 2000
 90
        0
280
     0
281
     0
  0
CLASS
  1
LWPOLYLINE
  2
AcDbPolyline
  3
AutoCAD 2000
 90
        0
280
     0
281
     1
  0
CLASS
  1
HATCH
  2
AcDbHatch
  3
AutoCAD 2000
 90
        0
280
     0
281
     1
  0
CLASS
  1
XRECORD
  2
AcDbXrecord
  3
AutoCAD 2000
 90
        0
280
     0
281
     0
  0
CLASS
  1
LONG_TRANSACTION
  2
AcDbLongTransaction
  3
AutoCAD 2000
 90
        0
280
     0
281
     0
  0
CLASS
  1
LWPOLYLINE
  2
AcDbPolyline
  3
AutoCAD 2000
 90
        0
280
     0
281
     1
  0
CLASS
  1
HATCH
  2
AcDbHatch
  3
AutoCAD 2000
 90
        0
280
     0
281
     1
  0
CLASS
  1
XRECORD
  2
AcDbXrecord
  3
AutoCAD 2000
 90
        0
280
     0
281
     0
  0
CLASS
  1
LONG_TRANSACTION
  2
AcDbLongTransaction
  3
AutoCAD 2000
 90
        0
280
     0
281
     0
  0
CLASS
  1
LWPOLYLINE
  2
AcDbPolyline
  3
AutoCAD 2000
 90
        0
280
     0
281
     1
  0
CLASS
  1
HATCH
  2
AcDbHatch
  3
AutoCAD 2000
 90
        0
280
     0
281
     1
  0
CLASS
  1
XRECORD
  2
AcDbXrecord
  3
AutoCAD 2000
 90
        0
280
     0
281
     0
  0
CLASS
  1
LONG_TRANSACTION
  2
AcDbLongTransaction
  3
AutoCAD 2000
 90
        0
280
     0
281
     0
  0
CLASS
  1
LWPOLYLINE
  2
AcDbPolyline
  3
AutoCAD 2000
 90
        0
280
     0
281
     1
  0
CLASS
  1
HATCH
  2
AcDbHatch
  3
AutoCAD 2000
 90
        0
280
     0
281
     1
  0
CLASS
  1
XRECORD
  2
AcDbXrecord
  3
AutoCAD 2000
 90
        0
280
     0
281
     0
  0
CLASS
  1
LONG_TRANSACTION
  2
AcDbLongTransaction
  3
AutoCAD 2000
 90
        0
280
     0
281
     0
  0
CLASS
  1
LWPOLYLINE
  2
AcDbPolyline
  3
AutoCAD 2000
 90
        0
280
     0
281
     1
  0
CLASS
  1
HATCH
  2
AcDbHatch
  3
AutoCAD 2000
 90
        0
280
     0
281
     1
  0
CLASS
  1
XRECORD
  2
AcDbXrecord
  3
AutoCAD 2000
 90
        0
280
     0
281
     0
  0
ENDSEC
  0
SECTION
  2
TABLES
  0
TABLE
  2
VPORT
  5
8
330
0
100
AcDbSymbolTable
 70
     2
  0
VPORT
  5
2C4
330
8
100
AcDbSymbolTableRecord
100
AcDbViewportTableRecord
  2
*ACTIVE
 70
     0
 10
0.0
 20
0.0
 11
1.0
 21
1.0
 12
24.20693608417518
 22
2.667922748245469
 13
0.0
 23
0.0
 14
0.5740882589684922
 24
0.5740882589684922
 15
0.5
 25
0.5
 16
0.0
 26
0.0
 36
1.0
 17
0.0
 27
0.0
 37
0.0
 40
6.272876794965069
 41
1.570528967254408
 42
50.0
 43
0.0
 44
0.0
 50
0.0
 51
0.0
 71
     0
 72
   100
 73
     1
 74
     0
 75
     0
 76
     0
 77
     0
 78
     0
  0
ENDTAB
  0
TABLE
  2
LTYPE
  5
5
330
0
100
AcDbSymbolTable
 70
     1
  0
LTYPE
  5
12
330
5
100
AcDbSymbolTableRecord
100
AcDbLinetypeTableRecord
  2
BYBLOCK
 70
     0
  3

 72
    65
 73
     0
 40
0.0
  0
LTYPE
  5
13
330
5
100
AcDbSymbolTableRecord
100
AcDbLinetypeTableRecord
  2
BYLAYER
 70
     0
  3

 72
    65
 73
     0
 40
0.0
  0
LTYPE
  5
14
330
5
100
AcDbSymbolTableRecord
100
AcDbLinetypeTableRecord
  2
CONTINUOUS
 70
     0
  3
Solid line
 72
    65
 73
     0
 40
0.0
  0
ENDTAB
  0
TABLE
  2
LAYER
  5
2
330
0
100
AcDbSymbolTable
 70
     3
  0
LAYER
  5
F
330
2
100
AcDbSymbolTableRecord
100
AcDbLayerTableRecord
  2
0
 70
     0
 62
     7
  6
CONTINUOUS
  0
LAYER
  5
11B
330
2
100
AcDbSymbolTableRecord
100
AcDbLayerTableRecord
  2
DEFPOINTS
 70
     0
 62
     7
  6
CONTINUOUS
  0
LAYER
  5
11E
330
2
100
AcDbSymbolTableRecord
100
AcDbLayerTableRecord
  2
ADPDIM
 70
     0
 62
     3
  6
CONTINUOUS
  0
ENDTAB
  0
TABLE
  2
STYLE
  5
3
330
0
100
AcDbSymbolTable
 70
     2
  0
STYLE
  5
10
330
3
100
AcDbSymbolTableRecord
100
AcDbTextStyleTableRecord
  2
STANDARD
 70
     0
 40
0.0
 41
1.0
 50
0.0
 71
     0
 42
0.2
  3
txt
  4

  0
STYLE
  5
180
330
3
100
AcDbSymbolTableRecord
100
AcDbTextStyleTableRecord
  2
ARIAL_WIDE
 70
     0
 40
0.0
 41
1.25
 50
0.0
 71
     0
 42
0.2
  3
ARIAL.TTF
  4

1001
ACAD
1000
Arial
1071
       34
  0
ENDTAB
  0
TABLE
  2
VIEW
  5
6
330
0
100
AcDbSymbolTable
 70
     0
  0
ENDTAB
  0
TABLE
  2
UCS
  5
7
330
0
100
AcDbSymbolTable
 70
     0
  0
ENDTAB
  0
TABLE
  2
APPID
  5
9
330
0
100
AcDbSymbolTable
 70
     1
  0
APPID
  5
11
330
9
100
AcDbSymbolTableRecord
100
AcDbRegAppTableRecord
  2
ACAD
 70
     0
  0
ENDTAB
  0
TABLE
  2
DIMSTYLE
  5
A
330
0
100
AcDbSymbolTable
 70
     1
  0
DIMSTYLE
105
174
330
A
100
AcDbSymbolTableRecord
100
AcDbDimStyleTableRecord
  2
STANDARD
 70
     0
  3

  4

  5

  6

  7

 40
1.0
 41
0.18
 42
0.0625
 43
0.38
 44
0.18
 45
0.0
 46
0.0
 47
0.0
 48
0.0
140
0.18
141
0.09
142
0.0
143
25.4
144
1.0
145
0.0
146
1.0
147
0.09
 71
     0
 72
     0
 73
     1
 74
     1
 75
     0
 76
     0
 77
     0
 78
     0
170
     0
171
     2
172
     0
173
     0
174
     0
175
     0
176
     0
177
     0
178
     0
270
     2
271
     4
272
     4
273
     2
274
     2
340
10
275
     0
280
     0
281
     0
282
     0
283
     1
284
     0
285
     0
286
     0
287
     3
288
     0
  0
ENDTAB
  0
TABLE
  2
BLOCK_RECORD
  5
1
330
0
100
AcDbSymbolTable
 70
     2
  0
BLOCK_RECORD
  5
18
102
{ACAD_XDICTIONARY
360
1D5
102
}
330
1
100
AcDbSymbolTableRecord
100
AcDbBlockTableRecord
  2
*MODEL_SPACE
  0
BLOCK_RECORD
  5
15
102
{ACAD_XDICTIONARY
360
1D3
102
}
330
1
100
AcDbSymbolTableRecord
100
AcDbBlockTableRecord
  2
*PAPER_SPACE
  0
BLOCK_RECORD
  5
114
330
1
100
AcDbSymbolTableRecord
100
AcDbBlockTableRecord
  2
*D0
  0
BLOCK_RECORD
  5
115
330
1
100
AcDbSymbolTableRecord
100
AcDbBlockTableRecord
  2
*D1
  0
ENDTAB
  0
ENDSEC
  0
SECTION
  2
BLOCKS
  0
BLOCK
  5
121
330
18
100
AcDbEntity
  8
0
100
AcDbBlockBegin
  2
*MODEL_SPACE
 70
     0
 10
0.0
 20
0.0
 30
0.0
  3
*MODEL_SPACE
  1

  0
ENDBLK
  5
122
330
18
100
AcDbEntity
  8
0
100
AcDbBlockEnd
  0
BLOCK
  5
11F
330
15
100
AcDbEntity
 67
     1
  8
0
100
AcDbBlockBegin
  2
*PAPER_SPACE
 70
     0
 10
0.0
 20
0.0
 30
0.0
  3
*PAPER_SPACE
  1

  0
ENDBLK
  5
120
330
15
100
AcDbEntity
 67
     1
  8
0
100
AcDbBlockEnd
  0
BLOCK
  5
124
330
114
100
AcDbEntity
  8
0
100
AcDbBlockBegin
  2
*D0
 70
     1
 10
0.0
 20
0.0
 30
0.0
  3
*D0
  1

  0
LINE
  5
125
330
114
100
AcDbEntity
  8
0
  6
BYBLOCK
 62
     0
100
AcDbLine
 10
23.54578175461706
 20
2.436427921330719
 30
0.0
 11
23.54578175461706
 21
2.067572934627055
 31
0.0
  0
LINE
  5
126
330
114
100
AcDbEntity
  8
0
  6
BYBLOCK
 62
     0
100
AcDbLine
 10
24.85353392953529
 20
2.436427921330719
 30
0.0
 11
24.85353392953529
 21
2.067572934627055
 31
0.0
  0
LINE
  5
127
330
114
100
AcDbEntity
  8
0
  6
BYBLOCK
 62
     0
100
AcDbLine
 10
23.54578175461706
 20
2.247572934627056
 30
0.0
 11
23.29578175461706
 21
2.247572934627056
 31
0.0
  0
LINE
  5
128
330
114
100
AcDbEntity
  8
0
  6
BYBLOCK
 62
     0
100
AcDbLine
 10
24.85353392953529
 20
2.247572934627056
 30
0.0
 11
25.10353392953529
 21
2.247572934627056
 31
0.0
  0
LINE
  5
129
330
114
100
AcDbEntity
  8
0
  6
BYBLOCK
 62
     0
100
AcDbLine
 10
23.42078175461706
 20
2.122572934627056
 30
0.0
 11
23.67078175461706
 21
2.372572934627056
 31
0.0
  0
LINE
  5
12A
330
114
100
AcDbEntity
  8
0
  6
BYBLOCK
 62
     0
100
AcDbLine
 10
24.72853392953529
 20
2.122572934627056
 30
0.0
 11
24.97853392953528
 21
2.372572934627056
 31
0.0
  0
TEXT
  5
12B
330
114
100
AcDbEntity
  8
0
  6
BYBLOCK
 62
     0
100
AcDbText
 10
25.22853392953528
 20
2.185072934627056
 30
0.0
 40
0.125
  1
1 5/16
 72
     1
 11
25.54103392953528
 21
2.247572934627056
 31
0.0
100
AcDbText
 73
     2
  0
POINT
  5
12C
330
114
100
AcDbEntity
  8
DEFPOINTS
  6
BYBLOCK
 62
     0
100
AcDbPoint
 10
23.54578175461706
 20
2.498927921330719
 30
0.0
  0
POINT
  5
12D
330
114
100
AcDbEntity
  8
DEFPOINTS
  6
BYBLOCK
 62
     0
100
AcDbPoint
 10
24.85353392953529
 20
2.498927921330719
 30
0.0
  0
POINT
  5
12E
330
114
100
AcDbEntity
  8
DEFPOINTS
  6
BYBLOCK
 62
     0
100
AcDbPoint
 10
24.85353392953529
 20
2.247572934627056
 30
0.0
  0
ENDBLK
  5
12F
330
114
100
AcDbEntity
  8
0
100
AcDbBlockEnd
  0
BLOCK
  5
130
330
115
100
AcDbEntity
  8
0
100
AcDbBlockBegin
  2
*D1
 70
     1
 10
0.0
 20
0.0
 30
0.0
  3
*D1
  1

  0
LINE
  5
131
330
115
100
AcDbEntity
  8
0
  6
BYBLOCK
 62
     0
100
AcDbLine
 10
23.23141821052267
 20
2.775079567909018
 30
0.0
 11
23.23141821052267
 21
3.7207720738861
 31
0.0
  0
LINE
  5
132
330
115
100
AcDbEntity
  8
0
  6
BYBLOCK
 62
     0
100
AcDbLine
 10
25.16789747362968
 20
2.775079567909018
 30
0.0
 11
25.16789747362968
 21
3.7207720738861
 31
0.0
  0
LINE
  5
133
330
115
100
AcDbEntity
  8
0
  6
BYBLOCK
 62
     0
100
AcDbLine
 10
23.23141821052267
 20
3.5407720738861
 30
0.0
 11
23.7204911754095
 21
3.5407720738861
 31
0.0
  0
LINE
  5
134
330
115
100
AcDbEntity
  8
0
  6
BYBLOCK
 62
     0
100
AcDbLine
 10
25.16789747362968
 20
3.5407720738861
 30
0.0
 11
24.67882450874284
 21
3.5407720738861
 31
0.0
  0
LINE
  5
135
330
115
100
AcDbEntity
  8
0
  6
BYBLOCK
 62
     0
100
AcDbLine
 10
23.10641821052267
 20
3.4157720738861
 30
0.0
 11
23.35641821052266
 21
3.6657720738861
 31
0.0
  0
LINE
  5
136
330
115
100
AcDbEntity
  8
0
  6
BYBLOCK
 62
     0
100
AcDbLine
 10
25.04289747362967
 20
3.4157720738861
 30
0.0
 11
25.29289747362968
 21
3.6657720738861
 31
0.0
  0
TEXT
  5
137
330
115
100
AcDbEntity
  8
0
  6
BYBLOCK
 62
     0
100
AcDbText
 10
23.8454911754095
 20
3.4782720738861
 30
0.0
 40
0.125
  1
1 15/16
 72
     1
 11
24.19965784207617
 21
3.5407720738861
 31
0.0
100
AcDbText
 73
     2
  0
POINT
  5
138
330
115
100
AcDbEntity
  8
DEFPOINTS
  6
BYBLOCK
 62
     0
100
AcDbPoint
 10
23.23141821052267
 20
2.712579567909018
 30
0.0
  0
POINT
  5
139
330
115
100
AcDbEntity
  8
DEFPOINTS
  6
BYBLOCK
 62
     0
100
AcDbPoint
 10
25.16789747362968
 20
2.712579567909018
 30
0.0
  0
POINT
  5
13A
330
115
100
AcDbEntity
  8
DEFPOINTS
  6
BYBLOCK
 62
     0
100
AcDbPoint
 10
25.16789747362968
 20
3.5407720738861
 30
0.0
  0
ENDBLK
  5
13B
330
115
100
AcDbEntity
  8
0
100
AcDbBlockEnd
  0
ENDSEC
  0
SECTION
  2
ENTITIES
  0
DIMENSION
  5
13C
330
18
100
AcDbEntity
  8
ADPDIM
100
AcDbDimension
  2
*D0
 10
24.85353392953529
 20
2.247572934627056
 30
0.0
 11
25.54103392953528
 21
2.247572934627056
 31
0.0
100
AcDbAlignedDimension
 13
23.54578175461706
 23
2.498927921330719
 33
0.0
 14
24.85353392953529
 24
2.498927921330719
 34
0.0
100
AcDbRotatedDimension
  0
ARC
  5
13D
330
18
100
AcDbEntity
  8
0
100
AcDbCircle
 10
23.40345263958345
 20
2.876020442002418
 30
0.0
 40
0.172
100
AcDbArc
 50
90.0
 51
253.104702282975
  0
DIMENSION
  5
13E
330
18
100
AcDbEntity
  8
ADPDIM
100
AcDbDimension
  2
*D1
 10
25.16789747362968
 20
3.5407720738861
 30
0.0
 11
24.19965784207617
 21
3.5407720738861
 31
0.0
100
AcDbAlignedDimension
 13
23.23141821052267
 23
2.712579567909018
 33
0.0
 14
25.16789747362968
 24
2.712579567909018
 34
0.0
100
AcDbRotatedDimension
  0
ARC
  5
13F
330
18
100
AcDbEntity
  8
0
100
AcDbCircle
 10
25.0287716818985
 20
3.882488882316246
 30
0.0
 40
0.9840000000000001
100
AcDbArc
 50
233.1988482725507
 51
257.1521951816525
  0
ARC
  5
140
330
18
100
AcDbEntity
  8
0
100
AcDbCircle
 10
24.19486912310411
 20
2.539879331389142
 30
0.0
 40
0.7541535398112679
100
AcDbArc
 50
57.04337547303786
 51
89.6603091965869
  0
ARC
  5
141
330
18
100
AcDbEntity
  8
0
100
AcDbCircle
 10
23.47741401674993
 20
3.767855151393936
 30
0.0
 40
0.6739279713431704
100
AcDbArc
 50
270.728306387485
 51
297.9754350771305
  0
ARC
  5
142
330
18
100
AcDbEntity
  8
0
100
AcDbCircle
 10
23.36990884673413
 20
3.882488882316246
 30
0.0
 40
0.9840000000000001
100
AcDbArc
 50
282.8478048183474
 51
306.8011517274492
  0
ARC
  5
143
330
18
100
AcDbEntity
  8
0
100
AcDbCircle
 10
23.64783245207184
 20
2.789126130565624
 30
0.0
 40
0.02
100
AcDbArc
 50
0.000000000000007
 51
90.0
  0
LINE
  5
144
330
18
100
AcDbEntity
  8
0
100
AcDbLine
 10
23.64783245207184
 20
2.809126130565624
 30
0.0
 11
23.59783245207184
 21
2.809126130565624
 31
0.0
  0
ARC
  5
145
330
18
100
AcDbEntity
  8
0
100
AcDbCircle
 10
23.59783245207184
 20
2.864126130565624
 30
0.0
 40
0.055
100
AcDbArc
 50
180.0
 51
270.0
  0
LINE
  5
146
330
18
100
AcDbEntity
  8
0
100
AcDbLine
 10
23.54283245207184
 20
2.864126130565624
 30
0.0
 11
23.54283245207184
 21
2.865601257606827
 31
0.0
  0
ARC
  5
147
330
18
100
AcDbEntity
  8
0
100
AcDbCircle
 10
23.60183245207184
 20
2.865601257606827
 30
0.0
 40
0.059
100
AcDbArc
 50
102.8478048183471
 51
180.0
  0
ARC
  5
148
330
18
100
AcDbEntity
  8
0
100
AcDbCircle
 10
23.48623453666121
 20
3.073983241138923
 30
0.0
 40
0.02
100
AcDbArc
 50
90.72830638748687
 51
180.0911363201223
  0
LINE
  5
149
330
18
100
AcDbEntity
  8
0
100
AcDbLine
 10
23.46623456196221
 20
3.07395142857525
 30
0.0
 11
23.46627580857246
 21
3.048020442002419
 31
0.0
  0
LINE
  5
14A
330
18
100
AcDbEntity
  8
0
100
AcDbLine
 10
23.40345263958345
 20
3.048020442002419
 30
0.0
 11
23.46627580857246
 21
3.048020442002419
 31
0.0
  0
LINE
  5
14B
330
18
100
AcDbEntity
  8
0
100
AcDbLine
 10
23.46729361382541
 20
3.094581062036696
 30
0.0
 11
23.46577447728035
 21
3.094581062036696
 31
0.0
  0
LINE
  5
14C
330
18
100
AcDbEntity
  8
0
100
AcDbLine
 10
23.46729361382541
 20
3.094581062036696
 30
0.0
 11
23.46620263958345
 21
3.094020442002418
 31
0.0
  0
ARC
  5
14D
330
18
100
AcDbEntity
  8
0
100
AcDbCircle
 10
23.64783245207184
 20
2.711126130565625
 30
0.0
 40
0.02
100
AcDbArc
 50
270.0
 51
0.000000000000007
  0
LINE
  5
14E
330
18
100
AcDbEntity
  8
0
100
AcDbLine
 10
23.56283245207184
 20
2.691126130565625
 30
0.0
 11
23.64783245207184
 21
2.691126130565625
 31
0.0
  0
ARC
  5
14F
330
18
100
AcDbEntity
  8
0
100
AcDbCircle
 10
23.56283245207184
 20
2.671126130565622
 30
0.0
 40
0.02
100
AcDbArc
 50
90.0
 51
180.0
  0
LINE
  5
150
330
18
100
AcDbEntity
  8
0
100
AcDbLine
 10
23.54283245207184
 20
2.552068987215066
 30
0.0
 11
23.54283245207184
 21
2.671126130565622
 31
0.0
  0
LINE
  5
151
330
18
100
AcDbEntity
  8
0
100
AcDbLine
 10
23.52278471784113
 20
2.532069044179068
 30
0.0
 11
23.43747634825668
 21
2.532272651228742
 31
0.0
  0
ARC
  5
152
330
18
100
AcDbEntity
  8
0
100
AcDbCircle
 10
23.43752408248739
 20
2.552272594264743
 30
0.0
 40
0.02
100
AcDbArc
 50
183.857940632985
 51
269.863251372273
  0
ARC
  5
153
330
18
100
AcDbEntity
  8
0
100
AcDbCircle
 10
23.13720616705651
 20
2.532020442002421
 30
0.0
 40
0.281
100
AcDbArc
 50
3.857940632984876
 51
39.68150569509933
  0
ARC
  5
154
330
18
100
AcDbEntity
  8
0
100
AcDbCircle
 10
23.52283245207184
 20
2.552068987215066
 30
0.0
 40
0.02
100
AcDbArc
 50
269.8632513722717
 51
0.000000000000007
  0
LINE
  5
155
330
18
100
AcDbEntity
  8
0
100
AcDbLine
 10
23.66783245207184
 20
2.711126130565625
 30
0.0
 11
23.66783245207184
 21
2.789126130565624
 31
0.0
  0
LWPOLYLINE
  5
156
330
18
100
AcDbEntity
  8
0
100
AcDbPolyline
 90
        2
 70
     0
 43
0.0
 10
24.19963140704088
 20
3.094581062036696
 10
23.95936390587124
 20
3.094581062036696
  0
LWPOLYLINE
  5
15A
330
18
100
AcDbEntity
  8
0
100
AcDbPolyline
 90
        2
 70
     0
 43
0.0
 10
24.19904912159175
 20
3.094581062036696
 10
24.43931662276139
 20
3.094581062036696
  0
ARC
  5
15E
330
18
100
AcDbEntity
  8
0
100
AcDbCircle
 10
24.20381140552851
 20
2.539879331389142
 30
0.0
 40
0.7541535398112679
100
AcDbArc
 50
90.33969080341311
 51
122.9566245269621
  0
ARC
  5
15F
330
18
100
AcDbEntity
  8
0
100
AcDbCircle
 10
24.9212665118827
 20
3.767855151393936
 30
0.0
 40
0.6739279713431704
100
AcDbArc
 50
242.0245649228694
 51
269.2716936125149
  0
ARC
  5
160
330
18
100
AcDbEntity
  8
0
100
AcDbCircle
 10
25.26147436157611
 20
2.532020442002421
 30
0.0
 40
0.281
100
AcDbArc
 50
140.3184943049006
 51
176.1420593670151
  0
ARC
  5
161
330
18
100
AcDbEntity
  8
0
100
AcDbCircle
 10
24.99522788904917
 20
2.876020442002418
 30
0.0
 40
0.172
100
AcDbArc
 50
286.8952977170248
 51
90.0
  0
ARC
  5
162
330
18
100
AcDbEntity
  8
0
100
AcDbCircle
 10
24.79684807656079
 20
2.865601257606827
 30
0.0
 40
0.059
100
AcDbArc
 50
0.0
 51
77.15219518165287
  0
ARC
  5
163
330
18
100
AcDbEntity
  8
0
100
AcDbCircle
 10
24.80084807656079
 20
2.864126130565624
 30
0.0
 40
0.055
100
AcDbArc
 50
270.0
 51
0.0
  0
LINE
  5
164
330
18
100
AcDbEntity
  8
0
100
AcDbLine
 10
24.75084807656079
 20
2.809126130565624
 30
0.0
 11
24.80084807656079
 21
2.809126130565624
 31
0.0
  0
LINE
  5
165
330
18
100
AcDbEntity
  8
0
100
AcDbLine
 10
24.85584807656079
 20
2.864126130565624
 30
0.0
 11
24.85584807656079
 21
2.865601257606827
 31
0.0
  0
LINE
  5
166
330
18
100
AcDbEntity
  8
0
100
AcDbLine
 10
24.93138691480721
 20
3.094581062036696
 30
0.0
 11
24.93247788904917
 21
3.094020442002418
 31
0.0
  0
LINE
  5
167
330
18
100
AcDbEntity
  8
0
100
AcDbLine
 10
24.93244596667041
 20
3.07395142857525
 30
0.0
 11
24.93240472006017
 21
3.048020442002419
 31
0.0
  0
LINE
  5
168
330
18
100
AcDbEntity
  8
0
100
AcDbLine
 10
24.93138691480721
 20
3.094581062036696
 30
0.0
 11
24.93290605135228
 21
3.094581062036696
 31
0.0
  0
LINE
  5
169
330
18
100
AcDbEntity
  8
0
100
AcDbLine
 10
24.99522788904917
 20
3.048020442002419
 30
0.0
 11
24.93240472006017
 21
3.048020442002419
 31
0.0
  0
ARC
  5
16A
330
18
100
AcDbEntity
  8
0
100
AcDbCircle
 10
24.91244599197141
 20
3.073983241138923
 30
0.0
 40
0.02
100
AcDbArc
 50
359.9088636798776
 51
89.27169361251312
  0
LINE
  5
16B
330
18
100
AcDbEntity
  8
0
100
AcDbLine
 10
24.83584807656079
 20
2.691126130565625
 30
0.0
 11
24.75084807656079
 21
2.691126130565625
 31
0.0
  0
LINE
  5
16C
330
18
100
AcDbEntity
  8
0
100
AcDbLine
 10
24.85584807656079
 20
2.552068987215066
 30
0.0
 11
24.85584807656079
 21
2.671126130565622
 31
0.0
  0
LINE
  5
16D
330
18
100
AcDbEntity
  8
0
100
AcDbLine
 10
24.87589581079149
 20
2.532069044179068
 30
0.0
 11
24.96120418037595
 21
2.532272651228742
 31
0.0
  0
ARC
  5
16E
330
18
100
AcDbEntity
  8
0
100
AcDbCircle
 10
24.96115644614524
 20
2.552272594264743
 30
0.0
 40
0.02
100
AcDbArc
 50
270.1367486277269
 51
356.1420593670149
  0
ARC
  5
16F
330
18
100
AcDbEntity
  8
0
100
AcDbCircle
 10
24.87584807656078
 20
2.552068987215066
 30
0.0
 40
0.02
100
AcDbArc
 50
180.0
 51
270.1367486277282
  0
ARC
  5
170
330
18
100
AcDbEntity
  8
0
100
AcDbCircle
 10
24.83584807656079
 20
2.671126130565622
 30
0.0
 40
0.02
100
AcDbArc
 50
0.0
 51
90.0
  0
LINE
  5
171
330
18
100
AcDbEntity
  8
0
100
AcDbLine
 10
24.73084807656078
 20
2.711126130565625
 30
0.0
 11
24.73084807656078
 21
2.789126130565624
 31
0.0
  0
ARC
  5
172
330
18
100
AcDbEntity
  8
0
100
AcDbCircle
 10
24.75084807656079
 20
2.711126130565625
 30
0.0
 40
0.02
100
AcDbArc
 50
180.0
 51
270.0
  0
ARC
  5
173
330
18
100
AcDbEntity
  8
0
100
AcDbCircle
 10
24.75084807656079
 20
2.789126130565624
 30
0.0
 40
0.02
100
AcDbArc
 50
90.0
 51
180.0
  0
TEXT
  5
181
330
18
100
AcDbEntity
  8
ADPDIM
100
AcDbText
 10
19.30475235317429
 20
1.642329674001568
 30
0.0
 40
0.09375
  1
J U L I U S  B L U M  &  C O . ,  I N C .      ( 8 0 0 )  5 2 6 - 6 2 9 3        W W W . J U L I U S B L U M . C O M        P A R T  N o .  4 5 3 6
 41
1.25
  7
ARIAL_WIDE
 72
     1
 11
24.19904912159175
 21
1.736079674001568
 31
0.0
100
AcDbText
 73
     3
  0
ENDSEC
  0
SECTION
  2
OBJECTS
  0
DICTIONARY
  5
C
330
0
100
AcDbDictionary
  3
ACAD_GROUP
350
D
  3
ACAD_LAYOUT
350
17A
  3
ACAD_MLINESTYLE
350
E
  3
ACAD_PLOTSETTINGS
350
17B
  3
ACAD_PLOTSTYLENAME
350
178
  3
ACDBHEADERROUNDTRIPXREC
350
2C5
  3
ACDBVARIABLEDICTIONARY
350
1DB
  0
DICTIONARY
  5
1D5
330
18
100
AcDbDictionary
280
     1
  3
ACAD_LAYOUTSELFREF
360
2E6
  0
DICTIONARY
  5
1D3
330
15
100
AcDbDictionary
280
     1
  3
ACAD_LAYOUTSELFREF
360
2E5
  0
DICTIONARY
  5
D
102
{ACAD_REACTORS
330
C
102
}
330
C
100
AcDbDictionary
  0
DICTIONARY
  5
17A
102
{ACAD_REACTORS
330
C
102
}
330
C
100
AcDbDictionary
  0
DICTIONARY
  5
E
102
{ACAD_REACTORS
330
C
102
}
330
C
100
AcDbDictionary
  3
STANDARD
350
1B
  0
DICTIONARY
  5
17B
102
{ACAD_REACTORS
330
C
102
}
330
C
100
AcDbDictionary
  0
ACDBDICTIONARYWDFLT
  5
178
102
{ACAD_REACTORS
330
C
102
}
330
C
100
AcDbDictionary
281
     1
  3
Normal
350
179
100
AcDbDictionaryWithDefault
340
179
  0
DICTIONARY
  5
2C5
102
{ACAD_REACTORS
330
C
102
}
330
C
100
AcDbDictionary
  3
CEPSNTYPE
350
2CF
  3
FINGERPRINTGUID
350
2D0
  3
HYPERLINKBASE
350
2C8
  3
INSUNITS
350
2CE
  3
LAYOUTDICT
350
2CA
  3
LWETCUNION
350
2CD
  3
PLOTSETDICT
350
2CB
  3
PLOTSTYLNAMDICT
350
2CC
  3
PSVPSCALE
350
2D2
  3
PUCSBASE
350
2D5
  3
PUCSORGBACK
350
2DB
  3
PUCSORGBOTTOM
350
2D7
  3
PUCSORGFRONT
350
2DA
  3
PUCSORGLEFT
350
2D8
  3
PUCSORGRIGHT
350
2D9
  3
PUCSORGTOP
350
2D6
  3
PUCSORTHOREF
350
2D3
  3
PUCSORTHOVIEW
350
2D4
  3
STYLESHEET
350
2C9
  3
TSTACKALIGN
350
2C6
  3
TSTACKSIZE
350
2C7
  3
UCSBASE
350
2DE
  3
UCSORGBACK
350
2E4
  3
UCSORGBOTTOM
350
2E0
  3
UCSORGFRONT
350
2E3
  3
UCSORGLEFT
350
2E1
  3
UCSORGRIGHT
350
2E2
  3
UCSORGTOP
350
2DF
  3
UCSORTHOREF
350
2DC
  3
UCSORTHOVIEW
350
2DD
  3
VERSIONGUID
350
2D1
  0
DICTIONARY
  5
1DB
102
{ACAD_REACTORS
330
C
102
}
330
C
100
AcDbDictionary
  3
DIMASSOC
350
1DC
  0
XRECORD
  5
2E6
102
{ACAD_REACTORS
330
1D5
102
}
330
1D5
100
AcDbXrecord
340
18
  0
XRECORD
  5
2E5
102
{ACAD_REACTORS
330
1D3
102
}
330
1D3
100
AcDbXrecord
340
15
  0
MLINESTYLE
  5
1B
102
{ACAD_REACTORS
330
E
102
}
330
E
100
AcDbMlineStyle
  2
STANDARD
 70
     0
  3

 62
     0
 51
90.0
 52
90.0
 71
     2
 49
0.5
 62
   256
  6
BYLAYER
 49
-0.5
 62
   256
  6
BYLAYER
  0
ACDBPLACEHOLDER
  5
179
102
{ACAD_REACTORS
330
178
102
}
330
178
100
AcDbPlaceHolder
280
     0
  0
XRECORD
  5
2CF
102
{ACAD_REACTORS
330
2C5
102
}
330
2C5
100
AcDbXrecord
 90
        0
  0
XRECORD
  5
2D0
102
{ACAD_REACTORS
330
2C5
102
}
330
2C5
100
AcDbXrecord
  1
{6298C2ED-7358-4739-84AF-A15E5332A6B9}
  0
XRECORD
  5
2C8
102
{ACAD_REACTORS
330
2C5
102
}
330
2C5
100
AcDbXrecord
  1

  0
XRECORD
  5
2CE
102
{ACAD_REACTORS
330
2C5
102
}
330
2C5
100
AcDbXrecord
 90
        0
  0
XRECORD
  5
2CA
102
{ACAD_REACTORS
330
2C5
102
}
330
2C5
100
AcDbXrecord
340
17A
  0
XRECORD
  5
2CD
102
{ACAD_REACTORS
330
2C5
102
}
330
2C5
100
AcDbXrecord
 90
    14877
  0
XRECORD
  5
2CB
102
{ACAD_REACTORS
330
2C5
102
}
330
2C5
100
AcDbXrecord
340
17B
  0
XRECORD
  5
2CC
102
{ACAD_REACTORS
330
2C5
102
}
330
2C5
100
AcDbXrecord
340
178
  0
XRECORD
  5
2D2
102
{ACAD_REACTORS
330
2C5
102
}
330
2C5
100
AcDbXrecord
 40
0.0
  0
XRECORD
  5
2D5
102
{ACAD_REACTORS
330
2C5
102
}
330
2C5
100
AcDbXrecord
340
0
  0
XRECORD
  5
2DB
102
{ACAD_REACTORS
330
2C5
102
}
330
2C5
100
AcDbXrecord
 10
0.0
 20
0.0
 30
0.0
  0
XRECORD
  5
2D7
102
{ACAD_REACTORS
330
2C5
102
}
330
2C5
100
AcDbXrecord
 10
0.0
 20
0.0
 30
0.0
  0
XRECORD
  5
2DA
102
{ACAD_REACTORS
330
2C5
102
}
330
2C5
100
AcDbXrecord
 10
0.0
 20
0.0
 30
0.0
  0
XRECORD
  5
2D8
102
{ACAD_REACTORS
330
2C5
102
}
330
2C5
100
AcDbXrecord
 10
0.0
 20
0.0
 30
0.0
  0
XRECORD
  5
2D9
102
{ACAD_REACTORS
330
2C5
102
}
330
2C5
100
AcDbXrecord
 10
0.0
 20
0.0
 30
0.0
  0
XRECORD
  5
2D6
102
{ACAD_REACTORS
330
2C5
102
}
330
2C5
100
AcDbXrecord
 10
0.0
 20
0.0
 30
0.0
  0
XRECORD
  5
2D3
102
{ACAD_REACTORS
330
2C5
102
}
330
2C5
100
AcDbXrecord
340
0
  0
XRECORD
  5
2D4
102
{ACAD_REACTORS
330
2C5
102
}
330
2C5
100
AcDbXrecord
 70
     0
  0
XRECORD
  5
2C9
102
{ACAD_REACTORS
330
2C5
102
}
330
2C5
100
AcDbXrecord
  1

  0
XRECORD
  5
2C6
102
{ACAD_REACTORS
330
2C5
102
}
330
2C5
100
AcDbXrecord
 90
        1
  0
XRECORD
  5
2C7
102
{ACAD_REACTORS
330
2C5
102
}
330
2C5
100
AcDbXrecord
 90
       70
  0
XRECORD
  5
2DE
102
{ACAD_REACTORS
330
2C5
102
}
330
2C5
100
AcDbXrecord
340
0
  0
XRECORD
  5
2E4
102
{ACAD_REACTORS
330
2C5
102
}
330
2C5
100
AcDbXrecord
 10
0.0
 20
0.0
 30
0.0
  0
XRECORD
  5
2E0
102
{ACAD_REACTORS
330
2C5
102
}
330
2C5
100
AcDbXrecord
 10
0.0
 20
0.0
 30
0.0
  0
XRECORD
  5
2E3
102
{ACAD_REACTORS
330
2C5
102
}
330
2C5
100
AcDbXrecord
 10
0.0
 20
0.0
 30
0.0
  0
XRECORD
  5
2E1
102
{ACAD_REACTORS
330
2C5
102
}
330
2C5
100
AcDbXrecord
 10
0.0
 20
0.0
 30
0.0
  0
XRECORD
  5
2E2
102
{ACAD_REACTORS
330
2C5
102
}
330
2C5
100
AcDbXrecord
 10
0.0
 20
0.0
 30
0.0
  0
XRECORD
  5
2DF
102
{ACAD_REACTORS
330
2C5
102
}
330
2C5
100
AcDbXrecord
 10
0.0
 20
0.0
 30
0.0
  0
XRECORD
  5
2DC
102
{ACAD_REACTORS
330
2C5
102
}
330
2C5
100
AcDbXrecord
340
0
  0
XRECORD
  5
2DD
102
{ACAD_REACTORS
330
2C5
102
}
330
2C5
100
AcDbXrecord
 70
     0
  0
XRECORD
  5
2D1
102
{ACAD_REACTORS
330
2C5
102
}
330
2C5
100
AcDbXrecord
  1
{67BC284E-9395-4946-81BF-69D577EA5CDA}
  0
DICTIONARYVAR
  5
1DC
102
{ACAD_REACTORS
330
1DB
102
}
330
1DB
100
DictionaryVariables
280
     0
  1
1
  0
ENDSEC
  0
EOF
