  0
SECTION
  2
HEADER
  9
$ACADVER
  1
AC1015
  9
$ACADMAINTVER
 70
    20
  9
$DWGCODEPAGE
  3
ANSI_1252
  9
$INSBASE
 10
17.73486438553089
 20
2.3548527674919
 30
0.0
  9
$EXTMIN
 10
2.841613856658355
 20
-7.687356771475137
 30
-0.0015258207003583
  9
$EXTMAX
 10
26.25622565841329
 20
5.611229808854645
 30
0.0000000349246037
  9
$LIMMIN
 10
0.0
 20
0.0
  9
$LIMMAX
 10
36.0
 20
36.0
  9
$ORTHOMODE
 70
     1
  9
$REGENMODE
 70
     1
  9
$FILLMODE
 70
     1
  9
$QTEXTMODE
 70
     0
  9
$MIRRTEXT
 70
     1
  9
$LTSCALE
 40
1.0
  9
$ATTMODE
 70
     1
  9
$TEXTSIZE
 40
0.2
  9
$TRACEWID
 40
0.05
  9
$TEXTSTYLE
  7
STANDARD
  9
$CLAYER
  8
ADP1DETAIL
  9
$CELTYPE
  6
BYLAYER
  9
$CECOLOR
 62
   256
  9
$CELTSCALE
 40
1.0
  9
$DISPSILH
 70
     0
  9
$DIMSCALE
 40
1.0
  9
$DIMASZ
 40
0.125
  9
$DIMEXO
 40
0.0625
  9
$DIMDLI
 40
0.38
  9
$DIMRND
 40
0.0
  9
$DIMDLE
 40
0.0
  9
$DIMEXE
 40
0.18
  9
$DIMTP
 40
0.0
  9
$DIMTM
 40
0.0
  9
$DIMTXT
 40
0.125
  9
$DIMCEN
 40
0.1875
  9
$DIMTSZ
 40
0.125
  9
$DIMTOL
 70
     0
  9
$DIMLIM
 70
     0
  9
$DIMTIH
 70
     0
  9
$DIMTOH
 70
     0
  9
$DIMSE1
 70
     0
  9
$DIMSE2
 70
     0
  9
$DIMTAD
 70
     0
  9
$DIMZIN
 70
     3
  9
$DIMBLK
  1

  9
$DIMASO
 70
     1
  9
$DIMSHO
 70
     1
  9
$DIMPOST
  1

  9
$DIMAPOST
  1

  9
$DIMALT
 70
     0
  9
$DIMALTD
 70
     1
  9
$DIMALTF
 40
25.4
  9
$DIMLFAC
 40
1.0
  9
$DIMTOFL
 70
     0
  9
$DIMTVP
 40
0.0
  9
$DIMTIX
 70
     0
  9
$DIMSOXD
 70
     0
  9
$DIMSAH
 70
     0
  9
$DIMBLK1
  1

  9
$DIMBLK2
  1

  9
$DIMSTYLE
  2
STANDARD
  9
$DIMCLRD
 70
     0
  9
$DIMCLRE
 70
     0
  9
$DIMCLRT
 70
     0
  9
$DIMTFAC
 40
1.0
  9
$DIMGAP
 40
0.125
  9
$DIMJUST
 70
     0
  9
$DIMSD1
 70
     0
  9
$DIMSD2
 70
     0
  9
$DIMTOLJ
 70
     1
  9
$DIMTZIN
 70
     0
  9
$DIMALTZ
 70
     0
  9
$DIMALTTZ
 70
     0
  9
$DIMUPT
 70
     0
  9
$DIMDEC
 70
     4
  9
$DIMTDEC
 70
     4
  9
$DIMALTU
 70
     2
  9
$DIMALTTD
 70
     2
  9
$DIMTXSTY
  7
STANDARD
  9
$DIMAUNIT
 70
     0
  9
$DIMADEC
 70
     0
  9
$DIMALTRND
 40
0.0
  9
$DIMAZIN
 70
     0
  9
$DIMDSEP
 70
    46
  9
$DIMATFIT
 70
     3
  9
$DIMFRAC
 70
     0
  9
$DIMLDRBLK
  1

  9
$DIMLUNIT
 70
     2
  9
$DIMLWD
 70
    -2
  9
$DIMLWE
 70
    -2
  9
$DIMTMOVE
 70
     0
  9
$LUNITS
 70
     5
  9
$LUPREC
 70
     4
  9
$SKETCHINC
 40
0.1
  9
$FILLETRAD
 40
0.062
  9
$AUNITS
 70
     0
  9
$AUPREC
 70
     0
  9
$MENU
  1
acad
  9
$ELEVATION
 40
0.0
  9
$PELEVATION
 40
0.0
  9
$THICKNESS
 40
0.0
  9
$LIMCHECK
 70
     0
  9
$CHAMFERA
 40
0.0
  9
$CHAMFERB
 40
0.0
  9
$CHAMFERC
 40
0.0
  9
$CHAMFERD
 40
0.0
  9
$SKPOLY
 70
     0
  9
$TDCREATE
 40
2450406.658181713
  9
$TDUCREATE
 40
2450406.824848379
  9
$TDUPDATE
 40
2453970.019946748
  9
$TDUUPDATE
 40
2453970.186613414
  9
$TDINDWG
 40
0.0326059954
  9
$TDUSRTIMER
 40
0.0326059954
  9
$USRTIMER
 70
     1
  9
$ANGBASE
 50
0.0
  9
$ANGDIR
 70
     0
  9
$PDMODE
 70
     0
  9
$PDSIZE
 40
0.0
  9
$PLINEWID
 40
0.0
  9
$SPLFRAME
 70
     0
  9
$SPLINETYPE
 70
     6
  9
$SPLINESEGS
 70
     8
  9
$HANDSEED
  5
4B9
  9
$SURFTAB1
 70
     6
  9
$SURFTAB2
 70
     6
  9
$SURFTYPE
 70
     6
  9
$SURFU
 70
     6
  9
$SURFV
 70
     6
  9
$UCSBASE
  2

  9
$UCSNAME
  2

  9
$UCSORG
 10
0.0
 20
0.0
 30
0.0
  9
$UCSXDIR
 10
1.0
 20
0.0
 30
0.0
  9
$UCSYDIR
 10
0.0
 20
1.0
 30
0.0
  9
$UCSORTHOREF
  2

  9
$UCSORTHOVIEW
 70
     0
  9
$UCSORGTOP
 10
0.0
 20
0.0
 30
0.0
  9
$UCSORGBOTTOM
 10
0.0
 20
0.0
 30
0.0
  9
$UCSORGLEFT
 10
0.0
 20
0.0
 30
0.0
  9
$UCSORGRIGHT
 10
0.0
 20
0.0
 30
0.0
  9
$UCSORGFRONT
 10
0.0
 20
0.0
 30
0.0
  9
$UCSORGBACK
 10
0.0
 20
0.0
 30
0.0
  9
$PUCSBASE
  2

  9
$PUCSNAME
  2

  9
$PUCSORG
 10
0.0
 20
0.0
 30
0.0
  9
$PUCSXDIR
 10
1.0
 20
0.0
 30
0.0
  9
$PUCSYDIR
 10
0.0
 20
1.0
 30
0.0
  9
$PUCSORTHOREF
  2

  9
$PUCSORTHOVIEW
 70
     0
  9
$PUCSORGTOP
 10
0.0
 20
0.0
 30
0.0
  9
$PUCSORGBOTTOM
 10
0.0
 20
0.0
 30
0.0
  9
$PUCSORGLEFT
 10
0.0
 20
0.0
 30
0.0
  9
$PUCSORGRIGHT
 10
0.0
 20
0.0
 30
0.0
  9
$PUCSORGFRONT
 10
0.0
 20
0.0
 30
0.0
  9
$PUCSORGBACK
 10
0.0
 20
0.0
 30
0.0
  9
$USERI1
 70
     0
  9
$USERI2
 70
     0
  9
$USERI3
 70
     0
  9
$USERI4
 70
     0
  9
$USERI5
 70
     0
  9
$USERR1
 40
0.0
  9
$USERR2
 40
0.0
  9
$USERR3
 40
0.0
  9
$USERR4
 40
0.0
  9
$USERR5
 40
0.0
  9
$WORLDVIEW
 70
     1
  9
$SHADEDGE
 70
     3
  9
$SHADEDIF
 70
    70
  9
$TILEMODE
 70
     1
  9
$MAXACTVP
 70
    15
  9
$PINSBASE
 10
0.0008545028977096
 20
1.250283272183907
 30
0.0
  9
$PLIMCHECK
 70
     0
  9
$PEXTMIN
 10
1.000000000000000E+20
 20
1.000000000000000E+20
 30
1.000000000000000E+20
  9
$PEXTMAX
 10
-1.000000000000000E+20
 20
-1.000000000000000E+20
 30
-1.000000000000000E+20
  9
$PLIMMIN
 10
0.0
 20
0.0
  9
$PLIMMAX
 10
12.0
 20
9.0
  9
$UNITMODE
 70
     0
  9
$VISRETAIN
 70
     0
  9
$PLINEGEN
 70
     0
  9
$PSLTSCALE
 70
     1
  9
$TREEDEPTH
 70
  3020
  9
$CMLSTYLE
  2
STANDARD
  9
$CMLJUST
 70
     0
  9
$CMLSCALE
 40
1.0
  9
$PROXYGRAPHICS
 70
     1
  9
$MEASUREMENT
 70
     0
  9
$CELWEIGHT
370
    -1
  9
$ENDCAPS
280
     0
  9
$JOINSTYLE
280
     0
  9
$LWDISPLAY
290
     0
  9
$INSUNITS
 70
     0
  9
$HYPERLINKBASE
  1

  9
$STYLESHEET
  1

  9
$XEDIT
290
     1
  9
$CEPSNTYPE
380
     0
  9
$PSTYLEMODE
290
     1
  9
$FINGERPRINTGUID
  2
{BBE9425E-6685-446A-BCEB-01BC53BD15D3}
  9
$VERSIONGUID
  2
{34E7C569-72E1-48E7-A384-9C3B68122FEC}
  9
$EXTNAMES
290
     1
  9
$PSVPSCALE
 40
0.0
  9
$OLESTARTUP
290
     0
  0
ENDSEC
  0
SECTION
  2
CLASSES
  0
CLASS
  1
ACDBDICTIONARYWDFLT
  2
AcDbDictionaryWithDefault
  3
ObjectDBX Classes
 90
        0
280
     0
281
     0
  0
CLASS
  1
ACDBPLACEHOLDER
  2
AcDbPlaceHolder
  3
ObjectDBX Classes
 90
        0
280
     0
281
     0
  0
CLASS
  1
LAYOUT
  2
AcDbLayout
  3
ObjectDBX Classes
 90
        0
280
     0
281
     0
  0
CLASS
  1
DICTIONARYVAR
  2
AcDbDictionaryVar
  3
ObjectDBX Classes
 90
        0
280
     0
281
     0
  0
CLASS
  1
MATERIAL
  2
AcDbMaterial
  3
ObjectDBX Classes
 90
     1024
280
     0
281
     0
  0
CLASS
  1
VISUALSTYLE
  2
AcDbVisualStyle
  3
ObjectDBX Classes
 90
     4095
280
     0
281
     0
  0
CLASS
  1
TABLESTYLE
  2
AcDbTableStyle
  3
ObjectDBX Classes
 90
     4095
280
     0
281
     0
  0
ENDSEC
  0
SECTION
  2
TABLES
  0
TABLE
  2
VPORT
  5
8
330
0
100
AcDbSymbolTable
 70
     1
  0
VPORT
  5
317
330
8
100
AcDbSymbolTableRecord
100
AcDbViewportTableRecord
  2
*Active
 70
     0
 10
0.0
 20
0.0
 11
1.0
 21
1.0
 12
20.61122542258778
 22
-2.177955495805822
 13
0.0
 23
0.0
 14
0.5740882589684922
 24
0.5740882589684922
 15
0.5
 25
0.5
 16
0.0
 26
0.0
 36
1.0
 17
0.0
 27
0.0
 37
0.0
 40
14.00119774737609
 41
1.726930320150658
 42
50.0
 43
0.0
 44
0.0
 50
0.0
 51
0.0
 71
     0
 72
   100
 73
     1
 74
     0
 75
     0
 76
     0
 77
     0
 78
     0
281
     0
 65
     1
110
0.0
120
0.0
130
0.0
111
1.0
121
0.0
131
0.0
112
0.0
122
1.0
132
0.0
 79
     0
146
0.0
  0
ENDTAB
  0
TABLE
  2
LTYPE
  5
5
330
0
100
AcDbSymbolTable
 70
     1
  0
LTYPE
  5
12
330
5
100
AcDbSymbolTableRecord
100
AcDbLinetypeTableRecord
  2
BYBLOCK
 70
     0
  3

 72
    65
 73
     0
 40
0.0
  0
LTYPE
  5
13
330
5
100
AcDbSymbolTableRecord
100
AcDbLinetypeTableRecord
  2
BYLAYER
 70
     0
  3

 72
    65
 73
     0
 40
0.0
  0
LTYPE
  5
14
330
5
100
AcDbSymbolTableRecord
100
AcDbLinetypeTableRecord
  2
CONTINUOUS
 70
     0
  3
Solid line
 72
    65
 73
     0
 40
0.0
  0
ENDTAB
  0
TABLE
  2
LAYER
  5
2
330
0
100
AcDbSymbolTable
 70
     4
  0
LAYER
  5
F
330
2
100
AcDbSymbolTableRecord
100
AcDbLayerTableRecord
  2
0
 70
     0
 62
     7
  6
CONTINUOUS
370
    -3
390
1FB
  0
LAYER
  5
11F
330
2
100
AcDbSymbolTableRecord
100
AcDbLayerTableRecord
  2
ADP1DETAIL
 70
     0
 62
     7
  6
CONTINUOUS
370
    -3
390
1FB
  0
LAYER
  5
121
330
2
100
AcDbSymbolTableRecord
100
AcDbLayerTableRecord
  2
DEFPOINTS
 70
     0
 62
     7
  6
CONTINUOUS
290
     0
370
    -3
390
1FB
  0
LAYER
  5
124
330
2
100
AcDbSymbolTableRecord
100
AcDbLayerTableRecord
  2
ADPDIM
 70
     0
 62
     3
  6
CONTINUOUS
370
    -3
390
1FB
  0
ENDTAB
  0
TABLE
  2
STYLE
  5
3
330
0
100
AcDbSymbolTable
 70
     2
  0
STYLE
  5
10
330
3
100
AcDbSymbolTableRecord
100
AcDbTextStyleTableRecord
  2
STANDARD
 70
     0
 40
0.0
 41
1.0
 50
0.0
 71
     0
 42
0.2
  3
txt
  4

  0
STYLE
  5
202
330
3
100
AcDbSymbolTableRecord
100
AcDbTextStyleTableRecord
  2
ARIAL_WIDE
 70
     0
 40
0.0
 41
1.25
 50
0.0
 71
     0
 42
0.2
  3
ARIAL.TTF
  4

1001
ACAD
1000
Arial
1071
       34
  0
ENDTAB
  0
TABLE
  2
VIEW
  5
6
330
0
100
AcDbSymbolTable
 70
     0
  0
ENDTAB
  0
TABLE
  2
UCS
  5
7
330
0
100
AcDbSymbolTable
 70
     0
  0
ENDTAB
  0
TABLE
  2
APPID
  5
9
330
0
100
AcDbSymbolTable
 70
     1
  0
APPID
  5
11
330
9
100
AcDbSymbolTableRecord
100
AcDbRegAppTableRecord
  2
ACAD
 70
     0
  0
ENDTAB
  0
TABLE
  2
DIMSTYLE
  5
A
330
0
100
AcDbSymbolTable
 70
     1
100
AcDbDimStyleTable
 71
     1
340
1F6
  0
DIMSTYLE
105
1F6
102
{ACAD_REACTORS
330
3A7
330
3A8
330
3C3
330
463
102
}
330
A
100
AcDbSymbolTableRecord
100
AcDbDimStyleTableRecord
  2
STANDARD
 70
     0
340
10
  0
ENDTAB
  0
TABLE
  2
BLOCK_RECORD
  5
1
330
0
100
AcDbSymbolTable
 70
    15
  0
BLOCK_RECORD
  5
18
102
{ACAD_XDICTIONARY
360
257
102
}
330
1
100
AcDbSymbolTableRecord
100
AcDbBlockTableRecord
  2
*MODEL_SPACE
340
1FE
  0
BLOCK_RECORD
  5
15
102
{ACAD_XDICTIONARY
360
255
102
}
330
1
100
AcDbSymbolTableRecord
100
AcDbBlockTableRecord
  2
*PAPER_SPACE
340
1FF
  0
BLOCK_RECORD
  5
B9
330
1
100
AcDbSymbolTableRecord
100
AcDbBlockTableRecord
  2
6935
340
0
  0
BLOCK_RECORD
  5
116
330
1
100
AcDbSymbolTableRecord
100
AcDbBlockTableRecord
  2
*D1
340
0
  0
BLOCK_RECORD
  5
117
330
1
100
AcDbSymbolTableRecord
100
AcDbBlockTableRecord
  2
*D2
340
0
  0
BLOCK_RECORD
  5
118
330
1
100
AcDbSymbolTableRecord
100
AcDbBlockTableRecord
  2
*D3
340
0
  0
BLOCK_RECORD
  5
119
330
1
100
AcDbSymbolTableRecord
100
AcDbBlockTableRecord
  2
*D4
340
0
  0
BLOCK_RECORD
  5
11A
330
1
100
AcDbSymbolTableRecord
100
AcDbBlockTableRecord
  2
*D5
340
0
  0
BLOCK_RECORD
  5
11B
330
1
100
AcDbSymbolTableRecord
100
AcDbBlockTableRecord
  2
*D6
340
0
  0
BLOCK_RECORD
  5
35E
330
1
100
AcDbSymbolTableRecord
100
AcDbBlockTableRecord
  2
*D7
340
0
  0
BLOCK_RECORD
  5
36B
330
1
100
AcDbSymbolTableRecord
100
AcDbBlockTableRecord
  2
*D8
340
0
  0
BLOCK_RECORD
  5
378
330
1
100
AcDbSymbolTableRecord
100
AcDbBlockTableRecord
  2
*D9
340
0
  0
BLOCK_RECORD
  5
3C4
330
1
100
AcDbSymbolTableRecord
100
AcDbBlockTableRecord
  2
*D11
340
0
  0
BLOCK_RECORD
  5
3D1
330
1
100
AcDbSymbolTableRecord
100
AcDbBlockTableRecord
  2
*D12
340
0
  0
BLOCK_RECORD
  5
3DE
330
1
100
AcDbSymbolTableRecord
100
AcDbBlockTableRecord
  2
*D13
340
0
  0
BLOCK_RECORD
  5
464
330
1
100
AcDbSymbolTableRecord
100
AcDbBlockTableRecord
  2
*D14
340
0
  0
ENDTAB
  0
ENDSEC
  0
SECTION
  2
BLOCKS
  0
BLOCK
  5
127
330
18
100
AcDbEntity
  8
0
100
AcDbBlockBegin
  2
*MODEL_SPACE
 70
     0
 10
0.0
 20
0.0
 30
0.0
  3
*MODEL_SPACE
  1

  0
ENDBLK
  5
128
330
18
100
AcDbEntity
  8
0
100
AcDbBlockEnd
  0
BLOCK
  5
125
330
15
100
AcDbEntity
 67
     1
  8
0
100
AcDbBlockBegin
  2
*PAPER_SPACE
 70
     0
 10
0.0
 20
0.0
 30
0.0
  3
*PAPER_SPACE
  1

  0
ENDBLK
  5
126
330
15
100
AcDbEntity
 67
     1
  8
0
100
AcDbBlockEnd
  0
BLOCK
  5
12A
330
B9
100
AcDbEntity
  8
0
100
AcDbBlockBegin
  2
6935
 70
     0
 10
0.0
 20
0.0
 30
0.0
  3
6935
  1

  0
ARC
  5
12B
330
B9
100
AcDbEntity
  8
0
100
AcDbCircle
 10
0.8251505165084598
 20
0.3752574129362634
 30
0.0
 40
0.0999999999999997
100
AcDbArc
 50
359.9999999999995
 51
90.0
  0
ARC
  5
12C
330
B9
100
AcDbEntity
  8
0
100
AcDbCircle
 10
1.08115051650846
 20
-1.805742587063736
 30
0.0
 40
2.593999999999999
100
AcDbArc
 50
89.96200675749017
 51
109.6817833868906
  0
LINE
  5
12D
330
B9
100
AcDbEntity
  8
0
100
AcDbLine
 10
0.3001505165084595
 20
0.1842574129362635
 30
0.0
 11
0.3001505165084595
 21
0.0382574129362636
 31
0.0
  0
ARC
  5
12E
330
B9
100
AcDbEntity
  8
0
100
AcDbCircle
 10
0.3311505165084601
 20
0.3502574129362639
 30
0.0
 40
0.312
100
AcDbArc
 50
113.3476747754214
 51
264.2977414232919
  0
LINE
  5
12F
330
B9
100
AcDbEntity
  8
0
100
AcDbLine
 10
0.4151505165084597
 20
0.1942574129362642
 30
0.0
 11
0.3101505165084593
 21
0.1942574129362633
 31
0.0
  0
ARC
  5
130
330
B9
100
AcDbEntity
  8
0
100
AcDbCircle
 10
0.3101505165084593
 20
0.1842574129362635
 30
0.0
 40
0.0099999999999998
100
AcDbArc
 50
90.0
 51
180.0
  0
ARC
  5
131
330
B9
100
AcDbEntity
  8
0
100
AcDbCircle
 10
0.6121505165084589
 20
0.4132574129362637
 30
0.0
 40
0.0620000000000003
100
AcDbArc
 50
90.0
 51
180.0
  0
ARC
  5
132
330
B9
100
AcDbEntity
  8
0
100
AcDbCircle
 10
0.5401505165084597
 20
0.3602574129362637
 30
0.0
 40
0.0099999999999998
100
AcDbArc
 50
270.0
 51
0.0
  0
LINE
  5
133
330
B9
100
AcDbEntity
  8
0
100
AcDbLine
 10
0.5501505165084595
 20
0.4132574129362637
 30
0.0
 11
0.5501505165084595
 21
0.3602574129362637
 31
0.0
  0
ARC
  5
134
330
B9
100
AcDbEntity
  8
0
100
AcDbCircle
 10
0.4351505165084593
 20
0.3402574129362641
 30
0.0
 40
0.0099999999999998
100
AcDbArc
 50
90.0
 51
180.0
  0
LINE
  5
135
330
B9
100
AcDbEntity
  8
0
100
AcDbLine
 10
0.5401505165084597
 20
0.3502574129362639
 30
0.0
 11
0.4351505165084593
 21
0.3502574129362639
 31
0.0
  0
ARC
  5
136
330
B9
100
AcDbEntity
  8
0
100
AcDbCircle
 10
0.4151505165084597
 20
0.204257412936264
 30
0.0
 40
0.0099999999999998
100
AcDbArc
 50
270.0
 51
0.0
  0
LINE
  5
137
330
B9
100
AcDbEntity
  8
0
100
AcDbLine
 10
0.4251505165084595
 20
0.3402574129362641
 30
0.0
 11
0.4251505165084595
 21
0.204257412936264
 31
0.0
  0
LINE
  5
138
330
B9
100
AcDbEntity
  8
0
100
AcDbLine
 10
0.8251505165084598
 20
0.475257412936263
 30
0.0
 11
0.6121505165084589
 21
0.4752574129362639
 31
0.0
  0
LINE
  5
139
330
B9
100
AcDbEntity
  8
0
100
AcDbLine
 10
1.862150516508458
 20
0.1842574129362644
 30
0.0
 11
1.862150516508458
 21
0.0382574129362636
 31
0.0
  0
ARC
  5
13A
330
B9
100
AcDbEntity
  8
0
100
AcDbCircle
 10
1.83115051650846
 20
0.3502574129362639
 30
0.0
 40
0.312
100
AcDbArc
 50
275.7022585767081
 51
66.65232522457856
  0
LINE
  5
13B
330
B9
100
AcDbEntity
  8
0
100
AcDbLine
 10
1.337150516508458
 20
0.4752574129362639
 30
0.0
 11
1.550150516508457
 21
0.4752574129362639
 31
0.0
  0
ARC
  5
13C
330
B9
100
AcDbEntity
  8
0
100
AcDbCircle
 10
1.08115051650846
 20
-1.805742587063736
 30
0.0
 40
2.593999999999999
100
AcDbArc
 50
70.31821661310944
 51
90.03799324250982
  0
LINE
  5
13D
330
B9
100
AcDbEntity
  8
0
100
AcDbLine
 10
1.08115051650846
 20
0.3502574129362639
 30
0.0
 11
1.227150516508459
 21
0.3502574129362639
 31
0.0
  0
LINE
  5
13E
330
B9
100
AcDbEntity
  8
0
100
AcDbLine
 10
1.08115051650846
 20
0.3502574129362639
 30
0.0
 11
0.9351505165084592
 21
0.3502574129362639
 31
0.0
  0
LINE
  5
13F
330
B9
100
AcDbEntity
  8
0
100
AcDbLine
 10
0.9251505165084594
 20
0.3602574129362637
 30
0.0
 11
0.9251505165084594
 21
0.3752574129362625
 31
0.0
  0
ARC
  5
140
330
B9
100
AcDbEntity
  8
0
100
AcDbCircle
 10
0.9351505165084592
 20
0.3602574129362637
 30
0.0
 40
0.0099999999999998
100
AcDbArc
 50
180.0
 51
270.0
  0
ARC
  5
141
330
B9
100
AcDbEntity
  8
0
100
AcDbCircle
 10
1.337150516508458
 20
0.3752574129362642
 30
0.0
 40
0.0999999999999997
100
AcDbArc
 50
90.0
 51
180.0
  0
LINE
  5
142
330
B9
100
AcDbEntity
  8
0
100
AcDbLine
 10
1.237150516508458
 20
0.3602574129362637
 30
0.0
 11
1.237150516508458
 21
0.3752574129362642
 31
0.0
  0
ARC
  5
143
330
B9
100
AcDbEntity
  8
0
100
AcDbCircle
 10
1.227150516508459
 20
0.3602574129362637
 30
0.0
 40
0.0099999999999998
100
AcDbArc
 50
270.0
 51
0.0
  0
ARC
  5
144
330
B9
100
AcDbEntity
  8
0
100
AcDbCircle
 10
1.727150516508459
 20
0.3402574129362641
 30
0.0
 40
0.0099999999999998
100
AcDbArc
 50
0.0
 51
90.0
  0
LINE
  5
145
330
B9
100
AcDbEntity
  8
0
100
AcDbLine
 10
1.612150516508458
 20
0.4132574129362637
 30
0.0
 11
1.612150516508458
 21
0.3502574129362639
 31
0.0
  0
ARC
  5
146
330
B9
100
AcDbEntity
  8
0
100
AcDbCircle
 10
1.550150516508457
 20
0.4132574129362637
 30
0.0
 40
0.0620000000000003
100
AcDbArc
 50
0.0
 51
90.0
  0
LINE
  5
147
330
B9
100
AcDbEntity
  8
0
100
AcDbLine
 10
1.612150516508458
 20
0.3502574129362639
 30
0.0
 11
1.727150516508459
 21
0.3502574129362639
 31
0.0
  0
ARC
  5
148
330
B9
100
AcDbEntity
  8
0
100
AcDbCircle
 10
1.852150516508457
 20
0.1842574129362635
 30
0.0
 40
0.0100000000000007
100
AcDbArc
 50
0.0000000000050889
 51
90.0
  0
ARC
  5
149
330
B9
100
AcDbEntity
  8
0
100
AcDbCircle
 10
1.74715051650846
 20
0.2042574129362649
 30
0.0
 40
0.0100000000000016
100
AcDbArc
 50
180.000000000005
 51
270.0
  0
LINE
  5
14A
330
B9
100
AcDbEntity
  8
0
100
AcDbLine
 10
1.74715051650846
 20
0.1942574129362642
 30
0.0
 11
1.852150516508457
 21
0.1942574129362642
 31
0.0
  0
LINE
  5
14B
330
B9
100
AcDbEntity
  8
0
100
AcDbLine
 10
1.737150516508458
 20
0.3402574129362641
 30
0.0
 11
1.737150516508458
 21
0.204257412936264
 31
0.0
  0
ENDBLK
  5
14C
330
B9
100
AcDbEntity
  8
0
100
AcDbBlockEnd
  0
BLOCK
  5
14D
330
116
100
AcDbEntity
  8
0
100
AcDbBlockBegin
  2
*D1
 70
     1
 10
0.0
 20
0.0
 30
0.0
  3
*D1
  1

  0
LINE
  5
14E
330
116
100
AcDbEntity
  8
0
  6
ByBlock
 62
     0
100
AcDbLine
 10
13.14111438553089
 20
-5.871881206891348
 30
0.0
 11
13.14111438553089
 21
-6.586823463766858
 31
0.0
  0
LINE
  5
14F
330
116
100
AcDbEntity
  8
0
  6
ByBlock
 62
     0
100
AcDbLine
 10
15.94598551636123
 20
-5.871881206891348
 30
0.0
 11
15.94598551636123
 21
-6.586823463766858
 31
0.0
  0
LINE
  5
150
330
116
100
AcDbEntity
  8
0
  6
ByBlock
 62
     0
100
AcDbLine
 10
13.14111438553089
 20
-6.406823463766858
 30
0.0
 11
14.04354995094606
 21
-6.406823463766858
 31
0.0
  0
LINE
  5
151
330
116
100
AcDbEntity
  8
0
  6
ByBlock
 62
     0
100
AcDbLine
 10
15.94598551636123
 20
-6.406823463766858
 30
0.0
 11
15.04354995094606
 21
-6.406823463766858
 31
0.0
  0
LINE
  5
152
330
116
100
AcDbEntity
  8
0
  6
ByBlock
 62
     0
100
AcDbLine
 10
13.01611438553089
 20
-6.531823463766858
 30
0.0
 11
13.26611438553089
 21
-6.281823463766858
 31
0.0
  0
LINE
  5
153
330
116
100
AcDbEntity
  8
0
  6
ByBlock
 62
     0
100
AcDbLine
 10
15.82098551636123
 20
-6.531823463766858
 30
0.0
 11
16.07098551636123
 21
-6.281823463766858
 31
0.0
  0
TEXT
  5
154
330
116
100
AcDbEntity
  8
0
  6
ByBlock
 62
     0
100
AcDbText
 10
14.16854995094606
 20
-6.469323463766858
 30
0.0
 40
0.125
  1
2 13/16
 72
     1
 11
14.54354995094606
 21
-6.406823463766858
 31
0.0
100
AcDbText
 73
     2
  0
POINT
  5
155
330
116
100
AcDbEntity
  8
DEFPOINTS
  6
ByBlock
 62
     0
100
AcDbPoint
 10
13.14111438553089
 20
-5.809381206891348
 30
0.0
  0
POINT
  5
156
330
116
100
AcDbEntity
  8
DEFPOINTS
  6
ByBlock
 62
     0
100
AcDbPoint
 10
15.94598551636123
 20
-5.809381206891348
 30
0.0
  0
POINT
  5
157
330
116
100
AcDbEntity
  8
DEFPOINTS
  6
ByBlock
 62
     0
100
AcDbPoint
 10
15.94598551636123
 20
-6.406823463766858
 30
0.0
  0
ENDBLK
  5
158
330
116
100
AcDbEntity
  8
0
100
AcDbBlockEnd
  0
BLOCK
  5
159
330
117
100
AcDbEntity
  8
0
100
AcDbBlockBegin
  2
*D2
 70
     1
 10
0.0
 20
0.0
 30
0.0
  3
*D2
  1

  0
LINE
  5
15A
330
117
100
AcDbEntity
  8
0
  6
ByBlock
 62
     0
100
AcDbLine
 10
16.23486438553089
 20
-6.153131206891348
 30
0.0
 11
16.23486438553089
 21
-6.594752857737187
 31
0.0
  0
LINE
  5
15B
330
117
100
AcDbEntity
  8
0
  6
ByBlock
 62
     0
100
AcDbLine
 10
17.73486438553089
 20
-5.528131206891346
 30
0.0
 11
17.73486438553089
 21
-6.594752857737187
 31
0.0
  0
LINE
  5
15C
330
117
100
AcDbEntity
  8
0
  6
ByBlock
 62
     0
100
AcDbLine
 10
16.23486438553089
 20
-6.414752857737187
 30
0.0
 11
16.60986438553089
 21
-6.414752857737187
 31
0.0
  0
LINE
  5
15D
330
117
100
AcDbEntity
  8
0
  6
ByBlock
 62
     0
100
AcDbLine
 10
17.73486438553089
 20
-6.414752857737187
 30
0.0
 11
17.35986438553089
 21
-6.414752857737187
 31
0.0
  0
LINE
  5
15E
330
117
100
AcDbEntity
  8
0
  6
ByBlock
 62
     0
100
AcDbLine
 10
16.10986438553089
 20
-6.539752857737187
 30
0.0
 11
16.35986438553089
 21
-6.289752857737187
 31
0.0
  0
LINE
  5
15F
330
117
100
AcDbEntity
  8
0
  6
ByBlock
 62
     0
100
AcDbLine
 10
17.60986438553089
 20
-6.539752857737187
 30
0.0
 11
17.85986438553089
 21
-6.289752857737187
 31
0.0
  0
TEXT
  5
160
330
117
100
AcDbEntity
  8
0
  6
ByBlock
 62
     0
100
AcDbText
 10
16.73486438553089
 20
-6.477252857737187
 30
0.0
 40
0.125
  1
1 1/2
 72
     1
 11
16.98486438553089
 21
-6.414752857737187
 31
0.0
100
AcDbText
 73
     2
  0
POINT
  5
161
330
117
100
AcDbEntity
  8
DEFPOINTS
  6
ByBlock
 62
     0
100
AcDbPoint
 10
16.23486438553089
 20
-6.090631206891348
 30
0.0
  0
POINT
  5
162
330
117
100
AcDbEntity
  8
DEFPOINTS
  6
ByBlock
 62
     0
100
AcDbPoint
 10
17.73486438553089
 20
-5.465631206891346
 30
0.0
  0
POINT
  5
163
330
117
100
AcDbEntity
  8
DEFPOINTS
  6
ByBlock
 62
     0
100
AcDbPoint
 10
17.73486438553089
 20
-6.414752857737187
 30
0.0
  0
ENDBLK
  5
164
330
117
100
AcDbEntity
  8
0
100
AcDbBlockEnd
  0
BLOCK
  5
165
330
118
100
AcDbEntity
  8
0
100
AcDbBlockBegin
  2
*D3
 70
     1
 10
0.0
 20
0.0
 30
0.0
  3
*D3
  1

  0
LINE
  5
166
330
118
100
AcDbEntity
  8
0
  6
ByBlock
 62
     0
100
AcDbLine
 10
19.67686412607701
 20
2.638851942247161
 30
0.0
 11
20.27523629171206
 21
2.638851942247161
 31
0.0
  0
LINE
  5
167
330
118
100
AcDbEntity
  8
0
  6
ByBlock
 62
     0
100
AcDbLine
 10
19.60540801001549
 20
4.200851942247162
 30
0.0
 11
20.27523629171206
 21
4.200851942247162
 31
0.0
  0
LINE
  5
168
330
118
100
AcDbEntity
  8
0
  6
ByBlock
 62
     0
100
AcDbLine
 10
20.09523629171206
 20
2.638851942247161
 30
0.0
 11
20.09523629171206
 21
2.982351942247161
 31
0.0
  0
LINE
  5
169
330
118
100
AcDbEntity
  8
0
  6
ByBlock
 62
     0
100
AcDbLine
 10
20.09523629171206
 20
4.200851942247162
 30
0.0
 11
20.09523629171206
 21
3.857351942247161
 31
0.0
  0
LINE
  5
16A
330
118
100
AcDbEntity
  8
0
  6
ByBlock
 62
     0
100
AcDbLine
 10
20.22023629171206
 20
2.513851942247161
 30
0.0
 11
19.97023629171206
 21
2.763851942247161
 31
0.0
  0
LINE
  5
16B
330
118
100
AcDbEntity
  8
0
  6
ByBlock
 62
     0
100
AcDbLine
 10
20.22023629171206
 20
4.075851942247162
 30
0.0
 11
19.97023629171206
 21
4.325851942247162
 31
0.0
  0
TEXT
  5
16C
330
118
100
AcDbEntity
  8
0
  6
ByBlock
 62
     0
100
AcDbText
 10
20.15773629171206
 20
3.107351942247161
 30
0.0
 40
0.125
  1
1 9/16
 50
90.0
 72
     1
 11
20.09523629171206
 21
3.419851942247161
 31
0.0
100
AcDbText
 73
     2
  0
POINT
  5
16D
330
118
100
AcDbEntity
  8
DEFPOINTS
  6
ByBlock
 62
     0
100
AcDbPoint
 10
19.61436412607701
 20
2.638851942247161
 30
0.0
  0
POINT
  5
16E
330
118
100
AcDbEntity
  8
DEFPOINTS
  6
ByBlock
 62
     0
100
AcDbPoint
 10
19.54290801001549
 20
4.200851942247162
 30
0.0
  0
POINT
  5
16F
330
118
100
AcDbEntity
  8
DEFPOINTS
  6
ByBlock
 62
     0
100
AcDbPoint
 10
20.09523629171206
 20
4.200851942247162
 30
0.0
  0
ENDBLK
  5
170
330
118
100
AcDbEntity
  8
0
100
AcDbBlockEnd
  0
BLOCK
  5
171
330
119
100
AcDbEntity
  8
0
100
AcDbBlockBegin
  2
*D4
 70
     1
 10
0.0
 20
0.0
 30
0.0
  3
*D4
  1

  0
LINE
  5
172
330
119
100
AcDbEntity
  8
0
  6
ByBlock
 62
     0
100
AcDbLine
 10
12.85986438553089
 20
1.667352767491902
 30
0.0
 11
12.85986438553089
 21
0.9325547983858085
 31
0.0
  0
LINE
  5
173
330
119
100
AcDbEntity
  8
0
  6
ByBlock
 62
     0
100
AcDbLine
 10
16.23486438553089
 20
1.667352767491902
 30
0.0
 11
16.23486438553089
 21
0.9325547983858085
 31
0.0
  0
LINE
  5
174
330
119
100
AcDbEntity
  8
0
  6
ByBlock
 62
     0
100
AcDbLine
 10
12.85986438553089
 20
1.112554798385808
 30
0.0
 11
14.13069771886422
 21
1.112554798385808
 31
0.0
  0
LINE
  5
175
330
119
100
AcDbEntity
  8
0
  6
ByBlock
 62
     0
100
AcDbLine
 10
16.23486438553089
 20
1.112554798385808
 30
0.0
 11
14.96403105219755
 21
1.112554798385808
 31
0.0
  0
LINE
  5
176
330
119
100
AcDbEntity
  8
0
  6
ByBlock
 62
     0
100
AcDbLine
 10
12.73486438553089
 20
0.9875547983858083
 30
0.0
 11
12.98486438553089
 21
1.237554798385808
 31
0.0
  0
LINE
  5
177
330
119
100
AcDbEntity
  8
0
  6
ByBlock
 62
     0
100
AcDbLine
 10
16.10986438553089
 20
0.9875547983858083
 30
0.0
 11
16.35986438553089
 21
1.237554798385808
 31
0.0
  0
TEXT
  5
178
330
119
100
AcDbEntity
  8
0
  6
ByBlock
 62
     0
100
AcDbText
 10
14.25569771886422
 20
1.050054798385808
 30
0.0
 40
0.125
  1
3 3/8
 72
     1
 11
14.54736438553089
 21
1.112554798385808
 31
0.0
100
AcDbText
 73
     2
  0
POINT
  5
179
330
119
100
AcDbEntity
  8
DEFPOINTS
  6
ByBlock
 62
     0
100
AcDbPoint
 10
12.85986438553089
 20
1.729852767491902
 30
0.0
  0
POINT
  5
17A
330
119
100
AcDbEntity
  8
DEFPOINTS
  6
ByBlock
 62
     0
100
AcDbPoint
 10
16.23486438553089
 20
1.729852767491902
 30
0.0
  0
POINT
  5
17B
330
119
100
AcDbEntity
  8
DEFPOINTS
  6
ByBlock
 62
     0
100
AcDbPoint
 10
16.23486438553089
 20
1.112554798385808
 30
0.0
  0
ENDBLK
  5
17C
330
119
100
AcDbEntity
  8
0
100
AcDbBlockEnd
  0
BLOCK
  5
17D
330
11A
100
AcDbEntity
  8
0
100
AcDbBlockBegin
  2
*D5
 70
     1
 10
0.0
 20
0.0
 30
0.0
  3
*D5
  1

  0
LINE
  5
17E
330
11A
100
AcDbEntity
  8
0
  6
ByBlock
 62
     0
100
AcDbLine
 10
16.23486438553089
 20
5.167352767491902
 30
0.0
 11
16.23486438553089
 21
5.608974418337741
 31
0.0
  0
LINE
  5
17F
330
11A
100
AcDbEntity
  8
0
  6
ByBlock
 62
     0
100
AcDbLine
 10
17.73486438553089
 20
4.5423527674919
 30
0.0
 11
17.73486438553089
 21
5.608974418337741
 31
0.0
  0
LINE
  5
180
330
11A
100
AcDbEntity
  8
0
  6
ByBlock
 62
     0
100
AcDbLine
 10
16.23486438553089
 20
5.428974418337741
 30
0.0
 11
16.60986438553089
 21
5.428974418337741
 31
0.0
  0
LINE
  5
181
330
11A
100
AcDbEntity
  8
0
  6
ByBlock
 62
     0
100
AcDbLine
 10
17.73486438553089
 20
5.428974418337741
 30
0.0
 11
17.35986438553089
 21
5.428974418337741
 31
0.0
  0
LINE
  5
182
330
11A
100
AcDbEntity
  8
0
  6
ByBlock
 62
     0
100
AcDbLine
 10
16.10986438553089
 20
5.303974418337741
 30
0.0
 11
16.35986438553089
 21
5.553974418337741
 31
0.0
  0
LINE
  5
183
330
11A
100
AcDbEntity
  8
0
  6
ByBlock
 62
     0
100
AcDbLine
 10
17.60986438553089
 20
5.303974418337741
 30
0.0
 11
17.85986438553089
 21
5.553974418337741
 31
0.0
  0
TEXT
  5
184
330
11A
100
AcDbEntity
  8
0
  6
ByBlock
 62
     0
100
AcDbText
 10
16.73486438553089
 20
5.366474418337741
 30
0.0
 40
0.125
  1
1 1/2
 72
     1
 11
16.98486438553089
 21
5.428974418337741
 31
0.0
100
AcDbText
 73
     2
  0
POINT
  5
185
330
11A
100
AcDbEntity
  8
DEFPOINTS
  6
ByBlock
 62
     0
100
AcDbPoint
 10
16.23486438553089
 20
5.104852767491902
 30
0.0
  0
POINT
  5
186
330
11A
100
AcDbEntity
  8
DEFPOINTS
  6
ByBlock
 62
     0
100
AcDbPoint
 10
17.73486438553089
 20
4.4798527674919
 30
0.0
  0
POINT
  5
187
330
11A
100
AcDbEntity
  8
DEFPOINTS
  6
ByBlock
 62
     0
100
AcDbPoint
 10
17.73486438553089
 20
5.428974418337741
 30
0.0
  0
ENDBLK
  5
188
330
11A
100
AcDbEntity
  8
0
100
AcDbBlockEnd
  0
BLOCK
  5
189
330
11B
100
AcDbEntity
  8
0
100
AcDbBlockBegin
  2
*D6
 70
     1
 10
0.0
 20
0.0
 30
0.0
  3
*D6
  1

  0
LINE
  5
18A
330
11B
100
AcDbEntity
  8
0
  6
ByBlock
 62
     0
100
AcDbLine
 10
19.09122735021329
 20
2.354852767491898
 30
0.0
 11
18.23816400294549
 21
2.354852767491898
 31
0.0
  0
LINE
  5
18B
330
11B
100
AcDbEntity
  8
0
  6
ByBlock
 62
     0
100
AcDbLine
 10
19.09122735021329
 20
4.479852767491898
 30
0.0
 11
18.23816400294549
 21
4.479852767491898
 31
0.0
  0
LINE
  5
18C
330
11B
100
AcDbEntity
  8
0
  6
ByBlock
 62
     0
100
AcDbLine
 10
18.41816400294549
 20
2.354852767491898
 30
0.0
 11
18.41816400294549
 21
3.021519434158564
 31
0.0
  0
LINE
  5
18D
330
11B
100
AcDbEntity
  8
0
  6
ByBlock
 62
     0
100
AcDbLine
 10
18.41816400294549
 20
4.479852767491898
 30
0.0
 11
18.41816400294549
 21
3.813186100825231
 31
0.0
  0
LINE
  5
18E
330
11B
100
AcDbEntity
  8
0
  6
ByBlock
 62
     0
100
AcDbLine
 10
18.54316400294549
 20
2.229852767491898
 30
0.0
 11
18.29316400294549
 21
2.479852767491898
 31
0.0
  0
LINE
  5
18F
330
11B
100
AcDbEntity
  8
0
  6
ByBlock
 62
     0
100
AcDbLine
 10
18.54316400294549
 20
4.354852767491898
 30
0.0
 11
18.29316400294549
 21
4.604852767491898
 31
0.0
  0
TEXT
  5
190
330
11B
100
AcDbEntity
  8
0
  6
ByBlock
 62
     0
100
AcDbText
 10
18.48066400294549
 20
3.146519434158564
 30
0.0
 40
0.125
  1
2 1/8
 50
90.0
 72
     1
 11
18.41816400294549
 21
3.417352767491898
 31
0.0
100
AcDbText
 73
     2
  0
POINT
  5
191
330
11B
100
AcDbEntity
  8
DEFPOINTS
  6
ByBlock
 62
     0
100
AcDbPoint
 10
19.15372735021328
 20
2.354852767491898
 30
0.0
  0
POINT
  5
192
330
11B
100
AcDbEntity
  8
DEFPOINTS
  6
ByBlock
 62
     0
100
AcDbPoint
 10
19.15372735021328
 20
4.479852767491898
 30
0.0
  0
POINT
  5
193
330
11B
100
AcDbEntity
  8
DEFPOINTS
  6
ByBlock
 62
     0
100
AcDbPoint
 10
18.41816400294549
 20
4.479852767491898
 30
0.0
  0
ENDBLK
  5
194
330
11B
100
AcDbEntity
  8
0
100
AcDbBlockEnd
  0
BLOCK
  5
35F
330
35E
100
AcDbEntity
  8
0
 62
     3
100
AcDbBlockBegin
  2
*D7
 70
     1
 10
0.0
 20
0.0
 30
0.0
  3
*D7
  1

  0
LINE
  5
360
330
35E
100
AcDbEntity
  8
ADPDIM
 62
     0
370
    -2
100
AcDbLine
 10
10.05899882825791
 20
13.64869007275659
 30
0.0
 11
10.05899882825791
 21
13.34066530287651
 31
0.0
  0
LINE
  5
361
330
35E
100
AcDbEntity
  8
ADPDIM
 62
     0
370
    -2
100
AcDbLine
 10
11.37149882825791
 20
13.64869007275659
 30
0.0
 11
11.37149882825791
 21
13.34066530287651
 31
0.0
  0
LINE
  5
362
330
35E
100
AcDbEntity
  8
ADPDIM
 62
     0
370
    -2
100
AcDbLine
 10
9.878998828257909
 20
13.52066530287651
 30
0.0
 11
9.698998828257909
 21
13.52066530287651
 31
0.0
  0
LINE
  5
363
330
35E
100
AcDbEntity
  8
ADPDIM
 62
     0
370
    -2
100
AcDbLine
 10
11.55149882825791
 20
13.52066530287651
 30
0.0
 11
11.73149882825791
 21
13.52066530287651
 31
0.0
  0
SOLID
  5
364
330
35E
100
AcDbEntity
  8
ADPDIM
 62
     0
100
AcDbTrace
 10
9.878998828257909
 20
13.55066530287651
 30
0.0
 11
9.878998828257909
 21
13.49066530287651
 31
0.0
 12
10.05899882825791
 22
13.52066530287651
 32
0.0
 13
10.05899882825791
 23
13.52066530287651
 33
0.0
  0
SOLID
  5
365
330
35E
100
AcDbEntity
  8
ADPDIM
 62
     0
100
AcDbTrace
 10
11.55149882825791
 20
13.55066530287651
 30
0.0
 11
11.55149882825791
 21
13.49066530287651
 31
0.0
 12
11.37149882825791
 22
13.52066530287651
 32
0.0
 13
11.37149882825791
 23
13.52066530287651
 33
0.0
  0
MTEXT
  5
366
330
35E
100
AcDbEntity
  8
ADPDIM
 62
     0
100
AcDbMText
 10
10.71524882825791
 20
13.52066530287651
 30
0.0
 40
0.125
 41
0.0
 71
     5
 72
     1
  1
\A1;1 5/16
 73
     1
 44
1.0
1001
ACAD
1000
MTEXTBEGIN
1070
    73
1070
     1
1070
    44
1040
1.0
1070
    74
1070
     0
1000
MTEXTEND
1000
ACAD_MTEXT_BBRT
1070
    91
1071
        3
1070
    46
1040
1.25
1070
    64
1071
-1027028792
1070
    65
1000

1070
    66
1000

1070
   442
1071
  7078160
1000
ACAD_MTEXT_BERT
  0
POINT
  5
367
330
35E
100
AcDbEntity
  8
DEFPOINTS
 62
     0
100
AcDbPoint
 10
10.05899882825791
 20
13.7111900727566
 30
0.0
  0
POINT
  5
368
330
35E
100
AcDbEntity
  8
DEFPOINTS
 62
     0
100
AcDbPoint
 10
11.37149882825791
 20
13.7111900727566
 30
0.0
  0
POINT
  5
369
330
35E
100
AcDbEntity
  8
DEFPOINTS
 62
     0
100
AcDbPoint
 10
11.37149882825791
 20
13.52066530287651
 30
0.0
  0
ENDBLK
  5
36A
330
35E
100
AcDbEntity
  8
0
 62
     3
100
AcDbBlockEnd
  0
BLOCK
  5
36C
330
36B
100
AcDbEntity
  8
0
100
AcDbBlockBegin
  2
*D8
 70
     1
 10
0.0
 20
0.0
 30
0.0
  3
*D8
  1

  0
LINE
  5
36D
330
36B
100
AcDbEntity
  8
ADPDIM
 62
     0
370
    -2
100
AcDbLine
 10
9.656937234301697
 20
13.97890961193061
 30
0.0
 11
9.656937234301697
 21
14.73411380502247
 31
0.0
  0
LINE
  5
36E
330
36B
100
AcDbEntity
  8
ADPDIM
 62
     0
370
    -2
100
AcDbLine
 10
11.78203455905209
 20
13.97890961193061
 30
0.0
 11
11.78203455905209
 21
14.73411380502247
 31
0.0
  0
LINE
  5
36F
330
36B
100
AcDbEntity
  8
ADPDIM
 62
     0
370
    -2
100
AcDbLine
 10
9.836937234301696
 20
14.55411380502247
 30
0.0
 11
10.35865256334356
 21
14.55411380502247
 31
0.0
  0
LINE
  5
370
330
36B
100
AcDbEntity
  8
ADPDIM
 62
     0
370
    -2
100
AcDbLine
 10
11.60203455905209
 20
14.55411380502247
 30
0.0
 11
11.08031923001023
 21
14.55411380502247
 31
0.0
  0
SOLID
  5
371
330
36B
100
AcDbEntity
  8
ADPDIM
 62
     0
100
AcDbTrace
 10
9.836937234301696
 20
14.58411380502247
 30
0.0
 11
9.836937234301696
 21
14.52411380502247
 31
0.0
 12
9.656937234301697
 22
14.55411380502247
 32
0.0
 13
9.656937234301697
 23
14.55411380502247
 33
0.0
  0
SOLID
  5
372
330
36B
100
AcDbEntity
  8
ADPDIM
 62
     0
100
AcDbTrace
 10
11.60203455905209
 20
14.58411380502247
 30
0.0
 11
11.60203455905209
 21
14.52411380502247
 31
0.0
 12
11.78203455905209
 22
14.55411380502247
 32
0.0
 13
11.78203455905209
 23
14.55411380502247
 33
0.0
  0
MTEXT
  5
373
330
36B
100
AcDbEntity
  8
ADPDIM
 62
     0
100
AcDbMText
 10
10.71948589667689
 20
14.55411380502247
 30
0.0
 40
0.125
 41
0.0
 71
     5
 72
     1
  1
\A1;2 1/8
 73
     1
 44
1.0
1001
ACAD
1000
MTEXTBEGIN
1070
    73
1070
     1
1070
    44
1040
1.0
1070
    74
1070
     0
1000
MTEXTEND
1000
ACAD_MTEXT_BBRT
1070
    91
1071
        3
1070
    46
1040
1.25
1070
    64
1071
-1027028792
1070
    65
1000

1070
    66
1000

1070
   442
1071
  7078160
1000
ACAD_MTEXT_BERT
  0
POINT
  5
374
330
36B
100
AcDbEntity
  8
DEFPOINTS
 62
     0
100
AcDbPoint
 10
9.656937234301697
 20
13.91640961193061
 30
0.0
  0
POINT
  5
375
330
36B
100
AcDbEntity
  8
DEFPOINTS
 62
     0
100
AcDbPoint
 10
11.78203455905209
 20
13.91640961193061
 30
0.0
  0
POINT
  5
376
330
36B
100
AcDbEntity
  8
DEFPOINTS
 62
     0
100
AcDbPoint
 10
11.78203455905209
 20
14.55411380502247
 30
0.0
  0
ENDBLK
  5
377
330
36B
100
AcDbEntity
  8
0
100
AcDbBlockEnd
  0
BLOCK
  5
379
330
378
100
AcDbEntity
  8
0
100
AcDbBlockBegin
  2
*D9
 70
     1
 10
0.0
 20
0.0
 30
0.0
  3
*D9
  1

  0
LINE
  5
37A
330
378
100
AcDbEntity
  8
ADPDIM
 62
     0
370
    -2
100
AcDbLine
 10
9.933577036440912
 20
13.46626587783817
 30
0.0
 11
9.933577036440912
 21
13.13511412288361
 31
0.0
  0
LINE
  5
37B
330
378
100
AcDbEntity
  8
ADPDIM
 62
     0
370
    -2
100
AcDbLine
 10
11.49282017626115
 20
13.46626587783817
 30
0.0
 11
11.49282017626115
 21
13.13511412288361
 31
0.0
  0
LINE
  5
37C
330
378
100
AcDbEntity
  8
ADPDIM
 62
     0
370
    -2
100
AcDbLine
 10
10.11357703644091
 20
13.31511412288362
 30
0.0
 11
10.31069860635103
 21
13.31511412288362
 31
0.0
  0
LINE
  5
37D
330
378
100
AcDbEntity
  8
ADPDIM
 62
     0
370
    -2
100
AcDbLine
 10
11.31282017626115
 20
13.31511412288362
 30
0.0
 11
11.11569860635103
 21
13.31511412288362
 31
0.0
  0
SOLID
  5
37E
330
378
100
AcDbEntity
  8
ADPDIM
 62
     0
100
AcDbTrace
 10
10.11357703644091
 20
13.34511412288361
 30
0.0
 11
10.11357703644091
 21
13.28511412288362
 31
0.0
 12
9.933577036440912
 22
13.31511412288362
 32
0.0
 13
9.933577036440912
 23
13.31511412288362
 33
0.0
  0
SOLID
  5
37F
330
378
100
AcDbEntity
  8
ADPDIM
 62
     0
100
AcDbTrace
 10
11.31282017626115
 20
13.34511412288361
 30
0.0
 11
11.31282017626115
 21
13.28511412288362
 31
0.0
 12
11.49282017626115
 22
13.31511412288362
 32
0.0
 13
11.49282017626115
 23
13.31511412288362
 33
0.0
  0
MTEXT
  5
380
330
378
100
AcDbEntity
  8
ADPDIM
 62
     0
100
AcDbMText
 10
10.71319860635103
 20
13.31511412288362
 30
0.0
 40
0.125
 41
0.0
 71
     5
 72
     1
  1
\A1;1 9/16
 73
     1
 44
1.0
1001
ACAD
1000
MTEXTBEGIN
1070
    73
1070
     1
1070
    44
1040
1.0
1070
    74
1070
     0
1000
MTEXTEND
1000
ACAD_MTEXT_BBRT
1070
    91
1071
        3
1070
    46
1040
1.25
1070
    64
1071
-1027028792
1070
    65
1000

1070
    66
1000

1070
   442
1071
  7078160
1000
ACAD_MTEXT_BERT
  0
POINT
  5
381
330
378
100
AcDbEntity
  8
DEFPOINTS
 62
     0
100
AcDbPoint
 10
9.933577036440912
 20
13.52876587783817
 30
0.0
  0
POINT
  5
382
330
378
100
AcDbEntity
  8
DEFPOINTS
 62
     0
100
AcDbPoint
 10
11.49282017626115
 20
13.52876587783817
 30
0.0
  0
POINT
  5
383
330
378
100
AcDbEntity
  8
DEFPOINTS
 62
     0
100
AcDbPoint
 10
11.49282017626115
 20
13.31511412288362
 30
0.0
  0
ENDBLK
  5
384
330
378
100
AcDbEntity
  8
0
100
AcDbBlockEnd
  0
BLOCK
  5
3CF
330
3C4
100
AcDbEntity
  8
0
100
AcDbBlockBegin
  2
*D11
 70
     1
 10
0.0
 20
0.0
 30
0.0
  3
*D11
  1

  0
LINE
  5
459
330
3C4
100
AcDbEntity
  8
ADPDIM
 62
     0
370
    -2
100
AcDbLine
 10
19.15109926089102
 20
2.337148898929548
 30
0.0
 11
18.39589506779917
 21
2.337148898929549
 31
0.0
  0
LINE
  5
45A
330
3C4
100
AcDbEntity
  8
ADPDIM
 62
     0
370
    -2
100
AcDbLine
 10
19.15109926089102
 20
4.462246223679944
 30
0.0
 11
18.39589506779917
 21
4.462246223679944
 31
0.0
  0
LINE
  5
45B
330
3C4
100
AcDbEntity
  8
ADPDIM
 62
     0
370
    -2
100
AcDbLine
 10
18.57589506779916
 20
2.517148898929549
 30
0.0
 11
18.57589506779916
 21
3.038864227971413
 31
0.0
  0
LINE
  5
45C
330
3C4
100
AcDbEntity
  8
ADPDIM
 62
     0
370
    -2
100
AcDbLine
 10
18.57589506779916
 20
4.282246223679944
 30
0.0
 11
18.57589506779916
 21
3.76053089463808
 31
0.0
  0
SOLID
  5
45D
330
3C4
100
AcDbEntity
  8
ADPDIM
 62
     0
100
AcDbTrace
 10
18.54589506779916
 20
2.517148898929549
 30
0.0
 11
18.60589506779916
 21
2.517148898929549
 31
0.0
 12
18.57589506779916
 22
2.337148898929549
 32
0.0
 13
18.57589506779916
 23
2.337148898929549
 33
0.0
  0
SOLID
  5
45E
330
3C4
100
AcDbEntity
  8
ADPDIM
 62
     0
100
AcDbTrace
 10
18.54589506779916
 20
4.282246223679944
 30
0.0
 11
18.60589506779916
 21
4.282246223679944
 31
0.0
 12
18.57589506779916
 22
4.462246223679944
 32
0.0
 13
18.57589506779916
 23
4.462246223679944
 33
0.0
  0
MTEXT
  5
45F
330
3C4
100
AcDbEntity
  8
ADPDIM
 62
     0
100
AcDbMText
 10
18.57589506779916
 20
3.399697561304749
 30
0.0
 40
0.125
 41
0.0
 71
     5
 72
     1
  1
\A1;2 1/8
 11
0.0000000000000001
 21
1.0
 31
0.0
 73
     1
 44
1.0
1001
ACAD
1000
MTEXTBEGIN
1070
    73
1070
     1
1070
    44
1040
1.0
1070
    74
1070
     0
1000
MTEXTEND
1000
ACAD_MTEXT_BBRT
1070
    91
1071
        3
1070
    46
1040
1.25
1070
    64
1071
-1027028792
1070
    65
1000

1070
    66
1000

1070
   442
1071
  2526932
1000
ACAD_MTEXT_BERT
  0
POINT
  5
460
330
3C4
100
AcDbEntity
  8
DEFPOINTS
 62
     0
100
AcDbPoint
 10
19.21359926089102
 20
2.337148898929548
 30
0.0
  0
POINT
  5
461
330
3C4
100
AcDbEntity
  8
DEFPOINTS
 62
     0
100
AcDbPoint
 10
19.21359926089102
 20
4.462246223679944
 30
0.0
  0
POINT
  5
462
330
3C4
100
AcDbEntity
  8
DEFPOINTS
 62
     0
100
AcDbPoint
 10
18.57589506779916
 20
4.462246223679944
 30
0.0
  0
ENDBLK
  5
3D0
330
3C4
100
AcDbEntity
  8
0
100
AcDbBlockEnd
  0
BLOCK
  5
3DC
330
3D1
100
AcDbEntity
  8
0
100
AcDbBlockBegin
  2
*D12
 70
     1
 10
0.0
 20
0.0
 30
0.0
  3
*D12
  1

  0
LINE
  5
445
330
3D1
100
AcDbEntity
  8
ADPDIM
 62
     0
370
    -2
100
AcDbLine
 10
19.66374299498346
 20
2.613788701068763
 30
0.0
 11
19.99489474993802
 21
2.613788701068763
 31
0.0
  0
LINE
  5
446
330
3D1
100
AcDbEntity
  8
ADPDIM
 62
     0
370
    -2
100
AcDbLine
 10
19.66374299498346
 20
4.173031840889002
 30
0.0
 11
19.99489474993802
 21
4.173031840889002
 31
0.0
  0
LINE
  5
447
330
3D1
100
AcDbEntity
  8
ADPDIM
 62
     0
370
    -2
100
AcDbLine
 10
19.81489474993802
 20
2.793788701068763
 30
0.0
 11
19.81489474993802
 21
2.990910270978883
 31
0.0
  0
LINE
  5
448
330
3D1
100
AcDbEntity
  8
ADPDIM
 62
     0
370
    -2
100
AcDbLine
 10
19.81489474993802
 20
3.993031840889002
 30
0.0
 11
19.81489474993802
 21
3.795910270978883
 31
0.0
  0
SOLID
  5
449
330
3D1
100
AcDbEntity
  8
ADPDIM
 62
     0
100
AcDbTrace
 10
19.78489474993802
 20
2.793788701068763
 30
0.0
 11
19.84489474993802
 21
2.793788701068763
 31
0.0
 12
19.81489474993802
 22
2.613788701068763
 32
0.0
 13
19.81489474993802
 23
2.613788701068763
 33
0.0
  0
SOLID
  5
44A
330
3D1
100
AcDbEntity
  8
ADPDIM
 62
     0
100
AcDbTrace
 10
19.78489474993802
 20
3.993031840889002
 30
0.0
 11
19.84489474993802
 21
3.993031840889002
 31
0.0
 12
19.81489474993802
 22
4.173031840889002
 32
0.0
 13
19.81489474993802
 23
4.173031840889002
 33
0.0
  0
MTEXT
  5
44B
330
3D1
100
AcDbEntity
  8
ADPDIM
 62
     0
100
AcDbMText
 10
19.81489474993802
 20
3.393410270978886
 30
0.0
 40
0.125
 41
0.0
 71
     5
 72
     1
  1
\A1;1 9/16
 11
0.0000000000000001
 21
1.0
 31
0.0
 73
     1
 44
1.0
1001
ACAD
1000
MTEXTBEGIN
1070
    73
1070
     1
1070
    44
1040
1.0
1070
    74
1070
     0
1000
MTEXTEND
1000
ACAD_MTEXT_BBRT
1070
    91
1071
        3
1070
    46
1040
1.25
1070
    64
1071
-1027028792
1070
    65
1000

1070
    66
1000

1070
   442
1071
        0
1000
ACAD_MTEXT_BERT
  0
POINT
  5
44C
330
3D1
100
AcDbEntity
  8
DEFPOINTS
 62
     0
100
AcDbPoint
 10
19.60124299498346
 20
2.613788701068763
 30
0.0
  0
POINT
  5
44D
330
3D1
100
AcDbEntity
  8
DEFPOINTS
 62
     0
100
AcDbPoint
 10
19.60124299498346
 20
4.173031840889002
 30
0.0
  0
POINT
  5
44E
330
3D1
100
AcDbEntity
  8
DEFPOINTS
 62
     0
100
AcDbPoint
 10
19.81489474993802
 20
4.173031840889002
 30
0.0
  0
ENDBLK
  5
3DD
330
3D1
100
AcDbEntity
  8
0
100
AcDbBlockEnd
  0
BLOCK
  5
3E9
330
3DE
100
AcDbEntity
  8
0
100
AcDbBlockBegin
  2
*D13
 70
     1
 10
0.0
 20
0.0
 30
0.0
  3
*D13
  1

  0
LINE
  5
44F
330
3DE
100
AcDbEntity
  8
ADPDIM
 62
     0
370
    -2
100
AcDbLine
 10
19.48131880006504
 20
2.73921049288576
 30
0.0
 11
19.78934356994512
 21
2.73921049288576
 31
0.0
  0
LINE
  5
450
330
3DE
100
AcDbEntity
  8
ADPDIM
 62
     0
370
    -2
100
AcDbLine
 10
19.48131880006504
 20
4.05171049288576
 30
0.0
 11
19.78934356994512
 21
4.05171049288576
 31
0.0
  0
LINE
  5
451
330
3DE
100
AcDbEntity
  8
ADPDIM
 62
     0
370
    -2
100
AcDbLine
 10
19.60934356994512
 20
2.55921049288576
 30
0.0
 11
19.60934356994512
 21
2.37921049288576
 31
0.0
  0
LINE
  5
452
330
3DE
100
AcDbEntity
  8
ADPDIM
 62
     0
370
    -2
100
AcDbLine
 10
19.60934356994512
 20
4.23171049288576
 30
0.0
 11
19.60934356994512
 21
4.41171049288576
 31
0.0
  0
SOLID
  5
453
330
3DE
100
AcDbEntity
  8
ADPDIM
 62
     0
100
AcDbTrace
 10
19.57934356994512
 20
2.55921049288576
 30
0.0
 11
19.63934356994512
 21
2.55921049288576
 31
0.0
 12
19.60934356994512
 22
2.73921049288576
 32
0.0
 13
19.60934356994512
 23
2.73921049288576
 33
0.0
  0
SOLID
  5
454
330
3DE
100
AcDbEntity
  8
ADPDIM
 62
     0
100
AcDbTrace
 10
19.57934356994512
 20
4.23171049288576
 30
0.0
 11
19.63934356994512
 21
4.23171049288576
 31
0.0
 12
19.60934356994512
 22
4.05171049288576
 32
0.0
 13
19.60934356994512
 23
4.05171049288576
 33
0.0
  0
MTEXT
  5
455
330
3DE
100
AcDbEntity
  8
ADPDIM
 62
     0
100
AcDbMText
 10
19.60934356994512
 20
3.395460492885763
 30
0.0
 40
0.125
 41
0.0
 71
     5
 72
     1
  1
\A1;1 5/16
 11
0.0000000000000001
 21
1.0
 31
0.0
 73
     1
 44
1.0
1001
ACAD
1000
MTEXTBEGIN
1070
    73
1070
     1
1070
    44
1040
1.0
1070
    74
1070
     0
1000
MTEXTEND
1000
ACAD_MTEXT_BBRT
1070
    91
1071
        3
1070
    46
1040
1.25
1070
    64
1071
-1027028792
1070
    65
1000

1070
    66
1000

1070
   442
1071
  3080540
1000
ACAD_MTEXT_BERT
  0
POINT
  5
456
330
3DE
100
AcDbEntity
  8
DEFPOINTS
 62
     0
100
AcDbPoint
 10
19.41881880006504
 20
2.73921049288576
 30
0.0
  0
POINT
  5
457
330
3DE
100
AcDbEntity
  8
DEFPOINTS
 62
     0
100
AcDbPoint
 10
19.41881880006504
 20
4.05171049288576
 30
0.0
  0
POINT
  5
458
330
3DE
100
AcDbEntity
  8
DEFPOINTS
 62
     0
100
AcDbPoint
 10
19.60934356994512
 20
4.05171049288576
 30
0.0
  0
ENDBLK
  5
3EA
330
3DE
100
AcDbEntity
  8
0
100
AcDbBlockEnd
  0
BLOCK
  5
46F
330
464
100
AcDbEntity
  8
0
 62
     3
100
AcDbBlockBegin
  2
*D14
 70
     1
 10
0.0
 20
0.0
 30
0.0
  3
*D14
  1

  0
LINE
  5
485
330
464
100
AcDbEntity
  8
ADPDIM
 62
     0
370
    -2
100
AcDbLine
 10
13.18202477723866
 20
-5.860700786271905
 30
0.0
 11
13.18202477723866
 21
-6.602721484478117
 31
0.0
  0
LINE
  5
486
330
464
100
AcDbEntity
  8
ADPDIM
 62
     0
370
    -2
100
AcDbLine
 10
15.93202477723866
 20
-5.860700786271905
 30
0.0
 11
15.93202477723866
 21
-6.602721484478117
 31
0.0
  0
LINE
  5
487
330
464
100
AcDbEntity
  8
ADPDIM
 62
     0
370
    -2
100
AcDbLine
 10
13.18202477723866
 20
-6.422721484478117
 30
0.0
 11
14.14035811057199
 21
-6.422721484478117
 31
0.0
  0
LINE
  5
488
330
464
100
AcDbEntity
  8
ADPDIM
 62
     0
370
    -2
100
AcDbLine
 10
15.93202477723866
 20
-6.422721484478117
 30
0.0
 11
14.97369144390532
 21
-6.422721484478117
 31
0.0
  0
LINE
  5
489
330
464
100
AcDbEntity
  8
ADPDIM
 62
     0
370
    -2
100
AcDbLine
 10
15.80702477723866
 20
-6.547721484478117
 30
0.0
 11
16.05702477723866
 21
-6.297721484478117
 31
0.0
  0
LINE
  5
48A
330
464
100
AcDbEntity
  8
ADPDIM
 62
     0
370
    -2
100
AcDbLine
 10
13.05702477723866
 20
-6.547721484478117
 30
0.0
 11
13.30702477723866
 21
-6.297721484478117
 31
0.0
  0
MTEXT
  5
48B
330
464
100
AcDbEntity
  8
ADPDIM
 62
     0
100
AcDbMText
 10
14.55702477723866
 20
-6.422721484478117
 30
0.0
 40
0.125
 41
0.0
 71
     5
 72
     1
  1
\A1;2.7500
 73
     1
 44
1.0
1001
ACAD
1000
MTEXTBEGIN
1070
    73
1070
     1
1070
    44
1040
1.0
1070
    74
1070
     0
1000
MTEXTEND
  0
POINT
  5
48C
330
464
100
AcDbEntity
  8
DEFPOINTS
 62
     0
100
AcDbPoint
 10
13.18202477723866
 20
-5.798200786271905
 30
0.0
  0
POINT
  5
48D
330
464
100
AcDbEntity
  8
DEFPOINTS
 62
     0
100
AcDbPoint
 10
15.93202477723866
 20
-5.798200786271905
 30
0.0
  0
POINT
  5
48E
330
464
100
AcDbEntity
  8
DEFPOINTS
 62
     0
100
AcDbPoint
 10
15.93202477723866
 20
-6.422721484478117
 30
0.0
  0
ENDBLK
  5
470
330
464
100
AcDbEntity
  8
0
 62
     3
100
AcDbBlockEnd
  0
ENDSEC
  0
SECTION
  2
ENTITIES
  0
DIMENSION
  5
195
330
18
100
AcDbEntity
  8
ADPDIM
100
AcDbDimension
  2
*D5
 10
17.73486438553089
 20
5.428974418337741
 30
0.0
 11
16.98486438553089
 21
5.428974418337741
 31
0.0
 71
     5
 42
-1.0
100
AcDbAlignedDimension
 13
16.23486438553089
 23
5.104852767491902
 33
0.0
 14
17.73486438553089
 24
4.4798527674919
 34
0.0
100
AcDbRotatedDimension
  0
DIMENSION
  5
196
330
18
100
AcDbEntity
  8
ADPDIM
100
AcDbDimension
  2
*D2
 10
17.73486438553089
 20
-6.414752857737187
 30
0.0
 11
16.98486438553089
 21
-6.414752857737187
 31
0.0
 71
     5
 42
-1.0
100
AcDbAlignedDimension
 13
16.23486438553089
 23
-6.090631206891348
 33
0.0
 14
17.73486438553089
 24
-5.465631206891346
 34
0.0
 50
180.0
100
AcDbRotatedDimension
  0
LINE
  5
197
330
18
100
AcDbEntity
  8
ADP1DETAIL
100
AcDbLine
 10
16.23486438553089
 20
4.479852767491902
 30
0.0
 11
17.73486438553089
 21
4.4798527674919
 31
0.0
  0
LINE
  5
198
330
18
100
AcDbEntity
  8
ADP1DETAIL
100
AcDbLine
 10
17.73486438553089
 20
2.3548527674919
 30
0.0
 11
16.23486438553089
 21
2.354852767491902
 31
0.0
  0
LINE
  5
199
330
18
100
AcDbEntity
  8
ADP1DETAIL
100
AcDbLine
 10
11.36064346039947
 20
-0.5766553104699366
 30
0.0
 11
17.73564346039947
 21
-0.5766553104699366
 31
0.0
  0
LINE
  5
19A
330
18
100
AcDbEntity
  8
ADP1DETAIL
100
AcDbLine
 10
17.73564346039947
 20
-1.356511905941273
 30
0.0
 11
11.36064346039947
 21
-1.356511905941273
 31
0.0
  0
LINE
  5
19B
330
18
100
AcDbEntity
  8
ADP1DETAIL
100
AcDbLine
 10
17.73486438553089
 20
-4.934711532608549
 30
0.0
 11
15.71233922717517
 21
-4.934711532608551
 31
0.0
  0
LINE
  5
19C
330
18
100
AcDbEntity
  8
ADP1DETAIL
100
AcDbLine
 10
17.73486438553089
 20
-3.871550881174146
 30
0.0
 11
15.71233922717517
 21
-3.871550881174143
 31
0.0
  0
LINE
  5
19D
330
18
100
AcDbEntity
  8
ADP1DETAIL
100
AcDbLine
 10
17.73486438553089
 20
-3.742870752454011
 30
0.0
 11
15.8410193558953
 21
-3.74287075245401
 31
0.0
  0
LINE
  5
19E
330
18
100
AcDbEntity
  8
ADP1DETAIL
100
AcDbLine
 10
17.73486438553089
 20
-3.630275722818426
 30
0.0
 11
15.95361438553089
 21
-3.630275722818424
 31
0.0
  0
LINE
  5
19F
330
18
100
AcDbEntity
  8
ADP1DETAIL
100
AcDbLine
 10
17.73486438553089
 20
-3.340631206891346
 30
0.0
 11
16.23486438553089
 21
-3.340631206891348
 31
0.0
  0
LINE
  5
1A0
330
18
100
AcDbEntity
  8
ADP1DETAIL
100
AcDbLine
 10
17.73486438553089
 20
-5.063391661328683
 30
0.0
 11
15.8410193558953
 21
-5.063391661328686
 31
0.0
  0
LINE
  5
1A1
330
18
100
AcDbEntity
  8
ADP1DETAIL
100
AcDbLine
 10
17.73486438553089
 20
-5.175986690964268
 30
0.0
 11
15.95361438553089
 21
-5.17598669096427
 31
0.0
  0
LINE
  5
1A2
330
18
100
AcDbEntity
  8
ADP1DETAIL
100
AcDbLine
 10
16.23486438553089
 20
-5.465631206891348
 30
0.0
 11
17.73486438553089
 21
-5.465631206891346
 31
0.0
  0
LINE
  5
1A3
330
18
100
AcDbEntity
  8
ADP1DETAIL
100
AcDbLine
 10
11.35986438553089
 20
-3.630275722818426
 30
0.0
 11
13.14111438553089
 21
-3.630275722818424
 31
0.0
  0
LINE
  5
1A4
330
18
100
AcDbEntity
  8
ADP1DETAIL
100
AcDbLine
 10
11.35986438553089
 20
-3.871550881174146
 30
0.0
 11
13.38238954388661
 21
-3.871550881174144
 31
0.0
  0
LINE
  5
1A5
330
18
100
AcDbEntity
  8
ADP1DETAIL
100
AcDbLine
 10
11.35986438553089
 20
-3.742870752454011
 30
0.0
 11
13.25370941516648
 21
-3.74287075245401
 31
0.0
  0
LINE
  5
1A6
330
18
100
AcDbEntity
  8
ADP1DETAIL
100
AcDbLine
 10
12.85986438553089
 20
-3.340631206891348
 30
0.0
 11
11.35986438553089
 21
-3.340631206891348
 31
0.0
  0
LINE
  5
1A7
330
18
100
AcDbEntity
  8
ADP1DETAIL
100
AcDbLine
 10
11.35986438553089
 20
-4.934711532608549
 30
0.0
 11
13.38238954388661
 21
-4.934711532608551
 31
0.0
  0
LINE
  5
1A8
330
18
100
AcDbEntity
  8
ADP1DETAIL
100
AcDbLine
 10
11.35986438553089
 20
-5.465631206891348
 30
0.0
 11
12.85986438553089
 21
-5.46563120689135
 31
0.0
  0
LINE
  5
1A9
330
18
100
AcDbEntity
  8
ADP1DETAIL
100
AcDbLine
 10
11.35986438553089
 20
-5.063391661328683
 30
0.0
 11
13.25370941516648
 21
-5.063391661328685
 31
0.0
  0
LINE
  5
1AA
330
18
100
AcDbEntity
  8
ADP1DETAIL
100
AcDbLine
 10
11.35986438553089
 20
-5.175986690964268
 30
0.0
 11
13.14111438553089
 21
-5.17598669096427
 31
0.0
  0
LINE
  5
1AB
330
18
100
AcDbEntity
  8
ADP1DETAIL
100
AcDbLine
 10
11.35986438553089
 20
-3.340631206891348
 30
0.0
 11
11.35986438553089
 21
-5.465631206891348
 31
0.0
  0
LINE
  5
1AC
330
18
100
AcDbEntity
  8
ADP1DETAIL
100
AcDbLine
 10
11.36064346039947
 20
-1.356511905941273
 30
0.0
 11
11.36064346039947
 21
-0.5766553104699366
 31
0.0
  0
LINE
  5
1AE
330
18
100
AcDbEntity
  8
ADP1DETAIL
100
AcDbLine
 10
13.14111438553089
 20
-5.809381206891348
 30
0.0
 11
15.95361438553089
 21
-5.809381206891348
 31
0.0
  0
LINE
  5
1AF
330
18
100
AcDbEntity
  8
ADP1DETAIL
100
AcDbLine
 10
12.85986438553089
 20
-6.090631206891348
 30
0.0
 11
16.23486438553089
 21
-6.090631206891348
 31
0.0
  0
LINE
  5
1B0
330
18
100
AcDbEntity
  8
ADP1DETAIL
100
AcDbLine
 10
13.51611438553089
 20
-5.696786177255763
 30
0.0
 11
15.57861438553089
 21
-5.696786177255763
 31
0.0
  0
LINE
  5
1B1
330
18
100
AcDbEntity
  8
ADP1DETAIL
100
AcDbLine
 10
13.51611438553089
 20
-5.568106048535629
 30
0.0
 11
15.57861438553089
 21
-5.568106048535629
 31
0.0
  0
LINE
  5
1B2
330
18
100
AcDbEntity
  8
ADP1DETAIL
100
AcDbLine
 10
12.85986438553089
 20
-5.46563120689135
 30
0.0
 11
12.85986438553089
 21
-6.090631206891348
 31
0.0
  0
LINE
  5
1B3
330
18
100
AcDbEntity
  8
ADP1DETAIL
100
AcDbLine
 10
13.51611438553089
 20
-5.434381206891348
 30
0.0
 11
13.51611438553089
 21
-5.696786177255763
 31
0.0
  0
LINE
  5
1B4
330
18
100
AcDbEntity
  8
ADP1DETAIL
100
AcDbLine
 10
13.14111438553089
 20
-5.17598669096427
 30
0.0
 11
13.14111438553089
 21
-5.809381206891348
 31
0.0
  0
LINE
  5
1B5
330
18
100
AcDbEntity
  8
ADP1DETAIL
100
AcDbLine
 10
13.25370941516648
 20
-5.063391661328685
 30
0.0
 11
13.25370941516648
 21
-5.434381206891348
 31
0.0
  0
LINE
  5
1B6
330
18
100
AcDbEntity
  8
ADP1DETAIL
100
AcDbLine
 10
13.38238954388661
 20
-4.934711532608551
 30
0.0
 11
13.38238954388661
 21
-5.434381206891348
 31
0.0
  0
LINE
  5
1B7
330
18
100
AcDbEntity
  8
ADP1DETAIL
100
AcDbLine
 10
13.25370941516648
 20
-5.434381206891348
 30
0.0
 11
13.51611438553089
 21
-5.434381206891348
 31
0.0
  0
LINE
  5
1B8
330
18
100
AcDbEntity
  8
ADP1DETAIL
100
AcDbLine
 10
16.23486438553089
 20
-6.090631206891348
 30
0.0
 11
16.23486438553089
 21
-5.465631206891348
 31
0.0
  0
LINE
  5
1B9
330
18
100
AcDbEntity
  8
ADP1DETAIL
100
AcDbLine
 10
15.95361438553089
 20
-5.809381206891348
 30
0.0
 11
15.95361438553089
 21
-5.17598669096427
 31
0.0
  0
LINE
  5
1BA
330
18
100
AcDbEntity
  8
ADP1DETAIL
100
AcDbLine
 10
15.57861438553089
 20
-5.696786177255763
 30
0.0
 11
15.57861438553089
 21
-5.434381206891348
 31
0.0
  0
LINE
  5
1BB
330
18
100
AcDbEntity
  8
ADP1DETAIL
100
AcDbLine
 10
15.8410193558953
 20
-5.434381206891348
 30
0.0
 11
15.8410193558953
 21
-5.063391661328686
 31
0.0
  0
LINE
  5
1BC
330
18
100
AcDbEntity
  8
ADP1DETAIL
100
AcDbLine
 10
15.71233922717517
 20
-5.434381206891348
 30
0.0
 11
15.71233922717517
 21
-4.934711532608551
 31
0.0
  0
LINE
  5
1BD
330
18
100
AcDbEntity
  8
ADP1DETAIL
100
AcDbLine
 10
15.57861438553089
 20
-5.434381206891348
 30
0.0
 11
15.8410193558953
 21
-5.434381206891348
 31
0.0
  0
LINE
  5
1BE
330
18
100
AcDbEntity
  8
ADP1DETAIL
100
AcDbLine
 10
15.23564346039947
 20
-0.5766553104699366
 30
0.0
 11
13.86064346039947
 21
-0.5766553104699366
 31
0.0
  0
LINE
  5
1BF
330
18
100
AcDbEntity
  8
ADP1DETAIL
100
AcDbLine
 10
12.85986438553089
 20
-2.715631206891348
 30
0.0
 11
16.23486438553089
 21
-2.715631206891348
 31
0.0
  0
LINE
  5
1C0
330
18
100
AcDbEntity
  8
ADP1DETAIL
100
AcDbLine
 10
15.95361438553089
 20
-2.996881206891348
 30
0.0
 11
13.14111438553089
 21
-2.996881206891347
 31
0.0
  0
LINE
  5
1C1
330
18
100
AcDbEntity
  8
ADP1DETAIL
100
AcDbLine
 10
15.57861438553089
 20
-3.109476236526933
 30
0.0
 11
13.51611438553089
 21
-3.109476236526933
 31
0.0
  0
LINE
  5
1C2
330
18
100
AcDbEntity
  8
ADP1DETAIL
100
AcDbLine
 10
15.57861438553089
 20
-3.238156365247071
 30
0.0
 11
13.51611438553089
 21
-3.238156365247068
 31
0.0
  0
LINE
  5
1C3
330
18
100
AcDbEntity
  8
ADP1DETAIL
100
AcDbLine
 10
12.85986438553089
 20
-2.715631206891348
 30
0.0
 11
12.85986438553089
 21
-3.34063120689135
 31
0.0
  0
LINE
  5
1C4
330
18
100
AcDbEntity
  8
ADP1DETAIL
100
AcDbLine
 10
13.51611438553089
 20
-3.109476236526933
 30
0.0
 11
13.51611438553089
 21
-3.371881206891347
 31
0.0
  0
LINE
  5
1C5
330
18
100
AcDbEntity
  8
ADP1DETAIL
100
AcDbLine
 10
13.14111438553089
 20
-2.996881206891347
 30
0.0
 11
13.14111438553089
 21
-3.630275722818426
 31
0.0
  0
LINE
  5
1C6
330
18
100
AcDbEntity
  8
ADP1DETAIL
100
AcDbLine
 10
13.25370941516648
 20
-3.371881206891347
 30
0.0
 11
13.25370941516648
 21
-3.742870752454011
 31
0.0
  0
LINE
  5
1C7
330
18
100
AcDbEntity
  8
ADP1DETAIL
100
AcDbLine
 10
13.38238954388661
 20
-3.371881206891346
 30
0.0
 11
13.38238954388661
 21
-3.871550881174144
 31
0.0
  0
LINE
  5
1C8
330
18
100
AcDbEntity
  8
ADP1DETAIL
100
AcDbLine
 10
13.51611438553089
 20
-3.371881206891347
 30
0.0
 11
13.25370941516648
 21
-3.371881206891347
 31
0.0
  0
ARC
  5
1C9
330
18
100
AcDbEntity
  8
ADP1DETAIL
100
AcDbCircle
 10
13.17400326517798
 20
-1.014654740164626
 30
0.0
 40
0.312
100
AcDbArc
 50
113.3476747754214
 51
264.2977414232919
  0
ARC
  5
1CA
330
18
100
AcDbEntity
  8
ADP1DETAIL
100
AcDbCircle
 10
13.89713342533361
 20
-3.162244696382934
 30
0.0
 40
2.57712957706942
100
AcDbArc
 50
91.76968320857817
 51
109.1822689567544
  0
LINE
  5
1CB
330
18
100
AcDbEntity
  8
ADP1DETAIL
100
AcDbLine
 10
15.95361438553089
 20
-3.630275722818424
 30
0.0
 11
15.95361438553089
 21
-2.996881206891348
 31
0.0
  0
LINE
  5
1CC
330
18
100
AcDbEntity
  8
ADP1DETAIL
100
AcDbLine
 10
15.57861438553089
 20
-3.371881206891348
 30
0.0
 11
15.57861438553089
 21
-3.109476236526933
 31
0.0
  0
LINE
  5
1CD
330
18
100
AcDbEntity
  8
ADP1DETAIL
100
AcDbLine
 10
15.8410193558953
 20
-3.74287075245401
 30
0.0
 11
15.8410193558953
 21
-3.371881206891348
 31
0.0
  0
LINE
  5
1CE
330
18
100
AcDbEntity
  8
ADP1DETAIL
100
AcDbLine
 10
15.71233922717517
 20
-3.871550881174143
 30
0.0
 11
15.71233922717517
 21
-3.371881206891348
 31
0.0
  0
LINE
  5
1CF
330
18
100
AcDbEntity
  8
ADP1DETAIL
100
AcDbLine
 10
15.8410193558953
 20
-3.371881206891348
 30
0.0
 11
15.57861438553089
 21
-3.371881206891348
 31
0.0
  0
LINE
  5
1D0
330
18
100
AcDbEntity
  8
ADP1DETAIL
100
AcDbLine
 10
16.23486438553089
 20
-3.340631206891348
 30
0.0
 11
16.23486438553089
 21
-2.715631206891348
 31
0.0
  0
ARC
  5
1D1
330
18
100
AcDbEntity
  8
ADP1DETAIL
100
AcDbCircle
 10
15.21106420288438
 20
-3.162244696382934
 30
0.0
 40
2.57712957706942
100
AcDbArc
 50
70.81773104324557
 51
88.23031679142182
  0
ARC
  5
1D2
330
18
100
AcDbEntity
  8
ADP1DETAIL
100
AcDbCircle
 10
15.93419436304001
 20
-1.014654740164626
 30
0.0
 40
0.312
100
AcDbArc
 50
275.7022585767081
 51
66.65232522457856
  0
LWPOLYLINE
  5
1D3
330
18
100
AcDbEntity
  8
ADP1DETAIL
100
AcDbPolyline
 90
        3
 70
     0
 43
0.0
 10
12.85986438553089
 20
2.354852767491903
 10
11.35986438553089
 20
2.354852767491903
 10
11.35986438553089
 20
4.479852767491903
  0
LWPOLYLINE
  5
1D8
330
18
100
AcDbEntity
  8
ADP1DETAIL
100
AcDbPolyline
 90
        2
 70
     0
 43
0.0
 10
11.35986438553089
 20
4.479852767491903
 10
12.85986438553089
 20
4.479852767491905
  0
LINE
  5
1DC
330
18
100
AcDbEntity
  8
ADP1DETAIL
100
AcDbLine
 10
15.23486438553089
 20
4.104852767491902
 30
0.0
 11
16.23486438553089
 21
5.104852767491902
 31
0.0
  0
LINE
  5
1DD
330
18
100
AcDbEntity
  8
ADP1DETAIL
100
AcDbLine
 10
15.23486438553089
 20
3.479852767491902
 30
0.0
 11
16.23486438553089
 21
4.479852767491902
 31
0.0
  0
LINE
  5
1DE
330
18
100
AcDbEntity
  8
ADP1DETAIL
100
AcDbLine
 10
13.85986438553089
 20
4.104852767491902
 30
0.0
 11
12.85986438553089
 21
5.104852767491902
 31
0.0
  0
LINE
  5
1DF
330
18
100
AcDbEntity
  8
ADP1DETAIL
100
AcDbLine
 10
13.85986438553089
 20
3.479852767491907
 30
0.0
 11
12.85986438553089
 21
4.479852767491905
 31
0.0
  0
DIMENSION
  5
1E0
330
18
100
AcDbEntity
  8
ADPDIM
100
AcDbDimension
  2
*D4
 10
16.23486438553089
 20
1.112554798385808
 30
0.0
 11
14.54736438553089
 21
1.112554798385808
 31
0.0
 71
     5
 42
-1.0
100
AcDbAlignedDimension
 13
12.85986438553089
 23
1.729852767491902
 33
0.0
 14
16.23486438553089
 24
1.729852767491902
 34
0.0
100
AcDbRotatedDimension
  0
LINE
  5
1E1
330
18
100
AcDbEntity
  8
ADP1DETAIL
100
AcDbLine
 10
12.85986438553089
 20
1.729852767491903
 30
0.0
 11
16.23486438553089
 21
1.729852767491903
 31
0.0
  0
LINE
  5
1E2
330
18
100
AcDbEntity
  8
ADP1DETAIL
100
AcDbLine
 10
13.85986438553089
 20
4.104852767491902
 30
0.0
 11
15.23486438553089
 21
4.104852767491902
 31
0.0
  0
LINE
  5
1E3
330
18
100
AcDbEntity
  8
ADP1DETAIL
100
AcDbLine
 10
15.23486438553089
 20
2.729852767491902
 30
0.0
 11
13.85986438553089
 21
2.729852767491902
 31
0.0
  0
LINE
  5
1E4
330
18
100
AcDbEntity
  8
ADP1DETAIL
100
AcDbLine
 10
12.85986438553089
 20
1.729852767491903
 30
0.0
 11
12.85986438553089
 21
2.354852767491905
 31
0.0
  0
LINE
  5
1E5
330
18
100
AcDbEntity
  8
ADP1DETAIL
100
AcDbLine
 10
13.85986438553089
 20
2.729852767491902
 30
0.0
 11
12.85986438553089
 21
1.729852767491902
 31
0.0
  0
LINE
  5
1E6
330
18
100
AcDbEntity
  8
ADP1DETAIL
100
AcDbLine
 10
12.85986438553089
 20
2.354852767491905
 30
0.0
 11
13.85986438553089
 21
3.354852767491907
 31
0.0
  0
LINE
  5
1E7
330
18
100
AcDbEntity
  8
ADP1DETAIL
100
AcDbLine
 10
13.85986438553089
 20
2.729852767491902
 30
0.0
 11
13.85986438553089
 21
4.104852767491902
 31
0.0
  0
LINE
  5
1E8
330
18
100
AcDbEntity
  8
ADP1DETAIL
100
AcDbLine
 10
16.23486438553089
 20
2.354852767491902
 30
0.0
 11
16.23486438553089
 21
1.729852767491902
 31
0.0
  0
LINE
  5
1E9
330
18
100
AcDbEntity
  8
ADP1DETAIL
100
AcDbLine
 10
16.23486438553089
 20
1.729852767491902
 30
0.0
 11
15.23486438553089
 21
2.729852767491902
 31
0.0
  0
LINE
  5
1EA
330
18
100
AcDbEntity
  8
ADP1DETAIL
100
AcDbLine
 10
16.23486438553089
 20
2.354852767491902
 30
0.0
 11
15.23486438553089
 21
3.354852767491902
 31
0.0
  0
LINE
  5
1EB
330
18
100
AcDbEntity
  8
ADP1DETAIL
100
AcDbLine
 10
15.23486438553089
 20
4.104852767491902
 30
0.0
 11
15.23486438553089
 21
2.729852767491902
 31
0.0
  0
LINE
  5
1EC
330
18
100
AcDbEntity
  8
ADP1DETAIL
100
AcDbLine
 10
12.85986438553089
 20
5.104852767491902
 30
0.0
 11
16.23486438553089
 21
5.104852767491902
 31
0.0
  0
LINE
  5
1ED
330
18
100
AcDbEntity
  8
ADP1DETAIL
100
AcDbLine
 10
12.85986438553089
 20
4.479852767491905
 30
0.0
 11
12.85986438553089
 21
5.104852767491903
 31
0.0
  0
LINE
  5
1EE
330
18
100
AcDbEntity
  8
ADP1DETAIL
100
AcDbLine
 10
16.23486438553089
 20
5.104852767491902
 30
0.0
 11
16.23486438553089
 21
4.479852767491902
 31
0.0
  0
LINE
  5
1EF
330
18
100
AcDbEntity
  8
ADP1DETAIL
100
AcDbLine
 10
17.73486438553089
 20
-5.465631206891346
 30
0.0
 11
17.73486438553089
 21
-3.340631206891346
 31
0.0
  0
LINE
  5
1F0
330
18
100
AcDbEntity
  8
ADP1DETAIL
100
AcDbLine
 10
17.73486438553089
 20
-5.465631206891346
 30
0.0
 11
17.73486438553089
 21
-3.340631206891346
 31
0.0
  0
LINE
  5
1F1
330
18
100
AcDbEntity
  8
ADP1DETAIL
100
AcDbLine
 10
17.73564346039947
 20
-0.5766553104699366
 30
0.0
 11
17.73564346039947
 21
-1.356511905941273
 31
0.0
  0
LINE
  5
1F4
330
18
100
AcDbEntity
  8
ADP1DETAIL
100
AcDbLine
 10
17.73486438553089
 20
4.4798527674919
 30
0.0
 11
17.73486438553089
 21
2.3548527674919
 31
0.0
  0
TEXT
  5
203
330
18
100
AcDbEntity
  8
ADPDIM
100
AcDbText
 10
2.841717066299882
 20
-7.621264131752019
 30
0.0
 40
0.21875
  1
J U L I U S  B L U M  &  C O . ,  I N C .      ( 8 0 0 )  5 2 6 - 6 2 9 3        W W W . J U L I U S B L U M . C O M        P A R T  N o .  4 5 3 5 - T
 41
1.25
  7
ARIAL_WIDE
 72
     1
 11
14.54814346039947
 21
-7.402514131752019
 31
0.0
100
AcDbText
 73
     3
  0
DIMENSION
  5
3A7
330
18
100
AcDbEntity
  8
ADPDIM
100
AcDbDimension
  2
*D11
 10
18.57589506779916
 20
4.462246223679944
 30
0.0
 11
18.57589506779916
 21
3.399697561304749
 31
0.0
 70
    32
 71
     5
 42
2.125097324750395
 53
90.0
  3
STANDARD
100
AcDbAlignedDimension
 13
19.21359926089102
 23
2.337148898929548
 33
0.0
 14
19.21359926089102
 24
4.462246223679944
 34
0.0
 50
90.0
100
AcDbRotatedDimension
1001
ACAD
1000
DSTYLE
1002
{
1070
   276
1070
     2
1070
   277
1070
     5
1070
    69
1070
     1
1070
   140
1040
0.125
1002
}
  0
DIMENSION
  5
3A8
330
18
100
AcDbEntity
  8
ADPDIM
100
AcDbDimension
  2
*D12
 10
19.81489474993802
 20
4.173031840889002
 30
0.0
 11
19.81489474993802
 21
3.393410270978886
 31
0.0
 70
    32
 71
     5
 42
1.559243139820239
 53
90.0
  3
STANDARD
100
AcDbAlignedDimension
 13
19.60124299498346
 23
2.613788701068763
 33
0.0
 14
19.60124299498346
 24
4.173031840889002
 34
0.0
 50
90.0
100
AcDbRotatedDimension
1001
ACAD
1000
DSTYLE
1002
{
1070
   276
1070
     2
1070
   277
1070
     5
1070
    69
1070
     1
1070
   140
1040
0.125
1002
}
  0
ARC
  5
3A9
330
18
100
AcDbEntity
  8
0
100
AcDbCircle
 10
19.40126319759373
 20
2.720632455584397
 30
0.0
 40
0.02
100
AcDbArc
 50
0.0
 51
90.0
  0
ARC
  5
3AA
330
18
100
AcDbEntity
  8
0
100
AcDbCircle
 10
21.56026319759373
 20
3.397132455584397
 30
0.0
 40
2.75
100
AcDbArc
 50
179.9977971677303
 51
197.970445816685
  0
ARC
  5
3AB
330
18
100
AcDbEntity
  8
0
100
AcDbCircle
 10
19.2406132505075
 20
2.647632455584396
 30
0.0
 40
0.313
100
AcDbArc
 50
198.4288241574059
 51
346.8348879005548
  0
ARC
  5
3AC
330
18
100
AcDbEntity
  8
0
100
AcDbCircle
 10
19.44126319759373
 20
2.635632455584396
 30
0.0
 40
0.02
100
AcDbArc
 50
180.0
 51
270.0
  0
ARC
  5
3AD
330
18
100
AcDbEntity
  8
0
100
AcDbCircle
 10
19.51422794309539
 20
2.583632455584396
 30
0.0
 40
0.032
100
AcDbArc
 50
346.8348879005556
 51
90.0
  0
LINE
  5
3AE
330
18
100
AcDbEntity
  8
0
100
AcDbLine
 10
19.44126319759373
 20
2.615632455584396
 30
0.0
 11
19.51422794309539
 21
2.615632455584396
 31
0.0
  0
LINE
  5
3AF
330
18
100
AcDbEntity
  8
0
100
AcDbLine
 10
19.42126319759373
 20
2.720632455584397
 30
0.0
 11
19.42126319759373
 21
2.635632455584396
 31
0.0
  0
LINE
  5
3B0
330
18
100
AcDbEntity
  8
0
100
AcDbLine
 10
19.19126319759373
 20
2.865632455584396
 30
0.0
 11
19.27626319759373
 21
2.865632455584396
 31
0.0
  0
LINE
  5
3B1
330
18
100
AcDbEntity
  8
0
100
AcDbLine
 10
19.19126319759373
 20
3.92884391230222
 30
0.0
 11
19.27626319759373
 21
3.92884391230222
 31
0.0
  0
ARC
  5
3B2
330
18
100
AcDbEntity
  8
0
100
AcDbCircle
 10
19.2406132505075
 20
4.14684391230222
 30
0.0
 40
0.313
100
AcDbArc
 50
13.16511209944505
 51
161.5711758425938
  0
LINE
  5
3B3
330
18
100
AcDbEntity
  8
0
100
AcDbLine
 10
19.29626319759373
 20
2.740632455584396
 30
0.0
 11
19.40126319759373
 21
2.740632455584396
 31
0.0
  0
ARC
  5
3B4
330
18
100
AcDbEntity
  8
0
100
AcDbCircle
 10
19.27626319759373
 20
2.845632455584397
 30
0.0
 40
0.02
100
AcDbArc
 50
0.0
 51
90.0
  0
LINE
  5
3B5
330
18
100
AcDbEntity
  8
0
100
AcDbLine
 10
19.29626319759373
 20
2.845632455584397
 30
0.0
 11
19.29626319759373
 21
2.740632455584396
 31
0.0
  0
LINE
  5
3B6
330
18
100
AcDbEntity
  8
0
100
AcDbLine
 10
19.29626319759373
 20
3.948843912302219
 30
0.0
 11
19.29626319759373
 21
4.05384391230222
 31
0.0
  0
ARC
  5
3B7
330
18
100
AcDbEntity
  8
0
100
AcDbCircle
 10
19.27626319759373
 20
3.948843912302219
 30
0.0
 40
0.02
100
AcDbArc
 50
270.0
 51
0.0
  0
ARC
  5
3B8
330
18
100
AcDbEntity
  8
0
100
AcDbCircle
 10
19.51422794309539
 20
4.21084391230222
 30
0.0
 40
0.032
100
AcDbArc
 50
270.0
 51
13.16511209944445
  0
ARC
  5
3B9
330
18
100
AcDbEntity
  8
0
100
AcDbCircle
 10
19.40126319759373
 20
4.073843912302219
 30
0.0
 40
0.02
100
AcDbArc
 50
270.0
 51
0.0
  0
ARC
  5
3BA
330
18
100
AcDbEntity
  8
0
100
AcDbCircle
 10
19.44126319759373
 20
4.15884391230222
 30
0.0
 40
0.02
100
AcDbArc
 50
90.0
 51
180.0
  0
LINE
  5
3BB
330
18
100
AcDbEntity
  8
0
100
AcDbLine
 10
19.44126319759373
 20
4.17884391230222
 30
0.0
 11
19.51422794309539
 21
4.17884391230222
 31
0.0
  0
LINE
  5
3BC
330
18
100
AcDbEntity
  8
0
100
AcDbLine
 10
19.42126319759373
 20
4.073843912302219
 30
0.0
 11
19.42126319759373
 21
4.15884391230222
 31
0.0
  0
LINE
  5
3BD
330
18
100
AcDbEntity
  8
0
100
AcDbLine
 10
19.29626319759373
 20
4.05384391230222
 30
0.0
 11
19.40126319759373
 21
4.05384391230222
 31
0.0
  0
ARC
  5
3BE
330
18
100
AcDbEntity
  8
0
100
AcDbCircle
 10
21.56026319759373
 20
3.397343912302218
 30
0.0
 40
2.75
100
AcDbArc
 50
162.029554183315
 51
180.0022028322696
  0
LINE
  5
3BF
330
18
100
AcDbEntity
  8
0
100
AcDbLine
 10
19.17126319759373
 20
3.397343912302218
 30
0.0
 11
19.17126319759373
 21
3.90884391230222
 31
0.0
  0
LINE
  5
3C0
330
18
100
AcDbEntity
  8
0
100
AcDbLine
 10
19.17126319759373
 20
3.397132455584397
 30
0.0
 11
19.17126319759373
 21
2.885632455584396
 31
0.0
  0
ARC
  5
3C1
330
18
100
AcDbEntity
  8
0
100
AcDbCircle
 10
19.19126319759373
 20
2.885632455584396
 30
0.0
 40
0.02
100
AcDbArc
 50
180.0
 51
270.0
  0
ARC
  5
3C2
330
18
100
AcDbEntity
  8
0
100
AcDbCircle
 10
19.19126319759373
 20
3.90884391230222
 30
0.0
 40
0.02
100
AcDbArc
 50
90.0
 51
180.0
  0
DIMENSION
  5
3C3
330
18
100
AcDbEntity
  8
ADPDIM
 62
     3
100
AcDbDimension
  2
*D13
 10
19.60934356994512
 20
4.05171049288576
 30
0.0
 11
19.60934356994512
 21
3.395460492885763
 31
0.0
 70
    32
 71
     5
 42
1.3125
 53
90.0
  3
STANDARD
100
AcDbAlignedDimension
 13
19.41881880006504
 23
2.73921049288576
 33
0.0
 14
19.41881880006504
 24
4.05171049288576
 34
0.0
 50
90.0
100
AcDbRotatedDimension
1001
ACAD
1000
DSTYLE
1002
{
1070
   276
1070
     2
1070
   277
1070
     5
1070
    69
1070
     1
1070
   140
1040
0.125
1002
}
  0
DIMENSION
  5
463
330
18
100
AcDbEntity
  8
ADPDIM
 62
     3
100
AcDbDimension
  2
*D14
 10
15.93202477723866
 20
-6.422721484478117
 30
0.0
 11
14.55702477723866
 21
-6.422721484478117
 31
0.0
 70
   160
 71
     5
 42
2.75
  3
STANDARD
100
AcDbAlignedDimension
 13
13.18202477723866
 23
-5.798200786271905
 33
0.0
 14
15.93202477723866
 24
-5.798200786271905
 34
0.0
100
AcDbRotatedDimension
1001
ACAD
1000
DSTYLE
1002
{
1070
    41
1040
0.125
1070
    73
1070
     0
1070
    74
1070
     0
1070
    78
1070
     3
1070
   140
1040
0.125
1070
   141
1040
0.1875
1070
   142
1040
0.125
1070
   147
1040
0.125
1070
   171
1070
     1
1002
}
  0
ENDSEC
  0
SECTION
  2
OBJECTS
  0
DICTIONARY
  5
C
330
0
100
AcDbDictionary
281
     1
  3
ACAD_COLOR
350
358
  3
ACAD_GROUP
350
D
  3
ACAD_LAYOUT
350
1FC
  3
ACAD_MATERIAL
350
343
  3
ACAD_MLINESTYLE
350
E
  3
ACAD_PLOTSETTINGS
350
1FD
  3
ACAD_PLOTSTYLENAME
350
1FA
  3
ACAD_TABLESTYLE
350
359
  3
ACAD_VISUALSTYLE
350
347
  3
AcDbVariableDictionary
350
25D
  3
DWGPROPS
350
4AC
  0
DICTIONARY
  5
257
330
18
100
AcDbDictionary
280
     1
281
     1
  3
ACAD_LAYOUTSELFREF
360
33D
  0
DICTIONARY
  5
255
330
15
100
AcDbDictionary
280
     1
281
     1
  3
ACAD_LAYOUTSELFREF
360
33C
  0
DICTIONARY
  5
358
102
{ACAD_REACTORS
330
C
102
}
330
C
100
AcDbDictionary
281
     1
  0
DICTIONARY
  5
D
102
{ACAD_REACTORS
330
C
102
}
330
C
100
AcDbDictionary
281
     1
  0
DICTIONARY
  5
1FC
102
{ACAD_REACTORS
330
C
102
}
330
C
100
AcDbDictionary
281
     1
  3
Layout1
350
1FF
  3
Model
350
1FE
  0
DICTIONARY
  5
343
102
{ACAD_REACTORS
330
C
102
}
330
C
100
AcDbDictionary
281
     1
  3
ByBlock
350
345
  3
ByLayer
350
344
  3
Global
350
346
  0
DICTIONARY
  5
E
102
{ACAD_REACTORS
330
C
102
}
330
C
100
AcDbDictionary
281
     1
  3
STANDARD
350
1B
  0
DICTIONARY
  5
1FD
102
{ACAD_REACTORS
330
C
102
}
330
C
100
AcDbDictionary
281
     1
  0
ACDBDICTIONARYWDFLT
  5
1FA
102
{ACAD_REACTORS
330
C
102
}
330
C
100
AcDbDictionary
281
     1
  3
Normal
350
1FB
100
AcDbDictionaryWithDefault
340
1FB
  0
DICTIONARY
  5
359
102
{ACAD_REACTORS
330
C
102
}
330
C
100
AcDbDictionary
281
     1
  3
Standard
350
35A
  0
DICTIONARY
  5
347
102
{ACAD_REACTORS
330
C
102
}
330
C
100
AcDbDictionary
281
     1
  3
2dWireframe
350
34D
  3
3D Hidden
350
34F
  3
3dWireframe
350
34E
  3
Basic
350
34C
  3
Brighten
350
353
  3
ColorChange
350
357
  3
Conceptual
350
350
  3
Dim
350
352
  3
Facepattern
350
356
  3
Flat
350
348
  3
FlatWithEdges
350
349
  3
Gouraud
350
34A
  3
GouraudWithEdges
350
34B
  3
Linepattern
350
355
  3
Realistic
350
351
  3
Thicken
350
354
  0
DICTIONARY
  5
25D
102
{ACAD_REACTORS
330
C
102
}
330
C
100
AcDbDictionary
281
     1
  3
CTABLESTYLE
350
4A9
  3
DIMASSOC
350
25E
  3
INDEXCTL
350
4AB
  3
SORTENTS
350
4AA
  0
XRECORD
  5
4AC
102
{ACAD_REACTORS
330
C
102
}
330
C
100
AcDbXrecord
280
     1
  1
DWGPROPS COOKIE
  2

  3

  4

  6

  7

  8
Yu Hu
  9

300
=
301
=
302
=
303
=
304
=
305
=
306
=
307
=
308
=
309
=
 40
0.0326058796296296
 41
2450406.658181713
 42
2453970.019946748
  1

 90
        0
  0
XRECORD
  5
33D
102
{ACAD_REACTORS
330
257
102
}
330
257
100
AcDbXrecord
280
     1
340
18
  0
XRECORD
  5
33C
102
{ACAD_REACTORS
330
255
102
}
330
255
100
AcDbXrecord
280
     1
340
15
  0
LAYOUT
  5
1FF
102
{ACAD_XDICTIONARY
360
4AF
102
}
102
{ACAD_REACTORS
330
1FC
102
}
330
1FC
100
AcDbPlotSettings
  1

  2
Fax
  4

  6

 40
0.0
 41
0.0
 42
0.0
 43
0.0
 44
0.0
 45
0.0
 46
0.0
 47
0.0
 48
0.0
 49
0.0
140
0.0
141
0.0
142
1.0
143
1.0
 70
   688
 72
     0
 73
     0
 74
     5
  7
Default R14 pen assignments.ctb
 75
    16
147
1.0
148
0.0
149
0.0
100
AcDbLayout
  1
Layout1
 70
     1
 71
     1
 10
0.0
 20
0.0
 11
12.0
 21
9.0
 12
0.0008545028977096
 22
1.250283272183907
 32
0.0
 14
1.000000000000000E+20
 24
1.000000000000000E+20
 34
1.000000000000000E+20
 15
-1.000000000000000E+20
 25
-1.000000000000000E+20
 35
-1.000000000000000E+20
146
0.0
 13
0.0
 23
0.0
 33
0.0
 16
1.0
 26
0.0
 36
0.0
 17
0.0
 27
1.0
 37
0.0
 76
     0
330
15
  0
LAYOUT
  5
1FE
102
{ACAD_XDICTIONARY
360
4AD
102
}
102
{ACAD_REACTORS
330
1FC
102
}
330
1FC
100
AcDbPlotSettings
  1

  2
Fax
  4

  6

 40
0.0
 41
0.0
 42
0.0
 43
0.0
 44
0.0
 45
0.0
 46
0.0
 47
0.0
 48
0.0
 49
0.0
140
0.0
141
0.0
142
1.0
143
1.0
 70
  1712
 72
     0
 73
     0
 74
     0
  7
Default R14 pen assignments.ctb
 75
     0
147
1.0
148
0.0
149
0.0
100
AcDbLayout
  1
Model
 70
     1
 71
     0
 10
0.0
 20
0.0
 11
12.0
 21
9.0
 12
0.0
 22
0.0
 32
0.0
 14
0.0
 24
0.0
 34
0.0
 15
0.0
 25
0.0
 35
0.0
146
0.0
 13
0.0
 23
0.0
 33
0.0
 16
1.0
 26
0.0
 36
0.0
 17
0.0
 27
1.0
 37
0.0
 76
     0
330
18
331
317
  0
MATERIAL
  5
345
102
{ACAD_XDICTIONARY
360
4B3
102
}
102
{ACAD_REACTORS
330
343
102
}
330
343
100
AcDbMaterial
  1
ByBlock
  0
MATERIAL
  5
344
102
{ACAD_XDICTIONARY
360
4B1
102
}
102
{ACAD_REACTORS
330
343
102
}
330
343
100
AcDbMaterial
  1
ByLayer
  0
MATERIAL
  5
346
102
{ACAD_XDICTIONARY
360
4B5
102
}
102
{ACAD_REACTORS
330
343
102
}
330
343
100
AcDbMaterial
  1
Global
  0
MLINESTYLE
  5
1B
102
{ACAD_REACTORS
330
E
102
}
330
E
100
AcDbMlineStyle
  2
STANDARD
 70
     0
  3

 62
     0
 51
90.0
 52
90.0
 71
     2
 49
0.5
 62
   256
  6
BYLAYER
 49
-0.5
 62
   256
  6
BYLAYER
  0
ACDBPLACEHOLDER
  5
1FB
102
{ACAD_REACTORS
330
1FA
102
}
330
1FA
  0
TABLESTYLE
  5
35A
102
{ACAD_XDICTIONARY
360
4B7
102
}
102
{ACAD_REACTORS
330
359
102
}
330
359
100
AcDbTableStyle
  3
Standard
 70
     0
 71
     0
 40
0.06
 41
0.06
280
     0
281
     0
  7
STANDARD
140
0.18
170
     2
 62
     0
 63
     7
283
     0
274
    -2
284
     1
 64
     0
275
    -2
285
     1
 65
     0
276
    -2
286
     1
 66
     0
277
    -2
287
     1
 67
     0
278
    -2
288
     1
 68
     0
279
    -2
289
     1
 69
     0
  7
STANDARD
140
0.25
170
     5
 62
     0
 63
     7
283
     0
274
    -2
284
     1
 64
     0
275
    -2
285
     1
 65
     0
276
    -2
286
     1
 66
     0
277
    -2
287
     1
 67
     0
278
    -2
288
     1
 68
     0
279
    -2
289
     1
 69
     0
  7
STANDARD
140
0.18
170
     5
 62
     0
 63
     7
283
     0
274
    -2
284
     1
 64
     0
275
    -2
285
     1
 65
     0
276
    -2
286
     1
 66
     0
277
    -2
287
     1
 67
     0
278
    -2
288
     1
 68
     0
279
    -2
289
     1
 69
     0
  0
VISUALSTYLE
  5
34D
102
{ACAD_REACTORS
330
347
102
}
330
347
100
AcDbVisualStyle
  2
2dWireframe
 70
     4
 71
     0
 72
     2
 73
     0
 90
        0
 40
-0.6
 41
-30.0
 62
     5
 63
     7
 74
     1
 91
        4
 64
     7
 65
   257
 75
     1
175
     1
 42
1.0
 92
        0
 66
   257
 43
1.0
 76
     1
 77
     6
 78
     2
 67
     7
 79
     5
170
     0
171
     0
290
     0
174
     0
 93
        1
 44
0.0
173
     0
291
     0
 45
0.0
1001
ACAD
1000
AcDbSavedByObjectVersion
1070
     0
  0
VISUALSTYLE
  5
34F
102
{ACAD_REACTORS
330
347
102
}
330
347
100
AcDbVisualStyle
  2
3D Hidden
 70
     6
 71
     1
 72
     2
 73
     2
 90
        0
 40
-0.6
 41
-30.0
 62
     5
 63
     7
 74
     2
 91
        2
 64
     7
 65
   257
 75
     2
175
     1
 42
40.0
 92
        0
 66
   257
 43
1.0
 76
     1
 77
     6
 78
     2
 67
     7
 79
     3
170
     0
171
     0
290
     0
174
     0
 93
        1
 44
0.0
173
     0
291
     0
 45
0.0
1001
ACAD
1000
AcDbSavedByObjectVersion
1070
     0
  0
VISUALSTYLE
  5
34E
102
{ACAD_REACTORS
330
347
102
}
330
347
100
AcDbVisualStyle
  2
3dWireframe
 70
     5
 71
     0
 72
     2
 73
     0
 90
        0
 40
-0.6
 41
-30.0
 62
     5
 63
     7
 74
     1
 91
        4
 64
     7
 65
   257
 75
     1
175
     1
 42
1.0
 92
        0
 66
   257
 43
1.0
 76
     1
 77
     6
 78
     2
 67
     7
 79
     5
170
     0
171
     0
290
     0
174
     0
 93
        1
 44
0.0
173
     0
291
     0
 45
0.0
1001
ACAD
1000
AcDbSavedByObjectVersion
1070
     0
  0
VISUALSTYLE
  5
34C
102
{ACAD_REACTORS
330
347
102
}
330
347
100
AcDbVisualStyle
  2
Basic
 70
     7
 71
     1
 72
     0
 73
     1
 90
        0
 40
-0.6
 41
-30.0
 62
     5
 63
     7
 74
     0
 91
        4
 64
     7
 65
   257
 75
     1
175
     1
 42
1.0
 92
        8
 66
     7
 43
1.0
 76
     1
 77
     6
 78
     2
 67
     7
 79
     5
170
     0
171
     0
290
     0
174
     0
 93
        1
 44
0.0
173
     0
291
     1
 45
0.0
1001
ACAD
1000
AcDbSavedByObjectVersion
1070
     0
  0
VISUALSTYLE
  5
353
102
{ACAD_REACTORS
330
347
102
}
330
347
100
AcDbVisualStyle
  2
Brighten
 70
    12
 71
     2
 72
     2
 73
     0
 90
        0
 40
-0.6
 41
-30.0
 62
     5
 63
     7
 74
     1
 91
        4
 64
     7
 65
   257
 75
     1
175
     1
 42
1.0
 92
        8
 66
     7
 43
1.0
 76
     1
 77
     6
 78
     2
 67
     7
 79
     5
170
     0
171
     0
290
     0
174
     0
 93
        1
 44
50.0
173
     0
291
     1
 45
0.0
1001
ACAD
1000
AcDbSavedByObjectVersion
1070
     0
  0
VISUALSTYLE
  5
357
102
{ACAD_REACTORS
330
347
102
}
330
347
100
AcDbVisualStyle
  2
ColorChange
 70
    16
 71
     2
 72
     2
 73
     3
 90
        0
 40
-0.6
 41
-30.0
 62
     5
 63
     8
 74
     1
 91
        4
 64
     7
 65
   257
 75
     1
175
     1
 42
1.0
 92
        8
 66
     8
 43
1.0
 76
     1
 77
     6
 78
     2
 67
     7
 79
     5
170
     0
171
     0
290
     0
174
     0
 93
        1
 44
0.0
173
     0
291
     1
 45
0.0
1001
ACAD
1000
AcDbSavedByObjectVersion
1070
     0
  0
VISUALSTYLE
  5
350
102
{ACAD_REACTORS
330
347
102
}
330
347
100
AcDbVisualStyle
  2
Conceptual
 70
     9
 71
     3
 72
     2
 73
     0
 90
        0
 40
-0.6
 41
-30.0
 62
     5
 63
     7
 74
     2
 91
        2
 64
     7
 65
   257
 75
     1
175
     1
 42
40.0
 92
        8
 66
     7
 43
1.0
 76
     1
 77
     6
 78
     2
 67
     7
 79
     3
170
     0
171
     0
290
     0
174
     0
 93
        1
 44
0.0
173
     0
291
     0
 45
0.0
1001
ACAD
1000
AcDbSavedByObjectVersion
1070
     0
  0
VISUALSTYLE
  5
352
102
{ACAD_REACTORS
330
347
102
}
330
347
100
AcDbVisualStyle
  2
Dim
 70
    11
 71
     2
 72
     2
 73
     0
 90
        0
 40
-0.6
 41
-30.0
 62
     5
 63
     7
 74
     1
 91
        4
 64
     7
 65
   257
 75
     1
175
     1
 42
1.0
 92
        8
 66
     7
 43
1.0
 76
     1
 77
     6
 78
     2
 67
     7
 79
     5
170
     0
171
     0
290
     0
174
     0
 93
        1
 44
-50.0
173
     0
291
     1
 45
0.0
1001
ACAD
1000
AcDbSavedByObjectVersion
1070
     0
  0
VISUALSTYLE
  5
356
102
{ACAD_REACTORS
330
347
102
}
330
347
100
AcDbVisualStyle
  2
Facepattern
 70
    15
 71
     2
 72
     2
 73
     0
 90
        0
 40
-0.6
 41
-30.0
 62
     5
 63
     7
 74
     1
 91
        4
 64
     7
 65
   257
 75
     1
175
     1
 42
1.0
 92
        8
 66
     7
 43
1.0
 76
     1
 77
     6
 78
     2
 67
     7
 79
     5
170
     0
171
     0
290
     0
174
     0
 93
        1
 44
0.0
173
     0
291
     1
 45
0.0
1001
ACAD
1000
AcDbSavedByObjectVersion
1070
     0
  0
VISUALSTYLE
  5
348
102
{ACAD_REACTORS
330
347
102
}
330
347
100
AcDbVisualStyle
  2
Flat
 70
     0
 71
     2
 72
     1
 73
     1
 90
        2
 40
-0.6
 41
30.0
 62
     5
 63
     7
 74
     0
 91
        4
 64
     7
 65
   257
 75
     1
175
     1
 42
1.0
 92
        8
 66
     7
 43
1.0
 76
     1
 77
     6
 78
     2
 67
     7
 79
     5
170
     0
171
     0
290
     0
174
     0
 93
       13
 44
0.0
173
     0
291
     1
 45
0.0
1001
ACAD
1000
AcDbSavedByObjectVersion
1070
     0
  0
VISUALSTYLE
  5
349
102
{ACAD_REACTORS
330
347
102
}
330
347
100
AcDbVisualStyle
  2
FlatWithEdges
 70
     1
 71
     2
 72
     1
 73
     1
 90
        2
 40
-0.6
 41
30.0
 62
     5
 63
     7
 74
     1
 91
        4
 64
     7
 65
   257
 75
     1
175
     1
 42
1.0
 92
        0
 66
   257
 43
1.0
 76
     1
 77
     6
 78
     2
 67
     7
 79
     5
170
     0
171
     0
290
     0
174
     0
 93
       13
 44
0.0
173
     0
291
     1
 45
0.0
1001
ACAD
1000
AcDbSavedByObjectVersion
1070
     0
  0
VISUALSTYLE
  5
34A
102
{ACAD_REACTORS
330
347
102
}
330
347
100
AcDbVisualStyle
  2
Gouraud
 70
     2
 71
     2
 72
     2
 73
     1
 90
        2
 40
-0.6
 41
30.0
 62
     5
 63
     7
 74
     0
 91
        4
 64
     7
 65
   257
 75
     1
175
     1
 42
1.0
 92
        0
 66
     7
 43
1.0
 76
     1
 77
     6
 78
     2
 67
     7
 79
     5
170
     0
171
     0
290
     0
174
     0
 93
       13
 44
0.0
173
     0
291
     1
 45
0.0
1001
ACAD
1000
AcDbSavedByObjectVersion
1070
     0
  0
VISUALSTYLE
  5
34B
102
{ACAD_REACTORS
330
347
102
}
330
347
100
AcDbVisualStyle
  2
GouraudWithEdges
 70
     3
 71
     2
 72
     2
 73
     1
 90
        2
 40
-0.6
 41
30.0
 62
     5
 63
     7
 74
     1
 91
        4
 64
     7
 65
   257
 75
     1
175
     1
 42
1.0
 92
        0
 66
   257
 43
1.0
 76
     1
 77
     6
 78
     2
 67
     7
 79
     5
170
     0
171
     0
290
     0
174
     0
 93
       13
 44
0.0
173
     0
291
     1
 45
0.0
1001
ACAD
1000
AcDbSavedByObjectVersion
1070
     0
  0
VISUALSTYLE
  5
355
102
{ACAD_REACTORS
330
347
102
}
330
347
100
AcDbVisualStyle
  2
Linepattern
 70
    14
 71
     2
 72
     2
 73
     0
 90
        0
 40
-0.6
 41
-30.0
 62
     5
 63
     7
 74
     1
 91
        4
 64
     7
 65
   257
 75
     7
175
     7
 42
1.0
 92
        8
 66
     7
 43
1.0
 76
     1
 77
     6
 78
     2
 67
     7
 79
     5
170
     0
171
     0
290
     0
174
     0
 93
        1
 44
0.0
173
     0
291
     1
 45
0.0
1001
ACAD
1000
AcDbSavedByObjectVersion
1070
     0
  0
VISUALSTYLE
  5
351
102
{ACAD_REACTORS
330
347
102
}
330
347
100
AcDbVisualStyle
  2
Realistic
 70
     8
 71
     2
 72
     2
 73
     0
 90
        0
 40
-0.6
 41
-30.0
 62
     5
 63
     7
 74
     1
 91
        0
 64
     7
 65
   257
 75
     1
175
     1
 42
1.0
 92
        8
 66
     8
 43
1.0
 76
     1
 77
     6
 78
     2
 67
     7
 79
     5
170
     0
171
     0
290
     0
174
     0
 93
       13
 44
0.0
173
     0
291
     0
 45
0.0
1001
ACAD
1000
AcDbSavedByObjectVersion
1070
     0
  0
VISUALSTYLE
  5
354
102
{ACAD_REACTORS
330
347
102
}
330
347
100
AcDbVisualStyle
  2
Thicken
 70
    13
 71
     2
 72
     2
 73
     0
 90
        0
 40
-0.6
 41
-30.0
 62
     5
 63
     7
 74
     1
 91
        4
 64
     7
 65
   257
 75
     1
175
     1
 42
1.0
 92
       12
 66
     7
 43
1.0
 76
     1
 77
     6
 78
     2
 67
     7
 79
     5
170
     0
171
     0
290
     0
174
     0
 93
        1
 44
0.0
173
     0
291
     1
 45
0.0
1001
ACAD
1000
AcDbSavedByObjectVersion
1070
     0
  0
DICTIONARYVAR
  5
4A9
102
{ACAD_REACTORS
330
25D
102
}
330
25D
100
DictionaryVariables
280
     0
  1
STANDARD
  0
DICTIONARYVAR
  5
25E
102
{ACAD_REACTORS
330
25D
102
}
330
25D
100
DictionaryVariables
280
     0
  1
1
  0
DICTIONARYVAR
  5
4AB
102
{ACAD_REACTORS
330
25D
102
}
330
25D
100
DictionaryVariables
280
     0
  1
0
  0
DICTIONARYVAR
  5
4AA
102
{ACAD_REACTORS
330
25D
102
}
330
25D
100
DictionaryVariables
280
     0
  1
127
  0
DICTIONARY
  5
4AF
330
1FF
100
AcDbDictionary
280
     1
281
     1
  3
ACAD_XREC_ROUNDTRIP
360
4B0
  0
DICTIONARY
  5
4AD
330
1FE
100
AcDbDictionary
280
     1
281
     1
  3
ACAD_XREC_ROUNDTRIP
360
4AE
  0
DICTIONARY
  5
4B3
330
345
100
AcDbDictionary
280
     1
281
     1
  3
ACAD_XREC_ROUNDTRIP
360
4B4
  0
DICTIONARY
  5
4B1
330
344
100
AcDbDictionary
280
     1
281
     1
  3
ACAD_XREC_ROUNDTRIP
360
4B2
  0
DICTIONARY
  5
4B5
330
346
100
AcDbDictionary
280
     1
281
     1
  3
ACAD_XREC_ROUNDTRIP
360
4B6
  0
DICTIONARY
  5
4B7
330
35A
100
AcDbDictionary
280
     1
281
     1
  3
ACAD_XREC_ROUNDTRIP
360
4B8
  0
XRECORD
  5
4B0
102
{ACAD_REACTORS
330
4AF
102
}
330
4AF
100
AcDbXrecord
280
     1
102
SHADEPLOT
 70
     0
102
SHADEPLOTRESLEVEL
 70
     2
102
SHADEPLOTCUSTOMDPI
 70
   300
  0
XRECORD
  5
4AE
102
{ACAD_REACTORS
330
4AD
102
}
330
4AD
100
AcDbXrecord
280
     1
102
SHADEPLOT
 70
     0
102
SHADEPLOTRESLEVEL
 70
     2
102
SHADEPLOTCUSTOMDPI
 70
   300
  0
XRECORD
  5
4B4
102
{ACAD_REACTORS
330
4B3
102
}
330
4B3
100
AcDbXrecord
280
     1
102
MATERIAL
148
0.0
149
0.0
149
0.0
 93
        0
 94
       63
282
     0
 72
     1
 77
     1
171
     1
175
     1
179
     1
273
     0
  0
XRECORD
  5
4B2
102
{ACAD_REACTORS
330
4B1
102
}
330
4B1
100
AcDbXrecord
280
     1
102
MATERIAL
148
0.0
149
0.0
149
0.0
 93
        0
 94
       63
282
     0
 72
     1
 77
     1
171
     1
175
     1
179
     1
273
     0
  0
XRECORD
  5
4B6
102
{ACAD_REACTORS
330
4B5
102
}
330
4B5
100
AcDbXrecord
280
     1
102
MATERIAL
148
0.0
149
0.0
149
0.0
 93
        0
 94
       63
282
     0
 72
     1
 77
     1
171
     1
175
     1
179
     1
273
     0
  0
XRECORD
  5
4B8
102
{ACAD_REACTORS
330
4B7
102
}
330
4B7
100
AcDbXrecord
280
     1
102
ACAD_ROUNDTRIP_PRE2007_TABLESTYLE
 90
      512
 91
        0
  1

 92
      512
 93
        0
  2

 94
      512
 95
        0
  3

  0
ENDSEC
  0
EOF
