  0
SECTION
  2
HEADER
  9
$ACADVER
  1
AC1015
  9
$ACADMAINTVER
 70
    20
  9
$DWGCODEPAGE
  3
ANSI_1252
  9
$INSBASE
 10
27.26752652784997
 20
-3.979900805551555
 30
0.0
  9
$EXTMIN
 10
23.0928957553848
 20
-9.816236273975153
 30
0.0
  9
$EXTMAX
 10
40.13477736350212
 20
-1.719506141501462
 30
0.0
  9
$LIMMIN
 10
0.0
 20
0.0
  9
$LIMMAX
 10
36.0
 20
36.0
  9
$ORTHOMODE
 70
     1
  9
$REGENMODE
 70
     1
  9
$FILLMODE
 70
     1
  9
$QTEXTMODE
 70
     0
  9
$MIRRTEXT
 70
     1
  9
$LTSCALE
 40
1.0
  9
$ATTMODE
 70
     1
  9
$TEXTSIZE
 40
0.2
  9
$TRACEWID
 40
0.05
  9
$TEXTSTYLE
  7
STANDARD
  9
$CLAYER
  8
0
  9
$CELTYPE
  6
ByLayer
  9
$CECOLOR
 62
   256
  9
$CELTSCALE
 40
1.0
  9
$DISPSILH
 70
     0
  9
$DIMSCALE
 40
1.0
  9
$DIMASZ
 40
0.125
  9
$DIMEXO
 40
0.0625
  9
$DIMDLI
 40
0.38
  9
$DIMRND
 40
0.0
  9
$DIMDLE
 40
0.0
  9
$DIMEXE
 40
0.18
  9
$DIMTP
 40
0.0
  9
$DIMTM
 40
0.0
  9
$DIMTXT
 40
0.125
  9
$DIMCEN
 40
0.1875
  9
$DIMTSZ
 40
0.125
  9
$DIMTOL
 70
     0
  9
$DIMLIM
 70
     0
  9
$DIMTIH
 70
     0
  9
$DIMTOH
 70
     0
  9
$DIMSE1
 70
     0
  9
$DIMSE2
 70
     0
  9
$DIMTAD
 70
     0
  9
$DIMZIN
 70
     3
  9
$DIMBLK
  1

  9
$DIMASO
 70
     1
  9
$DIMSHO
 70
     1
  9
$DIMPOST
  1

  9
$DIMAPOST
  1

  9
$DIMALT
 70
     0
  9
$DIMALTD
 70
     1
  9
$DIMALTF
 40
25.4
  9
$DIMLFAC
 40
1.0
  9
$DIMTOFL
 70
     0
  9
$DIMTVP
 40
0.0
  9
$DIMTIX
 70
     0
  9
$DIMSOXD
 70
     0
  9
$DIMSAH
 70
     0
  9
$DIMBLK1
  1

  9
$DIMBLK2
  1

  9
$DIMSTYLE
  2
Standard
  9
$DIMCLRD
 70
     0
  9
$DIMCLRE
 70
     0
  9
$DIMCLRT
 70
     0
  9
$DIMTFAC
 40
1.0
  9
$DIMGAP
 40
0.125
  9
$DIMJUST
 70
     0
  9
$DIMSD1
 70
     0
  9
$DIMSD2
 70
     0
  9
$DIMTOLJ
 70
     1
  9
$DIMTZIN
 70
     3
  9
$DIMALTZ
 70
     3
  9
$DIMALTTZ
 70
     3
  9
$DIMUPT
 70
     0
  9
$DIMDEC
 70
     4
  9
$DIMTDEC
 70
     4
  9
$DIMALTU
 70
     5
  9
$DIMALTTD
 70
     1
  9
$DIMTXSTY
  7
STANDARD
  9
$DIMAUNIT
 70
     0
  9
$DIMADEC
 70
     0
  9
$DIMALTRND
 40
0.0
  9
$DIMAZIN
 70
     0
  9
$DIMDSEP
 70
    46
  9
$DIMATFIT
 70
     3
  9
$DIMFRAC
 70
     0
  9
$DIMLDRBLK
  1

  9
$DIMLUNIT
 70
     5
  9
$DIMLWD
 70
    -2
  9
$DIMLWE
 70
    -2
  9
$DIMTMOVE
 70
     2
  9
$LUNITS
 70
     5
  9
$LUPREC
 70
     4
  9
$SKETCHINC
 40
0.1
  9
$FILLETRAD
 40
0.187
  9
$AUNITS
 70
     0
  9
$AUPREC
 70
     0
  9
$MENU
  1
acad
  9
$ELEVATION
 40
0.0
  9
$PELEVATION
 40
0.0
  9
$THICKNESS
 40
0.0
  9
$LIMCHECK
 70
     0
  9
$CHAMFERA
 40
0.0
  9
$CHAMFERB
 40
0.0
  9
$CHAMFERC
 40
0.0
  9
$CHAMFERD
 40
0.0
  9
$SKPOLY
 70
     0
  9
$TDCREATE
 40
2450399.670869213
  9
$TDUCREATE
 40
2450399.837535880
  9
$TDUPDATE
 40
2453969.974214676
  9
$TDUUPDATE
 40
2453970.140881343
  9
$TDINDWG
 40
0.0341100810
  9
$TDUSRTIMER
 40
0.0341100810
  9
$USRTIMER
 70
     1
  9
$ANGBASE
 50
0.0
  9
$ANGDIR
 70
     0
  9
$PDMODE
 70
     0
  9
$PDSIZE
 40
0.0
  9
$PLINEWID
 40
0.0
  9
$SPLFRAME
 70
     0
  9
$SPLINETYPE
 70
     6
  9
$SPLINESEGS
 70
     8
  9
$HANDSEED
  5
32B
  9
$SURFTAB1
 70
     6
  9
$SURFTAB2
 70
     6
  9
$SURFTYPE
 70
     6
  9
$SURFU
 70
     6
  9
$SURFV
 70
     6
  9
$UCSBASE
  2

  9
$UCSNAME
  2

  9
$UCSORG
 10
0.0
 20
0.0
 30
0.0
  9
$UCSXDIR
 10
1.0
 20
0.0
 30
0.0
  9
$UCSYDIR
 10
0.0
 20
1.0
 30
0.0
  9
$UCSORTHOREF
  2

  9
$UCSORTHOVIEW
 70
     0
  9
$UCSORGTOP
 10
0.0
 20
0.0
 30
0.0
  9
$UCSORGBOTTOM
 10
0.0
 20
0.0
 30
0.0
  9
$UCSORGLEFT
 10
0.0
 20
0.0
 30
0.0
  9
$UCSORGRIGHT
 10
0.0
 20
0.0
 30
0.0
  9
$UCSORGFRONT
 10
0.0
 20
0.0
 30
0.0
  9
$UCSORGBACK
 10
0.0
 20
0.0
 30
0.0
  9
$PUCSBASE
  2

  9
$PUCSNAME
  2

  9
$PUCSORG
 10
0.0
 20
0.0
 30
0.0
  9
$PUCSXDIR
 10
1.0
 20
0.0
 30
0.0
  9
$PUCSYDIR
 10
0.0
 20
1.0
 30
0.0
  9
$PUCSORTHOREF
  2

  9
$PUCSORTHOVIEW
 70
     0
  9
$PUCSORGTOP
 10
0.0
 20
0.0
 30
0.0
  9
$PUCSORGBOTTOM
 10
0.0
 20
0.0
 30
0.0
  9
$PUCSORGLEFT
 10
0.0
 20
0.0
 30
0.0
  9
$PUCSORGRIGHT
 10
0.0
 20
0.0
 30
0.0
  9
$PUCSORGFRONT
 10
0.0
 20
0.0
 30
0.0
  9
$PUCSORGBACK
 10
0.0
 20
0.0
 30
0.0
  9
$USERI1
 70
     0
  9
$USERI2
 70
     0
  9
$USERI3
 70
     0
  9
$USERI4
 70
     0
  9
$USERI5
 70
     0
  9
$USERR1
 40
0.0
  9
$USERR2
 40
0.0
  9
$USERR3
 40
0.0
  9
$USERR4
 40
0.0
  9
$USERR5
 40
0.0
  9
$WORLDVIEW
 70
     1
  9
$SHADEDGE
 70
     3
  9
$SHADEDIF
 70
    70
  9
$TILEMODE
 70
     1
  9
$MAXACTVP
 70
    15
  9
$PINSBASE
 10
0.0004882914945483
 20
0.7501408034022604
 30
0.0
  9
$PLIMCHECK
 70
     0
  9
$PEXTMIN
 10
1.000000000000000E+20
 20
1.000000000000000E+20
 30
1.000000000000000E+20
  9
$PEXTMAX
 10
-1.000000000000000E+20
 20
-1.000000000000000E+20
 30
-1.000000000000000E+20
  9
$PLIMMIN
 10
0.0
 20
0.0
  9
$PLIMMAX
 10
12.0
 20
9.0
  9
$UNITMODE
 70
     0
  9
$VISRETAIN
 70
     0
  9
$PLINEGEN
 70
     0
  9
$PSLTSCALE
 70
     1
  9
$TREEDEPTH
 70
  3020
  9
$CMLSTYLE
  2
Standard
  9
$CMLJUST
 70
     0
  9
$CMLSCALE
 40
1.0
  9
$PROXYGRAPHICS
 70
     1
  9
$MEASUREMENT
 70
     0
  9
$CELWEIGHT
370
    -1
  9
$ENDCAPS
280
     0
  9
$JOINSTYLE
280
     0
  9
$LWDISPLAY
290
     0
  9
$INSUNITS
 70
     0
  9
$HYPERLINKBASE
  1

  9
$STYLESHEET
  1

  9
$XEDIT
290
     1
  9
$CEPSNTYPE
380
     0
  9
$PSTYLEMODE
290
     1
  9
$FINGERPRINTGUID
  2
{2743F3C1-5411-4A12-9CB4-4DD0300B0F6F}
  9
$VERSIONGUID
  2
{7303A05C-EB5D-4DD7-B5E7-A7A6694D7C68}
  9
$EXTNAMES
290
     1
  9
$PSVPSCALE
 40
0.0
  9
$OLESTARTUP
290
     0
  0
ENDSEC
  0
SECTION
  2
CLASSES
  0
CLASS
  1
ACDBDICTIONARYWDFLT
  2
AcDbDictionaryWithDefault
  3
ObjectDBX Classes
 90
        0
280
     0
281
     0
  0
CLASS
  1
ACDBPLACEHOLDER
  2
AcDbPlaceHolder
  3
ObjectDBX Classes
 90
        0
280
     0
281
     0
  0
CLASS
  1
LAYOUT
  2
AcDbLayout
  3
ObjectDBX Classes
 90
        0
280
     0
281
     0
  0
CLASS
  1
DICTIONARYVAR
  2
AcDbDictionaryVar
  3
ObjectDBX Classes
 90
        0
280
     0
281
     0
  0
CLASS
  1
MATERIAL
  2
AcDbMaterial
  3
ObjectDBX Classes
 90
     1024
280
     0
281
     0
  0
CLASS
  1
VISUALSTYLE
  2
AcDbVisualStyle
  3
ObjectDBX Classes
 90
     4095
280
     0
281
     0
  0
CLASS
  1
TABLESTYLE
  2
AcDbTableStyle
  3
ObjectDBX Classes
 90
     4095
280
     0
281
     0
  0
ENDSEC
  0
SECTION
  2
TABLES
  0
TABLE
  2
VPORT
  5
8
330
0
100
AcDbSymbolTable
 70
     1
  0
VPORT
  5
1D8
330
8
100
AcDbSymbolTableRecord
100
AcDbViewportTableRecord
  2
*Active
 70
     0
 10
0.0
 20
0.0
 11
1.0
 21
1.0
 12
28.83961527006596
 22
-2.992956165516433
 13
0.0
 23
0.0
 14
0.5740882589684922
 24
0.5740882589684922
 15
0.5
 25
0.5
 16
0.0
 26
0.0
 36
1.0
 17
0.0
 27
0.0
 37
0.0
 40
3.786378158813466
 41
1.726930320150659
 42
50.0
 43
0.0
 44
0.0
 50
0.0
 51
0.0
 71
     0
 72
   100
 73
     1
 74
     0
 75
     0
 76
     0
 77
     0
 78
     0
281
     0
 65
     1
110
0.0
120
0.0
130
0.0
111
1.0
121
0.0
131
0.0
112
0.0
122
1.0
132
0.0
 79
     0
146
0.0
  0
ENDTAB
  0
TABLE
  2
LTYPE
  5
5
330
0
100
AcDbSymbolTable
 70
     2
  0
LTYPE
  5
13
330
5
100
AcDbSymbolTableRecord
100
AcDbLinetypeTableRecord
  2
ByBlock
 70
     0
  3

 72
    65
 73
     0
 40
0.0
  0
LTYPE
  5
14
330
5
100
AcDbSymbolTableRecord
100
AcDbLinetypeTableRecord
  2
ByLayer
 70
     0
  3

 72
    65
 73
     0
 40
0.0
  0
LTYPE
  5
15
330
5
100
AcDbSymbolTableRecord
100
AcDbLinetypeTableRecord
  2
CONTINUOUS
 70
     0
  3
Solid line
 72
    65
 73
     0
 40
0.0
  0
LTYPE
  5
24
330
5
100
AcDbSymbolTableRecord
100
AcDbLinetypeTableRecord
  2
CENTER2
 70
     0
  3
___ _ ___ _ ___ _ ___ _ ___ _ ___ _ ___ _ ___ _
 72
    65
 73
     4
 40
1.125
 49
0.75
 74
     0
 49
-0.125
 74
     0
 49
0.125
 74
     0
 49
-0.125
 74
     0
  0
ENDTAB
  0
TABLE
  2
LAYER
  5
2
330
0
100
AcDbSymbolTable
 70
     5
  0
LAYER
  5
10
330
2
100
AcDbSymbolTableRecord
100
AcDbLayerTableRecord
  2
0
 70
     0
 62
     7
  6
CONTINUOUS
370
    -3
390
F
  0
LAYER
  5
26
330
2
100
AcDbSymbolTableRecord
100
AcDbLayerTableRecord
  2
ADP1DETAIL
 70
     0
 62
     7
  6
CONTINUOUS
370
    -3
390
F
  0
LAYER
  5
27
330
2
100
AcDbSymbolTableRecord
100
AcDbLayerTableRecord
  2
ADP3DETAIL
 70
     0
 62
     1
  6
CONTINUOUS
370
    -3
390
F
  0
LAYER
  5
28
330
2
100
AcDbSymbolTableRecord
100
AcDbLayerTableRecord
  2
DEFPOINTS
 70
     0
 62
     7
  6
CONTINUOUS
290
     0
370
    -3
390
F
  0
LAYER
  5
29
330
2
100
AcDbSymbolTableRecord
100
AcDbLayerTableRecord
  2
ADPDIM
 70
     0
 62
     3
  6
CONTINUOUS
370
    -3
390
F
  0
ENDTAB
  0
TABLE
  2
STYLE
  5
3
330
0
100
AcDbSymbolTable
 70
     2
  0
STYLE
  5
11
330
3
100
AcDbSymbolTableRecord
100
AcDbTextStyleTableRecord
  2
STANDARD
 70
     0
 40
0.0
 41
1.0
 50
0.0
 71
     0
 42
0.2
  3
txt
  4

  0
STYLE
  5
7F
330
3
100
AcDbSymbolTableRecord
100
AcDbTextStyleTableRecord
  2
ARIAL_WIDE
 70
     0
 40
0.0
 41
1.25
 50
0.0
 71
     0
 42
0.2
  3
ARIAL.TTF
  4

1001
ACAD
1000
Arial
1071
       34
  0
ENDTAB
  0
TABLE
  2
VIEW
  5
6
330
0
100
AcDbSymbolTable
 70
     0
  0
ENDTAB
  0
TABLE
  2
UCS
  5
7
330
0
100
AcDbSymbolTable
 70
     0
  0
ENDTAB
  0
TABLE
  2
APPID
  5
9
330
0
100
AcDbSymbolTable
 70
     1
  0
APPID
  5
12
330
9
100
AcDbSymbolTableRecord
100
AcDbRegAppTableRecord
  2
ACAD
 70
     0
  0
ENDTAB
  0
TABLE
  2
DIMSTYLE
  5
A
330
0
100
AcDbSymbolTable
 70
     1
100
AcDbDimStyleTable
 71
     0
  0
DIMSTYLE
105
7D
102
{ACAD_REACTORS
330
27B
330
27C
330
29B
102
}
330
A
100
AcDbSymbolTableRecord
100
AcDbDimStyleTableRecord
  2
Standard
 70
     0
340
11
  0
ENDTAB
  0
TABLE
  2
BLOCK_RECORD
  5
1
330
0
100
AcDbSymbolTable
 70
     9
  0
BLOCK_RECORD
  5
1E
102
{ACAD_XDICTIONARY
360
BC
102
}
330
1
100
AcDbSymbolTableRecord
100
AcDbBlockTableRecord
  2
*Model_Space
340
21
  0
BLOCK_RECORD
  5
1A
102
{ACAD_XDICTIONARY
360
BE
102
}
330
1
100
AcDbSymbolTableRecord
100
AcDbBlockTableRecord
  2
*Paper_Space
340
1D
  0
BLOCK_RECORD
  5
22
330
1
100
AcDbSymbolTableRecord
100
AcDbBlockTableRecord
  2
4534
340
0
  0
BLOCK_RECORD
  5
23
330
1
100
AcDbSymbolTableRecord
100
AcDbBlockTableRecord
  2
*D1
340
0
  0
BLOCK_RECORD
  5
22A
330
1
100
AcDbSymbolTableRecord
100
AcDbBlockTableRecord
  2
*D2
340
0
  0
BLOCK_RECORD
  5
237
330
1
100
AcDbSymbolTableRecord
100
AcDbBlockTableRecord
  2
*D3
340
0
  0
BLOCK_RECORD
  5
244
330
1
100
AcDbSymbolTableRecord
100
AcDbBlockTableRecord
  2
*D4
340
0
  0
BLOCK_RECORD
  5
29C
330
1
100
AcDbSymbolTableRecord
100
AcDbBlockTableRecord
  2
*D6
340
0
  0
BLOCK_RECORD
  5
2A9
330
1
100
AcDbSymbolTableRecord
100
AcDbBlockTableRecord
  2
*D7
340
0
  0
BLOCK_RECORD
  5
2B6
330
1
100
AcDbSymbolTableRecord
100
AcDbBlockTableRecord
  2
*D8
340
0
  0
ENDTAB
  0
ENDSEC
  0
SECTION
  2
BLOCKS
  0
BLOCK
  5
2C
330
1E
100
AcDbEntity
  8
0
100
AcDbBlockBegin
  2
*Model_Space
 70
     0
 10
0.0
 20
0.0
 30
0.0
  3
*Model_Space
  1

  0
ENDBLK
  5
2D
330
1E
100
AcDbEntity
  8
0
100
AcDbBlockEnd
  0
BLOCK
  5
2A
330
1A
100
AcDbEntity
 67
     1
  8
0
100
AcDbBlockBegin
  2
*Paper_Space
 70
     0
 10
0.0
 20
0.0
 30
0.0
  3
*Paper_Space
  1

  0
ENDBLK
  5
2B
330
1A
100
AcDbEntity
 67
     1
  8
0
100
AcDbBlockEnd
  0
BLOCK
  5
2E
330
22
100
AcDbEntity
  8
0
100
AcDbBlockBegin
  2
4534
 70
     0
 10
0.0
 20
0.0
 30
0.0
  3
4534
  1

  0
ARC
  5
2F
330
22
100
AcDbEntity
  8
0
100
AcDbCircle
 10
0.9568465071617815
 20
-0.3474590559073043
 30
0.0
 40
0.7541535398112679
100
AcDbArc
 50
90.33969080341311
 51
122.9566245269621
  0
LINE
  5
30
330
22
100
AcDbEntity
  8
0
100
AcDbLine
 10
0.9501837493723073
 20
0.0225040703052883
 30
0.0
 11
0.4401837493723058
 21
0.0225040703052883
 31
0.0
  0
ARC
  5
31
330
22
100
AcDbEntity
  8
0
100
AcDbCircle
 10
0.1564877412167185
 20
-0.011317945294028
 30
0.0
 40
0.172
100
AcDbArc
 50
90.0
 51
253.1047022829751
  0
LINE
  5
32
330
22
100
AcDbEntity
  8
0
100
AcDbLine
 10
0.2958675537051043
 20
-0.3352694000813798
 30
0.0
 11
0.2958675537051043
 21
-0.2162122567308238
 31
0.0
  0
ARC
  5
33
330
22
100
AcDbEntity
  8
0
100
AcDbCircle
 10
-0.1097587313102224
 20
-0.3553179452940256
 30
0.0
 40
0.281
100
AcDbArc
 50
3.857940632984877
 51
39.68150569509935
  0
LINE
  5
34
330
22
100
AcDbEntity
  8
0
100
AcDbLine
 10
0.2951837493723062
 20
-0.1854959296947101
 30
0.0
 11
0.2951837493723026
 21
-0.3352677680330416
 31
0.0
  0
ARC
  5
35
330
22
100
AcDbEntity
  8
0
100
AcDbCircle
 10
0.275183749372303
 20
-0.3352677680330416
 30
0.0
 40
0.02
100
AcDbArc
 50
269.8632513722728
 51
0.000000000000007
  0
ARC
  5
36
330
22
100
AcDbEntity
  8
0
100
AcDbCircle
 10
0.1905591841206515
 20
-0.3350657930317027
 30
0.0
 40
0.02
100
AcDbArc
 50
183.8579406329851
 51
269.863251372273
  0
LINE
  5
37
330
22
100
AcDbEntity
  8
0
100
AcDbLine
 10
0.2751360151415945
 20
-0.3552677110690396
 30
0.0
 11
0.1905114498899429
 21
-0.3550657360677043
 31
0.0
  0
ARC
  5
38
330
22
100
AcDbEntity
  8
0
100
AcDbCircle
 10
0.4401837493723058
 20
0.0025040703052888
 30
0.0
 40
0.02
100
AcDbArc
 50
90.0
 51
180.0
  0
LINE
  5
39
330
22
100
AcDbEntity
  8
0
100
AcDbLine
 10
0.4201837493723062
 20
0.0025040703052888
 30
0.0
 11
0.4201837493723062
 21
-0.1454959296947109
 31
0.0
  0
LINE
  5
3A
330
22
100
AcDbEntity
  8
0
100
AcDbLine
 10
0.4001837493723066
 20
-0.1654959296947105
 30
0.0
 11
0.3151837493723057
 21
-0.1654959296947105
 31
0.0
  0
ARC
  5
3B
330
22
100
AcDbEntity
  8
0
100
AcDbCircle
 10
0.3151837493723057
 20
-0.1854959296947101
 30
0.0
 40
0.02
100
AcDbArc
 50
90.0
 51
179.9999999999988
  0
ARC
  5
3C
330
22
100
AcDbEntity
  8
0
100
AcDbCircle
 10
0.4001837493723066
 20
-0.1454959296947109
 30
0.0
 40
0.02
100
AcDbArc
 50
270.0
 51
0.0
  0
ARC
  5
3D
330
22
100
AcDbEntity
  8
0
100
AcDbCircle
 10
0.2304491183831949
 20
0.8805167640974893
 30
0.0
 40
0.6739279713431704
100
AcDbArc
 50
270.7283063874851
 51
297.9754350771305
  0
ARC
  5
3E
330
22
100
AcDbEntity
  8
0
100
AcDbCircle
 10
0.239269638294477
 20
0.186644853842477
 30
0.0
 40
0.02
100
AcDbArc
 50
90.72830638748687
 51
180.0911363201224
  0
LINE
  5
3F
330
22
100
AcDbEntity
  8
0
100
AcDbLine
 10
0.1564877412167185
 20
0.1606820547059726
 30
0.0
 11
0.2193109102057242
 21
0.1606820547059726
 31
0.0
  0
LINE
  5
40
330
22
100
AcDbEntity
  8
0
100
AcDbLine
 10
0.220328715458681
 20
0.2072426747402503
 30
0.0
 11
0.2188095789136106
 21
0.2072426747402503
 31
0.0
  0
LINE
  5
41
330
22
100
AcDbEntity
  8
0
100
AcDbLine
 10
0.2192696635954761
 20
0.1866130412788038
 30
0.0
 11
0.2193109102057242
 21
0.1606820547059726
 31
0.0
  0
LINE
  5
42
330
22
100
AcDbEntity
  8
0
100
AcDbLine
 10
0.220328715458681
 20
0.2072426747402503
 30
0.0
 11
0.2192377412167197
 21
0.206682054705972
 31
0.0
  0
ARC
  5
43
330
22
100
AcDbEntity
  8
0
100
AcDbCircle
 10
1.748262990682441
 20
-0.011317945294028
 30
0.0
 40
0.172
100
AcDbArc
 50
286.8952977170249
 51
90.0
  0
ARC
  5
44
330
22
100
AcDbEntity
  8
0
100
AcDbCircle
 10
1.504566982526853
 20
-0.1454959296947109
 30
0.0
 40
0.02
100
AcDbArc
 50
180.0
 51
270.0
  0
LINE
  5
45
330
22
100
AcDbEntity
  8
0
100
AcDbLine
 10
0.9545669825268525
 20
0.0225040703052883
 30
0.0
 11
1.464566982526854
 21
0.0225040703052883
 31
0.0
  0
ARC
  5
46
330
22
100
AcDbEntity
  8
0
100
AcDbCircle
 10
1.464566982526854
 20
0.0025040703052888
 30
0.0
 40
0.02
100
AcDbArc
 50
0.0
 51
90.0
  0
LINE
  5
47
330
22
100
AcDbEntity
  8
0
100
AcDbLine
 10
1.484566982526853
 20
0.0025040703052888
 30
0.0
 11
1.484566982526853
 21
-0.1454959296947109
 31
0.0
  0
ARC
  5
48
330
22
100
AcDbEntity
  8
0
100
AcDbCircle
 10
2.014509463209382
 20
-0.3553179452940256
 30
0.0
 40
0.281
100
AcDbArc
 50
140.3184943049006
 51
176.1420593670151
  0
LINE
  5
49
330
22
100
AcDbEntity
  8
0
100
AcDbLine
 10
1.609566982526853
 20
-0.1854959296947101
 30
0.0
 11
1.609566982526857
 21
-0.3352677680330416
 31
0.0
  0
LINE
  5
4A
330
22
100
AcDbEntity
  8
0
100
AcDbLine
 10
1.608883178194055
 20
-0.3352694000813798
 30
0.0
 11
1.608883178194055
 21
-0.2162122567308238
 31
0.0
  0
ARC
  5
4B
330
22
100
AcDbEntity
  8
0
100
AcDbCircle
 10
1.714191547778508
 20
-0.3350657930317027
 30
0.0
 40
0.02
100
AcDbArc
 50
270.136748627727
 51
356.1420593670149
  0
ARC
  5
4C
330
22
100
AcDbEntity
  8
0
100
AcDbCircle
 10
1.629566982526856
 20
-0.3352677680330416
 30
0.0
 40
0.02
100
AcDbArc
 50
180.0
 51
270.1367486277272
  0
LINE
  5
4D
330
22
100
AcDbEntity
  8
0
100
AcDbLine
 10
1.629614716757565
 20
-0.3552677110690396
 30
0.0
 11
1.714239282009216
 21
-0.3550657360677043
 31
0.0
  0
ARC
  5
4E
330
22
100
AcDbEntity
  8
0
100
AcDbCircle
 10
1.589566982526854
 20
-0.1854959296947101
 30
0.0
 40
0.02
100
AcDbArc
 50
0.0000000000012213
 51
90.0
  0
LINE
  5
4F
330
22
100
AcDbEntity
  8
0
100
AcDbLine
 10
1.504566982526853
 20
-0.1654959296947105
 30
0.0
 11
1.589566982526854
 21
-0.1654959296947105
 31
0.0
  0
ARC
  5
50
330
22
100
AcDbEntity
  8
0
100
AcDbCircle
 10
1.674301613515964
 20
0.8805167640974893
 30
0.0
 40
0.6739279713431704
100
AcDbArc
 50
242.0245649228695
 51
269.2716936125149
  0
ARC
  5
51
330
22
100
AcDbEntity
  8
0
100
AcDbCircle
 10
0.9479042247373818
 20
-0.3474590559073007
 30
0.0
 40
0.7541535398112624
100
AcDbArc
 50
57.04337547303806
 51
89.66030919658718
  0
LINE
  5
52
330
22
100
AcDbEntity
  8
0
100
AcDbLine
 10
1.684422016440478
 20
0.2072426747402503
 30
0.0
 11
1.68551299068244
 21
0.206682054705972
 31
0.0
  0
LINE
  5
53
330
22
100
AcDbEntity
  8
0
100
AcDbLine
 10
1.685481068303683
 20
0.1866130412788038
 30
0.0
 11
1.685439821693435
 21
0.1606820547059726
 31
0.0
  0
LINE
  5
54
330
22
100
AcDbEntity
  8
0
100
AcDbLine
 10
1.684422016440478
 20
0.2072426747402503
 30
0.0
 11
1.685941152985549
 21
0.2072426747402503
 31
0.0
  0
LINE
  5
55
330
22
100
AcDbEntity
  8
0
100
AcDbLine
 10
1.748262990682441
 20
0.1606820547059726
 30
0.0
 11
1.685439821693435
 21
0.1606820547059726
 31
0.0
  0
ARC
  5
56
330
22
100
AcDbEntity
  8
0
100
AcDbCircle
 10
1.665481093604682
 20
0.186644853842477
 30
0.0
 40
0.02
100
AcDbArc
 50
359.9088636798776
 51
89.27169361251312
  0
ENDBLK
  5
57
330
22
100
AcDbEntity
  8
0
100
AcDbBlockEnd
  0
BLOCK
  5
58
330
23
100
AcDbEntity
  8
0
100
AcDbBlockBegin
  2
*D1
 70
     1
 10
0.0
 20
0.0
 30
0.0
  3
*D1
  1

  0
LINE
  5
59
330
23
100
AcDbEntity
  8
0
  6
ByBlock
 62
     0
100
AcDbLine
 10
27.26957505453696
 20
-3.349844879417118
 30
0.0
 11
27.26957505453696
 21
-2.338526126734254
 31
0.0
  0
LINE
  5
5A
330
23
100
AcDbEntity
  8
0
  6
ByBlock
 62
     0
100
AcDbLine
 10
29.20161807735525
 20
-3.349844879417118
 30
0.0
 11
29.20161807735525
 21
-2.338526126734254
 31
0.0
  0
LINE
  5
5B
330
23
100
AcDbEntity
  8
0
  6
ByBlock
 62
     0
100
AcDbLine
 10
27.26957505453696
 20
-2.518526126734253
 30
0.0
 11
27.75642989927944
 21
-2.518526126734253
 31
0.0
  0
LINE
  5
5C
330
23
100
AcDbEntity
  8
0
  6
ByBlock
 62
     0
100
AcDbLine
 10
29.20161807735525
 20
-2.518526126734253
 30
0.0
 11
28.71476323261277
 21
-2.518526126734253
 31
0.0
  0
LINE
  5
5D
330
23
100
AcDbEntity
  8
0
  6
ByBlock
 62
     0
100
AcDbLine
 10
27.14457505453696
 20
-2.643526126734253
 30
0.0
 11
27.39457505453696
 21
-2.393526126734253
 31
0.0
  0
LINE
  5
5E
330
23
100
AcDbEntity
  8
0
  6
ByBlock
 62
     0
100
AcDbLine
 10
29.07661807735525
 20
-2.643526126734253
 30
0.0
 11
29.32661807735525
 21
-2.393526126734253
 31
0.0
  0
TEXT
  5
5F
330
23
100
AcDbEntity
  8
0
  6
ByBlock
 62
     0
100
AcDbText
 10
27.88142989927944
 20
-2.581026126734253
 30
0.0
 40
0.125
  1
1 15/16
 72
     1
 11
28.23559656594611
 21
-2.518526126734253
 31
0.0
100
AcDbText
 73
     2
  0
POINT
  5
61
330
23
100
AcDbEntity
  8
DEFPOINTS
  6
ByBlock
 62
     0
100
AcDbPoint
 10
27.26957505453696
 20
-3.412344879417118
 30
0.0
  0
POINT
  5
62
330
23
100
AcDbEntity
  8
DEFPOINTS
  6
ByBlock
 62
     0
100
AcDbPoint
 10
29.20161807735525
 20
-3.412344879417118
 30
0.0
  0
POINT
  5
63
330
23
100
AcDbEntity
  8
DEFPOINTS
  6
ByBlock
 62
     0
100
AcDbPoint
 10
29.20161807735525
 20
-2.518526126734253
 30
0.0
  0
ENDBLK
  5
64
330
23
100
AcDbEntity
  8
0
100
AcDbBlockEnd
  0
BLOCK
  5
22B
330
22A
100
AcDbEntity
  8
0
100
AcDbBlockBegin
  2
*D2
 70
     1
 10
0.0
 20
0.0
 30
0.0
  3
*D2
  1

  0
LINE
  5
22C
330
22A
100
AcDbEntity
  8
0
  6
ByBlock
 62
     0
100
AcDbLine
 10
-5.570875322096235
 20
16.34418086125946
 30
0.0
 11
-5.570875322096235
 21
16.98468491484248
 31
0.0
  0
LINE
  5
22D
330
22A
100
AcDbEntity
  8
0
  6
ByBlock
 62
     0
100
AcDbLine
 10
-3.633375322096235
 20
16.34418086125946
 30
0.0
 11
-3.633375322096235
 21
16.98468491484248
 31
0.0
  0
LINE
  5
22E
330
22A
100
AcDbEntity
  8
0
  6
ByBlock
 62
     0
100
AcDbLine
 10
-5.570875322096235
 20
16.80468491484248
 30
0.0
 11
-5.081291988762902
 21
16.80468491484248
 31
0.0
  0
LINE
  5
22F
330
22A
100
AcDbEntity
  8
0
  6
ByBlock
 62
     0
100
AcDbLine
 10
-3.633375322096235
 20
16.80468491484248
 30
0.0
 11
-4.122958655429568
 21
16.80468491484248
 31
0.0
  0
LINE
  5
230
330
22A
100
AcDbEntity
  8
0
  6
ByBlock
 62
     0
100
AcDbLine
 10
-5.695875322096235
 20
16.67968491484248
 30
0.0
 11
-5.445875322096235
 21
16.92968491484248
 31
0.0
  0
LINE
  5
231
330
22A
100
AcDbEntity
  8
0
  6
ByBlock
 62
     0
100
AcDbLine
 10
-3.758375322096235
 20
16.67968491484248
 30
0.0
 11
-3.508375322096235
 21
16.92968491484248
 31
0.0
  0
TEXT
  5
232
330
22A
100
AcDbEntity
  8
0
  6
ByBlock
 62
     0
100
AcDbText
 10
-4.956291988762902
 20
16.7527214007672
 30
0.0
 40
0.125
  1
1 15/16
 72
     1
 11
-4.602125322096235
 21
16.8152214007672
 31
0.0
100
AcDbText
 73
     2
  0
POINT
  5
233
330
22A
100
AcDbEntity
  8
DEFPOINTS
  6
ByBlock
 62
     0
100
AcDbPoint
 10
-5.570875322096235
 20
16.28168086125947
 30
0.0
  0
POINT
  5
234
330
22A
100
AcDbEntity
  8
DEFPOINTS
  6
ByBlock
 62
     0
100
AcDbPoint
 10
-3.633375322096235
 20
16.28168086125947
 30
0.0
  0
POINT
  5
235
330
22A
100
AcDbEntity
  8
DEFPOINTS
  6
ByBlock
 62
     0
100
AcDbPoint
 10
-3.633375322096235
 20
16.80468491484248
 30
0.0
  0
ENDBLK
  5
236
330
22A
100
AcDbEntity
  8
0
100
AcDbBlockEnd
  0
BLOCK
  5
238
330
237
100
AcDbEntity
  8
0
 62
     3
100
AcDbBlockBegin
  2
*D3
 70
     1
 10
0.0
 20
0.0
 30
0.0
  3
*D3
  1

  0
LINE
  5
239
330
237
100
AcDbEntity
  8
ADPDIM
 62
     0
370
    -2
100
AcDbLine
 10
-5.139842644247238
 20
16.01639276743517
 30
0.0
 11
-5.139842644247238
 21
15.72920641039329
 31
0.0
  0
LINE
  5
23A
330
237
100
AcDbEntity
  8
ADPDIM
 62
     0
370
    -2
100
AcDbLine
 10
-4.077342644247238
 20
16.01639276743517
 30
0.0
 11
-4.077342644247238
 21
15.72920641039329
 31
0.0
  0
LINE
  5
23B
330
237
100
AcDbEntity
  8
ADPDIM
 62
     0
370
    -2
100
AcDbLine
 10
-5.139842644247238
 20
15.90920641039329
 30
0.0
 11
-5.389842644247238
 21
15.90920641039329
 31
0.0
  0
LINE
  5
23C
330
237
100
AcDbEntity
  8
ADPDIM
 62
     0
370
    -2
100
AcDbLine
 10
-4.077342644247238
 20
15.90920641039329
 30
0.0
 11
-3.827342644247238
 21
15.90920641039329
 31
0.0
  0
LINE
  5
23D
330
237
100
AcDbEntity
  8
ADPDIM
 62
     0
370
    -2
100
AcDbLine
 10
-4.202342644247238
 20
15.78420641039329
 30
0.0
 11
-3.952342644247238
 21
16.03420641039329
 31
0.0
  0
LINE
  5
23E
330
237
100
AcDbEntity
  8
ADPDIM
 62
     0
370
    -2
100
AcDbLine
 10
-5.264842644247238
 20
15.78420641039329
 30
0.0
 11
-5.014842644247238
 21
16.03420641039329
 31
0.0
  0
MTEXT
  5
23F
330
237
100
AcDbEntity
  8
ADPDIM
 62
     0
100
AcDbMText
 10
-4.608592644247238
 20
15.90920641039329
 30
0.0
 40
0.125
 41
0.0
 71
     5
 72
     1
  1
\A1;1 1/16
 73
     1
 44
1.0
1001
ACAD
1000
MTEXTBEGIN
1070
    73
1070
     1
1070
    44
1040
1.0
1070
    74
1070
     0
1000
MTEXTEND
  0
POINT
  5
240
330
237
100
AcDbEntity
  8
DEFPOINTS
 62
     0
100
AcDbPoint
 10
-5.139842644247238
 20
16.07889276743517
 30
0.0
  0
POINT
  5
241
330
237
100
AcDbEntity
  8
DEFPOINTS
 62
     0
100
AcDbPoint
 10
-4.077342644247238
 20
16.07889276743517
 30
0.0
  0
POINT
  5
242
330
237
100
AcDbEntity
  8
DEFPOINTS
 62
     0
100
AcDbPoint
 10
-4.077342644247238
 20
15.90920641039329
 30
0.0
  0
ENDBLK
  5
243
330
237
100
AcDbEntity
  8
0
 62
     3
100
AcDbBlockEnd
  0
BLOCK
  5
245
330
244
100
AcDbEntity
  8
0
100
AcDbBlockBegin
  2
*D4
 70
     1
 10
0.0
 20
0.0
 30
0.0
  3
*D4
  1

  0
LINE
  5
246
330
244
100
AcDbEntity
  8
ADPDIM
 62
     0
370
    -2
100
AcDbLine
 10
-5.265947791234616
 20
15.84049617173728
 30
0.0
 11
-5.265947791234616
 21
15.51835302673663
 31
0.0
  0
LINE
  5
247
330
244
100
AcDbEntity
  8
ADPDIM
 62
     0
370
    -2
100
AcDbLine
 10
-3.95294779123462
 20
15.84049617173728
 30
0.0
 11
-3.95294779123462
 21
15.51835302673663
 31
0.0
  0
LINE
  5
248
330
244
100
AcDbEntity
  8
ADPDIM
 62
     0
370
    -2
100
AcDbLine
 10
-5.265947791234616
 20
15.69835302673663
 30
0.0
 11
-5.027547041878545
 21
15.69835302673663
 31
0.0
  0
LINE
  5
249
330
244
100
AcDbEntity
  8
ADPDIM
 62
     0
370
    -2
100
AcDbLine
 10
-3.95294779123462
 20
15.69835302673663
 30
0.0
 11
-4.152547041878545
 21
15.69835302673663
 31
0.0
  0
MTEXT
  5
24A
330
244
100
AcDbEntity
  8
ADPDIM
 62
     0
100
AcDbMText
 10
-4.590047041878545
 20
15.55650640522175
 30
0.0
 40
0.125
 41
0.0
 71
     5
 72
     1
  1
\A1;1 5/16
 73
     1
 44
1.0
1001
ACAD
1000
MTEXTBEGIN
1070
    73
1070
     1
1070
    44
1040
1.0
1070
    74
1070
     0
1000
MTEXTEND
  0
LINE
  5
24B
330
244
100
AcDbEntity
  8
ADPDIM
 62
     0
370
    -2
100
AcDbLine
 10
-4.07794779123462
 20
15.57335302673663
 30
0.0
 11
-3.82794779123462
 21
15.82335302673663
 31
0.0
  0
LINE
  5
24C
330
244
100
AcDbEntity
  8
ADPDIM
 62
     0
370
    -2
100
AcDbLine
 10
-5.390947791234616
 20
15.57335302673663
 30
0.0
 11
-5.140947791234616
 21
15.82335302673663
 31
0.0
  0
POINT
  5
24D
330
244
100
AcDbEntity
  8
DEFPOINTS
 62
     0
100
AcDbPoint
 10
-5.265947791234616
 20
15.90299617173728
 30
0.0
  0
POINT
  5
24E
330
244
100
AcDbEntity
  8
DEFPOINTS
 62
     0
100
AcDbPoint
 10
-3.95294779123462
 20
15.90299617173728
 30
0.0
  0
POINT
  5
24F
330
244
100
AcDbEntity
  8
DEFPOINTS
 62
     0
100
AcDbPoint
 10
-3.95294779123462
 20
15.69835302673663
 30
0.0
  0
ENDBLK
  5
250
330
244
100
AcDbEntity
  8
0
100
AcDbBlockEnd
  0
BLOCK
  5
2A7
330
29C
100
AcDbEntity
  8
0
100
AcDbBlockBegin
  2
*D6
 70
     1
 10
0.0
 20
0.0
 30
0.0
  3
*D6
  1

  0
LINE
  5
2C3
330
29C
100
AcDbEntity
  8
ADPDIM
 62
     0
370
    -2
100
AcDbLine
 10
27.59210262164563
 20
-3.354633004013091
 30
0.0
 11
27.59210262164563
 21
-3.67677614901374
 31
0.0
  0
LINE
  5
2C4
330
29C
100
AcDbEntity
  8
ADPDIM
 62
     0
370
    -2
100
AcDbLine
 10
28.90510262164562
 20
-3.354633004013091
 30
0.0
 11
28.90510262164562
 21
-3.67677614901374
 31
0.0
  0
LINE
  5
2C5
330
29C
100
AcDbEntity
  8
ADPDIM
 62
     0
370
    -2
100
AcDbLine
 10
27.59210262164563
 20
-3.49677614901374
 30
0.0
 11
27.8305033710017
 21
-3.49677614901374
 31
0.0
  0
LINE
  5
2C6
330
29C
100
AcDbEntity
  8
ADPDIM
 62
     0
370
    -2
100
AcDbLine
 10
28.90510262164562
 20
-3.49677614901374
 30
0.0
 11
28.7055033710017
 21
-3.49677614901374
 31
0.0
  0
MTEXT
  5
2C7
330
29C
100
AcDbEntity
  8
ADPDIM
 62
     0
100
AcDbMText
 10
28.2680033710017
 20
-3.638622770528623
 30
0.0
 40
0.125
 41
0.0
 71
     5
 72
     1
  1
\A1;1 5/16
 73
     1
 44
1.0
1001
ACAD
1000
MTEXTBEGIN
1070
    73
1070
     1
1070
    44
1040
1.0
1070
    74
1070
     0
1000
MTEXTEND
  0
LINE
  5
2C8
330
29C
100
AcDbEntity
  8
ADPDIM
 62
     0
370
    -2
100
AcDbLine
 10
28.78010262164562
 20
-3.62177614901374
 30
0.0
 11
29.03010262164562
 21
-3.37177614901374
 31
0.0
  0
LINE
  5
2C9
330
29C
100
AcDbEntity
  8
ADPDIM
 62
     0
370
    -2
100
AcDbLine
 10
27.46710262164563
 20
-3.62177614901374
 30
0.0
 11
27.71710262164563
 21
-3.37177614901374
 31
0.0
  0
POINT
  5
2CA
330
29C
100
AcDbEntity
  8
DEFPOINTS
 62
     0
100
AcDbPoint
 10
27.59210262164563
 20
-3.292133004013091
 30
0.0
  0
POINT
  5
2CB
330
29C
100
AcDbEntity
  8
DEFPOINTS
 62
     0
100
AcDbPoint
 10
28.90510262164562
 20
-3.292133004013091
 30
0.0
  0
POINT
  5
2CC
330
29C
100
AcDbEntity
  8
DEFPOINTS
 62
     0
100
AcDbPoint
 10
28.90510262164562
 20
-3.49677614901374
 30
0.0
  0
ENDBLK
  5
2A8
330
29C
100
AcDbEntity
  8
0
100
AcDbBlockEnd
  0
BLOCK
  5
2B4
330
2A9
100
AcDbEntity
  8
0
100
AcDbBlockBegin
  2
*D7
 70
     1
 10
0.0
 20
0.0
 30
0.0
  3
*D7
  1

  0
LINE
  5
2F5
330
2A9
100
AcDbEntity
  8
ADPDIM
 62
     0
370
    -2
100
AcDbLine
 10
27.28717509078401
 20
-2.850948314490903
 30
0.0
 11
27.28717509078401
 21
-2.19990777498317
 31
0.0
  0
LINE
  5
2F6
330
2A9
100
AcDbEntity
  8
ADPDIM
 62
     0
370
    -2
100
AcDbLine
 10
29.22467509078401
 20
-2.850948314490903
 30
0.0
 11
29.22467509078401
 21
-2.19990777498317
 31
0.0
  0
LINE
  5
2F7
330
2A9
100
AcDbEntity
  8
ADPDIM
 62
     0
370
    -2
100
AcDbLine
 10
27.46717509078401
 20
-2.37990777498317
 30
0.0
 11
27.81175842411734
 21
-2.37990777498317
 31
0.0
  0
LINE
  5
2F8
330
2A9
100
AcDbEntity
  8
ADPDIM
 62
     0
370
    -2
100
AcDbLine
 10
29.04467509078401
 20
-2.37990777498317
 30
0.0
 11
28.70009175745068
 21
-2.37990777498317
 31
0.0
  0
SOLID
  5
2F9
330
2A9
100
AcDbEntity
  8
ADPDIM
 62
     0
100
AcDbTrace
 10
27.46717509078401
 20
-2.34990777498317
 30
0.0
 11
27.46717509078401
 21
-2.40990777498317
 31
0.0
 12
27.28717509078401
 22
-2.37990777498317
 32
0.0
 13
27.28717509078401
 23
-2.37990777498317
 33
0.0
  0
SOLID
  5
2FA
330
2A9
100
AcDbEntity
  8
ADPDIM
 62
     0
100
AcDbTrace
 10
29.04467509078401
 20
-2.34990777498317
 30
0.0
 11
29.04467509078401
 21
-2.40990777498317
 31
0.0
 12
29.22467509078401
 22
-2.37990777498317
 32
0.0
 13
29.22467509078401
 23
-2.37990777498317
 33
0.0
  0
MTEXT
  5
2FB
330
2A9
100
AcDbEntity
  8
ADPDIM
 62
     0
100
AcDbMText
 10
28.25592509078401
 20
-2.37990777498317
 30
0.0
 40
0.125
 41
0.0
 71
     5
 72
     1
  1
\A1;1 15/16
 73
     1
 44
1.0
1001
ACAD
1000
MTEXTBEGIN
1070
    73
1070
     1
1070
    44
1040
1.0
1070
    74
1070
     0
1000
MTEXTEND
  0
POINT
  5
2FC
330
2A9
100
AcDbEntity
  8
DEFPOINTS
 62
     0
100
AcDbPoint
 10
27.28717509078401
 20
-2.913448314490903
 30
0.0
  0
POINT
  5
2FD
330
2A9
100
AcDbEntity
  8
DEFPOINTS
 62
     0
100
AcDbPoint
 10
29.22467509078401
 20
-2.913448314490903
 30
0.0
  0
POINT
  5
2FE
330
2A9
100
AcDbEntity
  8
DEFPOINTS
 62
     0
100
AcDbPoint
 10
29.22467509078401
 20
-2.37990777498317
 30
0.0
  0
ENDBLK
  5
2B5
330
2A9
100
AcDbEntity
  8
0
100
AcDbBlockEnd
  0
BLOCK
  5
2C1
330
2B6
100
AcDbEntity
  8
0
100
AcDbBlockBegin
  2
*D8
 70
     1
 10
0.0
 20
0.0
 30
0.0
  3
*D8
  1

  0
LINE
  5
2D7
330
2B6
100
AcDbEntity
  8
ADPDIM
 62
     0
370
    -2
100
AcDbLine
 10
27.71820776863301
 20
-3.178736408315202
 30
0.0
 11
27.71820776863301
 21
-3.465922765357078
 31
0.0
  0
LINE
  5
2D8
330
2B6
100
AcDbEntity
  8
ADPDIM
 62
     0
370
    -2
100
AcDbLine
 10
28.780707768633
 20
-3.178736408315202
 30
0.0
 11
28.780707768633
 21
-3.465922765357078
 31
0.0
  0
LINE
  5
2D9
330
2B6
100
AcDbEntity
  8
ADPDIM
 62
     0
370
    -2
100
AcDbLine
 10
27.71820776863301
 20
-3.285922765357078
 30
0.0
 11
27.468207768633
 21
-3.285922765357078
 31
0.0
  0
LINE
  5
2DA
330
2B6
100
AcDbEntity
  8
ADPDIM
 62
     0
370
    -2
100
AcDbLine
 10
28.780707768633
 20
-3.285922765357078
 30
0.0
 11
29.030707768633
 21
-3.285922765357078
 31
0.0
  0
LINE
  5
2DB
330
2B6
100
AcDbEntity
  8
ADPDIM
 62
     0
370
    -2
100
AcDbLine
 10
28.65570776863301
 20
-3.410922765357078
 30
0.0
 11
28.90570776863301
 21
-3.160922765357078
 31
0.0
  0
LINE
  5
2DC
330
2B6
100
AcDbEntity
  8
ADPDIM
 62
     0
370
    -2
100
AcDbLine
 10
27.59320776863301
 20
-3.410922765357078
 30
0.0
 11
27.843207768633
 21
-3.160922765357078
 31
0.0
  0
MTEXT
  5
2DD
330
2B6
100
AcDbEntity
  8
ADPDIM
 62
     0
100
AcDbMText
 10
28.249457768633
 20
-3.285922765357078
 30
0.0
 40
0.125
 41
0.0
 71
     5
 72
     1
  1
\A1;1 1/16
 73
     1
 44
1.0
1001
ACAD
1000
MTEXTBEGIN
1070
    73
1070
     1
1070
    44
1040
1.0
1070
    74
1070
     0
1000
MTEXTEND
  0
POINT
  5
2DE
330
2B6
100
AcDbEntity
  8
DEFPOINTS
 62
     0
100
AcDbPoint
 10
27.71820776863301
 20
-3.116236408315202
 30
0.0
  0
POINT
  5
2DF
330
2B6
100
AcDbEntity
  8
DEFPOINTS
 62
     0
100
AcDbPoint
 10
28.780707768633
 20
-3.116236408315202
 30
0.0
  0
POINT
  5
2E0
330
2B6
100
AcDbEntity
  8
DEFPOINTS
 62
     0
100
AcDbPoint
 10
28.780707768633
 20
-3.285922765357078
 30
0.0
  0
ENDBLK
  5
2C2
330
2B6
100
AcDbEntity
  8
0
100
AcDbBlockEnd
  0
ENDSEC
  0
SECTION
  2
ENTITIES
  0
ARC
  5
65
330
1E
100
AcDbEntity
  8
ADP1DETAIL
 62
     7
100
AcDbCircle
 10
32.61126923073083
 20
-3.988731881787393
 30
0.0
 40
5.343749999999996
100
AcDbArc
 50
179.9053130054389
 51
231.9131952546504
  0
ARC
  5
66
330
1E
100
AcDbEntity
  8
ADP1DETAIL
 62
     7
100
AcDbCircle
 10
32.64587504339166
 20
-3.980801462581528
 30
0.0
 40
5.180441814593351
100
AcDbArc
 50
179.9936560167902
 51
231.6163448633772
  0
ARC
  5
67
330
1E
100
AcDbEntity
  8
ADP3DETAIL
  6
CENTER2
100
AcDbCircle
 10
32.7759729202741
 20
-5.023361576194275
 30
0.0
 40
2.616141278644822
100
AcDbArc
 50
337.5991485264454
 51
41.43558677842771
  0
CIRCLE
  5
68
330
1E
100
AcDbEntity
  8
ADP1DETAIL
100
AcDbCircle
 10
32.61126923073083
 20
-3.988731881787392
 30
0.0
 40
0.9375
  0
ARC
  5
69
330
1E
100
AcDbEntity
  8
ADP1DETAIL
 62
     7
100
AcDbCircle
 10
32.82636278871029
 20
-4.999320568601719
 30
0.0
 40
3.53125
100
AcDbArc
 50
336.2651980356835
 51
43.03115183437234
  0
ARC
  5
6A
330
1E
100
AcDbEntity
  8
ADP1DETAIL
 62
     7
100
AcDbCircle
 10
32.61126923073083
 20
-3.988731881787392
 30
0.0
 40
1.908842742289585
100
AcDbArc
 50
153.2321519767738
 51
338.6188577730451
  0
ARC
  5
6B
330
1E
100
AcDbEntity
  8
ADP1DETAIL
 62
     7
100
AcDbCircle
 10
32.7653197351494
 20
-5.033627286831666
 30
0.0
 40
3.406796090711349
100
AcDbArc
 50
337.2156623131686
 51
42.68739787587059
  0
ARC
  5
6C
330
1E
100
AcDbEntity
  8
ADP1DETAIL
 62
     7
100
AcDbCircle
 10
32.60074125835359
 20
-3.99247634120347
 30
0.0
 40
1.705891285932345
100
AcDbArc
 50
152.9606084022235
 51
357.2423107178191
  0
ARC
  5
6D
330
1E
100
AcDbEntity
  8
ADP3DETAIL
  6
CENTER2
100
AcDbCircle
 10
32.61126923073083
 20
-3.988731881787392
 30
0.0
 40
4.375
100
AcDbArc
 50
179.9053130054389
 51
225.0986898046568
  0
ARC
  5
6E
330
1E
100
AcDbEntity
  8
ADP1DETAIL
 62
     7
100
AcDbCircle
 10
32.5499638137338
 20
-4.000874747845747
 30
0.0
 40
3.344987143663372
100
AcDbArc
 50
179.6955841228318
 51
225.6956851670299
  0
ARC
  5
6F
330
1E
100
AcDbEntity
  8
ADP1DETAIL
 62
     7
100
AcDbCircle
 10
32.3613315380216
 20
-4.096977896684922
 30
0.0
 40
3.326058997557624
100
AcDbArc
 50
178.8471909387974
 51
233.4304746336945
  0
ARC
  5
70
330
1E
100
AcDbEntity
  8
ADP1DETAIL
 62
     7
100
AcDbCircle
 10
32.8518187118042
 20
-5.024776491695625
 30
0.0
 40
1.735992110458608
100
AcDbArc
 50
336.2651980356835
 51
33.18661288293645
  0
ARC
  5
71
330
1E
100
AcDbEntity
  8
ADP3DETAIL
  6
CENTER2
100
AcDbCircle
 10
31.99254948410809
 20
-4.6074486582485
 30
0.0
 40
3.500001870270732
100
AcDbArc
 50
225.1233966053673
 51
336.1915277648293
  0
ARC
  5
72
330
1E
100
AcDbEntity
  8
ADP1DETAIL
 62
     7
100
AcDbCircle
 10
31.98978432628275
 20
-4.616498508362033
 30
0.0
 40
2.513322519031729
100
AcDbArc
 50
225.0321162522221
 51
336.8160591539193
  0
ARC
  5
73
330
1E
100
AcDbEntity
  8
ADP1DETAIL
 62
     7
100
AcDbCircle
 10
31.99095438122059
 20
-4.615615124011075
 30
0.0
 40
2.6888784305599
100
AcDbArc
 50
233.1845693627054
 51
335.6674312085702
  0
ARC
  5
74
330
1E
100
AcDbEntity
  8
ADP1DETAIL
 62
     7
100
AcDbCircle
 10
31.98575144873864
 20
-4.642060919158955
 30
0.0
 40
4.444573764985929
100
AcDbArc
 50
233.0647342783122
 51
336.4109627893818
  0
ARC
  5
75
330
1E
100
AcDbEntity
  8
ADP1DETAIL
 62
     7
100
AcDbCircle
 10
31.9925507971926
 20
-4.607450315325621
 30
0.0
 40
4.285331513962377
100
AcDbArc
 50
233.2613773858744
 51
335.9633526900324
  0
ARC
  5
76
330
1E
100
AcDbEntity
  8
ADP1DETAIL
 62
     7
100
AcDbCircle
 10
32.82636278871029
 20
-4.999320568601719
 30
0.0
 40
1.59375
100
AcDbArc
 50
337.6271160549884
 51
11.38771012666099
  0
ARC
  5
77
330
1E
100
AcDbEntity
  8
ADP3DETAIL
  6
CENTER2
100
AcDbCircle
 10
33.36257018574154
 20
-4.563256141501462
 30
0.0
 40
1.875
100
AcDbArc
 50
42.76435997148872
 51
147.9510012183967
  0
ARC
  5
78
330
1E
100
AcDbEntity
  8
ADP1DETAIL
 62
     7
100
AcDbCircle
 10
33.36257018574154
 20
-4.563256141501462
 30
0.0
 40
2.84375
100
AcDbArc
 50
43.98307854056023
 51
149.7123225654701
  0
ARC
  5
79
330
1E
100
AcDbEntity
  8
ADP1DETAIL
 62
     7
100
AcDbCircle
 10
33.36257018574154
 20
-4.563256141501462
 30
0.0
 40
2.646059182017187
100
AcDbArc
 50
43.98307854056023
 51
149.7123225654701
  0
LINE
  5
7A
330
1E
100
AcDbEntity
  8
ADP1DETAIL
100
AcDbLine
 10
29.20502388211086
 20
-3.983102716233555
 30
0.0
 11
27.26752652784997
 21
-3.979900805551555
 31
0.0
  0
TEXT
  5
80
330
1E
100
AcDbEntity
  8
ADPDIM
100
AcDbText
 10
23.0928957553848
 20
-9.769979452692751
 30
0.0
 40
0.15625
  1
J U L I U S  B L U M  &  C O . ,  I N C .      ( 8 0 0 )  5 2 6 - 6 2 9 3        W W W . J U L I U S B L U M . C O M        P A R T  N o .  4 5 3 4 - G R
 41
1.25
  7
ARIAL_WIDE
 72
     1
 11
31.61383655944346
 21
-9.613729452692751
 31
0.0
100
AcDbText
 73
     3
  0
ARC
  5
279
330
1E
100
AcDbEntity
  8
0
100
AcDbCircle
 10
28.9664439165811
 20
-2.008621388519909
 30
0.0
 40
0.75
100
AcDbArc
 50
237.1983482620581
 51
268.8764813422996
  0
LINE
  5
27A
330
1E
100
AcDbEntity
  8
0
100
AcDbLine
 10
28.77960262164562
 20
-2.935418337884819
 30
0.0
 11
28.24744391658111
 21
-2.935418337884819
 31
0.0
  0
DIMENSION
  5
27B
330
1E
100
AcDbEntity
  8
ADPDIM
100
AcDbDimension
  2
*D6
 10
28.90510262164562
 20
-3.49677614901374
 30
0.0
 11
28.2680033710017
 21
-3.638622770528623
 31
0.0
 70
   160
 71
     5
 42
1.312999999999995
  3
Standard
100
AcDbAlignedDimension
 13
27.59210262164563
 23
-3.292133004013091
 33
0.0
 14
28.90510262164562
 24
-3.292133004013091
 34
0.0
100
AcDbRotatedDimension
1001
ACAD
1000
DSTYLE
1002
{
1070
   276
1070
     2
1070
    41
1040
0.125
1070
    73
1070
     0
1070
    74
1070
     0
1070
    78
1070
     3
1070
   140
1040
0.125
1070
   141
1040
0.1875
1070
   142
1040
0.125
1070
   147
1040
0.125
1070
   171
1070
     1
1070
   273
1070
     5
1070
   274
1070
     1
1070
   277
1070
     5
1070
   279
1070
     2
1070
   284
1070
     3
1070
   285
1070
     3
1070
   286
1070
     3
1002
}
  0
DIMENSION
  5
27C
330
1E
100
AcDbEntity
  8
ADPDIM
100
AcDbDimension
  2
*D7
 10
29.22467509078401
 20
-2.37990777498317
 30
0.0
 11
28.25592509078401
 21
-2.37990777498317
 31
0.0
 70
   160
 71
     5
 42
1.9375
  3
Standard
100
AcDbAlignedDimension
 13
27.28717509078401
 23
-2.913448314490903
 33
0.0
 14
29.22467509078401
 24
-2.913448314490903
 34
0.0
100
AcDbRotatedDimension
1001
ACAD
1000
DSTYLE
1002
{
1070
   276
1070
     2
1070
   277
1070
     5
1070
   140
1040
0.125
1002
}
  0
ARC
  5
27D
330
1E
100
AcDbEntity
  8
0
100
AcDbCircle
 10
27.53076132671015
 20
-2.008621388519912
 30
0.0
 40
0.7499999999999969
100
AcDbArc
 50
271.1235186577002
 51
302.8016517379419
  0
LINE
  5
27E
330
1E
100
AcDbEntity
  8
0
100
AcDbLine
 10
27.60710262164562
 20
-3.123418337884821
 30
0.0
 11
27.70260262164562
 21
-3.123418337884821
 31
0.0
  0
LINE
  5
27F
330
1E
100
AcDbEntity
  8
0
100
AcDbLine
 10
27.59210262164562
 20
-3.292133004013091
 30
0.0
 11
27.59210262164562
 21
-3.138418337884818
 31
0.0
  0
ARC
  5
280
330
1E
100
AcDbEntity
  8
0
100
AcDbCircle
 10
27.24286710830738
 20
-3.300094109684389
 30
0.0
 40
0.2196970135271751
100
AcDbArc
 50
358.1639806528344
 51
66.74166570965843
  0
ARC
  5
281
330
1E
100
AcDbEntity
  8
0
100
AcDbCircle
 10
27.57710262164563
 20
-3.292133004013091
 30
0.0
 40
0.015
100
AcDbArc
 50
270.0
 51
0.0000000000003053
  0
LINE
  5
282
330
1E
100
AcDbEntity
  8
0
100
AcDbLine
 10
27.46245133296705
 20
-3.307133004013092
 30
0.0
 11
27.57710262164563
 21
-3.307133004013092
 31
0.0
  0
LINE
  5
283
330
1E
100
AcDbEntity
  8
0
100
AcDbLine
 10
27.53076132671014
 20
-2.809187365223259
 30
0.0
 11
27.53076132671014
 21
-2.773474315558829
 31
0.0
  0
ARC
  5
284
330
1E
100
AcDbEntity
  8
0
100
AcDbCircle
 10
27.54576132671014
 20
-2.773474315558829
 30
0.0
 40
0.015
100
AcDbArc
 50
91.12351865770264
 51
180.0
  0
ARC
  5
285
330
1E
100
AcDbEntity
  8
0
100
AcDbCircle
 10
27.51576132671015
 20
-2.809187365223259
 30
0.0
 40
0.015
100
AcDbArc
 50
270.0
 51
0.0
  0
LINE
  5
286
330
1E
100
AcDbEntity
  8
0
100
AcDbLine
 10
27.51576132671015
 20
-2.824187365223256
 30
0.0
 11
27.45446569147995
 21
-2.824187365223256
 31
0.0
  0
ARC
  5
287
330
1E
100
AcDbEntity
  8
0
100
AcDbCircle
 10
27.60710262164562
 20
-3.138418337884818
 30
0.0
 40
0.015
100
AcDbArc
 50
90.0
 51
180.0
  0
ARC
  5
288
330
1E
100
AcDbEntity
  8
0
100
AcDbCircle
 10
27.42913937531158
 20
-2.978117796617897
 30
0.0
 40
0.1559999999999998
100
AcDbArc
 50
80.65678061822477
 51
230.3615138867189
  0
LINE
  5
289
330
1E
100
AcDbEntity
  8
0
100
AcDbLine
 10
27.71760262164562
 20
-2.935418337884819
 30
0.0
 11
28.24976132671014
 21
-2.935418337884819
 31
0.0
  0
ARC
  5
28A
330
1E
100
AcDbEntity
  8
0
100
AcDbCircle
 10
28.24976132671015
 20
-3.320737123714032
 30
0.0
 40
0.7499999999999986
100
AcDbArc
 50
90.08851858174326
 51
114.6411830056756
  0
ARC
  5
28B
330
1E
100
AcDbEntity
  8
0
100
AcDbCircle
 10
27.70260262164562
 20
-3.10841833788482
 30
0.0
 40
0.015
100
AcDbArc
 50
270.0
 51
0.0
  0
LINE
  5
28C
330
1E
100
AcDbEntity
  8
0
100
AcDbLine
 10
27.71760262164562
 20
-3.10841833788482
 30
0.0
 11
27.71760262164562
 21
-2.935418337884819
 31
0.0
  0
ARC
  5
28D
330
1E
100
AcDbEntity
  8
0
100
AcDbCircle
 10
28.2474439165811
 20
-3.320737123714035
 30
0.0
 40
0.7500000000000019
100
AcDbArc
 50
65.35881699432437
 51
89.91148141825673
  0
ARC
  5
28E
330
1E
100
AcDbEntity
  8
0
100
AcDbCircle
 10
29.25433813498388
 20
-3.300094109684394
 30
0.0
 40
0.2196970135271803
100
AcDbArc
 50
113.258334290342
 51
181.8360193471643
  0
LINE
  5
28F
330
1E
100
AcDbEntity
  8
0
100
AcDbLine
 10
28.90510262164563
 20
-3.292133004013091
 30
0.0
 11
28.90510262164563
 21
-3.138418337884818
 31
0.0
  0
LINE
  5
290
330
1E
100
AcDbEntity
  8
0
100
AcDbLine
 10
29.0347539103242
 20
-3.307133004013092
 30
0.0
 11
28.92010262164562
 21
-3.307133004013092
 31
0.0
  0
ARC
  5
291
330
1E
100
AcDbEntity
  8
0
100
AcDbCircle
 10
28.92010262164562
 20
-3.292133004013091
 30
0.0
 40
0.015
100
AcDbArc
 50
179.9999999999997
 51
270.0
  0
LINE
  5
292
330
1E
100
AcDbEntity
  8
0
100
AcDbLine
 10
28.98144391658111
 20
-2.824187365223256
 30
0.0
 11
29.0427395518113
 21
-2.824187365223256
 31
0.0
  0
LINE
  5
293
330
1E
100
AcDbEntity
  8
0
100
AcDbLine
 10
28.9664439165811
 20
-2.809187365223259
 30
0.0
 11
28.9664439165811
 21
-2.773474315558829
 31
0.0
  0
ARC
  5
294
330
1E
100
AcDbEntity
  8
0
100
AcDbCircle
 10
28.98144391658111
 20
-2.809187365223259
 30
0.0
 40
0.015
100
AcDbArc
 50
180.0
 51
270.0
  0
ARC
  5
295
330
1E
100
AcDbEntity
  8
0
100
AcDbCircle
 10
28.9514439165811
 20
-2.773474315558829
 30
0.0
 40
0.015
100
AcDbArc
 50
0.0
 51
88.87648134229735
  0
LINE
  5
296
330
1E
100
AcDbEntity
  8
0
100
AcDbLine
 10
28.89010262164563
 20
-3.123418337884821
 30
0.0
 11
28.79460262164562
 21
-3.123418337884821
 31
0.0
  0
ARC
  5
297
330
1E
100
AcDbEntity
  8
0
100
AcDbCircle
 10
28.79460262164562
 20
-3.10841833788482
 30
0.0
 40
0.015
100
AcDbArc
 50
180.0
 51
270.0
  0
ARC
  5
298
330
1E
100
AcDbEntity
  8
0
100
AcDbCircle
 10
28.89010262164563
 20
-3.138418337884818
 30
0.0
 40
0.015
100
AcDbArc
 50
0.0
 51
90.0
  0
ARC
  5
299
330
1E
100
AcDbEntity
  8
0
100
AcDbCircle
 10
29.06806586797967
 20
-2.978117796617897
 30
0.0
 40
0.1559999999999996
100
AcDbArc
 50
309.6384861132801
 51
99.34321938177587
  0
LINE
  5
29A
330
1E
100
AcDbEntity
  8
0
100
AcDbLine
 10
28.77960262164562
 20
-3.10841833788482
 30
0.0
 11
28.77960262164562
 21
-2.935418337884819
 31
0.0
  0
DIMENSION
  5
29B
330
1E
100
AcDbEntity
  8
ADPDIM
 62
     3
100
AcDbDimension
  2
*D8
 10
28.780707768633
 20
-3.285922765357078
 30
0.0
 11
28.249457768633
 21
-3.285922765357078
 31
0.0
 70
    32
 71
     5
 42
1.0625
  3
Standard
100
AcDbAlignedDimension
 13
27.71820776863301
 23
-3.116236408315202
 33
0.0
 14
28.780707768633
 24
-3.116236408315202
 34
0.0
100
AcDbRotatedDimension
1001
ACAD
1000
DSTYLE
1002
{
1070
   276
1070
     2
1070
    41
1040
0.125
1070
    73
1070
     0
1070
    74
1070
     0
1070
    78
1070
     3
1070
   140
1040
0.125
1070
   141
1040
0.1875
1070
   142
1040
0.125
1070
   147
1040
0.125
1070
   171
1070
     1
1070
   273
1070
     5
1070
   274
1070
     1
1070
   277
1070
     5
1070
   279
1070
     2
1070
   284
1070
     3
1070
   285
1070
     3
1070
   286
1070
     3
1002
}
  0
ENDSEC
  0
SECTION
  2
OBJECTS
  0
DICTIONARY
  5
C
330
0
100
AcDbDictionary
281
     1
  3
ACAD_COLOR
350
224
  3
ACAD_GROUP
350
D
  3
ACAD_LAYOUT
350
19
  3
ACAD_MATERIAL
350
20F
  3
ACAD_MLINESTYLE
350
16
  3
ACAD_PLOTSETTINGS
350
18
  3
ACAD_PLOTSTYLENAME
350
E
  3
ACAD_TABLESTYLE
350
225
  3
ACAD_VISUALSTYLE
350
213
  3
AcDbVariableDictionary
350
F1
  3
DWGPROPS
350
31E
  0
DICTIONARY
  5
BC
330
1E
100
AcDbDictionary
280
     1
281
     1
  3
ACAD_LAYOUTSELFREF
360
20B
  0
DICTIONARY
  5
BE
330
1A
100
AcDbDictionary
280
     1
281
     1
  3
ACAD_LAYOUTSELFREF
360
20A
  0
DICTIONARY
  5
224
102
{ACAD_REACTORS
330
C
102
}
330
C
100
AcDbDictionary
281
     1
  0
DICTIONARY
  5
D
102
{ACAD_REACTORS
330
C
102
}
330
C
100
AcDbDictionary
281
     1
  0
DICTIONARY
  5
19
102
{ACAD_REACTORS
330
C
102
}
330
C
100
AcDbDictionary
281
     1
  3
Layout1
350
1D
  3
Model
350
21
  0
DICTIONARY
  5
20F
102
{ACAD_REACTORS
330
C
102
}
330
C
100
AcDbDictionary
281
     1
  3
ByBlock
350
211
  3
ByLayer
350
210
  3
Global
350
212
  0
DICTIONARY
  5
16
102
{ACAD_REACTORS
330
C
102
}
330
C
100
AcDbDictionary
281
     1
  3
Standard
350
17
  0
DICTIONARY
  5
18
102
{ACAD_REACTORS
330
C
102
}
330
C
100
AcDbDictionary
281
     1
  0
ACDBDICTIONARYWDFLT
  5
E
102
{ACAD_REACTORS
330
C
102
}
330
C
100
AcDbDictionary
281
     1
  3
Normal
350
F
100
AcDbDictionaryWithDefault
340
F
  0
DICTIONARY
  5
225
102
{ACAD_REACTORS
330
C
102
}
330
C
100
AcDbDictionary
281
     1
  3
Standard
350
226
  0
DICTIONARY
  5
213
102
{ACAD_REACTORS
330
C
102
}
330
C
100
AcDbDictionary
281
     1
  3
2dWireframe
350
219
  3
3D Hidden
350
21B
  3
3dWireframe
350
21A
  3
Basic
350
218
  3
Brighten
350
21F
  3
ColorChange
350
223
  3
Conceptual
350
21C
  3
Dim
350
21E
  3
Facepattern
350
222
  3
Flat
350
214
  3
FlatWithEdges
350
215
  3
Gouraud
350
216
  3
GouraudWithEdges
350
217
  3
Linepattern
350
221
  3
Realistic
350
21D
  3
Thicken
350
220
  0
DICTIONARY
  5
F1
102
{ACAD_REACTORS
330
C
102
}
330
C
100
AcDbDictionary
281
     1
  3
CTABLESTYLE
350
31B
  3
DIMASSOC
350
F3
  3
HIDETEXT
350
F2
  3
INDEXCTL
350
31D
  3
SORTENTS
350
31C
  0
XRECORD
  5
31E
102
{ACAD_REACTORS
330
C
102
}
330
C
100
AcDbXrecord
280
     1
  1
DWGPROPS COOKIE
  2

  3

  4

  6

  7

  8
Yu Hu
  9

300
=
301
=
302
=
303
=
304
=
305
=
306
=
307
=
308
=
309
=
 40
0.0341099652777778
 41
2450399.670869213
 42
2453969.974214676
  1

 90
        0
  0
XRECORD
  5
20B
102
{ACAD_REACTORS
330
BC
102
}
330
BC
100
AcDbXrecord
280
     1
340
1E
  0
XRECORD
  5
20A
102
{ACAD_REACTORS
330
BE
102
}
330
BE
100
AcDbXrecord
280
     1
340
1A
  0
LAYOUT
  5
1D
102
{ACAD_XDICTIONARY
360
31F
102
}
102
{ACAD_REACTORS
330
19
102
}
330
19
100
AcDbPlotSettings
  1

  2
Fax
  4

  6

 40
0.0
 41
0.0
 42
0.0
 43
0.0
 44
0.0
 45
0.0
 46
0.0
 47
0.0
 48
0.0
 49
0.0
140
0.0
141
0.0
142
1.0
143
1.0
 70
   688
 72
     0
 73
     0
 74
     5
  7
Default R14 pen assignments.ctb
 75
    16
147
1.0
148
0.0
149
0.0
100
AcDbLayout
  1
Layout1
 70
     1
 71
     1
 10
0.0
 20
0.0
 11
12.0
 21
9.0
 12
0.0004882914945483
 22
0.7501408034022604
 32
0.0
 14
1.000000000000000E+20
 24
1.000000000000000E+20
 34
1.000000000000000E+20
 15
-1.000000000000000E+20
 25
-1.000000000000000E+20
 35
-1.000000000000000E+20
146
0.0
 13
0.0
 23
0.0
 33
0.0
 16
1.0
 26
0.0
 36
0.0
 17
0.0
 27
1.0
 37
0.0
 76
     0
330
1A
  0
LAYOUT
  5
21
102
{ACAD_XDICTIONARY
360
321
102
}
102
{ACAD_REACTORS
330
19
102
}
330
19
100
AcDbPlotSettings
  1

  2
Fax
  4

  6

 40
0.0
 41
0.0
 42
0.0
 43
0.0
 44
0.0
 45
0.0
 46
0.0
 47
0.0
 48
0.0
 49
0.0
140
0.0
141
0.0
142
1.0
143
1.0
 70
  1712
 72
     0
 73
     0
 74
     0
  7
Default R14 pen assignments.ctb
 75
     0
147
1.0
148
0.0
149
0.0
100
AcDbLayout
  1
Model
 70
     1
 71
     0
 10
0.0
 20
0.0
 11
12.0
 21
9.0
 12
0.0
 22
0.0
 32
0.0
 14
0.0
 24
0.0
 34
0.0
 15
0.0
 25
0.0
 35
0.0
146
0.0
 13
0.0
 23
0.0
 33
0.0
 16
1.0
 26
0.0
 36
0.0
 17
0.0
 27
1.0
 37
0.0
 76
     0
330
1E
331
1D8
  0
MATERIAL
  5
211
102
{ACAD_XDICTIONARY
360
325
102
}
102
{ACAD_REACTORS
330
20F
102
}
330
20F
100
AcDbMaterial
  1
ByBlock
  0
MATERIAL
  5
210
102
{ACAD_XDICTIONARY
360
323
102
}
102
{ACAD_REACTORS
330
20F
102
}
330
20F
100
AcDbMaterial
  1
ByLayer
  0
MATERIAL
  5
212
102
{ACAD_XDICTIONARY
360
327
102
}
102
{ACAD_REACTORS
330
20F
102
}
330
20F
100
AcDbMaterial
  1
Global
  0
MLINESTYLE
  5
17
102
{ACAD_REACTORS
330
16
102
}
330
16
100
AcDbMlineStyle
  2
STANDARD
 70
     0
  3

 62
   256
 51
90.0
 52
90.0
 71
     2
 49
0.5
 62
   256
  6
BYLAYER
 49
-0.5
 62
   256
  6
BYLAYER
  0
ACDBPLACEHOLDER
  5
F
102
{ACAD_REACTORS
330
E
102
}
330
E
  0
TABLESTYLE
  5
226
102
{ACAD_XDICTIONARY
360
329
102
}
102
{ACAD_REACTORS
330
225
102
}
330
225
100
AcDbTableStyle
  3
Standard
 70
     0
 71
     0
 40
0.06
 41
0.06
280
     0
281
     0
  7
STANDARD
140
0.18
170
     2
 62
     0
 63
     7
283
     0
274
    -2
284
     1
 64
     0
275
    -2
285
     1
 65
     0
276
    -2
286
     1
 66
     0
277
    -2
287
     1
 67
     0
278
    -2
288
     1
 68
     0
279
    -2
289
     1
 69
     0
  7
STANDARD
140
0.25
170
     5
 62
     0
 63
     7
283
     0
274
    -2
284
     1
 64
     0
275
    -2
285
     1
 65
     0
276
    -2
286
     1
 66
     0
277
    -2
287
     1
 67
     0
278
    -2
288
     1
 68
     0
279
    -2
289
     1
 69
     0
  7
STANDARD
140
0.18
170
     5
 62
     0
 63
     7
283
     0
274
    -2
284
     1
 64
     0
275
    -2
285
     1
 65
     0
276
    -2
286
     1
 66
     0
277
    -2
287
     1
 67
     0
278
    -2
288
     1
 68
     0
279
    -2
289
     1
 69
     0
  0
VISUALSTYLE
  5
219
102
{ACAD_REACTORS
330
213
102
}
330
213
100
AcDbVisualStyle
  2
2dWireframe
 70
     4
 71
     0
 72
     2
 73
     0
 90
        0
 40
-0.6
 41
-30.0
 62
     5
 63
     7
 74
     1
 91
        4
 64
     7
 65
   257
 75
     1
175
     1
 42
1.0
 92
        0
 66
   257
 43
1.0
 76
     1
 77
     6
 78
     2
 67
     7
 79
     5
170
     0
171
     0
290
     0
174
     0
 93
        1
 44
0.0
173
     0
291
     0
 45
0.0
1001
ACAD
1000
AcDbSavedByObjectVersion
1070
     0
  0
VISUALSTYLE
  5
21B
102
{ACAD_REACTORS
330
213
102
}
330
213
100
AcDbVisualStyle
  2
3D Hidden
 70
     6
 71
     1
 72
     2
 73
     2
 90
        0
 40
-0.6
 41
-30.0
 62
     5
 63
     7
 74
     2
 91
        2
 64
     7
 65
   257
 75
     2
175
     1
 42
40.0
 92
        0
 66
   257
 43
1.0
 76
     1
 77
     6
 78
     2
 67
     7
 79
     3
170
     0
171
     0
290
     0
174
     0
 93
        1
 44
0.0
173
     0
291
     0
 45
0.0
1001
ACAD
1000
AcDbSavedByObjectVersion
1070
     0
  0
VISUALSTYLE
  5
21A
102
{ACAD_REACTORS
330
213
102
}
330
213
100
AcDbVisualStyle
  2
3dWireframe
 70
     5
 71
     0
 72
     2
 73
     0
 90
        0
 40
-0.6
 41
-30.0
 62
     5
 63
     7
 74
     1
 91
        4
 64
     7
 65
   257
 75
     1
175
     1
 42
1.0
 92
        0
 66
   257
 43
1.0
 76
     1
 77
     6
 78
     2
 67
     7
 79
     5
170
     0
171
     0
290
     0
174
     0
 93
        1
 44
0.0
173
     0
291
     0
 45
0.0
1001
ACAD
1000
AcDbSavedByObjectVersion
1070
     0
  0
VISUALSTYLE
  5
218
102
{ACAD_REACTORS
330
213
102
}
330
213
100
AcDbVisualStyle
  2
Basic
 70
     7
 71
     1
 72
     0
 73
     1
 90
        0
 40
-0.6
 41
-30.0
 62
     5
 63
     7
 74
     0
 91
        4
 64
     7
 65
   257
 75
     1
175
     1
 42
1.0
 92
        8
 66
     7
 43
1.0
 76
     1
 77
     6
 78
     2
 67
     7
 79
     5
170
     0
171
     0
290
     0
174
     0
 93
        1
 44
0.0
173
     0
291
     1
 45
0.0
1001
ACAD
1000
AcDbSavedByObjectVersion
1070
     0
  0
VISUALSTYLE
  5
21F
102
{ACAD_REACTORS
330
213
102
}
330
213
100
AcDbVisualStyle
  2
Brighten
 70
    12
 71
     2
 72
     2
 73
     0
 90
        0
 40
-0.6
 41
-30.0
 62
     5
 63
     7
 74
     1
 91
        4
 64
     7
 65
   257
 75
     1
175
     1
 42
1.0
 92
        8
 66
     7
 43
1.0
 76
     1
 77
     6
 78
     2
 67
     7
 79
     5
170
     0
171
     0
290
     0
174
     0
 93
        1
 44
50.0
173
     0
291
     1
 45
0.0
1001
ACAD
1000
AcDbSavedByObjectVersion
1070
     0
  0
VISUALSTYLE
  5
223
102
{ACAD_REACTORS
330
213
102
}
330
213
100
AcDbVisualStyle
  2
ColorChange
 70
    16
 71
     2
 72
     2
 73
     3
 90
        0
 40
-0.6
 41
-30.0
 62
     5
 63
     8
 74
     1
 91
        4
 64
     7
 65
   257
 75
     1
175
     1
 42
1.0
 92
        8
 66
     8
 43
1.0
 76
     1
 77
     6
 78
     2
 67
     7
 79
     5
170
     0
171
     0
290
     0
174
     0
 93
        1
 44
0.0
173
     0
291
     1
 45
0.0
1001
ACAD
1000
AcDbSavedByObjectVersion
1070
     0
  0
VISUALSTYLE
  5
21C
102
{ACAD_REACTORS
330
213
102
}
330
213
100
AcDbVisualStyle
  2
Conceptual
 70
     9
 71
     3
 72
     2
 73
     0
 90
        0
 40
-0.6
 41
-30.0
 62
     5
 63
     7
 74
     2
 91
        2
 64
     7
 65
   257
 75
     1
175
     1
 42
40.0
 92
        8
 66
     7
 43
1.0
 76
     1
 77
     6
 78
     2
 67
     7
 79
     3
170
     0
171
     0
290
     0
174
     0
 93
        1
 44
0.0
173
     0
291
     0
 45
0.0
1001
ACAD
1000
AcDbSavedByObjectVersion
1070
     0
  0
VISUALSTYLE
  5
21E
102
{ACAD_REACTORS
330
213
102
}
330
213
100
AcDbVisualStyle
  2
Dim
 70
    11
 71
     2
 72
     2
 73
     0
 90
        0
 40
-0.6
 41
-30.0
 62
     5
 63
     7
 74
     1
 91
        4
 64
     7
 65
   257
 75
     1
175
     1
 42
1.0
 92
        8
 66
     7
 43
1.0
 76
     1
 77
     6
 78
     2
 67
     7
 79
     5
170
     0
171
     0
290
     0
174
     0
 93
        1
 44
-50.0
173
     0
291
     1
 45
0.0
1001
ACAD
1000
AcDbSavedByObjectVersion
1070
     0
  0
VISUALSTYLE
  5
222
102
{ACAD_REACTORS
330
213
102
}
330
213
100
AcDbVisualStyle
  2
Facepattern
 70
    15
 71
     2
 72
     2
 73
     0
 90
        0
 40
-0.6
 41
-30.0
 62
     5
 63
     7
 74
     1
 91
        4
 64
     7
 65
   257
 75
     1
175
     1
 42
1.0
 92
        8
 66
     7
 43
1.0
 76
     1
 77
     6
 78
     2
 67
     7
 79
     5
170
     0
171
     0
290
     0
174
     0
 93
        1
 44
0.0
173
     0
291
     1
 45
0.0
1001
ACAD
1000
AcDbSavedByObjectVersion
1070
     0
  0
VISUALSTYLE
  5
214
102
{ACAD_REACTORS
330
213
102
}
330
213
100
AcDbVisualStyle
  2
Flat
 70
     0
 71
     2
 72
     1
 73
     1
 90
        2
 40
-0.6
 41
30.0
 62
     5
 63
     7
 74
     0
 91
        4
 64
     7
 65
   257
 75
     1
175
     1
 42
1.0
 92
        8
 66
     7
 43
1.0
 76
     1
 77
     6
 78
     2
 67
     7
 79
     5
170
     0
171
     0
290
     0
174
     0
 93
       13
 44
0.0
173
     0
291
     1
 45
0.0
1001
ACAD
1000
AcDbSavedByObjectVersion
1070
     0
  0
VISUALSTYLE
  5
215
102
{ACAD_REACTORS
330
213
102
}
330
213
100
AcDbVisualStyle
  2
FlatWithEdges
 70
     1
 71
     2
 72
     1
 73
     1
 90
        2
 40
-0.6
 41
30.0
 62
     5
 63
     7
 74
     1
 91
        4
 64
     7
 65
   257
 75
     1
175
     1
 42
1.0
 92
        0
 66
   257
 43
1.0
 76
     1
 77
     6
 78
     2
 67
     7
 79
     5
170
     0
171
     0
290
     0
174
     0
 93
       13
 44
0.0
173
     0
291
     1
 45
0.0
1001
ACAD
1000
AcDbSavedByObjectVersion
1070
     0
  0
VISUALSTYLE
  5
216
102
{ACAD_REACTORS
330
213
102
}
330
213
100
AcDbVisualStyle
  2
Gouraud
 70
     2
 71
     2
 72
     2
 73
     1
 90
        2
 40
-0.6
 41
30.0
 62
     5
 63
     7
 74
     0
 91
        4
 64
     7
 65
   257
 75
     1
175
     1
 42
1.0
 92
        0
 66
     7
 43
1.0
 76
     1
 77
     6
 78
     2
 67
     7
 79
     5
170
     0
171
     0
290
     0
174
     0
 93
       13
 44
0.0
173
     0
291
     1
 45
0.0
1001
ACAD
1000
AcDbSavedByObjectVersion
1070
     0
  0
VISUALSTYLE
  5
217
102
{ACAD_REACTORS
330
213
102
}
330
213
100
AcDbVisualStyle
  2
GouraudWithEdges
 70
     3
 71
     2
 72
     2
 73
     1
 90
        2
 40
-0.6
 41
30.0
 62
     5
 63
     7
 74
     1
 91
        4
 64
     7
 65
   257
 75
     1
175
     1
 42
1.0
 92
        0
 66
   257
 43
1.0
 76
     1
 77
     6
 78
     2
 67
     7
 79
     5
170
     0
171
     0
290
     0
174
     0
 93
       13
 44
0.0
173
     0
291
     1
 45
0.0
1001
ACAD
1000
AcDbSavedByObjectVersion
1070
     0
  0
VISUALSTYLE
  5
221
102
{ACAD_REACTORS
330
213
102
}
330
213
100
AcDbVisualStyle
  2
Linepattern
 70
    14
 71
     2
 72
     2
 73
     0
 90
        0
 40
-0.6
 41
-30.0
 62
     5
 63
     7
 74
     1
 91
        4
 64
     7
 65
   257
 75
     7
175
     7
 42
1.0
 92
        8
 66
     7
 43
1.0
 76
     1
 77
     6
 78
     2
 67
     7
 79
     5
170
     0
171
     0
290
     0
174
     0
 93
        1
 44
0.0
173
     0
291
     1
 45
0.0
1001
ACAD
1000
AcDbSavedByObjectVersion
1070
     0
  0
VISUALSTYLE
  5
21D
102
{ACAD_REACTORS
330
213
102
}
330
213
100
AcDbVisualStyle
  2
Realistic
 70
     8
 71
     2
 72
     2
 73
     0
 90
        0
 40
-0.6
 41
-30.0
 62
     5
 63
     7
 74
     1
 91
        0
 64
     7
 65
   257
 75
     1
175
     1
 42
1.0
 92
        8
 66
     8
 43
1.0
 76
     1
 77
     6
 78
     2
 67
     7
 79
     5
170
     0
171
     0
290
     0
174
     0
 93
       13
 44
0.0
173
     0
291
     0
 45
0.0
1001
ACAD
1000
AcDbSavedByObjectVersion
1070
     0
  0
VISUALSTYLE
  5
220
102
{ACAD_REACTORS
330
213
102
}
330
213
100
AcDbVisualStyle
  2
Thicken
 70
    13
 71
     2
 72
     2
 73
     0
 90
        0
 40
-0.6
 41
-30.0
 62
     5
 63
     7
 74
     1
 91
        4
 64
     7
 65
   257
 75
     1
175
     1
 42
1.0
 92
       12
 66
     7
 43
1.0
 76
     1
 77
     6
 78
     2
 67
     7
 79
     5
170
     0
171
     0
290
     0
174
     0
 93
        1
 44
0.0
173
     0
291
     1
 45
0.0
1001
ACAD
1000
AcDbSavedByObjectVersion
1070
     0
  0
DICTIONARYVAR
  5
31B
102
{ACAD_REACTORS
330
F1
102
}
330
F1
100
DictionaryVariables
280
     0
  1
STANDARD
  0
DICTIONARYVAR
  5
F3
102
{ACAD_REACTORS
330
F1
102
}
330
F1
100
DictionaryVariables
280
     0
  1
2
  0
DICTIONARYVAR
  5
F2
102
{ACAD_REACTORS
330
F1
102
}
330
F1
100
DictionaryVariables
280
     0
  1
1
  0
DICTIONARYVAR
  5
31D
102
{ACAD_REACTORS
330
F1
102
}
330
F1
100
DictionaryVariables
280
     0
  1
0
  0
DICTIONARYVAR
  5
31C
102
{ACAD_REACTORS
330
F1
102
}
330
F1
100
DictionaryVariables
280
     0
  1
127
  0
DICTIONARY
  5
31F
330
1D
100
AcDbDictionary
280
     1
281
     1
  3
ACAD_XREC_ROUNDTRIP
360
320
  0
DICTIONARY
  5
321
330
21
100
AcDbDictionary
280
     1
281
     1
  3
ACAD_XREC_ROUNDTRIP
360
322
  0
DICTIONARY
  5
325
330
211
100
AcDbDictionary
280
     1
281
     1
  3
ACAD_XREC_ROUNDTRIP
360
326
  0
DICTIONARY
  5
323
330
210
100
AcDbDictionary
280
     1
281
     1
  3
ACAD_XREC_ROUNDTRIP
360
324
  0
DICTIONARY
  5
327
330
212
100
AcDbDictionary
280
     1
281
     1
  3
ACAD_XREC_ROUNDTRIP
360
328
  0
DICTIONARY
  5
329
330
226
100
AcDbDictionary
280
     1
281
     1
  3
ACAD_XREC_ROUNDTRIP
360
32A
  0
XRECORD
  5
320
102
{ACAD_REACTORS
330
31F
102
}
330
31F
100
AcDbXrecord
280
     1
102
SHADEPLOT
 70
     0
102
SHADEPLOTRESLEVEL
 70
     2
102
SHADEPLOTCUSTOMDPI
 70
   300
  0
XRECORD
  5
322
102
{ACAD_REACTORS
330
321
102
}
330
321
100
AcDbXrecord
280
     1
102
SHADEPLOT
 70
     0
102
SHADEPLOTRESLEVEL
 70
     2
102
SHADEPLOTCUSTOMDPI
 70
   300
  0
XRECORD
  5
326
102
{ACAD_REACTORS
330
325
102
}
330
325
100
AcDbXrecord
280
     1
102
MATERIAL
148
0.0
149
0.0
149
0.0
 93
        0
 94
       63
282
     0
 72
     1
 77
     1
171
     1
175
     1
179
     1
273
     0
  0
XRECORD
  5
324
102
{ACAD_REACTORS
330
323
102
}
330
323
100
AcDbXrecord
280
     1
102
MATERIAL
148
0.0
149
0.0
149
0.0
 93
        0
 94
       63
282
     0
 72
     1
 77
     1
171
     1
175
     1
179
     1
273
     0
  0
XRECORD
  5
328
102
{ACAD_REACTORS
330
327
102
}
330
327
100
AcDbXrecord
280
     1
102
MATERIAL
148
0.0
149
0.0
149
0.0
 93
        0
 94
       63
282
     0
 72
     1
 77
     1
171
     1
175
     1
179
     1
273
     0
  0
XRECORD
  5
32A
102
{ACAD_REACTORS
330
329
102
}
330
329
100
AcDbXrecord
280
     1
102
ACAD_ROUNDTRIP_PRE2007_TABLESTYLE
 90
      512
 91
        0
  1

 92
      512
 93
        0
  2

 94
      512
 95
        0
  3

  0
ENDSEC
  0
EOF
