  0
SECTION
  2
HEADER
  9
$ACADVER
  1
AC1014
  9
$ACADMAINTVER
 70
     9
  9
$DWGCODEPAGE
  3
ANSI_1252
  9
$INSBASE
 10
-17.35397639155889
 20
20.93516926656947
 30
0.0
  9
$EXTMIN
 10
-25.89795042469416
 20
15.09073239038389
 30
0.0
  9
$EXTMAX
 10
-5.847696758254866
 20
25.72332108506981
 30
0.0
  9
$LIMMIN
 10
0.0
 20
0.0
  9
$LIMMAX
 10
36.0
 20
36.0
  9
$ORTHOMODE
 70
     1
  9
$REGENMODE
 70
     1
  9
$FILLMODE
 70
     1
  9
$QTEXTMODE
 70
     0
  9
$MIRRTEXT
 70
     1
  9
$DRAGMODE
 70
     0
  9
$LTSCALE
 40
1.0
  9
$OSMODE
 70
    37
  9
$ATTMODE
 70
     1
  9
$TEXTSIZE
 40
0.2
  9
$TRACEWID
 40
0.05
  9
$TEXTSTYLE
  7
STANDARD
  9
$CLAYER
  8
ADP1DETAIL
  9
$CELTYPE
  6
BYLAYER
  9
$CECOLOR
 62
   256
  9
$CELTSCALE
 40
1.0
  9
$DELOBJ
 70
     1
  9
$DISPSILH
 70
     0
  9
$DIMSCALE
 40
1.0
  9
$DIMASZ
 40
0.125
  9
$DIMEXO
 40
0.0625
  9
$DIMDLI
 40
0.38
  9
$DIMRND
 40
0.0
  9
$DIMDLE
 40
0.0
  9
$DIMEXE
 40
0.18
  9
$DIMTP
 40
0.0
  9
$DIMTM
 40
0.0
  9
$DIMTXT
 40
0.125
  9
$DIMCEN
 40
0.1875
  9
$DIMTSZ
 40
0.125
  9
$DIMTOL
 70
     0
  9
$DIMLIM
 70
     0
  9
$DIMTIH
 70
     0
  9
$DIMTOH
 70
     0
  9
$DIMSE1
 70
     0
  9
$DIMSE2
 70
     0
  9
$DIMTAD
 70
     0
  9
$DIMZIN
 70
     3
  9
$DIMBLK
  1

  9
$DIMASO
 70
     1
  9
$DIMSHO
 70
     1
  9
$DIMPOST
  1

  9
$DIMAPOST
  1

  9
$DIMALT
 70
     0
  9
$DIMALTD
 70
     1
  9
$DIMALTF
 40
25.4
  9
$DIMLFAC
 40
1.0
  9
$DIMTOFL
 70
     0
  9
$DIMTVP
 40
0.0
  9
$DIMTIX
 70
     0
  9
$DIMSOXD
 70
     0
  9
$DIMSAH
 70
     0
  9
$DIMBLK1
  1

  9
$DIMBLK2
  1

  9
$DIMSTYLE
  2
STANDARD
  9
$DIMCLRD
 70
     0
  9
$DIMCLRE
 70
     0
  9
$DIMCLRT
 70
     0
  9
$DIMTFAC
 40
1.0
  9
$DIMGAP
 40
0.125
  9
$DIMJUST
 70
     0
  9
$DIMSD1
 70
     0
  9
$DIMSD2
 70
     0
  9
$DIMTOLJ
 70
     1
  9
$DIMTZIN
 70
     3
  9
$DIMALTZ
 70
     3
  9
$DIMALTTZ
 70
     3
  9
$DIMFIT
 70
     5
  9
$DIMUPT
 70
     0
  9
$DIMUNIT
 70
     5
  9
$DIMDEC
 70
     4
  9
$DIMTDEC
 70
     4
  9
$DIMALTU
 70
     5
  9
$DIMALTTD
 70
     1
  9
$DIMTXSTY
  7
STANDARD
  9
$DIMAUNIT
 70
     0
  9
$LUNITS
 70
     5
  9
$LUPREC
 70
     4
  9
$SKETCHINC
 40
0.1
  9
$FILLETRAD
 40
0.062
  9
$AUNITS
 70
     0
  9
$AUPREC
 70
     0
  9
$MENU
  1
acad
  9
$ELEVATION
 40
0.0
  9
$PELEVATION
 40
0.0
  9
$THICKNESS
 40
0.0
  9
$LIMCHECK
 70
     0
  9
$BLIPMODE
 70
     0
  9
$CHAMFERA
 40
0.0
  9
$CHAMFERB
 40
0.0
  9
$CHAMFERC
 40
0.0
  9
$CHAMFERD
 40
0.0
  9
$SKPOLY
 70
     0
  9
$TDCREATE
 40
2450406.655891586
  9
$TDUPDATE
 40
2452297.087382812
  9
$TDINDWG
 40
0.0355757986
  9
$TDUSRTIMER
 40
0.0355757986
  9
$USRTIMER
 70
     1
  9
$ANGBASE
 50
0.0
  9
$ANGDIR
 70
     0
  9
$PDMODE
 70
     0
  9
$PDSIZE
 40
0.0
  9
$PLINEWID
 40
0.0
  9
$COORDS
 70
     2
  9
$SPLFRAME
 70
     0
  9
$SPLINETYPE
 70
     6
  9
$SPLINESEGS
 70
     8
  9
$ATTDIA
 70
     0
  9
$ATTREQ
 70
     1
  9
$HANDLING
 70
 22529
  9
$HANDSEED
  5
3C9
  9
$SURFTAB1
 70
     6
  9
$SURFTAB2
 70
     6
  9
$SURFTYPE
 70
     6
  9
$SURFU
 70
     6
  9
$SURFV
 70
     6
  9
$UCSNAME
  2

  9
$UCSORG
 10
0.0
 20
0.0
 30
0.0
  9
$UCSXDIR
 10
1.0
 20
0.0
 30
0.0
  9
$UCSYDIR
 10
0.0
 20
1.0
 30
0.0
  9
$PUCSNAME
  2

  9
$PUCSORG
 10
0.0
 20
0.0
 30
0.0
  9
$PUCSXDIR
 10
1.0
 20
0.0
 30
0.0
  9
$PUCSYDIR
 10
0.0
 20
1.0
 30
0.0
  9
$USERI1
 70
     0
  9
$USERI2
 70
     0
  9
$USERI3
 70
     0
  9
$USERI4
 70
     0
  9
$USERI5
 70
     0
  9
$USERR1
 40
0.0
  9
$USERR2
 40
0.0
  9
$USERR3
 40
0.0
  9
$USERR4
 40
0.0
  9
$USERR5
 40
0.0
  9
$WORLDVIEW
 70
     1
  9
$SHADEDGE
 70
     3
  9
$SHADEDIF
 70
    70
  9
$TILEMODE
 70
     1
  9
$MAXACTVP
 70
    15
  9
$PINSBASE
 10
0.0008545028977096
 20
1.250283272183907
 30
0.0
  9
$PLIMCHECK
 70
     0
  9
$PEXTMIN
 10
1.000000000000000E+20
 20
1.000000000000000E+20
 30
1.000000000000000E+20
  9
$PEXTMAX
 10
-1.000000000000000E+20
 20
-1.000000000000000E+20
 30
-1.000000000000000E+20
  9
$PLIMMIN
 10
0.0
 20
0.0
  9
$PLIMMAX
 10
12.0
 20
9.0
  9
$UNITMODE
 70
     0
  9
$VISRETAIN
 70
     0
  9
$PLINEGEN
 70
     0
  9
$PSLTSCALE
 70
     1
  9
$TREEDEPTH
 70
  3020
  9
$PICKSTYLE
 70
     1
  9
$CMLSTYLE
  2
STANDARD
  9
$CMLJUST
 70
     0
  9
$CMLSCALE
 40
1.0
  9
$PROXYGRAPHICS
 70
     1
  9
$MEASUREMENT
 70
     0
  0
ENDSEC
  0
SECTION
  2
CLASSES
  0
CLASS
  1
ACDBDICTIONARYWDFLT
  2
AcDbDictionaryWithDefault
  3
AutoCAD 2000
 90
        0
280
     0
281
     0
  0
CLASS
  1
ACDBPLACEHOLDER
  2
AcDbPlaceHolder
  3
AutoCAD 2000
 90
        0
280
     0
281
     0
  0
CLASS
  1
LAYOUT
  2
AcDbLayout
  3
AutoCAD 2000
 90
        0
280
     0
281
     0
  0
CLASS
  1
DICTIONARYVAR
  2
AcDbDictionaryVar
  3
AutoCAD 2000
 90
        0
280
     0
281
     0
  0
CLASS
  1
LONG_TRANSACTION
  2
AcDbLongTransaction
  3
AutoCAD 2000
 90
        0
280
     0
281
     0
  0
CLASS
  1
LWPOLYLINE
  2
AcDbPolyline
  3
AutoCAD 2000
 90
        0
280
     0
281
     1
  0
CLASS
  1
HATCH
  2
AcDbHatch
  3
AutoCAD 2000
 90
        0
280
     0
281
     1
  0
CLASS
  1
XRECORD
  2
AcDbXrecord
  3
AutoCAD 2000
 90
        0
280
     0
281
     0
  0
CLASS
  1
LONG_TRANSACTION
  2
AcDbLongTransaction
  3
AutoCAD 2000
 90
        0
280
     0
281
     0
  0
CLASS
  1
LWPOLYLINE
  2
AcDbPolyline
  3
AutoCAD 2000
 90
        0
280
     0
281
     1
  0
CLASS
  1
HATCH
  2
AcDbHatch
  3
AutoCAD 2000
 90
        0
280
     0
281
     1
  0
CLASS
  1
XRECORD
  2
AcDbXrecord
  3
AutoCAD 2000
 90
        0
280
     0
281
     0
  0
CLASS
  1
LONG_TRANSACTION
  2
AcDbLongTransaction
  3
AutoCAD 2000
 90
        0
280
     0
281
     0
  0
CLASS
  1
LWPOLYLINE
  2
AcDbPolyline
  3
AutoCAD 2000
 90
        0
280
     0
281
     1
  0
CLASS
  1
HATCH
  2
AcDbHatch
  3
AutoCAD 2000
 90
        0
280
     0
281
     1
  0
CLASS
  1
XRECORD
  2
AcDbXrecord
  3
AutoCAD 2000
 90
        0
280
     0
281
     0
  0
CLASS
  1
LONG_TRANSACTION
  2
AcDbLongTransaction
  3
AutoCAD 2000
 90
        0
280
     0
281
     0
  0
CLASS
  1
LWPOLYLINE
  2
AcDbPolyline
  3
AutoCAD 2000
 90
        0
280
     0
281
     1
  0
CLASS
  1
HATCH
  2
AcDbHatch
  3
AutoCAD 2000
 90
        0
280
     0
281
     1
  0
CLASS
  1
XRECORD
  2
AcDbXrecord
  3
AutoCAD 2000
 90
        0
280
     0
281
     0
  0
CLASS
  1
LONG_TRANSACTION
  2
AcDbLongTransaction
  3
AutoCAD 2000
 90
        0
280
     0
281
     0
  0
CLASS
  1
LWPOLYLINE
  2
AcDbPolyline
  3
AutoCAD 2000
 90
        0
280
     0
281
     1
  0
CLASS
  1
HATCH
  2
AcDbHatch
  3
AutoCAD 2000
 90
        0
280
     0
281
     1
  0
CLASS
  1
XRECORD
  2
AcDbXrecord
  3
AutoCAD 2000
 90
        0
280
     0
281
     0
  0
ENDSEC
  0
SECTION
  2
TABLES
  0
TABLE
  2
VPORT
  5
8
330
0
100
AcDbSymbolTable
 70
     2
  0
VPORT
  5
3A5
330
8
100
AcDbSymbolTableRecord
100
AcDbViewportTableRecord
  2
*ACTIVE
 70
     0
 10
0.0
 20
0.0
 11
1.0
 21
1.0
 12
-15.85589091304491
 22
20.40600594599499
 13
0.0
 23
0.0
 14
0.5740882589684922
 24
0.5740882589684922
 15
0.5
 25
0.5
 16
0.0
 26
0.0
 36
1.0
 17
0.0
 27
0.0
 37
0.0
 40
12.8500669570118
 41
1.570528967254407
 42
50.0
 43
0.0
 44
0.0
 50
0.0
 51
0.0
 71
     0
 72
   100
 73
     1
 74
     0
 75
     0
 76
     0
 77
     0
 78
     0
  0
ENDTAB
  0
TABLE
  2
LTYPE
  5
5
330
0
100
AcDbSymbolTable
 70
     1
  0
LTYPE
  5
13
330
5
100
AcDbSymbolTableRecord
100
AcDbLinetypeTableRecord
  2
BYBLOCK
 70
     0
  3

 72
    65
 73
     0
 40
0.0
  0
LTYPE
  5
14
330
5
100
AcDbSymbolTableRecord
100
AcDbLinetypeTableRecord
  2
BYLAYER
 70
     0
  3

 72
    65
 73
     0
 40
0.0
  0
LTYPE
  5
15
330
5
100
AcDbSymbolTableRecord
100
AcDbLinetypeTableRecord
  2
CONTINUOUS
 70
     0
  3
Solid line
 72
    65
 73
     0
 40
0.0
  0
ENDTAB
  0
TABLE
  2
LAYER
  5
2
330
0
100
AcDbSymbolTable
 70
     4
  0
LAYER
  5
10
330
2
100
AcDbSymbolTableRecord
100
AcDbLayerTableRecord
  2
0
 70
     0
 62
     7
  6
CONTINUOUS
  0
LAYER
  5
144
330
2
100
AcDbSymbolTableRecord
100
AcDbLayerTableRecord
  2
ADP1DETAIL
 70
     0
 62
     7
  6
CONTINUOUS
  0
LAYER
  5
146
330
2
100
AcDbSymbolTableRecord
100
AcDbLayerTableRecord
  2
DEFPOINTS
 70
     0
 62
     7
  6
CONTINUOUS
  0
LAYER
  5
149
330
2
100
AcDbSymbolTableRecord
100
AcDbLayerTableRecord
  2
ADPDIM
 70
     0
 62
     3
  6
CONTINUOUS
  0
ENDTAB
  0
TABLE
  2
STYLE
  5
3
330
0
100
AcDbSymbolTable
 70
     2
  0
STYLE
  5
11
330
3
100
AcDbSymbolTableRecord
100
AcDbTextStyleTableRecord
  2
STANDARD
 70
     0
 40
0.0
 41
1.0
 50
0.0
 71
     0
 42
0.2
  3
txt
  4

  0
STYLE
  5
212
330
3
100
AcDbSymbolTableRecord
100
AcDbTextStyleTableRecord
  2
ARIAL_WIDE
 70
     0
 40
0.0
 41
1.25
 50
0.0
 71
     0
 42
0.2
  3
ARIAL.TTF
  4

1001
ACAD
1000
Arial
1071
       34
  0
ENDTAB
  0
TABLE
  2
VIEW
  5
6
330
0
100
AcDbSymbolTable
 70
     0
  0
ENDTAB
  0
TABLE
  2
UCS
  5
7
330
0
100
AcDbSymbolTable
 70
     0
  0
ENDTAB
  0
TABLE
  2
APPID
  5
9
330
0
100
AcDbSymbolTable
 70
     1
  0
APPID
  5
12
330
9
100
AcDbSymbolTableRecord
100
AcDbRegAppTableRecord
  2
ACAD
 70
     0
  0
ENDTAB
  0
TABLE
  2
DIMSTYLE
  5
A
330
0
100
AcDbSymbolTable
 70
     1
  0
DIMSTYLE
105
210
330
A
100
AcDbSymbolTableRecord
100
AcDbDimStyleTableRecord
  2
STANDARD
 70
     0
  3

  4

  5

  6

  7

 40
1.0
 41
0.18
 42
0.0625
 43
0.38
 44
0.18
 45
0.0
 46
0.0
 47
0.0
 48
0.0
140
0.18
141
0.09
142
0.0
143
25.4
144
1.0
145
0.0
146
1.0
147
0.09
 71
     0
 72
     0
 73
     1
 74
     1
 75
     0
 76
     0
 77
     0
 78
     0
170
     0
171
     2
172
     0
173
     0
174
     0
175
     0
176
     0
177
     0
178
     0
270
     2
271
     4
272
     4
273
     2
274
     2
340
11
275
     0
280
     0
281
     0
282
     0
283
     1
284
     0
285
     0
286
     0
287
     3
288
     0
  0
ENDTAB
  0
TABLE
  2
BLOCK_RECORD
  5
1
330
0
100
AcDbSymbolTable
 70
     5
  0
BLOCK_RECORD
  5
1E
102
{ACAD_XDICTIONARY
360
24F
102
}
330
1
100
AcDbSymbolTableRecord
100
AcDbBlockTableRecord
  2
*MODEL_SPACE
  0
BLOCK_RECORD
  5
1A
102
{ACAD_XDICTIONARY
360
251
102
}
330
1
100
AcDbSymbolTableRecord
100
AcDbBlockTableRecord
  2
*PAPER_SPACE
  0
BLOCK_RECORD
  5
13C
330
1
100
AcDbSymbolTableRecord
100
AcDbBlockTableRecord
  2
*D0
  0
BLOCK_RECORD
  5
13D
330
1
100
AcDbSymbolTableRecord
100
AcDbBlockTableRecord
  2
*D1
  0
BLOCK_RECORD
  5
13E
330
1
100
AcDbSymbolTableRecord
100
AcDbBlockTableRecord
  2
*D2
  0
BLOCK_RECORD
  5
13F
330
1
100
AcDbSymbolTableRecord
100
AcDbBlockTableRecord
  2
*D3
  0
BLOCK_RECORD
  5
140
330
1
100
AcDbSymbolTableRecord
100
AcDbBlockTableRecord
  2
*D4
  0
ENDTAB
  0
ENDSEC
  0
SECTION
  2
BLOCKS
  0
BLOCK
  5
14C
330
1E
100
AcDbEntity
  8
0
100
AcDbBlockBegin
  2
*MODEL_SPACE
 70
     0
 10
0.0
 20
0.0
 30
0.0
  3
*MODEL_SPACE
  1

  0
ENDBLK
  5
14D
330
1E
100
AcDbEntity
  8
0
100
AcDbBlockEnd
  0
BLOCK
  5
14A
330
1A
100
AcDbEntity
 67
     1
  8
0
100
AcDbBlockBegin
  2
*PAPER_SPACE
 70
     0
 10
0.0
 20
0.0
 30
0.0
  3
*PAPER_SPACE
  1

  0
ENDBLK
  5
14B
330
1A
100
AcDbEntity
 67
     1
  8
0
100
AcDbBlockEnd
  0
BLOCK
  5
14F
330
13C
100
AcDbEntity
  8
0
100
AcDbBlockBegin
  2
*D0
 70
     1
 10
0.0
 20
0.0
 30
0.0
  3
*D0
  1

  0
LINE
  5
150
330
13C
100
AcDbEntity
  8
0
  6
BYBLOCK
 62
     0
100
AcDbLine
 10
-19.4789763915589
 20
25.37266926656947
 30
0.0
 11
-19.4789763915589
 21
25.72332108506981
 31
0.0
  0
LINE
  5
151
330
13C
100
AcDbEntity
  8
0
  6
BYBLOCK
 62
     0
100
AcDbLine
 10
-16.60397639155889
 20
25.37266926656947
 30
0.0
 11
-16.60397639155889
 21
25.72332108506981
 31
0.0
  0
LINE
  5
152
330
13C
100
AcDbEntity
  8
0
  6
BYBLOCK
 62
     0
100
AcDbLine
 10
-19.4789763915589
 20
25.54332108506981
 30
0.0
 11
-18.45814305822556
 21
25.54332108506981
 31
0.0
  0
LINE
  5
153
330
13C
100
AcDbEntity
  8
0
  6
BYBLOCK
 62
     0
100
AcDbLine
 10
-16.60397639155889
 20
25.54332108506981
 30
0.0
 11
-17.62480972489223
 21
25.54332108506981
 31
0.0
  0
LINE
  5
154
330
13C
100
AcDbEntity
  8
0
  6
BYBLOCK
 62
     0
100
AcDbLine
 10
-19.60397639155889
 20
25.41832108506981
 30
0.0
 11
-19.3539763915589
 21
25.66832108506981
 31
0.0
  0
LINE
  5
155
330
13C
100
AcDbEntity
  8
0
  6
BYBLOCK
 62
     0
100
AcDbLine
 10
-16.72897639155889
 20
25.41832108506981
 30
0.0
 11
-16.47897639155889
 21
25.66832108506981
 31
0.0
  0
TEXT
  5
156
330
13C
100
AcDbEntity
  8
0
  6
BYBLOCK
 62
     0
100
AcDbText
 10
-18.33314305822556
 20
25.48082108506982
 30
0.0
 40
0.125
  1
2 7/8
 72
     1
 11
-18.04147639155889
 21
25.54332108506981
 31
0.0
100
AcDbText
 73
     2
  0
POINT
  5
158
330
13C
100
AcDbEntity
  8
DEFPOINTS
  6
BYBLOCK
 62
     0
100
AcDbPoint
 10
-19.4789763915589
 20
25.31016926656947
 30
0.0
  0
POINT
  5
159
330
13C
100
AcDbEntity
  8
DEFPOINTS
  6
BYBLOCK
 62
     0
100
AcDbPoint
 10
-16.60397639155889
 20
25.31016926656947
 30
0.0
  0
POINT
  5
15A
330
13C
100
AcDbEntity
  8
DEFPOINTS
  6
BYBLOCK
 62
     0
100
AcDbPoint
 10
-16.60397639155889
 20
25.54332108506981
 30
0.0
  0
ENDBLK
  5
15B
330
13C
100
AcDbEntity
  8
0
100
AcDbBlockEnd
  0
BLOCK
  5
15C
330
13D
100
AcDbEntity
  8
0
100
AcDbBlockBegin
  2
*D1
 70
     1
 10
0.0
 20
0.0
 30
0.0
  3
*D1
  1

  0
LINE
  5
15D
330
13D
100
AcDbEntity
  8
0
  6
BYBLOCK
 62
     0
100
AcDbLine
 10
-19.1977263915589
 20
19.90605732819757
 30
0.0
 11
-19.1977263915589
 21
20.64880203297739
 31
0.0
  0
LINE
  5
15E
330
13D
100
AcDbEntity
  8
0
  6
BYBLOCK
 62
     0
100
AcDbLine
 10
-16.88522639155889
 20
19.90605732819757
 30
0.0
 11
-16.88522639155889
 21
20.64880203297739
 31
0.0
  0
LINE
  5
15F
330
13D
100
AcDbEntity
  8
0
  6
BYBLOCK
 62
     0
100
AcDbLine
 10
-19.1977263915589
 20
20.46880203297739
 30
0.0
 11
-18.49980972489223
 21
20.46880203297739
 31
0.0
  0
LINE
  5
160
330
13D
100
AcDbEntity
  8
0
  6
BYBLOCK
 62
     0
100
AcDbLine
 10
-16.88522639155889
 20
20.46880203297739
 30
0.0
 11
-17.58314305822556
 21
20.46880203297739
 31
0.0
  0
LINE
  5
161
330
13D
100
AcDbEntity
  8
0
  6
BYBLOCK
 62
     0
100
AcDbLine
 10
-19.3227263915589
 20
20.34380203297739
 30
0.0
 11
-19.07272639155889
 21
20.59380203297739
 31
0.0
  0
LINE
  5
162
330
13D
100
AcDbEntity
  8
0
  6
BYBLOCK
 62
     0
100
AcDbLine
 10
-17.0102263915589
 20
20.34380203297739
 30
0.0
 11
-16.76022639155889
 21
20.59380203297739
 31
0.0
  0
TEXT
  5
163
330
13D
100
AcDbEntity
  8
0
  6
BYBLOCK
 62
     0
100
AcDbText
 10
-18.37480972489223
 20
20.40630203297739
 30
0.0
 40
0.125
  1
2 5/16
 72
     1
 11
-18.04147639155889
 21
20.46880203297739
 31
0.0
100
AcDbText
 73
     2
  0
POINT
  5
164
330
13D
100
AcDbEntity
  8
DEFPOINTS
  6
BYBLOCK
 62
     0
100
AcDbPoint
 10
-19.1977263915589
 20
19.84355732819756
 30
0.0
  0
POINT
  5
165
330
13D
100
AcDbEntity
  8
DEFPOINTS
  6
BYBLOCK
 62
     0
100
AcDbPoint
 10
-16.88522639155889
 20
19.84355732819756
 30
0.0
  0
POINT
  5
166
330
13D
100
AcDbEntity
  8
DEFPOINTS
  6
BYBLOCK
 62
     0
100
AcDbPoint
 10
-16.88522639155889
 20
20.46880203297739
 30
0.0
  0
ENDBLK
  5
167
330
13D
100
AcDbEntity
  8
0
100
AcDbBlockEnd
  0
BLOCK
  5
168
330
13E
100
AcDbEntity
  8
0
100
AcDbBlockBegin
  2
*D2
 70
     1
 10
0.0
 20
0.0
 30
0.0
  3
*D2
  1

  0
LINE
  5
169
330
13E
100
AcDbEntity
  8
0
  6
BYBLOCK
 62
     0
100
AcDbLine
 10
-13.35958338782947
 20
23.33586003157656
 30
0.0
 11
-12.47835054278739
 21
23.33586003157656
 31
0.0
  0
LINE
  5
16A
330
13E
100
AcDbEntity
  8
0
  6
BYBLOCK
 62
     0
100
AcDbLine
 10
-13.35963489904845
 20
24.39848467756387
 30
0.0
 11
-12.47835054278739
 21
24.39848467756387
 31
0.0
  0
LINE
  5
16B
330
13E
100
AcDbEntity
  8
0
  6
BYBLOCK
 62
     0
100
AcDbLine
 10
-12.65835054278739
 20
23.33586003157656
 30
0.0
 11
-12.65835054278739
 21
23.08586003157656
 31
0.0
  0
LINE
  5
16C
330
13E
100
AcDbEntity
  8
0
  6
BYBLOCK
 62
     0
100
AcDbLine
 10
-12.65835054278739
 20
24.39848467756387
 30
0.0
 11
-12.65835054278739
 21
24.64848467756388
 31
0.0
  0
LINE
  5
16D
330
13E
100
AcDbEntity
  8
0
  6
BYBLOCK
 62
     0
100
AcDbLine
 10
-12.53335054278739
 20
23.21086003157656
 30
0.0
 11
-12.78335054278739
 21
23.46086003157656
 31
0.0
  0
LINE
  5
16E
330
13E
100
AcDbEntity
  8
0
  6
BYBLOCK
 62
     0
100
AcDbLine
 10
-12.53335054278739
 20
24.27348467756388
 30
0.0
 11
-12.78335054278739
 21
24.52348467756388
 31
0.0
  0
TEXT
  5
16F
330
13E
100
AcDbEntity
  8
0
  6
BYBLOCK
 62
     0
100
AcDbText
 10
-12.59585054278739
 20
24.77348467756387
 30
0.0
 40
0.125
  1
1 1/16
 50
90.0
 72
     1
 11
-12.65835054278739
 21
25.06515134423054
 31
0.0
100
AcDbText
 73
     2
  0
POINT
  5
170
330
13E
100
AcDbEntity
  8
DEFPOINTS
  6
BYBLOCK
 62
     0
100
AcDbPoint
 10
-13.42208338782947
 20
23.33586003157656
 30
0.0
  0
POINT
  5
171
330
13E
100
AcDbEntity
  8
DEFPOINTS
  6
BYBLOCK
 62
     0
100
AcDbPoint
 10
-13.42213489904845
 20
24.39848467756387
 30
0.0
  0
POINT
  5
172
330
13E
100
AcDbEntity
  8
DEFPOINTS
  6
BYBLOCK
 62
     0
100
AcDbPoint
 10
-12.65835054278739
 20
24.39848467756387
 30
0.0
  0
ENDBLK
  5
173
330
13E
100
AcDbEntity
  8
0
100
AcDbBlockEnd
  0
BLOCK
  5
174
330
13F
100
AcDbEntity
  8
0
100
AcDbBlockBegin
  2
*D3
 70
     1
 10
0.0
 20
0.0
 30
0.0
  3
*D3
  1

  0
LINE
  5
175
330
13F
100
AcDbEntity
  8
0
  6
BYBLOCK
 62
     0
100
AcDbLine
 10
-16.60397639155889
 20
25.37266926656947
 30
0.0
 11
-16.60397639155889
 21
25.72332108506981
 31
0.0
  0
LINE
  5
176
330
13F
100
AcDbEntity
  8
0
  6
BYBLOCK
 62
     0
100
AcDbLine
 10
-15.1039763915589
 20
24.74766926656947
 30
0.0
 11
-15.1039763915589
 21
25.72332108506981
 31
0.0
  0
LINE
  5
177
330
13F
100
AcDbEntity
  8
0
  6
BYBLOCK
 62
     0
100
AcDbLine
 10
-16.60397639155889
 20
25.54332108506981
 30
0.0
 11
-16.2289763915589
 21
25.54332108506981
 31
0.0
  0
LINE
  5
178
330
13F
100
AcDbEntity
  8
0
  6
BYBLOCK
 62
     0
100
AcDbLine
 10
-15.1039763915589
 20
25.54332108506981
 30
0.0
 11
-15.47897639155889
 21
25.54332108506981
 31
0.0
  0
LINE
  5
179
330
13F
100
AcDbEntity
  8
0
  6
BYBLOCK
 62
     0
100
AcDbLine
 10
-16.72897639155889
 20
25.41832108506981
 30
0.0
 11
-16.47897639155889
 21
25.66832108506981
 31
0.0
  0
LINE
  5
17A
330
13F
100
AcDbEntity
  8
0
  6
BYBLOCK
 62
     0
100
AcDbLine
 10
-15.22897639155889
 20
25.41832108506981
 30
0.0
 11
-14.9789763915589
 21
25.66832108506981
 31
0.0
  0
TEXT
  5
17B
330
13F
100
AcDbEntity
  8
0
  6
BYBLOCK
 62
     0
100
AcDbText
 10
-16.10397639155889
 20
25.48082108506982
 30
0.0
 40
0.125
  1
1 1/2
 72
     1
 11
-15.85397639155889
 21
25.54332108506981
 31
0.0
100
AcDbText
 73
     2
  0
POINT
  5
17C
330
13F
100
AcDbEntity
  8
DEFPOINTS
  6
BYBLOCK
 62
     0
100
AcDbPoint
 10
-16.60397639155889
 20
25.31016926656947
 30
0.0
  0
POINT
  5
17D
330
13F
100
AcDbEntity
  8
DEFPOINTS
  6
BYBLOCK
 62
     0
100
AcDbPoint
 10
-15.1039763915589
 20
24.68516926656947
 30
0.0
  0
POINT
  5
17E
330
13F
100
AcDbEntity
  8
DEFPOINTS
  6
BYBLOCK
 62
     0
100
AcDbPoint
 10
-15.1039763915589
 20
25.54332108506981
 30
0.0
  0
ENDBLK
  5
17F
330
13F
100
AcDbEntity
  8
0
100
AcDbBlockEnd
  0
BLOCK
  5
180
330
140
100
AcDbEntity
  8
0
100
AcDbBlockBegin
  2
*D4
 70
     1
 10
0.0
 20
0.0
 30
0.0
  3
*D4
  1

  0
LINE
  5
181
330
140
100
AcDbEntity
  8
0
  6
BYBLOCK
 62
     0
100
AcDbLine
 10
-13.74124718393429
 20
23.06016926656947
 30
0.0
 11
-14.77760387490482
 21
23.06016926656947
 31
0.0
  0
LINE
  5
182
330
140
100
AcDbEntity
  8
0
  6
BYBLOCK
 62
     0
100
AcDbLine
 10
-13.7413254224205
 20
24.67415055748396
 30
0.0
 11
-14.77760387490482
 21
24.67415055748396
 31
0.0
  0
LINE
  5
183
330
140
100
AcDbEntity
  8
0
  6
BYBLOCK
 62
     0
100
AcDbLine
 10
-14.59760387490482
 20
23.06016926656947
 30
0.0
 11
-14.59760387490482
 21
23.47132657869339
 31
0.0
  0
LINE
  5
184
330
140
100
AcDbEntity
  8
0
  6
BYBLOCK
 62
     0
100
AcDbLine
 10
-14.59760387490482
 20
24.67415055748396
 30
0.0
 11
-14.59760387490482
 21
24.26299324536005
 31
0.0
  0
LINE
  5
185
330
140
100
AcDbEntity
  8
0
  6
BYBLOCK
 62
     0
100
AcDbLine
 10
-14.47260387490482
 20
22.93516926656947
 30
0.0
 11
-14.72260387490482
 21
23.18516926656947
 31
0.0
  0
LINE
  5
186
330
140
100
AcDbEntity
  8
0
  6
BYBLOCK
 62
     0
100
AcDbLine
 10
-14.47260387490482
 20
24.54915055748396
 30
0.0
 11
-14.72260387490482
 21
24.79915055748396
 31
0.0
  0
TEXT
  5
187
330
140
100
AcDbEntity
  8
0
  6
BYBLOCK
 62
     0
100
AcDbText
 10
-14.53510387490482
 20
23.59632657869338
 30
0.0
 40
0.125
  1
1 5/8
 50
90.0
 72
     1
 11
-14.59760387490482
 21
23.86715991202672
 31
0.0
100
AcDbText
 73
     2
  0
POINT
  5
188
330
140
100
AcDbEntity
  8
DEFPOINTS
  6
BYBLOCK
 62
     0
100
AcDbPoint
 10
-13.67874718393429
 20
23.06016926656947
 30
0.0
  0
POINT
  5
189
330
140
100
AcDbEntity
  8
DEFPOINTS
  6
BYBLOCK
 62
     0
100
AcDbPoint
 10
-13.6788254224205
 20
24.67415055748396
 30
0.0
  0
POINT
  5
18A
330
140
100
AcDbEntity
  8
DEFPOINTS
  6
BYBLOCK
 62
     0
100
AcDbPoint
 10
-14.59760387490482
 20
24.67415055748396
 30
0.0
  0
ENDBLK
  5
18B
330
140
100
AcDbEntity
  8
0
100
AcDbBlockEnd
  0
ENDSEC
  0
SECTION
  2
ENTITIES
  0
DIMENSION
  5
18C
330
1E
100
AcDbEntity
  8
ADPDIM
100
AcDbDimension
  2
*D3
 10
-15.1039763915589
 20
25.54332108506981
 30
0.0
 11
-15.85397639155889
 21
25.54332108506981
 31
0.0
100
AcDbAlignedDimension
 13
-16.60397639155889
 23
25.31016926656947
 33
0.0
 14
-15.1039763915589
 24
24.68516926656947
 34
0.0
100
AcDbRotatedDimension
  0
DIMENSION
  5
18D
330
1E
100
AcDbEntity
  8
ADPDIM
100
AcDbDimension
  2
*D0
 10
-16.60397639155889
 20
25.54332108506981
 30
0.0
 11
-18.04147639155889
 21
25.54332108506981
 31
0.0
100
AcDbAlignedDimension
 13
-19.4789763915589
 23
25.31016926656947
 33
0.0
 14
-16.60397639155889
 24
25.31016926656947
 34
0.0
100
AcDbRotatedDimension
  0
LINE
  5
18E
330
1E
100
AcDbEntity
  8
ADP1DETAIL
100
AcDbLine
 10
-17.22897639155889
 20
17.24980732819757
 30
0.0
 11
-17.22897639155889
 21
15.74980732819756
 31
0.0
  0
LINE
  5
18F
330
1E
100
AcDbEntity
  8
ADP1DETAIL
100
AcDbLine
 10
-17.38522639155889
 20
17.40605732819757
 30
0.0
 11
-17.38522639155889
 21
15.74980732819756
 31
0.0
  0
LINE
  5
190
330
1E
100
AcDbEntity
  8
ADP1DETAIL
100
AcDbLine
 10
-17.51022639155889
 20
17.53105732819757
 30
0.0
 11
-17.51022639155889
 21
15.74980732819756
 31
0.0
  0
LINE
  5
191
330
1E
100
AcDbEntity
  8
ADP1DETAIL
100
AcDbLine
 10
-17.69772639155889
 20
17.53105732819757
 30
0.0
 11
-17.69772639155889
 21
15.74980732819756
 31
0.0
  0
LINE
  5
192
330
1E
100
AcDbEntity
  8
ADP1DETAIL
100
AcDbLine
 10
-18.8539763915589
 20
15.74980732819756
 30
0.0
 11
-18.8539763915589
 21
17.24980732819757
 31
0.0
  0
LINE
  5
193
330
1E
100
AcDbEntity
  8
ADP1DETAIL
100
AcDbLine
 10
-18.6977263915589
 20
15.74980732819756
 30
0.0
 11
-18.6977263915589
 21
17.40605732819757
 31
0.0
  0
LINE
  5
194
330
1E
100
AcDbEntity
  8
ADP1DETAIL
100
AcDbLine
 10
-18.5727263915589
 20
15.74980732819756
 30
0.0
 11
-18.5727263915589
 21
17.53105732819757
 31
0.0
  0
LINE
  5
195
330
1E
100
AcDbEntity
  8
ADP1DETAIL
100
AcDbLine
 10
-18.3852263915589
 20
15.74980732819756
 30
0.0
 11
-18.3852263915589
 21
17.53105732819757
 31
0.0
  0
LINE
  5
196
330
1E
100
AcDbEntity
  8
ADP1DETAIL
100
AcDbLine
 10
-17.22897639155889
 20
15.74980732819756
 30
0.0
 11
-18.8539763915589
 21
15.74980732819756
 31
0.0
  0
LINE
  5
197
330
1E
100
AcDbEntity
  8
ADP1DETAIL
100
AcDbLine
 10
-16.72897639155889
 20
24.56016926656948
 30
0.0
 11
-15.1039763915589
 21
24.56016926656948
 31
0.0
  0
LINE
  5
198
330
1E
100
AcDbEntity
  8
ADP1DETAIL
100
AcDbLine
 10
-15.1039763915589
 20
23.18516926656947
 30
0.0
 11
-16.72897639155889
 21
23.18516926656947
 31
0.0
  0
LINE
  5
199
330
1E
100
AcDbEntity
  8
ADP1DETAIL
100
AcDbLine
 10
-16.60397639155889
 20
24.68516926656947
 30
0.0
 11
-15.1039763915589
 21
24.68516926656947
 31
0.0
  0
LINE
  5
19A
330
1E
100
AcDbEntity
  8
ADP1DETAIL
100
AcDbLine
 10
-15.1039763915589
 20
23.06016926656947
 30
0.0
 11
-16.60397639155889
 21
23.06016926656947
 31
0.0
  0
LINE
  5
19B
330
1E
100
AcDbEntity
  8
ADP1DETAIL
100
AcDbLine
 10
-15.1039763915589
 20
18.15605732819756
 30
0.0
 11
-16.88522639155889
 21
18.15605732819756
 31
0.0
  0
LINE
  5
19C
330
1E
100
AcDbEntity
  8
ADP1DETAIL
100
AcDbLine
 10
-15.1039763915589
 20
18.03105732819757
 30
0.0
 11
-16.76022639155889
 21
18.03105732819757
 31
0.0
  0
LINE
  5
19D
330
1E
100
AcDbEntity
  8
ADP1DETAIL
100
AcDbLine
 10
-16.88522639155889
 20
19.21855732819756
 30
0.0
 11
-15.1039763915589
 21
19.21855732819756
 31
0.0
  0
LINE
  5
19E
330
1E
100
AcDbEntity
  8
ADP1DETAIL
100
AcDbLine
 10
-16.88522639155889
 20
19.03105732819756
 30
0.0
 11
-15.1039763915589
 21
19.03105732819756
 31
0.0
  0
LINE
  5
19F
330
1E
100
AcDbEntity
  8
ADP1DETAIL
100
AcDbLine
 10
-15.1039763915589
 20
18.34355732819757
 30
0.0
 11
-16.88522639155889
 21
18.34355732819757
 31
0.0
  0
LINE
  5
1A0
330
1E
100
AcDbEntity
  8
ADP1DETAIL
100
AcDbLine
 10
-16.76022639155889
 20
19.34355732819756
 30
0.0
 11
-15.1039763915589
 21
19.34355732819756
 31
0.0
  0
LINE
  5
1A1
330
1E
100
AcDbEntity
  8
ADP1DETAIL
100
AcDbLine
 10
-15.1039763915589
 20
17.87480732819757
 30
0.0
 11
-16.60397639155889
 21
17.87480732819757
 31
0.0
  0
LINE
  5
1A2
330
1E
100
AcDbEntity
  8
ADP1DETAIL
100
AcDbLine
 10
-16.60397639155889
 20
19.49980732819756
 30
0.0
 11
-15.1039763915589
 21
19.49980732819756
 31
0.0
  0
LINE
  5
1A3
330
1E
100
AcDbEntity
  8
ADP1DETAIL
100
AcDbLine
 10
-17.22897639155889
 20
22.43516926656947
 30
0.0
 11
-17.22897639155889
 21
20.93516926656947
 31
0.0
  0
LINE
  5
1A4
330
1E
100
AcDbEntity
  8
ADP1DETAIL
100
AcDbLine
 10
-17.35397639155889
 20
22.56016926656947
 30
0.0
 11
-17.35397639155889
 21
20.93516926656947
 31
0.0
  0
LINE
  5
1A5
330
1E
100
AcDbEntity
  8
ADP1DETAIL
100
AcDbLine
 10
-18.7289763915589
 20
20.93516926656947
 30
0.0
 11
-18.7289763915589
 21
22.56016926656947
 31
0.0
  0
LINE
  5
1A6
330
1E
100
AcDbEntity
  8
ADP1DETAIL
100
AcDbLine
 10
-18.8539763915589
 20
20.93516926656947
 30
0.0
 11
-18.8539763915589
 21
22.43516926656947
 31
0.0
  0
DIMENSION
  5
1A7
330
1E
100
AcDbEntity
  8
ADPDIM
100
AcDbDimension
  2
*D1
 10
-16.88522639155889
 20
20.46880203297739
 30
0.0
 11
-18.04147639155889
 21
20.46880203297739
 31
0.0
100
AcDbAlignedDimension
 13
-19.1977263915589
 23
19.84355732819756
 33
0.0
 14
-16.88522639155889
 24
19.84355732819756
 34
0.0
100
AcDbRotatedDimension
  0
LINE
  5
1A8
330
1E
100
AcDbEntity
  8
ADP1DETAIL
100
AcDbLine
 10
-19.4789763915589
 20
20.12480732819756
 30
0.0
 11
-16.60397639155889
 21
20.12480732819756
 31
0.0
  0
LINE
  5
1A9
330
1E
100
AcDbEntity
  8
ADP1DETAIL
100
AcDbLine
 10
-18.8852263915589
 20
19.65605732819756
 30
0.0
 11
-17.19772639155889
 21
19.65605732819756
 31
0.0
  0
LINE
  5
1AA
330
1E
100
AcDbEntity
  8
ADP1DETAIL
100
AcDbLine
 10
-19.1977263915589
 20
19.84355732819756
 30
0.0
 11
-16.88522639155889
 21
19.84355732819756
 31
0.0
  0
LINE
  5
1AB
330
1E
100
AcDbEntity
  8
ADP1DETAIL
100
AcDbLine
 10
-19.3227263915589
 20
19.96855732819756
 30
0.0
 11
-16.76022639155889
 21
19.96855732819756
 31
0.0
  0
LINE
  5
1AC
330
1E
100
AcDbEntity
  8
ADP1DETAIL
100
AcDbLine
 10
-17.19772639155889
 20
17.71855732819757
 30
0.0
 11
-18.8852263915589
 21
17.71855732819757
 31
0.0
  0
LINE
  5
1AD
330
1E
100
AcDbEntity
  8
ADP1DETAIL
100
AcDbLine
 10
-17.22897639155889
 20
20.93516926656947
 30
0.0
 11
-18.8539763915589
 21
20.93516926656947
 31
0.0
  0
LINE
  5
1AE
330
1E
100
AcDbEntity
  8
ADP1DETAIL
100
AcDbLine
 10
-19.1977263915589
 20
17.53105732819757
 30
0.0
 11
-16.88522639155889
 21
17.53105732819757
 31
0.0
  0
LINE
  5
1AF
330
1E
100
AcDbEntity
  8
ADP1DETAIL
100
AcDbLine
 10
-19.1977263915589
 20
18.15605732819756
 30
0.0
 11
-19.1977263915589
 21
19.84355732819756
 31
0.0
  0
LINE
  5
1B0
330
1E
100
AcDbEntity
  8
ADP1DETAIL
100
AcDbLine
 10
-19.3227263915589
 20
17.40605732819757
 30
0.0
 11
-19.3227263915589
 21
19.96855732819756
 31
0.0
  0
LINE
  5
1B1
330
1E
100
AcDbEntity
  8
ADP1DETAIL
100
AcDbLine
 10
-19.4789763915589
 20
20.12480732819756
 30
0.0
 11
-19.4789763915589
 21
17.28685100052244
 31
0.0
  0
LINE
  5
1B2
330
1E
100
AcDbEntity
  8
ADP1DETAIL
100
AcDbLine
 10
-19.1977263915589
 20
17.84355732819757
 30
0.0
 11
-18.8852263915589
 21
17.84355732819757
 31
0.0
  0
LINE
  5
1B3
330
1E
100
AcDbEntity
  8
ADP1DETAIL
100
AcDbLine
 10
-18.8539763915589
 20
17.24980732819757
 30
0.0
 11
-19.4789763915589
 21
17.24980732819757
 31
0.0
  0
LINE
  5
1B4
330
1E
100
AcDbEntity
  8
ADP1DETAIL
100
AcDbLine
 10
-18.6977263915589
 20
17.40605732819757
 30
0.0
 11
-19.3227263915589
 21
17.40605732819757
 31
0.0
  0
LINE
  5
1B5
330
1E
100
AcDbEntity
  8
ADP1DETAIL
100
AcDbLine
 10
-19.1977263915589
 20
17.53105732819757
 30
0.0
 11
-19.1977263915589
 21
18.15605732819756
 31
0.0
  0
LINE
  5
1B6
330
1E
100
AcDbEntity
  8
ADP1DETAIL
100
AcDbLine
 10
-18.8852263915589
 20
17.84355732819757
 30
0.0
 11
-18.8852263915589
 21
17.71855732819757
 31
0.0
  0
LINE
  5
1B7
330
1E
100
AcDbEntity
  8
ADP1DETAIL
100
AcDbLine
 10
-18.8852263915589
 20
19.53105732819756
 30
0.0
 11
-19.1977263915589
 21
19.53105732819756
 31
0.0
  0
LINE
  5
1B8
330
1E
100
AcDbEntity
  8
ADP1DETAIL
100
AcDbLine
 10
-18.8852263915589
 20
19.65605732819756
 30
0.0
 11
-18.8852263915589
 21
19.53105732819756
 31
0.0
  0
LINE
  5
1B9
330
1E
100
AcDbEntity
  8
ADP1DETAIL
100
AcDbLine
 10
-16.88522639155889
 20
19.84355732819756
 30
0.0
 11
-16.88522639155889
 21
17.53105732819757
 31
0.0
  0
LINE
  5
1BA
330
1E
100
AcDbEntity
  8
ADP1DETAIL
100
AcDbLine
 10
-16.60397639155889
 20
17.24980732819757
 30
0.0
 11
-17.22897639155889
 21
17.24980732819757
 31
0.0
  0
LINE
  5
1BB
330
1E
100
AcDbEntity
  8
ADP1DETAIL
100
AcDbLine
 10
-16.7602263915589
 20
17.40605732819757
 30
0.0
 11
-17.38522639155889
 21
17.40605732819757
 31
0.0
  0
LINE
  5
1BC
330
1E
100
AcDbEntity
  8
ADP1DETAIL
100
AcDbLine
 10
-17.19772639155889
 20
17.71855732819757
 30
0.0
 11
-17.19772639155889
 21
17.84355732819757
 31
0.0
  0
LINE
  5
1BD
330
1E
100
AcDbEntity
  8
ADP1DETAIL
100
AcDbLine
 10
-17.19772639155889
 20
17.84355732819757
 30
0.0
 11
-16.88522639155889
 21
17.84355732819757
 31
0.0
  0
LINE
  5
1BE
330
1E
100
AcDbEntity
  8
ADP1DETAIL
100
AcDbLine
 10
-16.76022639155889
 20
18.03105732819757
 30
0.0
 11
-16.76022639155889
 21
17.40605732819757
 31
0.0
  0
LINE
  5
1BF
330
1E
100
AcDbEntity
  8
ADP1DETAIL
100
AcDbLine
 10
-16.60397639155889
 20
17.87480732819757
 30
0.0
 11
-16.60397639155889
 21
17.24980732819757
 31
0.0
  0
LINE
  5
1C0
330
1E
100
AcDbEntity
  8
ADP1DETAIL
100
AcDbLine
 10
-16.76022639155889
 20
19.96855732819756
 30
0.0
 11
-16.76022639155889
 21
19.34355732819756
 31
0.0
  0
LINE
  5
1C1
330
1E
100
AcDbEntity
  8
ADP1DETAIL
100
AcDbLine
 10
-17.19772639155889
 20
19.53105732819756
 30
0.0
 11
-17.19772639155889
 21
19.65605732819756
 31
0.0
  0
LINE
  5
1C2
330
1E
100
AcDbEntity
  8
ADP1DETAIL
100
AcDbLine
 10
-16.88522639155889
 20
19.53105732819756
 30
0.0
 11
-17.19772639155889
 21
19.53105732819756
 31
0.0
  0
LINE
  5
1C3
330
1E
100
AcDbEntity
  8
ADP1DETAIL
100
AcDbLine
 10
-16.60397639155889
 20
20.12480732819756
 30
0.0
 11
-16.60397639155889
 21
19.49980732819756
 31
0.0
  0
LINE
  5
1C4
330
1E
100
AcDbEntity
  8
ADP1DETAIL
100
AcDbLine
 10
-19.4789763915589
 20
25.31016926656947
 30
0.0
 11
-16.60397639155889
 21
25.31016926656947
 31
0.0
  0
LINE
  5
1C5
330
1E
100
AcDbEntity
  8
ADP1DETAIL
100
AcDbLine
 10
-18.79497639155889
 20
23.11916926656948
 30
0.0
 11
-17.2879763915589
 21
23.11916926656948
 31
0.0
  0
LINE
  5
1C6
330
1E
100
AcDbEntity
  8
ADP1DETAIL
100
AcDbLine
 10
-18.79497639155889
 20
24.62616926656947
 30
0.0
 11
-17.2879763915589
 21
24.62616926656947
 31
0.0
  0
LINE
  5
1C7
330
1E
100
AcDbEntity
  8
ADP1DETAIL
100
AcDbLine
 10
-19.3539763915589
 20
25.18516926656948
 30
0.0
 11
-16.72897639155889
 21
25.18516926656948
 31
0.0
  0
LINE
  5
1C8
330
1E
100
AcDbEntity
  8
ADP1DETAIL
100
AcDbLine
 10
-17.22897639155889
 20
22.43516926656947
 30
0.0
 11
-17.9129763915589
 21
23.11916926656948
 31
0.0
  0
LINE
  5
1C9
330
1E
100
AcDbEntity
  8
ADP1DETAIL
100
AcDbLine
 10
-18.79497639155889
 20
23.11916926656948
 30
0.0
 11
-18.79497639155889
 21
24.62616926656947
 31
0.0
  0
LINE
  5
1CA
330
1E
100
AcDbEntity
  8
ADP1DETAIL
100
AcDbLine
 10
-19.4789763915589
 20
22.43516926656947
 30
0.0
 11
-19.4789763915589
 21
25.31016926656947
 31
0.0
  0
LINE
  5
1CB
330
1E
100
AcDbEntity
  8
ADP1DETAIL
100
AcDbLine
 10
-19.3539763915589
 20
22.56016926656947
 30
0.0
 11
-19.3539763915589
 21
25.18516926656948
 31
0.0
  0
LINE
  5
1CC
330
1E
100
AcDbEntity
  8
ADP1DETAIL
100
AcDbLine
 10
-18.8539763915589
 20
22.43516926656947
 30
0.0
 11
-19.4789763915589
 21
22.43516926656947
 31
0.0
  0
LINE
  5
1CD
330
1E
100
AcDbEntity
  8
ADP1DETAIL
100
AcDbLine
 10
-18.7289763915589
 20
22.56016926656947
 30
0.0
 11
-19.3539763915589
 21
22.56016926656947
 31
0.0
  0
LINE
  5
1CE
330
1E
100
AcDbEntity
  8
ADP1DETAIL
100
AcDbLine
 10
-19.4789763915589
 20
22.43516926656947
 30
0.0
 11
-18.79497639155889
 21
23.11916926656948
 31
0.0
  0
LINE
  5
1CF
330
1E
100
AcDbEntity
  8
ADP1DETAIL
100
AcDbLine
 10
-18.16997639155889
 20
23.11916926656948
 30
0.0
 11
-18.8539763915589
 21
22.43516926656947
 31
0.0
  0
LINE
  5
1D0
330
1E
100
AcDbEntity
  8
ADP1DETAIL
100
AcDbLine
 10
-18.79497639155889
 20
24.62616926656947
 30
0.0
 11
-19.4789763915589
 21
25.31016926656947
 31
0.0
  0
LINE
  5
1D1
330
1E
100
AcDbEntity
  8
ADP1DETAIL
100
AcDbLine
 10
-17.2879763915589
 20
24.62616926656947
 30
0.0
 11
-17.2879763915589
 21
23.11916926656948
 31
0.0
  0
LINE
  5
1D2
330
1E
100
AcDbEntity
  8
ADP1DETAIL
100
AcDbLine
 10
-16.60397639155889
 20
23.06016926656947
 30
0.0
 11
-17.2879763915589
 21
23.74416926656948
 31
0.0
  0
LINE
  5
1D3
330
1E
100
AcDbEntity
  8
ADP1DETAIL
100
AcDbLine
 10
-16.60397639155889
 20
22.43516926656947
 30
0.0
 11
-17.22897639155889
 21
22.43516926656947
 31
0.0
  0
LINE
  5
1D4
330
1E
100
AcDbEntity
  8
ADP1DETAIL
100
AcDbLine
 10
-16.60397639155889
 20
22.43516926656947
 30
0.0
 11
-17.2879763915589
 21
23.11916926656948
 31
0.0
  0
LINE
  5
1D5
330
1E
100
AcDbEntity
  8
ADP1DETAIL
100
AcDbLine
 10
-16.72897639155889
 20
22.56016926656947
 30
0.0
 11
-17.35397639155889
 21
22.56016926656947
 31
0.0
  0
LINE
  5
1D6
330
1E
100
AcDbEntity
  8
ADP1DETAIL
100
AcDbLine
 10
-16.72897639155889
 20
23.18516926656947
 30
0.0
 11
-16.72897639155889
 21
22.56016926656947
 31
0.0
  0
LINE
  5
1D7
330
1E
100
AcDbEntity
  8
ADP1DETAIL
100
AcDbLine
 10
-16.60397639155889
 20
23.06016926656947
 30
0.0
 11
-16.60397639155889
 21
22.43516926656947
 31
0.0
  0
LINE
  5
1D8
330
1E
100
AcDbEntity
  8
ADP1DETAIL
100
AcDbLine
 10
-16.60397639155889
 20
24.68516926656947
 30
0.0
 11
-17.2879763915589
 21
24.00116926656947
 31
0.0
  0
LINE
  5
1D9
330
1E
100
AcDbEntity
  8
ADP1DETAIL
100
AcDbLine
 10
-16.60397639155889
 20
25.31016926656947
 30
0.0
 11
-17.2879763915589
 21
24.62616926656947
 31
0.0
  0
LINE
  5
1DA
330
1E
100
AcDbEntity
  8
ADP1DETAIL
100
AcDbLine
 10
-16.72897639155889
 20
25.18516926656948
 30
0.0
 11
-16.72897639155889
 21
24.56016926656948
 31
0.0
  0
LINE
  5
1DB
330
1E
100
AcDbEntity
  8
ADP1DETAIL
100
AcDbLine
 10
-16.60397639155889
 20
25.31016926656947
 30
0.0
 11
-16.60397639155889
 21
24.68516926656947
 31
0.0
  0
LINE
  5
1DC
330
1E
100
AcDbEntity
  8
ADP1DETAIL
100
AcDbLine
 10
-15.1039763915589
 20
19.49980732819756
 30
0.0
 11
-15.1039763915589
 21
17.87480732819757
 31
0.0
  0
DIMENSION
  5
1DD
330
1E
100
AcDbEntity
  8
ADPDIM
100
AcDbDimension
  2
*D2
 10
-12.65835054278739
 20
24.39848467756387
 30
0.0
 11
-12.65835054278739
 21
25.06515134423054
 31
0.0
100
AcDbAlignedDimension
 13
-13.42208338782947
 23
23.33586003157656
 33
0.0
 14
-13.42213489904845
 24
24.39848467756387
 34
0.0
 50
90.0
100
AcDbRotatedDimension
  0
DIMENSION
  5
1DE
330
1E
100
AcDbEntity
  8
ADPDIM
100
AcDbDimension
  2
*D4
 10
-14.59760387490482
 20
24.67415055748396
 30
0.0
 11
-14.59760387490482
 21
23.86715991202672
 31
0.0
100
AcDbAlignedDimension
 13
-13.67874718393429
 23
23.06016926656947
 33
0.0
 14
-13.6788254224205
 24
24.67415055748396
 34
0.0
 50
90.0
100
AcDbRotatedDimension
  0
ARC
  5
1DF
330
1E
100
AcDbEntity
  8
ADP1DETAIL
100
AcDbCircle
 10
-13.64108338782946
 20
23.53836003157656
 30
0.0
 40
0.0150000000000006
100
AcDbArc
 50
180.0
 51
269.9999999999966
  0
ARC
  5
1E0
330
1E
100
AcDbEntity
  8
ADP1DETAIL
100
AcDbCircle
 10
-14.16743302650871
 20
23.36853305966355
 30
0.0
 40
0.3542134459117149
100
AcDbArc
 50
359.8326154630628
 51
38.62185314587851
  0
LINE
  5
1E1
330
1E
100
AcDbEntity
  8
ADP1DETAIL
100
AcDbLine
 10
-14.00008328828564
 20
24.62064433700742
 30
0.0
 11
-14.00008328828564
 21
23.11364433700743
 31
0.0
  0
LINE
  5
1E2
330
1E
100
AcDbEntity
  8
ADP1DETAIL
100
AcDbLine
 10
-15.1039763915589
 20
24.68516926656947
 30
0.0
 11
-15.1039763915589
 21
23.06016926656947
 31
0.0
  0
LINE
  5
1E3
330
1E
100
AcDbEntity
  8
ADP1DETAIL
100
AcDbLine
 10
-13.34414708469256
 20
25.16418369658913
 30
0.0
 11
-13.34408338782946
 21
22.58490049064803
 31
0.0
  0
ARC
  5
1E4
330
1E
100
AcDbEntity
  8
ADP1DETAIL
100
AcDbCircle
 10
-13.64108338782946
 20
22.55408550164309
 30
0.0
 40
0.125
100
AcDbArc
 50
180.0
 51
324.927352164704
  0
ARC
  5
1E5
330
1E
100
AcDbEntity
  8
ADP1DETAIL
100
AcDbCircle
 10
-13.79809436278523
 20
23.19436003157656
 30
0.0
 40
0.0150000000000006
100
AcDbArc
 50
180.0419365829274
 51
270.0
  0
ARC
  5
1E6
330
1E
100
AcDbEntity
  8
ADP1DETAIL
100
AcDbCircle
 10
-13.79809436278523
 20
22.56908550164309
 30
0.0
 40
0.0150000000000006
100
AcDbArc
 50
180.0419365829274
 51
270.0
  0
ARC
  5
1E7
330
1E
100
AcDbEntity
  8
ADP1DETAIL
100
AcDbCircle
 10
-14.69570913044035
 20
22.57027270643997
 30
0.0
 40
0.8826936281513425
100
AcDbArc
 50
358.9647418692438
 51
37.99433047685981
  0
LINE
  5
1E8
330
1E
100
AcDbEntity
  8
ADP1DETAIL
100
AcDbLine
 10
-13.81309435876731
 20
23.1943490526058
 30
0.0
 11
-13.81322109213874
 21
23.36749825797679
 31
0.0
  0
LINE
  5
1E9
330
1E
100
AcDbEntity
  8
ADP1DETAIL
100
AcDbLine
 10
-13.81207031055464
 20
23.18891274932328
 30
0.0
 11
-13.81309435876731
 21
22.56907452267233
 31
0.0
  0
LINE
  5
1EA
330
1E
100
AcDbEntity
  8
ADP1DETAIL
100
AcDbLine
 10
-13.64108338782946
 20
23.52336003157656
 30
0.0
 11
-13.51508338782946
 21
23.52336003157656
 31
0.0
  0
LINE
  5
1EB
330
1E
100
AcDbEntity
  8
ADP1DETAIL
100
AcDbLine
 10
-13.48508338782947
 20
23.33586003157656
 30
0.0
 11
-13.35908338782946
 21
23.33586003157656
 31
0.0
  0
ARC
  5
1EC
330
1E
100
AcDbEntity
  8
ADP1DETAIL
100
AcDbCircle
 10
-13.33493919870005
 20
22.96034230894197
 30
0.0
 40
0.25
100
AcDbArc
 50
92.09616134879359
 51
144.2334128028693
  0
ARC
  5
1ED
330
1E
100
AcDbEntity
  8
ADP1DETAIL
100
AcDbCircle
 10
-13.51508338782946
 20
23.50836003157656
 30
0.0
 40
0.0150000000000006
100
AcDbArc
 50
0.0
 51
90.0
  0
ARC
  5
1EE
330
1E
100
AcDbEntity
  8
ADP1DETAIL
100
AcDbCircle
 10
-13.48508338782947
 20
23.35086003157656
 30
0.0
 40
0.0150000000000006
100
AcDbArc
 50
180.0
 51
270.0
  0
LINE
  5
1EF
330
1E
100
AcDbEntity
  8
ADP1DETAIL
100
AcDbLine
 10
-13.50008338782947
 20
23.50836003157656
 30
0.0
 11
-13.50008338782947
 21
23.35086003157656
 31
0.0
  0
LINE
  5
1F0
330
1E
100
AcDbEntity
  8
ADP1DETAIL
100
AcDbLine
 10
-13.34408338782946
 20
23.32086003157656
 30
0.0
 11
-13.34408338782946
 21
23.21136951296762
 31
0.0
  0
ARC
  5
1F1
330
1E
100
AcDbEntity
  8
ADP1DETAIL
100
AcDbCircle
 10
-13.35908338782946
 20
23.32086003157656
 30
0.0
 40
0.0150000000000006
100
AcDbArc
 50
0.0
 51
90.0
  0
LINE
  5
1F2
330
1E
100
AcDbEntity
  8
ADP1DETAIL
100
AcDbLine
 10
-13.76608338782946
 20
23.17936003157656
 30
0.0
 11
-13.79809436278523
 21
23.17936003157656
 31
0.0
  0
ARC
  5
1F3
330
1E
100
AcDbEntity
  8
ADP1DETAIL
100
AcDbCircle
 10
-13.64108338782946
 20
23.17936003157656
 30
0.0
 40
0.125
100
AcDbArc
 50
180.0
 51
324.927352164704
  0
ARC
  5
1F4
330
1E
100
AcDbEntity
  8
ADP1DETAIL
100
AcDbCircle
 10
-13.33493919870005
 20
22.3350677790085
 30
0.0
 40
0.25
100
AcDbArc
 50
92.09616134879359
 51
144.2334128028693
  0
LINE
  5
1F5
330
1E
100
AcDbEntity
  8
ADP1DETAIL
100
AcDbLine
 10
-13.76608338782946
 20
22.55408550164309
 30
0.0
 11
-13.79809436278523
 21
22.55408550164309
 31
0.0
  0
LINE
  5
1F6
330
1E
100
AcDbEntity
  8
ADP1DETAIL
100
AcDbLine
 10
-13.78208887530735
 20
22.55408550164309
 30
0.0
 11
-13.78210466357458
 21
23.17936003157656
 31
0.0
  0
ARC
  5
1F7
330
1E
100
AcDbEntity
  8
ADP1DETAIL
100
AcDbCircle
 10
-13.33502711711752
 20
24.77401084714299
 30
0.0
 40
0.25
100
AcDbArc
 50
215.7721420757122
 51
267.9093935297879
  0
LINE
  5
1F8
330
1E
100
AcDbEntity
  8
ADP1DETAIL
100
AcDbLine
 10
-13.80876333879349
 20
25.19056412340459
 30
0.0
 11
-13.8098226517496
 21
24.54938077279779
 31
0.0
  0
LINE
  5
1F9
330
1E
100
AcDbEntity
  8
ADP1DETAIL
100
AcDbLine
 10
-13.78213939740339
 20
24.55494977553167
 30
0.0
 11
-13.78215555765348
 21
25.194956220414
 31
0.0
  0
ARC
  5
1FA
330
1E
100
AcDbEntity
  8
ADP1DETAIL
100
AcDbCircle
 10
-14.69570913044035
 20
25.16401596757487
 30
0.0
 40
0.8826936281513425
100
AcDbArc
 50
322.0056695231401
 51
1.035258130756192
  0
ARC
  5
1FB
330
1E
100
AcDbEntity
  8
ADP1DETAIL
100
AcDbCircle
 10
-13.64115007083829
 20
24.55496344457674
 30
0.0
 40
0.125
100
AcDbArc
 50
35.07820271387751
 51
180.0055548785815
  0
ARC
  5
1FC
330
1E
100
AcDbEntity
  8
ADP1DETAIL
100
AcDbCircle
 10
-13.79815959079234
 20
24.53994822228867
 30
0.0
 40
0.0150000000000002
100
AcDbArc
 50
90.00555487858212
 51
179.9636182956563
  0
ARC
  5
1FD
330
1E
100
AcDbEntity
  8
ADP1DETAIL
100
AcDbCircle
 10
-14.1674813665446
 20
24.36573938729677
 30
0.0
 40
0.3542134459117149
100
AcDbArc
 50
321.383701732703
 51
0.1729394155187425
  0
LINE
  5
1FE
330
1E
100
AcDbEntity
  8
ADP1DETAIL
100
AcDbLine
 10
-13.81315958776833
 20
24.53995774699595
 30
0.0
 11
-13.8132695341643
 21
24.36680853015181
 31
0.0
  0
ARC
  5
1FF
330
1E
100
AcDbEntity
  8
ADP1DETAIL
100
AcDbCircle
 10
-13.59408338782946
 20
23.86686003157656
 30
0.0
 40
0.4060000000000001
100
AcDbArc
 50
179.9598780723828
 51
223.0663233236764
  0
ARC
  5
200
330
1E
100
AcDbEntity
  8
ADP1DETAIL
100
AcDbCircle
 10
-13.59408341730123
 20
23.86746800450109
 30
0.0
 40
0.4060000000000001
100
AcDbArc
 50
136.9392315549051
 51
180.0456768061986
  0
LINE
  5
201
330
1E
100
AcDbEntity
  8
ADP1DETAIL
100
AcDbLine
 10
-13.48513489875237
 20
24.39847856965588
 30
0.0
 11
-13.35913489934453
 21
24.39849078547188
 31
0.0
  0
ARC
  5
202
330
1E
100
AcDbEntity
  8
ADP1DETAIL
100
AcDbCircle
 10
-13.48513344448856
 20
24.38347856972637
 30
0.0
 40
0.0150000000000002
100
AcDbArc
 50
90.00555487858212
 51
180.005554878582
  0
ARC
  5
203
330
1E
100
AcDbEntity
  8
ADP1DETAIL
100
AcDbCircle
 10
-13.35913635360834
 20
24.41349078540138
 30
0.0
 40
0.0150000000000037
100
AcDbArc
 50
270.0055548785889
 51
0.0055548785820747
  0
LINE
  5
204
330
1E
100
AcDbEntity
  8
ADP1DETAIL
100
AcDbLine
 10
-13.34413635367884
 20
24.41349223966519
 30
0.0
 11
-13.34414696888542
 21
24.52298275775955
 31
0.0
  0
LINE
  5
205
330
1E
100
AcDbEntity
  8
ADP1DETAIL
100
AcDbLine
 10
-13.76615007025082
 20
24.55495132571167
 30
0.0
 11
-13.79816104505615
 21
24.55494822221817
 31
0.0
  0
LINE
  5
206
330
1E
100
AcDbEntity
  8
ADP1DETAIL
100
AcDbLine
 10
-13.65608327158347
 20
23.86596199355106
 30
0.0
 11
-13.65611526538728
 21
24.19596199200014
 31
0.0
  0
LINE
  5
207
330
1E
100
AcDbEntity
  8
ADP1DETAIL
100
AcDbLine
 10
-13.65608338782946
 20
23.86836003157656
 30
0.0
 11
-13.65608338782946
 21
23.53836003157656
 31
0.0
  0
LINE
  5
208
330
1E
100
AcDbEntity
  8
ADP1DETAIL
100
AcDbLine
 10
-13.64111671972159
 20
24.21096344619346
 30
0.0
 11
-13.51511672031375
 21
24.21097566200946
 31
0.0
  0
ARC
  5
209
330
1E
100
AcDbEntity
  8
ADP1DETAIL
100
AcDbCircle
 10
-13.64111526545778
 20
24.19596344626395
 30
0.0
 40
0.0150000000000002
100
AcDbArc
 50
90.00555487858212
 51
180.005554878582
  0
ARC
  5
20A
330
1E
100
AcDbEntity
  8
ADP1DETAIL
100
AcDbCircle
 10
-13.51511817457756
 20
24.22597566193896
 30
0.0
 40
0.0150000000000002
100
AcDbArc
 50
270.005554878582
 51
0.0055548785820747
  0
LINE
  5
20B
330
1E
100
AcDbEntity
  8
ADP1DETAIL
100
AcDbLine
 10
-13.50011817464806
 20
24.22597711620277
 30
0.0
 11
-13.50013344441806
 21
24.38347711546256
 31
0.0
  0
ARC
  5
20C
330
1E
100
AcDbEntity
  8
ADP1DETAIL
100
AcDbCircle
 10
-13.79815959079234
 20
25.17995466873775
 30
0.0
 40
0.0150000000000002
100
AcDbArc
 50
90.00555487858212
 51
179.9636182956563
  0
ARC
  5
20D
330
1E
100
AcDbEntity
  8
ADP1DETAIL
100
AcDbCircle
 10
-13.33502711711752
 20
25.41401729359207
 30
0.0
 40
0.25
100
AcDbArc
 50
215.7721420757122
 51
267.9093935297879
  0
LINE
  5
20E
330
1E
100
AcDbEntity
  8
ADP1DETAIL
100
AcDbLine
 10
-13.76615007025082
 20
25.19495777216075
 30
0.0
 11
-13.79816104505615
 21
25.19495466866725
 31
0.0
  0
ARC
  5
20F
330
1E
100
AcDbEntity
  8
ADP1DETAIL
100
AcDbCircle
 10
-13.64115007083829
 20
25.19496989102583
 30
0.0
 40
0.125
100
AcDbArc
 50
35.07820271387751
 51
180.0055548785815
  0
TEXT
  5
213
330
1E
100
AcDbEntity
  8
ADPDIM
100
AcDbText
 10
-25.89795042469416
 20
15.14624057592278
 30
0.0
 40
0.1875
  1
J U L I U S  B L U M  &  C O . ,  I N C .      ( 8 0 0 )  5 2 6 - 6 2 9 3        W W W . J U L I U S B L U M . C O M        P A R T  N o .  4 5 3 1 - L
 41
1.25
  7
ARIAL_WIDE
 72
     1
 11
-15.87282359147451
 21
15.33374057592277
 31
0.0
100
AcDbText
 73
     3
  0
ENDSEC
  0
SECTION
  2
OBJECTS
  0
DICTIONARY
  5
C
330
0
100
AcDbDictionary
  3
ACAD_GROUP
350
D
  3
ACAD_LAYOUT
350
19
  3
ACAD_MLINESTYLE
350
16
  3
ACAD_PLOTSETTINGS
350
18
  3
ACAD_PLOTSTYLENAME
350
E
  3
ACDBHEADERROUNDTRIPXREC
350
3A6
  3
ACDBVARIABLEDICTIONARY
350
284
  0
DICTIONARY
  5
24F
330
1E
100
AcDbDictionary
280
     1
  3
ACAD_LAYOUTSELFREF
360
3C8
  0
DICTIONARY
  5
251
330
1A
100
AcDbDictionary
280
     1
  3
ACAD_LAYOUTSELFREF
360
3C7
  0
DICTIONARY
  5
D
102
{ACAD_REACTORS
330
C
102
}
330
C
100
AcDbDictionary
  0
DICTIONARY
  5
19
102
{ACAD_REACTORS
330
C
102
}
330
C
100
AcDbDictionary
  0
DICTIONARY
  5
16
102
{ACAD_REACTORS
330
C
102
}
330
C
100
AcDbDictionary
  3
STANDARD
350
17
  0
DICTIONARY
  5
18
102
{ACAD_REACTORS
330
C
102
}
330
C
100
AcDbDictionary
  0
ACDBDICTIONARYWDFLT
  5
E
102
{ACAD_REACTORS
330
C
102
}
330
C
100
AcDbDictionary
281
     1
  3
Normal
350
F
100
AcDbDictionaryWithDefault
340
F
  0
DICTIONARY
  5
3A6
102
{ACAD_REACTORS
330
C
102
}
330
C
100
AcDbDictionary
  3
CEPSNTYPE
350
3B0
  3
DIMSTYLEDATA
350
3B4
  3
FINGERPRINTGUID
350
3B1
  3
HYPERLINKBASE
350
3A9
  3
INSUNITS
350
3AF
  3
LAYOUTDICT
350
3AB
  3
LWETCUNION
350
3AE
  3
PLOTSETDICT
350
3AC
  3
PLOTSTYLNAMDICT
350
3AD
  3
PSVPSCALE
350
3B3
  3
PUCSBASE
350
3B7
  3
PUCSORGBACK
350
3BD
  3
PUCSORGBOTTOM
350
3B9
  3
PUCSORGFRONT
350
3BC
  3
PUCSORGLEFT
350
3BA
  3
PUCSORGRIGHT
350
3BB
  3
PUCSORGTOP
350
3B8
  3
PUCSORTHOREF
350
3B5
  3
PUCSORTHOVIEW
350
3B6
  3
STYLESHEET
350
3AA
  3
TSTACKALIGN
350
3A7
  3
TSTACKSIZE
350
3A8
  3
UCSBASE
350
3C0
  3
UCSORGBACK
350
3C6
  3
UCSORGBOTTOM
350
3C2
  3
UCSORGFRONT
350
3C5
  3
UCSORGLEFT
350
3C3
  3
UCSORGRIGHT
350
3C4
  3
UCSORGTOP
350
3C1
  3
UCSORTHOREF
350
3BE
  3
UCSORTHOVIEW
350
3BF
  3
VERSIONGUID
350
3B2
  0
DICTIONARY
  5
284
102
{ACAD_REACTORS
330
C
102
}
330
C
100
AcDbDictionary
  3
DIMASSOC
350
286
  3
HIDETEXT
350
285
  0
XRECORD
  5
3C8
102
{ACAD_REACTORS
330
24F
102
}
330
24F
100
AcDbXrecord
340
1E
  0
XRECORD
  5
3C7
102
{ACAD_REACTORS
330
251
102
}
330
251
100
AcDbXrecord
340
1A
  0
MLINESTYLE
  5
17
102
{ACAD_REACTORS
330
16
102
}
330
16
100
AcDbMlineStyle
  2
STANDARD
 70
     0
  3

 62
   256
 51
90.0
 52
90.0
 71
     2
 49
0.5
 62
   256
  6
BYLAYER
 49
-0.5
 62
   256
  6
BYLAYER
  0
ACDBPLACEHOLDER
  5
F
102
{ACAD_REACTORS
330
E
102
}
330
E
100
AcDbPlaceHolder
280
     0
  0
XRECORD
  5
3B0
102
{ACAD_REACTORS
330
3A6
102
}
330
3A6
100
AcDbXrecord
 90
        0
  0
XRECORD
  5
3B4
102
{ACAD_REACTORS
330
3A6
102
}
330
3A6
100
AcDbXrecord
1000
DSTYLE
1002
{
1070
   277
 70
     5
1070
   279
 70
     2
1002
}
  0
XRECORD
  5
3B1
102
{ACAD_REACTORS
330
3A6
102
}
330
3A6
100
AcDbXrecord
  1
{B8A411BA-2715-4B76-BA66-A501CFF749F0}
  0
XRECORD
  5
3A9
102
{ACAD_REACTORS
330
3A6
102
}
330
3A6
100
AcDbXrecord
  1

  0
XRECORD
  5
3AF
102
{ACAD_REACTORS
330
3A6
102
}
330
3A6
100
AcDbXrecord
 90
        0
  0
XRECORD
  5
3AB
102
{ACAD_REACTORS
330
3A6
102
}
330
3A6
100
AcDbXrecord
340
19
  0
XRECORD
  5
3AE
102
{ACAD_REACTORS
330
3A6
102
}
330
3A6
100
AcDbXrecord
 90
    14877
  0
XRECORD
  5
3AC
102
{ACAD_REACTORS
330
3A6
102
}
330
3A6
100
AcDbXrecord
340
18
  0
XRECORD
  5
3AD
102
{ACAD_REACTORS
330
3A6
102
}
330
3A6
100
AcDbXrecord
340
E
  0
XRECORD
  5
3B3
102
{ACAD_REACTORS
330
3A6
102
}
330
3A6
100
AcDbXrecord
 40
0.0
  0
XRECORD
  5
3B7
102
{ACAD_REACTORS
330
3A6
102
}
330
3A6
100
AcDbXrecord
340
0
  0
XRECORD
  5
3BD
102
{ACAD_REACTORS
330
3A6
102
}
330
3A6
100
AcDbXrecord
 10
0.0
 20
0.0
 30
0.0
  0
XRECORD
  5
3B9
102
{ACAD_REACTORS
330
3A6
102
}
330
3A6
100
AcDbXrecord
 10
0.0
 20
0.0
 30
0.0
  0
XRECORD
  5
3BC
102
{ACAD_REACTORS
330
3A6
102
}
330
3A6
100
AcDbXrecord
 10
0.0
 20
0.0
 30
0.0
  0
XRECORD
  5
3BA
102
{ACAD_REACTORS
330
3A6
102
}
330
3A6
100
AcDbXrecord
 10
0.0
 20
0.0
 30
0.0
  0
XRECORD
  5
3BB
102
{ACAD_REACTORS
330
3A6
102
}
330
3A6
100
AcDbXrecord
 10
0.0
 20
0.0
 30
0.0
  0
XRECORD
  5
3B8
102
{ACAD_REACTORS
330
3A6
102
}
330
3A6
100
AcDbXrecord
 10
0.0
 20
0.0
 30
0.0
  0
XRECORD
  5
3B5
102
{ACAD_REACTORS
330
3A6
102
}
330
3A6
100
AcDbXrecord
340
0
  0
XRECORD
  5
3B6
102
{ACAD_REACTORS
330
3A6
102
}
330
3A6
100
AcDbXrecord
 70
     0
  0
XRECORD
  5
3AA
102
{ACAD_REACTORS
330
3A6
102
}
330
3A6
100
AcDbXrecord
  1

  0
XRECORD
  5
3A7
102
{ACAD_REACTORS
330
3A6
102
}
330
3A6
100
AcDbXrecord
 90
        1
  0
XRECORD
  5
3A8
102
{ACAD_REACTORS
330
3A6
102
}
330
3A6
100
AcDbXrecord
 90
       70
  0
XRECORD
  5
3C0
102
{ACAD_REACTORS
330
3A6
102
}
330
3A6
100
AcDbXrecord
340
0
  0
XRECORD
  5
3C6
102
{ACAD_REACTORS
330
3A6
102
}
330
3A6
100
AcDbXrecord
 10
0.0
 20
0.0
 30
0.0
  0
XRECORD
  5
3C2
102
{ACAD_REACTORS
330
3A6
102
}
330
3A6
100
AcDbXrecord
 10
0.0
 20
0.0
 30
0.0
  0
XRECORD
  5
3C5
102
{ACAD_REACTORS
330
3A6
102
}
330
3A6
100
AcDbXrecord
 10
0.0
 20
0.0
 30
0.0
  0
XRECORD
  5
3C3
102
{ACAD_REACTORS
330
3A6
102
}
330
3A6
100
AcDbXrecord
 10
0.0
 20
0.0
 30
0.0
  0
XRECORD
  5
3C4
102
{ACAD_REACTORS
330
3A6
102
}
330
3A6
100
AcDbXrecord
 10
0.0
 20
0.0
 30
0.0
  0
XRECORD
  5
3C1
102
{ACAD_REACTORS
330
3A6
102
}
330
3A6
100
AcDbXrecord
 10
0.0
 20
0.0
 30
0.0
  0
XRECORD
  5
3BE
102
{ACAD_REACTORS
330
3A6
102
}
330
3A6
100
AcDbXrecord
340
0
  0
XRECORD
  5
3BF
102
{ACAD_REACTORS
330
3A6
102
}
330
3A6
100
AcDbXrecord
 70
     0
  0
XRECORD
  5
3B2
102
{ACAD_REACTORS
330
3A6
102
}
330
3A6
100
AcDbXrecord
  1
{6D8ED874-40E9-4286-B335-671B40D3A033}
  0
DICTIONARYVAR
  5
286
102
{ACAD_REACTORS
330
284
102
}
330
284
100
DictionaryVariables
280
     0
  1
2
  0
DICTIONARYVAR
  5
285
102
{ACAD_REACTORS
330
284
102
}
330
284
100
DictionaryVariables
280
     0
  1
1
  0
ENDSEC
  0
EOF
