  0
SECTION
  2
HEADER
  9
$ACADVER
  1
AC1014
  9
$ACADMAINTVER
 70
     9
  9
$DWGCODEPAGE
  3
ANSI_1252
  9
$INSBASE
 10
1.635117015045973
 20
-11.55750236752894
 30
0.0
  9
$EXTMIN
 10
-11.90364068562765
 20
-19.20369744932619
 30
0.0
  9
$EXTMAX
 10
5.09294334404492
 20
-9.177939684895452
 30
0.0
  9
$LIMMIN
 10
0.0
 20
0.0
  9
$LIMMAX
 10
36.0
 20
36.0
  9
$ORTHOMODE
 70
     1
  9
$REGENMODE
 70
     1
  9
$FILLMODE
 70
     1
  9
$QTEXTMODE
 70
     0
  9
$MIRRTEXT
 70
     1
  9
$DRAGMODE
 70
     0
  9
$LTSCALE
 40
1.0
  9
$OSMODE
 70
    37
  9
$ATTMODE
 70
     1
  9
$TEXTSIZE
 40
0.2
  9
$TRACEWID
 40
0.05
  9
$TEXTSTYLE
  7
STANDARD
  9
$CLAYER
  8
ADP1DETAIL
  9
$CELTYPE
  6
BYLAYER
  9
$CECOLOR
 62
   256
  9
$CELTSCALE
 40
1.0
  9
$DELOBJ
 70
     1
  9
$DISPSILH
 70
     0
  9
$DIMSCALE
 40
1.0
  9
$DIMASZ
 40
0.125
  9
$DIMEXO
 40
0.0625
  9
$DIMDLI
 40
0.38
  9
$DIMRND
 40
0.0
  9
$DIMDLE
 40
0.0
  9
$DIMEXE
 40
0.18
  9
$DIMTP
 40
0.0
  9
$DIMTM
 40
0.0
  9
$DIMTXT
 40
0.125
  9
$DIMCEN
 40
0.1875
  9
$DIMTSZ
 40
0.125
  9
$DIMTOL
 70
     0
  9
$DIMLIM
 70
     0
  9
$DIMTIH
 70
     0
  9
$DIMTOH
 70
     0
  9
$DIMSE1
 70
     0
  9
$DIMSE2
 70
     0
  9
$DIMTAD
 70
     0
  9
$DIMZIN
 70
     3
  9
$DIMBLK
  1

  9
$DIMASO
 70
     1
  9
$DIMSHO
 70
     1
  9
$DIMPOST
  1

  9
$DIMAPOST
  1

  9
$DIMALT
 70
     0
  9
$DIMALTD
 70
     1
  9
$DIMALTF
 40
25.4
  9
$DIMLFAC
 40
1.0
  9
$DIMTOFL
 70
     0
  9
$DIMTVP
 40
0.0
  9
$DIMTIX
 70
     0
  9
$DIMSOXD
 70
     0
  9
$DIMSAH
 70
     0
  9
$DIMBLK1
  1

  9
$DIMBLK2
  1

  9
$DIMSTYLE
  2
STANDARD
  9
$DIMCLRD
 70
     0
  9
$DIMCLRE
 70
     0
  9
$DIMCLRT
 70
     0
  9
$DIMTFAC
 40
1.0
  9
$DIMGAP
 40
0.125
  9
$DIMJUST
 70
     0
  9
$DIMSD1
 70
     0
  9
$DIMSD2
 70
     0
  9
$DIMTOLJ
 70
     1
  9
$DIMTZIN
 70
     3
  9
$DIMALTZ
 70
     3
  9
$DIMALTTZ
 70
     3
  9
$DIMFIT
 70
     5
  9
$DIMUPT
 70
     0
  9
$DIMUNIT
 70
     5
  9
$DIMDEC
 70
     4
  9
$DIMTDEC
 70
     4
  9
$DIMALTU
 70
     5
  9
$DIMALTTD
 70
     1
  9
$DIMTXSTY
  7
STANDARD
  9
$DIMAUNIT
 70
     0
  9
$LUNITS
 70
     5
  9
$LUPREC
 70
     4
  9
$SKETCHINC
 40
0.1
  9
$FILLETRAD
 40
0.062
  9
$AUNITS
 70
     0
  9
$AUPREC
 70
     0
  9
$MENU
  1
acad
  9
$ELEVATION
 40
0.0
  9
$PELEVATION
 40
0.0
  9
$THICKNESS
 40
0.0
  9
$LIMCHECK
 70
     0
  9
$BLIPMODE
 70
     0
  9
$CHAMFERA
 40
0.0
  9
$CHAMFERB
 40
0.0
  9
$CHAMFERC
 40
0.0
  9
$CHAMFERD
 40
0.0
  9
$SKPOLY
 70
     0
  9
$TDCREATE
 40
2450406.627145254
  9
$TDUPDATE
 40
2452297.087325844
  9
$TDINDWG
 40
0.0363203588
  9
$TDUSRTIMER
 40
0.0363203588
  9
$USRTIMER
 70
     1
  9
$ANGBASE
 50
0.0
  9
$ANGDIR
 70
     0
  9
$PDMODE
 70
     0
  9
$PDSIZE
 40
0.0
  9
$PLINEWID
 40
0.0
  9
$COORDS
 70
     2
  9
$SPLFRAME
 70
     0
  9
$SPLINETYPE
 70
     6
  9
$SPLINESEGS
 70
     8
  9
$ATTDIA
 70
     0
  9
$ATTREQ
 70
     1
  9
$HANDLING
 70
 22529
  9
$HANDSEED
  5
2AA
  9
$SURFTAB1
 70
     6
  9
$SURFTAB2
 70
     6
  9
$SURFTYPE
 70
     6
  9
$SURFU
 70
     6
  9
$SURFV
 70
     6
  9
$UCSNAME
  2

  9
$UCSORG
 10
0.0
 20
0.0
 30
0.0
  9
$UCSXDIR
 10
1.0
 20
0.0
 30
0.0
  9
$UCSYDIR
 10
0.0
 20
1.0
 30
0.0
  9
$PUCSNAME
  2

  9
$PUCSORG
 10
0.0
 20
0.0
 30
0.0
  9
$PUCSXDIR
 10
1.0
 20
0.0
 30
0.0
  9
$PUCSYDIR
 10
0.0
 20
1.0
 30
0.0
  9
$USERI1
 70
     0
  9
$USERI2
 70
     0
  9
$USERI3
 70
     0
  9
$USERI4
 70
     0
  9
$USERI5
 70
     0
  9
$USERR1
 40
0.0
  9
$USERR2
 40
0.0
  9
$USERR3
 40
0.0
  9
$USERR4
 40
0.0
  9
$USERR5
 40
0.0
  9
$WORLDVIEW
 70
     1
  9
$SHADEDGE
 70
     3
  9
$SHADEDIF
 70
    70
  9
$TILEMODE
 70
     1
  9
$MAXACTVP
 70
    15
  9
$PINSBASE
 10
0.0008544936090695
 20
608.1450353581605
 30
0.0
  9
$PLIMCHECK
 70
     0
  9
$PEXTMIN
 10
1.000000000000000E+20
 20
1.000000000000000E+20
 30
1.000000000000000E+20
  9
$PEXTMAX
 10
-1.000000000000000E+20
 20
-1.000000000000000E+20
 30
-1.000000000000000E+20
  9
$PLIMMIN
 10
0.0
 20
0.0
  9
$PLIMMAX
 10
12.0
 20
9.0
  9
$UNITMODE
 70
     0
  9
$VISRETAIN
 70
     0
  9
$PLINEGEN
 70
     0
  9
$PSLTSCALE
 70
     1
  9
$TREEDEPTH
 70
  3020
  9
$PICKSTYLE
 70
     1
  9
$CMLSTYLE
  2
STANDARD
  9
$CMLJUST
 70
     0
  9
$CMLSCALE
 40
1.0
  9
$PROXYGRAPHICS
 70
     1
  9
$MEASUREMENT
 70
     0
  0
ENDSEC
  0
SECTION
  2
CLASSES
  0
CLASS
  1
ACDBDICTIONARYWDFLT
  2
AcDbDictionaryWithDefault
  3
AutoCAD 2000
 90
        0
280
     0
281
     0
  0
CLASS
  1
ACDBPLACEHOLDER
  2
AcDbPlaceHolder
  3
AutoCAD 2000
 90
        0
280
     0
281
     0
  0
CLASS
  1
LAYOUT
  2
AcDbLayout
  3
AutoCAD 2000
 90
        0
280
     0
281
     0
  0
CLASS
  1
DICTIONARYVAR
  2
AcDbDictionaryVar
  3
AutoCAD 2000
 90
        0
280
     0
281
     0
  0
CLASS
  1
LONG_TRANSACTION
  2
AcDbLongTransaction
  3
AutoCAD 2000
 90
        0
280
     0
281
     0
  0
CLASS
  1
LWPOLYLINE
  2
AcDbPolyline
  3
AutoCAD 2000
 90
        0
280
     0
281
     1
  0
CLASS
  1
HATCH
  2
AcDbHatch
  3
AutoCAD 2000
 90
        0
280
     0
281
     1
  0
CLASS
  1
XRECORD
  2
AcDbXrecord
  3
AutoCAD 2000
 90
        0
280
     0
281
     0
  0
CLASS
  1
LONG_TRANSACTION
  2
AcDbLongTransaction
  3
AutoCAD 2000
 90
        0
280
     0
281
     0
  0
CLASS
  1
LWPOLYLINE
  2
AcDbPolyline
  3
AutoCAD 2000
 90
        0
280
     0
281
     1
  0
CLASS
  1
HATCH
  2
AcDbHatch
  3
AutoCAD 2000
 90
        0
280
     0
281
     1
  0
CLASS
  1
XRECORD
  2
AcDbXrecord
  3
AutoCAD 2000
 90
        0
280
     0
281
     0
  0
CLASS
  1
LONG_TRANSACTION
  2
AcDbLongTransaction
  3
AutoCAD 2000
 90
        0
280
     0
281
     0
  0
CLASS
  1
LWPOLYLINE
  2
AcDbPolyline
  3
AutoCAD 2000
 90
        0
280
     0
281
     1
  0
CLASS
  1
HATCH
  2
AcDbHatch
  3
AutoCAD 2000
 90
        0
280
     0
281
     1
  0
CLASS
  1
XRECORD
  2
AcDbXrecord
  3
AutoCAD 2000
 90
        0
280
     0
281
     0
  0
CLASS
  1
LONG_TRANSACTION
  2
AcDbLongTransaction
  3
AutoCAD 2000
 90
        0
280
     0
281
     0
  0
CLASS
  1
LWPOLYLINE
  2
AcDbPolyline
  3
AutoCAD 2000
 90
        0
280
     0
281
     1
  0
CLASS
  1
HATCH
  2
AcDbHatch
  3
AutoCAD 2000
 90
        0
280
     0
281
     1
  0
CLASS
  1
XRECORD
  2
AcDbXrecord
  3
AutoCAD 2000
 90
        0
280
     0
281
     0
  0
CLASS
  1
LONG_TRANSACTION
  2
AcDbLongTransaction
  3
AutoCAD 2000
 90
        0
280
     0
281
     0
  0
CLASS
  1
LWPOLYLINE
  2
AcDbPolyline
  3
AutoCAD 2000
 90
        0
280
     0
281
     1
  0
CLASS
  1
HATCH
  2
AcDbHatch
  3
AutoCAD 2000
 90
        0
280
     0
281
     1
  0
CLASS
  1
XRECORD
  2
AcDbXrecord
  3
AutoCAD 2000
 90
        0
280
     0
281
     0
  0
ENDSEC
  0
SECTION
  2
TABLES
  0
TABLE
  2
VPORT
  5
8
330
0
100
AcDbSymbolTable
 70
     2
  0
VPORT
  5
286
330
8
100
AcDbSymbolTableRecord
100
AcDbViewportTableRecord
  2
*ACTIVE
 70
     0
 10
0.0
 20
0.0
 11
1.0
 21
1.0
 12
-3.392263357520695
 22
-14.19125610823034
 13
0.0
 23
0.0
 14
0.5740882589684922
 24
0.5740882589684922
 15
0.5
 25
0.5
 16
0.0
 26
0.0
 36
1.0
 17
0.0
 27
0.0
 37
0.0
 40
10.89379561105086
 41
1.570528967254408
 42
50.0
 43
0.0
 44
0.0
 50
0.0
 51
0.0
 71
     0
 72
   100
 73
     1
 74
     0
 75
     0
 76
     0
 77
     0
 78
     0
  0
ENDTAB
  0
TABLE
  2
LTYPE
  5
5
330
0
100
AcDbSymbolTable
 70
     1
  0
LTYPE
  5
13
330
5
100
AcDbSymbolTableRecord
100
AcDbLinetypeTableRecord
  2
BYBLOCK
 70
     0
  3

 72
    65
 73
     0
 40
0.0
  0
LTYPE
  5
14
330
5
100
AcDbSymbolTableRecord
100
AcDbLinetypeTableRecord
  2
BYLAYER
 70
     0
  3

 72
    65
 73
     0
 40
0.0
  0
LTYPE
  5
15
330
5
100
AcDbSymbolTableRecord
100
AcDbLinetypeTableRecord
  2
CONTINUOUS
 70
     0
  3
Solid line
 72
    65
 73
     0
 40
0.0
  0
ENDTAB
  0
TABLE
  2
LAYER
  5
2
330
0
100
AcDbSymbolTable
 70
     4
  0
LAYER
  5
10
330
2
100
AcDbSymbolTableRecord
100
AcDbLayerTableRecord
  2
0
 70
     0
 62
     7
  6
CONTINUOUS
  0
LAYER
  5
95
330
2
100
AcDbSymbolTableRecord
100
AcDbLayerTableRecord
  2
ADPDIM
 70
     0
 62
     3
  6
CONTINUOUS
  0
LAYER
  5
97
330
2
100
AcDbSymbolTableRecord
100
AcDbLayerTableRecord
  2
ADP1DETAIL
 70
     0
 62
     7
  6
CONTINUOUS
  0
LAYER
  5
99
330
2
100
AcDbSymbolTableRecord
100
AcDbLayerTableRecord
  2
DEFPOINTS
 70
     0
 62
     7
  6
CONTINUOUS
  0
ENDTAB
  0
TABLE
  2
STYLE
  5
3
330
0
100
AcDbSymbolTable
 70
     2
  0
STYLE
  5
11
330
3
100
AcDbSymbolTableRecord
100
AcDbTextStyleTableRecord
  2
STANDARD
 70
     0
 40
0.0
 41
1.0
 50
0.0
 71
     0
 42
0.2
  3
txt
  4

  0
STYLE
  5
F3
330
3
100
AcDbSymbolTableRecord
100
AcDbTextStyleTableRecord
  2
ARIAL_WIDE
 70
     0
 40
0.0
 41
1.25
 50
0.0
 71
     0
 42
0.2
  3
ARIAL.TTF
  4

1001
ACAD
1000
Arial
1071
       34
  0
ENDTAB
  0
TABLE
  2
VIEW
  5
6
330
0
100
AcDbSymbolTable
 70
     0
  0
ENDTAB
  0
TABLE
  2
UCS
  5
7
330
0
100
AcDbSymbolTable
 70
     0
  0
ENDTAB
  0
TABLE
  2
APPID
  5
9
330
0
100
AcDbSymbolTable
 70
     1
  0
APPID
  5
12
330
9
100
AcDbSymbolTableRecord
100
AcDbRegAppTableRecord
  2
ACAD
 70
     0
  0
ENDTAB
  0
TABLE
  2
DIMSTYLE
  5
A
330
0
100
AcDbSymbolTable
 70
     1
  0
DIMSTYLE
105
F1
330
A
100
AcDbSymbolTableRecord
100
AcDbDimStyleTableRecord
  2
STANDARD
 70
     0
  3

  4

  5

  6

  7

 40
1.0
 41
0.18
 42
0.0625
 43
0.38
 44
0.18
 45
0.0
 46
0.0
 47
0.0
 48
0.0
140
0.18
141
0.09
142
0.0
143
25.4
144
1.0
145
0.0
146
1.0
147
0.09
 71
     0
 72
     0
 73
     1
 74
     1
 75
     0
 76
     0
 77
     0
 78
     0
170
     0
171
     2
172
     0
173
     0
174
     0
175
     0
176
     0
177
     0
178
     0
270
     2
271
     4
272
     4
273
     2
274
     2
340
11
275
     0
280
     0
281
     0
282
     0
283
     1
284
     0
285
     0
286
     0
287
     3
288
     0
  0
ENDTAB
  0
TABLE
  2
BLOCK_RECORD
  5
1
330
0
100
AcDbSymbolTable
 70
     2
  0
BLOCK_RECORD
  5
1E
102
{ACAD_XDICTIONARY
360
130
102
}
330
1
100
AcDbSymbolTableRecord
100
AcDbBlockTableRecord
  2
*MODEL_SPACE
  0
BLOCK_RECORD
  5
1A
102
{ACAD_XDICTIONARY
360
132
102
}
330
1
100
AcDbSymbolTableRecord
100
AcDbBlockTableRecord
  2
*PAPER_SPACE
  0
BLOCK_RECORD
  5
92
330
1
100
AcDbSymbolTableRecord
100
AcDbBlockTableRecord
  2
*D0
  0
BLOCK_RECORD
  5
93
330
1
100
AcDbSymbolTableRecord
100
AcDbBlockTableRecord
  2
*D1
  0
ENDTAB
  0
ENDSEC
  0
SECTION
  2
BLOCKS
  0
BLOCK
  5
9C
330
1E
100
AcDbEntity
  8
0
100
AcDbBlockBegin
  2
*MODEL_SPACE
 70
     0
 10
0.0
 20
0.0
 30
0.0
  3
*MODEL_SPACE
  1

  0
ENDBLK
  5
9D
330
1E
100
AcDbEntity
  8
0
100
AcDbBlockEnd
  0
BLOCK
  5
9A
330
1A
100
AcDbEntity
 67
     1
  8
0
100
AcDbBlockBegin
  2
*PAPER_SPACE
 70
     0
 10
0.0
 20
0.0
 30
0.0
  3
*PAPER_SPACE
  1

  0
ENDBLK
  5
9B
330
1A
100
AcDbEntity
 67
     1
  8
0
100
AcDbBlockEnd
  0
BLOCK
  5
9F
330
92
100
AcDbEntity
  8
0
100
AcDbBlockBegin
  2
*D0
 70
     1
 10
0.0
 20
0.0
 30
0.0
  3
*D0
  1

  0
LINE
  5
A0
330
92
100
AcDbEntity
  8
0
  6
BYBLOCK
 62
     0
100
AcDbLine
 10
0.2903782326312188
 20
-10.45824992492526
 30
0.0
 11
0.2903782326312188
 21
-10.85760965414777
 31
0.0
  0
LINE
  5
A1
330
92
100
AcDbEntity
  8
0
  6
BYBLOCK
 62
     0
100
AcDbLine
 10
1.353002878618531
 20
-10.45819841370628
 30
0.0
 11
1.353002878618531
 21
-10.85760965414777
 31
0.0
  0
LINE
  5
A2
330
92
100
AcDbEntity
  8
0
  6
BYBLOCK
 62
     0
100
AcDbLine
 10
0.2903782326312188
 20
-10.67760965414777
 30
0.0
 11
0.0403782326312189
 21
-10.67760965414777
 31
0.0
  0
LINE
  5
A3
330
92
100
AcDbEntity
  8
0
  6
BYBLOCK
 62
     0
100
AcDbLine
 10
1.353002878618531
 20
-10.67760965414777
 30
0.0
 11
1.603002878618531
 21
-10.67760965414777
 31
0.0
  0
LINE
  5
A4
330
92
100
AcDbEntity
  8
0
  6
BYBLOCK
 62
     0
100
AcDbLine
 10
0.1653782326312189
 20
-10.80260965414778
 30
0.0
 11
0.4153782326312189
 21
-10.55260965414777
 31
0.0
  0
LINE
  5
A5
330
92
100
AcDbEntity
  8
0
  6
BYBLOCK
 62
     0
100
AcDbLine
 10
1.228002878618531
 20
-10.80260965414778
 30
0.0
 11
1.478002878618531
 21
-10.55260965414777
 31
0.0
  0
TEXT
  5
A6
330
92
100
AcDbEntity
  8
0
  6
BYBLOCK
 62
     0
100
AcDbText
 10
1.728002878618531
 20
-10.74010965414778
 30
0.0
 40
0.125
  1
1 1/16
 72
     1
 11
2.019669545285198
 21
-10.67760965414777
 31
0.0
100
AcDbText
 73
     2
  0
POINT
  5
A8
330
92
100
AcDbEntity
  8
DEFPOINTS
  6
BYBLOCK
 62
     0
100
AcDbPoint
 10
0.2903782326312188
 20
-10.39574992492526
 30
0.0
  0
POINT
  5
A9
330
92
100
AcDbEntity
  8
DEFPOINTS
  6
BYBLOCK
 62
     0
100
AcDbPoint
 10
1.353002878618531
 20
-10.39569841370628
 30
0.0
  0
POINT
  5
AA
330
92
100
AcDbEntity
  8
DEFPOINTS
  6
BYBLOCK
 62
     0
100
AcDbPoint
 10
1.353002878618531
 20
-10.67760965414777
 30
0.0
  0
ENDBLK
  5
AB
330
92
100
AcDbEntity
  8
0
100
AcDbBlockEnd
  0
BLOCK
  5
AC
330
93
100
AcDbEntity
  8
0
100
AcDbBlockBegin
  2
*D1
 70
     1
 10
0.0
 20
0.0
 30
0.0
  3
*D1
  1

  0
LINE
  5
AD
330
93
100
AcDbEntity
  8
0
  6
BYBLOCK
 62
     0
100
AcDbLine
 10
0.014687467624131
 20
-10.07658612882044
 30
0.0
 11
0.014687467624131
 21
-9.43241660289842
 31
0.0
  0
LINE
  5
AE
330
93
100
AcDbEntity
  8
0
  6
BYBLOCK
 62
     0
100
AcDbLine
 10
1.628668758538615
 20
-10.07650789033423
 30
0.0
 11
1.628668758538615
 21
-9.43241660289842
 31
0.0
  0
LINE
  5
AF
330
93
100
AcDbEntity
  8
0
  6
BYBLOCK
 62
     0
100
AcDbLine
 10
0.014687467624131
 20
-9.61241660289842
 30
0.0
 11
0.4258447797480398
 21
-9.61241660289842
 31
0.0
  0
LINE
  5
B0
330
93
100
AcDbEntity
  8
0
  6
BYBLOCK
 62
     0
100
AcDbLine
 10
1.628668758538615
 20
-9.61241660289842
 30
0.0
 11
1.217511446414706
 21
-9.61241660289842
 31
0.0
  0
LINE
  5
B1
330
93
100
AcDbEntity
  8
0
  6
BYBLOCK
 62
     0
100
AcDbLine
 10
-0.110312532375869
 20
-9.73741660289842
 30
0.0
 11
0.139687467624131
 21
-9.48741660289842
 31
0.0
  0
LINE
  5
B2
330
93
100
AcDbEntity
  8
0
  6
BYBLOCK
 62
     0
100
AcDbLine
 10
1.503668758538615
 20
-9.73741660289842
 30
0.0
 11
1.753668758538615
 21
-9.48741660289842
 31
0.0
  0
TEXT
  5
B3
330
93
100
AcDbEntity
  8
0
  6
BYBLOCK
 62
     0
100
AcDbText
 10
0.5508447797480399
 20
-9.67491660289842
 30
0.0
 40
0.125
  1
1 5/8
 72
     1
 11
0.821678113081373
 21
-9.61241660289842
 31
0.0
100
AcDbText
 73
     2
  0
POINT
  5
B4
330
93
100
AcDbEntity
  8
DEFPOINTS
  6
BYBLOCK
 62
     0
100
AcDbPoint
 10
0.014687467624131
 20
-10.13908612882044
 30
0.0
  0
POINT
  5
B5
330
93
100
AcDbEntity
  8
DEFPOINTS
  6
BYBLOCK
 62
     0
100
AcDbPoint
 10
1.628668758538615
 20
-10.13900789033423
 30
0.0
  0
POINT
  5
B6
330
93
100
AcDbEntity
  8
DEFPOINTS
  6
BYBLOCK
 62
     0
100
AcDbPoint
 10
1.628668758538615
 20
-9.61241660289842
 30
0.0
  0
ENDBLK
  5
B7
330
93
100
AcDbEntity
  8
0
100
AcDbBlockEnd
  0
ENDSEC
  0
SECTION
  2
ENTITIES
  0
ARC
  5
B8
330
1E
100
AcDbEntity
  8
ADP1DETAIL
100
AcDbCircle
 10
-5.040881823803794
 20
-13.13924081754199
 30
0.0
 40
2.719487078672368
100
AcDbArc
 50
133.3561437011643
 51
195.0718397711342
  0
ARC
  5
B9
330
1E
100
AcDbEntity
  8
ADP1DETAIL
100
AcDbCircle
 10
-4.019373101088292
 20
-12.7289537012198
 30
0.0
 40
3.68422971107753
100
AcDbArc
 50
197.1025395103795
 51
298.331765418684
  0
ARC
  5
BA
330
1E
100
AcDbEntity
  8
ADP1DETAIL
100
AcDbCircle
 10
-4.019373101088292
 20
-12.7289537012198
 30
0.0
 40
3.81485715935534
100
AcDbArc
 50
197.1025395103795
 51
298.331765418684
  0
ARC
  5
BB
330
1E
100
AcDbEntity
  8
ADP1DETAIL
100
AcDbCircle
 10
-4.019373101088292
 20
-12.7289537012198
 30
0.0
 40
5.309229711077534
100
AcDbArc
 50
196.80121187997
 51
298.773327940167
  0
ARC
  5
BC
330
1E
100
AcDbEntity
  8
ADP1DETAIL
100
AcDbCircle
 10
-5.040881823803794
 20
-13.13924081754199
 30
0.0
 40
4.213859630394561
100
AcDbArc
 50
132.1085600504481
 51
195.4753310736271
  0
ARC
  5
BD
330
1E
100
AcDbEntity
  8
ADP1DETAIL
100
AcDbCircle
 10
-4.019373101088292
 20
-12.7289537012198
 30
0.0
 40
5.178602262799724
100
AcDbArc
 50
196.80121187997
 51
298.773327940167
  0
ARC
  5
BE
330
1E
100
AcDbEntity
  8
ADP1DETAIL
100
AcDbCircle
 10
-5.040881823803794
 20
-13.13924081754199
 30
0.0
 40
4.083232182116751
100
AcDbArc
 50
132.1085600504481
 51
195.4753310736271
  0
ARC
  5
BF
330
1E
100
AcDbEntity
  8
ADP1DETAIL
100
AcDbCircle
 10
-5.777359746621564
 20
-12.65835254373945
 30
0.0
 40
3.370710228421704
100
AcDbArc
 50
45.81141088572569
 51
128.2995083942007
  0
ARC
  5
C0
330
1E
100
AcDbEntity
  8
ADP1DETAIL
100
AcDbCircle
 10
-4.573334543587368
 20
-12.47798608628916
 30
0.0
 40
1.858865521092397
100
AcDbArc
 50
213.2836228001251
 51
320.0061757641377
  0
ARC
  5
C1
330
1E
100
AcDbEntity
  8
ADP1DETAIL
100
AcDbCircle
 10
-4.573334543587368
 20
-12.47798608628916
 30
0.0
 40
1.728238072814587
100
AcDbArc
 50
213.2836228001251
 51
320.0061757641377
  0
ARC
  5
C2
330
1E
100
AcDbEntity
  8
ADP1DETAIL
100
AcDbCircle
 10
-5.777359746621564
 20
-12.65835254373945
 30
0.0
 40
3.240082780143894
100
AcDbArc
 50
45.81141088572569
 51
128.2995083942007
  0
ARC
  5
C3
330
1E
100
AcDbEntity
  8
ADP1DETAIL
100
AcDbCircle
 10
-5.214475803336502
 20
-12.11344700937538
 30
0.0
 40
2.587752841916433
100
AcDbArc
 50
322.9475072230084
 51
46.33847251133254
  0
ARC
  5
C4
330
1E
100
AcDbEntity
  8
ADP1DETAIL
100
AcDbCircle
 10
-5.214475803336502
 20
-12.11344700937538
 30
0.0
 40
2.457125393638623
100
AcDbArc
 50
322.9475072230084
 51
46.33847251133254
  0
ARC
  5
C5
330
1E
100
AcDbEntity
  8
ADP1DETAIL
100
AcDbCircle
 10
-5.040881823803794
 20
-13.13924081754199
 30
0.0
 40
2.588859630394558
100
AcDbArc
 50
133.3561437011643
 51
195.0718397711342
  0
ARC
  5
C6
330
1E
100
AcDbEntity
  8
ADP1DETAIL
100
AcDbCircle
 10
-4.555202735198112
 20
-12.50610471673736
 30
0.0
 40
1.858893116151587
100
AcDbArc
 50
121.9591574051697
 51
212.2523497845277
  0
ARC
  5
C7
330
1E
100
AcDbEntity
  8
ADP1DETAIL
100
AcDbCircle
 10
-4.555202735198112
 20
-12.50610471673736
 30
0.0
 40
1.728265667873777
100
AcDbArc
 50
110.4530328205689
 51
212.2523497845277
  0
ARC
  5
C8
330
1E
100
AcDbEntity
  8
ADP1DETAIL
100
AcDbCircle
 10
-5.777359746621564
 20
-12.65835254373945
 30
0.0
 40
1.7457102284217
100
AcDbArc
 50
82.15700949966834
 51
126.6007778407786
  0
ARC
  5
C9
330
1E
100
AcDbEntity
  8
ADP1DETAIL
100
AcDbCircle
 10
-5.777359746621564
 20
-12.65835254373945
 30
0.0
 40
1.876337676699511
100
AcDbArc
 50
70.76223093275299
 51
126.6007778407786
  0
LINE
  5
CA
330
1E
100
AcDbEntity
  8
ADP1DETAIL
100
AcDbLine
 10
1.635117015045973
 20
-11.55750236752894
 30
0.0
 11
0.0067848429669395
 21
-11.55750236752894
 31
0.0
  0
ARC
  5
CB
330
1E
100
AcDbEntity
  8
ADP1DETAIL
100
AcDbCircle
 10
-4.728101686265895
 20
-11.90921445475302
 30
0.0
 40
6.372931321850614
100
AcDbArc
 50
300.8114031227526
 51
3.163671588218347
  0
ARC
  5
CC
330
1E
100
AcDbEntity
  8
ADP1DETAIL
100
AcDbCircle
 10
-4.728101686265895
 20
-11.90921445475302
 30
0.0
 40
6.242303873572804
100
AcDbArc
 50
300.8114031227526
 51
3.163671588218347
  0
ARC
  5
CD
330
1E
100
AcDbEntity
  8
ADP1DETAIL
100
AcDbCircle
 10
-4.728101686265895
 20
-11.90921445475302
 30
0.0
 40
4.878558770128421
100
AcDbArc
 50
301.1664282564782
 51
4.248185673670331
  0
ARC
  5
CE
330
1E
100
AcDbEntity
  8
ADP1DETAIL
100
AcDbCircle
 10
-4.728101686265895
 20
-11.90921445475302
 30
0.0
 40
4.747931321850611
100
AcDbArc
 50
301.1664282564782
 51
4.248185673670331
  0
LINE
  5
CF
330
1E
100
AcDbEntity
  8
ADP1DETAIL
100
AcDbLine
 10
0.8204801946057138
 20
-10.16175004117126
 30
0.0
 11
1.150480193054799
 21
-10.16171804736745
 31
0.0
  0
ARC
  5
D0
330
1E
100
AcDbEntity
  8
ADP1DETAIL
100
AcDbCircle
 10
0.8219862055557449
 20
-10.22374989545349
 30
0.0
 40
0.4060000000000001
100
AcDbArc
 50
46.93923155490511
 51
90.04567680619867
  0
DIMENSION
  5
D1
330
1E
100
AcDbEntity
  8
ADPDIM
100
AcDbDimension
  2
*D1
 10
1.628668758538615
 20
-9.61241660289842
 30
0.0
 11
0.821678113081373
 21
-9.61241660289842
 31
0.0
100
AcDbAlignedDimension
 13
0.014687467624131
 23
-10.13908612882044
 33
0.0
 14
1.628668758538615
 24
-10.13900789033423
 34
0.0
100
AcDbRotatedDimension
  0
DIMENSION
  5
D2
330
1E
100
AcDbEntity
  8
ADPDIM
100
AcDbDimension
  2
*D0
 10
1.353002878618531
 20
-10.67760965414777
 30
0.0
 11
2.019669545285198
 21
-10.67760965414777
 31
0.0
100
AcDbAlignedDimension
 13
0.2903782326312188
 23
-10.39574992492526
 33
0.0
 14
1.353002878618531
 24
-10.39569841370628
 34
0.0
100
AcDbRotatedDimension
  0
ARC
  5
D3
330
1E
100
AcDbEntity
  8
ADP1DETAIL
100
AcDbCircle
 10
0.323051260718212
 20
-9.650400286246021
 30
0.0
 40
0.3542134459117149
100
AcDbArc
 50
269.8326154630628
 51
308.6218531458785
  0
LINE
  5
D4
330
1E
100
AcDbEntity
  8
ADP1DETAIL
100
AcDbLine
 10
0.4628782326312183
 20
-10.31774992492526
 30
0.0
 11
0.3053782326312194
 21
-10.31774992492526
 31
0.0
  0
LINE
  5
D5
330
1E
100
AcDbEntity
  8
ADP1DETAIL
100
AcDbLine
 10
0.1488672536604617
 20
-10.00473895398742
 30
0.0
 11
0.3220164590314446
 21
-10.00461222061599
 31
0.0
  0
LINE
  5
D6
330
1E
100
AcDbEntity
  8
ADP1DETAIL
100
AcDbLine
 10
0.1338782326312176
 20
-10.05174992492526
 30
0.0
 11
0.1338782326312176
 21
-10.01973894996949
 31
0.0
  0
ARC
  5
D7
330
1E
100
AcDbEntity
  8
ADP1DETAIL
100
AcDbCircle
 10
0.1488782326312182
 20
-10.01973894996949
 30
0.0
 40
0.0150000000000006
100
AcDbArc
 50
90.0419365829275
 51
180.0
  0
LINE
  5
D8
330
1E
100
AcDbEntity
  8
ADP1DETAIL
100
AcDbLine
 10
0.2753782326312183
 20
-10.47374992492526
 30
0.0
 11
0.1658877140222819
 21
-10.47374992492526
 31
0.0
  0
ARC
  5
D9
330
1E
100
AcDbEntity
  8
ADP1DETAIL
100
AcDbCircle
 10
0.3053782326312194
 20
-10.33274992492526
 30
0.0
 40
0.0150000000000006
100
AcDbArc
 50
90.0
 51
180.0
  0
LINE
  5
DA
330
1E
100
AcDbEntity
  8
ADP1DETAIL
100
AcDbLine
 10
0.2903782326312188
 20
-10.33274992492526
 30
0.0
 11
0.2903782326312188
 21
-10.45874992492526
 31
0.0
  0
ARC
  5
DB
330
1E
100
AcDbEntity
  8
ADP1DETAIL
100
AcDbCircle
 10
0.2753782326312183
 20
-10.45874992492526
 30
0.0
 40
0.0150000000000006
100
AcDbArc
 50
270.0
 51
0.0
  0
ARC
  5
DC
330
1E
100
AcDbEntity
  8
ADP1DETAIL
100
AcDbCircle
 10
-0.0851394900033719
 20
-10.48289411405468
 30
0.0
 40
0.25
100
AcDbArc
 50
2.096161348793594
 51
54.23341280286933
  0
ARC
  5
DD
330
1E
100
AcDbEntity
  8
ADP1DETAIL
100
AcDbCircle
 10
0.1338782326312176
 20
-10.17674992492526
 30
0.0
 40
0.125
100
AcDbArc
 50
90.0
 51
234.927352164704
  0
LINE
  5
DE
330
1E
100
AcDbEntity
  8
ADP1DETAIL
100
AcDbLine
 10
0.8228782326312177
 20
-10.16174992492526
 30
0.0
 11
0.4928782326312195
 21
-10.16174992492526
 31
0.0
  0
ARC
  5
DF
330
1E
100
AcDbEntity
  8
ADP1DETAIL
100
AcDbCircle
 10
0.4628782326312183
 20
-10.30274992492526
 30
0.0
 40
0.0150000000000006
100
AcDbArc
 50
270.0
 51
0.0
  0
LINE
  5
E0
330
1E
100
AcDbEntity
  8
ADP1DETAIL
100
AcDbLine
 10
0.4778782326312189
 20
-10.17674992492526
 30
0.0
 11
0.4778782326312189
 21
-10.30274992492526
 31
0.0
  0
ARC
  5
E1
330
1E
100
AcDbEntity
  8
ADP1DETAIL
100
AcDbCircle
 10
0.4928782326312195
 20
-10.17674992492526
 30
0.0
 40
0.0150000000000006
100
AcDbArc
 50
90.0
 51
179.9999999999966
  0
ARC
  5
E2
330
1E
100
AcDbEntity
  8
ADP1DETAIL
100
AcDbCircle
 10
0.8213782326312177
 20
-10.22374992492526
 30
0.0
 40
0.4060000000000001
100
AcDbArc
 50
89.95987807238291
 51
133.0663233236764
  0
ARC
  5
E3
330
1E
100
AcDbEntity
  8
ADP1DETAIL
100
AcDbCircle
 10
1.320257588351423
 20
-9.650351946210136
 30
0.0
 40
0.3542134459117149
100
AcDbArc
 50
231.383701732703
 51
270.1729394155187
  0
LINE
  5
E4
330
1E
100
AcDbEntity
  8
ADP1DETAIL
100
AcDbLine
 10
1.494475948050609
 20
-10.00467372498639
 30
0.0
 11
1.32132673120646
 21
-10.00456377859043
 31
0.0
  0
LINE
  5
E5
330
1E
100
AcDbEntity
  8
ADP1DETAIL
100
AcDbLine
 10
1.368010440719849
 20
-10.47369695907589
 30
0.0
 11
1.477500958814203
 21
-10.47368634386931
 31
0.0
  0
LINE
  5
E6
330
1E
100
AcDbEntity
  8
ADP1DETAIL
100
AcDbLine
 10
1.352996770710531
 20
-10.33269841400236
 30
0.0
 11
1.353008986526531
 21
-10.4586984134102
 31
0.0
  0
ARC
  5
E7
330
1E
100
AcDbEntity
  8
ADP1DETAIL
100
AcDbCircle
 10
1.368008986456039
 20
-10.45869695914638
 30
0.0
 40
0.0150000000000037
100
AcDbArc
 50
180.0055548785889
 51
270.005554878582
  0
ARC
  5
E8
330
1E
100
AcDbEntity
  8
ADP1DETAIL
100
AcDbCircle
 10
1.337996770781027
 20
-10.33269986826617
 30
0.0
 40
0.0150000000000002
100
AcDbArc
 50
0.005554878582119
 51
90.00555487858212
  0
ARC
  5
E9
330
1E
100
AcDbEntity
  8
ADP1DETAIL
100
AcDbCircle
 10
1.150481647318609
 20
-10.17671804729695
 30
0.0
 40
0.0150000000000002
100
AcDbArc
 50
0.005554878582119
 51
90.00555487858212
  0
ARC
  5
EA
330
1E
100
AcDbEntity
  8
ADP1DETAIL
100
AcDbCircle
 10
1.180493862993617
 20
-10.30271513817716
 30
0.0
 40
0.0150000000000002
100
AcDbArc
 50
180.005554878582
 51
270.005554878582
  0
LINE
  5
EB
330
1E
100
AcDbEntity
  8
ADP1DETAIL
100
AcDbLine
 10
1.165481647248113
 20
-10.17671659303314
 30
0.0
 11
1.165493863064113
 21
-10.30271659244098
 31
0.0
  0
LINE
  5
EC
330
1E
100
AcDbEntity
  8
ADP1DETAIL
100
AcDbLine
 10
1.180495317257427
 20
-10.31771513810667
 30
0.0
 11
1.337995316517218
 21
-10.31769986833667
 31
0.0
  0
LINE
  5
ED
330
1E
100
AcDbEntity
  8
ADP1DETAIL
100
AcDbLine
 10
1.509469526766323
 20
-10.05168324250391
 30
0.0
 11
1.509466423272828
 21
-10.01967226769858
 31
0.0
  0
ARC
  5
EE
330
1E
100
AcDbEntity
  8
ADP1DETAIL
100
AcDbCircle
 10
1.494466423343324
 20
-10.01967372196239
 30
0.0
 40
0.0150000000000002
100
AcDbArc
 50
0.005554878582119
 51
89.96361829565627
  0
ARC
  5
EF
330
1E
100
AcDbEntity
  8
ADP1DETAIL
100
AcDbCircle
 10
1.728529048197649
 20
-10.48280619563721
 30
0.0
 40
0.25
100
AcDbArc
 50
125.7721420757122
 51
177.9093935297879
  0
ARC
  5
F0
330
1E
100
AcDbEntity
  8
ADP1DETAIL
100
AcDbCircle
 10
1.509481645631402
 20
-10.17668324191644
 30
0.0
 40
0.125
100
AcDbArc
 50
305.0782027138775
 51
90.00555487858157
  0
TEXT
  5
F4
330
1E
100
AcDbEntity
  8
ADPDIM
100
AcDbText
 10
-11.90364068562765
 20
-18.77571836688692
 30
0.0
 40
0.15625
  1
J U L I U S  B L U M  &  C O . ,  I N C .      ( 8 0 0 )  5 2 6 - 6 2 9 3        W W W . J U L I U S B L U M . C O M        P A R T  N o .  4 5 3 1 - G L
 41
1.25
  7
ARIAL_WIDE
 72
     1
 11
-3.405348670791369
 21
-18.61946836688692
 31
0.0
100
AcDbText
 73
     3
  0
ENDSEC
  0
SECTION
  2
OBJECTS
  0
DICTIONARY
  5
C
330
0
100
AcDbDictionary
  3
ACAD_GROUP
350
D
  3
ACAD_LAYOUT
350
19
  3
ACAD_MLINESTYLE
350
16
  3
ACAD_PLOTSETTINGS
350
18
  3
ACAD_PLOTSTYLENAME
350
E
  3
ACDBHEADERROUNDTRIPXREC
350
287
  3
ACDBVARIABLEDICTIONARY
350
165
  0
DICTIONARY
  5
130
330
1E
100
AcDbDictionary
280
     1
  3
ACAD_LAYOUTSELFREF
360
2A9
  0
DICTIONARY
  5
132
330
1A
100
AcDbDictionary
280
     1
  3
ACAD_LAYOUTSELFREF
360
2A8
  0
DICTIONARY
  5
D
102
{ACAD_REACTORS
330
C
102
}
330
C
100
AcDbDictionary
  0
DICTIONARY
  5
19
102
{ACAD_REACTORS
330
C
102
}
330
C
100
AcDbDictionary
  0
DICTIONARY
  5
16
102
{ACAD_REACTORS
330
C
102
}
330
C
100
AcDbDictionary
  3
STANDARD
350
17
  0
DICTIONARY
  5
18
102
{ACAD_REACTORS
330
C
102
}
330
C
100
AcDbDictionary
  0
ACDBDICTIONARYWDFLT
  5
E
102
{ACAD_REACTORS
330
C
102
}
330
C
100
AcDbDictionary
281
     1
  3
Normal
350
F
100
AcDbDictionaryWithDefault
340
F
  0
DICTIONARY
  5
287
102
{ACAD_REACTORS
330
C
102
}
330
C
100
AcDbDictionary
  3
CEPSNTYPE
350
291
  3
DIMSTYLEDATA
350
295
  3
FINGERPRINTGUID
350
292
  3
HYPERLINKBASE
350
28A
  3
INSUNITS
350
290
  3
LAYOUTDICT
350
28C
  3
LWETCUNION
350
28F
  3
PLOTSETDICT
350
28D
  3
PLOTSTYLNAMDICT
350
28E
  3
PSVPSCALE
350
294
  3
PUCSBASE
350
298
  3
PUCSORGBACK
350
29E
  3
PUCSORGBOTTOM
350
29A
  3
PUCSORGFRONT
350
29D
  3
PUCSORGLEFT
350
29B
  3
PUCSORGRIGHT
350
29C
  3
PUCSORGTOP
350
299
  3
PUCSORTHOREF
350
296
  3
PUCSORTHOVIEW
350
297
  3
STYLESHEET
350
28B
  3
TSTACKALIGN
350
288
  3
TSTACKSIZE
350
289
  3
UCSBASE
350
2A1
  3
UCSORGBACK
350
2A7
  3
UCSORGBOTTOM
350
2A3
  3
UCSORGFRONT
350
2A6
  3
UCSORGLEFT
350
2A4
  3
UCSORGRIGHT
350
2A5
  3
UCSORGTOP
350
2A2
  3
UCSORTHOREF
350
29F
  3
UCSORTHOVIEW
350
2A0
  3
VERSIONGUID
350
293
  0
DICTIONARY
  5
165
102
{ACAD_REACTORS
330
C
102
}
330
C
100
AcDbDictionary
  3
DIMASSOC
350
167
  3
HIDETEXT
350
166
  0
XRECORD
  5
2A9
102
{ACAD_REACTORS
330
130
102
}
330
130
100
AcDbXrecord
340
1E
  0
XRECORD
  5
2A8
102
{ACAD_REACTORS
330
132
102
}
330
132
100
AcDbXrecord
340
1A
  0
MLINESTYLE
  5
17
102
{ACAD_REACTORS
330
16
102
}
330
16
100
AcDbMlineStyle
  2
STANDARD
 70
     0
  3

 62
   256
 51
90.0
 52
90.0
 71
     2
 49
0.5
 62
   256
  6
BYLAYER
 49
-0.5
 62
   256
  6
BYLAYER
  0
ACDBPLACEHOLDER
  5
F
102
{ACAD_REACTORS
330
E
102
}
330
E
100
AcDbPlaceHolder
280
     0
  0
XRECORD
  5
291
102
{ACAD_REACTORS
330
287
102
}
330
287
100
AcDbXrecord
 90
        0
  0
XRECORD
  5
295
102
{ACAD_REACTORS
330
287
102
}
330
287
100
AcDbXrecord
1000
DSTYLE
1002
{
1070
   277
 70
     5
1070
   279
 70
     2
1002
}
  0
XRECORD
  5
292
102
{ACAD_REACTORS
330
287
102
}
330
287
100
AcDbXrecord
  1
{54687118-7CEC-4CE9-B151-D0EAD96611E7}
  0
XRECORD
  5
28A
102
{ACAD_REACTORS
330
287
102
}
330
287
100
AcDbXrecord
  1

  0
XRECORD
  5
290
102
{ACAD_REACTORS
330
287
102
}
330
287
100
AcDbXrecord
 90
        0
  0
XRECORD
  5
28C
102
{ACAD_REACTORS
330
287
102
}
330
287
100
AcDbXrecord
340
19
  0
XRECORD
  5
28F
102
{ACAD_REACTORS
330
287
102
}
330
287
100
AcDbXrecord
 90
    14877
  0
XRECORD
  5
28D
102
{ACAD_REACTORS
330
287
102
}
330
287
100
AcDbXrecord
340
18
  0
XRECORD
  5
28E
102
{ACAD_REACTORS
330
287
102
}
330
287
100
AcDbXrecord
340
E
  0
XRECORD
  5
294
102
{ACAD_REACTORS
330
287
102
}
330
287
100
AcDbXrecord
 40
0.0
  0
XRECORD
  5
298
102
{ACAD_REACTORS
330
287
102
}
330
287
100
AcDbXrecord
340
0
  0
XRECORD
  5
29E
102
{ACAD_REACTORS
330
287
102
}
330
287
100
AcDbXrecord
 10
0.0
 20
0.0
 30
0.0
  0
XRECORD
  5
29A
102
{ACAD_REACTORS
330
287
102
}
330
287
100
AcDbXrecord
 10
0.0
 20
0.0
 30
0.0
  0
XRECORD
  5
29D
102
{ACAD_REACTORS
330
287
102
}
330
287
100
AcDbXrecord
 10
0.0
 20
0.0
 30
0.0
  0
XRECORD
  5
29B
102
{ACAD_REACTORS
330
287
102
}
330
287
100
AcDbXrecord
 10
0.0
 20
0.0
 30
0.0
  0
XRECORD
  5
29C
102
{ACAD_REACTORS
330
287
102
}
330
287
100
AcDbXrecord
 10
0.0
 20
0.0
 30
0.0
  0
XRECORD
  5
299
102
{ACAD_REACTORS
330
287
102
}
330
287
100
AcDbXrecord
 10
0.0
 20
0.0
 30
0.0
  0
XRECORD
  5
296
102
{ACAD_REACTORS
330
287
102
}
330
287
100
AcDbXrecord
340
0
  0
XRECORD
  5
297
102
{ACAD_REACTORS
330
287
102
}
330
287
100
AcDbXrecord
 70
     0
  0
XRECORD
  5
28B
102
{ACAD_REACTORS
330
287
102
}
330
287
100
AcDbXrecord
  1

  0
XRECORD
  5
288
102
{ACAD_REACTORS
330
287
102
}
330
287
100
AcDbXrecord
 90
        1
  0
XRECORD
  5
289
102
{ACAD_REACTORS
330
287
102
}
330
287
100
AcDbXrecord
 90
       70
  0
XRECORD
  5
2A1
102
{ACAD_REACTORS
330
287
102
}
330
287
100
AcDbXrecord
340
0
  0
XRECORD
  5
2A7
102
{ACAD_REACTORS
330
287
102
}
330
287
100
AcDbXrecord
 10
0.0
 20
0.0
 30
0.0
  0
XRECORD
  5
2A3
102
{ACAD_REACTORS
330
287
102
}
330
287
100
AcDbXrecord
 10
0.0
 20
0.0
 30
0.0
  0
XRECORD
  5
2A6
102
{ACAD_REACTORS
330
287
102
}
330
287
100
AcDbXrecord
 10
0.0
 20
0.0
 30
0.0
  0
XRECORD
  5
2A4
102
{ACAD_REACTORS
330
287
102
}
330
287
100
AcDbXrecord
 10
0.0
 20
0.0
 30
0.0
  0
XRECORD
  5
2A5
102
{ACAD_REACTORS
330
287
102
}
330
287
100
AcDbXrecord
 10
0.0
 20
0.0
 30
0.0
  0
XRECORD
  5
2A2
102
{ACAD_REACTORS
330
287
102
}
330
287
100
AcDbXrecord
 10
0.0
 20
0.0
 30
0.0
  0
XRECORD
  5
29F
102
{ACAD_REACTORS
330
287
102
}
330
287
100
AcDbXrecord
340
0
  0
XRECORD
  5
2A0
102
{ACAD_REACTORS
330
287
102
}
330
287
100
AcDbXrecord
 70
     0
  0
XRECORD
  5
293
102
{ACAD_REACTORS
330
287
102
}
330
287
100
AcDbXrecord
  1
{6D449391-254D-46CD-8AF2-0DF72797682A}
  0
DICTIONARYVAR
  5
167
102
{ACAD_REACTORS
330
165
102
}
330
165
100
DictionaryVariables
280
     0
  1
2
  0
DICTIONARYVAR
  5
166
102
{ACAD_REACTORS
330
165
102
}
330
165
100
DictionaryVariables
280
     0
  1
1
  0
ENDSEC
  0
EOF
